  0
SECTION
  2
HEADER
  9
$ACADVER
  1
AC1015
  9
$ACADMAINTVER
 70
    20
  9
$DWGCODEPAGE
  3
ANSI_936
  9
$INSBASE
 10
3.666421690334891
 20
-0.4618490818429859
 30
0.0
  9
$EXTMIN
 10
-0.0818441546500424
 20
-1.133823460510782
 30
-0.0000000349181948
  9
$EXTMAX
 10
9.572759429936738
 20
1.345051014969371
 30
0.0000000814935746
  9
$LIMMIN
 10
0.0
 20
0.0
  9
$LIMMAX
 10
36.0
 20
36.0
  9
$ORTHOMODE
 70
     1
  9
$REGENMODE
 70
     1
  9
$FILLMODE
 70
     1
  9
$QTEXTMODE
 70
     0
  9
$MIRRTEXT
 70
     1
  9
$LTSCALE
 40
1.0
  9
$ATTMODE
 70
     1
  9
$TEXTSIZE
 40
0.2
  9
$TRACEWID
 40
0.05
  9
$TEXTSTYLE
  7
STANDARD
  9
$CLAYER
  8
ADP1DETAIL
  9
$CELTYPE
  6
BYLAYER
  9
$CECOLOR
 62
   256
  9
$CELTSCALE
 40
1.0
  9
$DISPSILH
 70
     0
  9
$DIMSCALE
 40
1.0
  9
$DIMASZ
 40
0.125
  9
$DIMEXO
 40
0.0625
  9
$DIMDLI
 40
0.38
  9
$DIMRND
 40
0.0
  9
$DIMDLE
 40
0.0
  9
$DIMEXE
 40
0.18
  9
$DIMTP
 40
0.0
  9
$DIMTM
 40
0.0
  9
$DIMTXT
 40
0.125
  9
$DIMCEN
 40
0.1875
  9
$DIMTSZ
 40
0.125
  9
$DIMTOL
 70
     0
  9
$DIMLIM
 70
     0
  9
$DIMTIH
 70
     0
  9
$DIMTOH
 70
     0
  9
$DIMSE1
 70
     0
  9
$DIMSE2
 70
     0
  9
$DIMTAD
 70
     0
  9
$DIMZIN
 70
     3
  9
$DIMBLK
  1

  9
$DIMASO
 70
     1
  9
$DIMSHO
 70
     1
  9
$DIMPOST
  1

  9
$DIMAPOST
  1

  9
$DIMALT
 70
     0
  9
$DIMALTD
 70
     1
  9
$DIMALTF
 40
25.4
  9
$DIMLFAC
 40
1.0
  9
$DIMTOFL
 70
     0
  9
$DIMTVP
 40
0.0
  9
$DIMTIX
 70
     0
  9
$DIMSOXD
 70
     0
  9
$DIMSAH
 70
     0
  9
$DIMBLK1
  1

  9
$DIMBLK2
  1

  9
$DIMSTYLE
  2
STANDARD
  9
$DIMCLRD
 70
     0
  9
$DIMCLRE
 70
     0
  9
$DIMCLRT
 70
     0
  9
$DIMTFAC
 40
1.0
  9
$DIMGAP
 40
0.125
  9
$DIMJUST
 70
     0
  9
$DIMSD1
 70
     0
  9
$DIMSD2
 70
     0
  9
$DIMTOLJ
 70
     1
  9
$DIMTZIN
 70
     0
  9
$DIMALTZ
 70
     0
  9
$DIMALTTZ
 70
     0
  9
$DIMUPT
 70
     0
  9
$DIMDEC
 70
     4
  9
$DIMTDEC
 70
     4
  9
$DIMALTU
 70
     2
  9
$DIMALTTD
 70
     2
  9
$DIMTXSTY
  7
STANDARD
  9
$DIMAUNIT
 70
     0
  9
$DIMADEC
 70
     0
  9
$DIMALTRND
 40
0.0
  9
$DIMAZIN
 70
     0
  9
$DIMDSEP
 70
    46
  9
$DIMATFIT
 70
     3
  9
$DIMFRAC
 70
     0
  9
$DIMLDRBLK
  1

  9
$DIMLUNIT
 70
     2
  9
$DIMLWD
 70
    -2
  9
$DIMLWE
 70
    -2
  9
$DIMTMOVE
 70
     0
  9
$LUNITS
 70
     5
  9
$LUPREC
 70
     4
  9
$SKETCHINC
 40
0.1
  9
$FILLETRAD
 40
0.06
  9
$AUNITS
 70
     0
  9
$AUPREC
 70
     0
  9
$MENU
  1
acad
  9
$ELEVATION
 40
0.0
  9
$PELEVATION
 40
0.0
  9
$THICKNESS
 40
0.0
  9
$LIMCHECK
 70
     0
  9
$CHAMFERA
 40
0.0
  9
$CHAMFERB
 40
0.0
  9
$CHAMFERC
 40
0.0
  9
$CHAMFERD
 40
0.0
  9
$SKPOLY
 70
     0
  9
$TDCREATE
 40
2450350.157799769
  9
$TDUCREATE
 40
2450350.366133102
  9
$TDUPDATE
 40
2455238.878070278
  9
$TDUUPDATE
 40
2455239.086403611
  9
$TDINDWG
 40
0.0434110648
  9
$TDUSRTIMER
 40
0.0434110648
  9
$USRTIMER
 70
     1
  9
$ANGBASE
 50
0.0
  9
$ANGDIR
 70
     0
  9
$PDMODE
 70
     0
  9
$PDSIZE
 40
0.0
  9
$PLINEWID
 40
0.0
  9
$SPLFRAME
 70
     0
  9
$SPLINETYPE
 70
     6
  9
$SPLINESEGS
 70
     8
  9
$HANDSEED
  5
875
  9
$SURFTAB1
 70
     6
  9
$SURFTAB2
 70
     6
  9
$SURFTYPE
 70
     6
  9
$SURFU
 70
     6
  9
$SURFV
 70
     6
  9
$UCSBASE
  2

  9
$UCSNAME
  2

  9
$UCSORG
 10
0.0
 20
0.0
 30
0.0
  9
$UCSXDIR
 10
1.0
 20
0.0
 30
0.0
  9
$UCSYDIR
 10
0.0
 20
1.0
 30
0.0
  9
$UCSORTHOREF
  2

  9
$UCSORTHOVIEW
 70
     0
  9
$UCSORGTOP
 10
0.0
 20
0.0
 30
0.0
  9
$UCSORGBOTTOM
 10
0.0
 20
0.0
 30
0.0
  9
$UCSORGLEFT
 10
0.0
 20
0.0
 30
0.0
  9
$UCSORGRIGHT
 10
0.0
 20
0.0
 30
0.0
  9
$UCSORGFRONT
 10
0.0
 20
0.0
 30
0.0
  9
$UCSORGBACK
 10
0.0
 20
0.0
 30
0.0
  9
$PUCSBASE
  2

  9
$PUCSNAME
  2

  9
$PUCSORG
 10
0.0
 20
0.0
 30
0.0
  9
$PUCSXDIR
 10
1.0
 20
0.0
 30
0.0
  9
$PUCSYDIR
 10
0.0
 20
1.0
 30
0.0
  9
$PUCSORTHOREF
  2

  9
$PUCSORTHOVIEW
 70
     0
  9
$PUCSORGTOP
 10
0.0
 20
0.0
 30
0.0
  9
$PUCSORGBOTTOM
 10
0.0
 20
0.0
 30
0.0
  9
$PUCSORGLEFT
 10
0.0
 20
0.0
 30
0.0
  9
$PUCSORGRIGHT
 10
0.0
 20
0.0
 30
0.0
  9
$PUCSORGFRONT
 10
0.0
 20
0.0
 30
0.0
  9
$PUCSORGBACK
 10
0.0
 20
0.0
 30
0.0
  9
$USERI1
 70
     0
  9
$USERI2
 70
     0
  9
$USERI3
 70
     0
  9
$USERI4
 70
     0
  9
$USERI5
 70
     0
  9
$USERR1
 40
0.0
  9
$USERR2
 40
0.0
  9
$USERR3
 40
0.0
  9
$USERR4
 40
0.0
  9
$USERR5
 40
0.0
  9
$WORLDVIEW
 70
     1
  9
$SHADEDGE
 70
     3
  9
$SHADEDIF
 70
    70
  9
$TILEMODE
 70
     1
  9
$MAXACTVP
 70
    15
  9
$PINSBASE
 10
0.0
 20
0.0
 30
0.0
  9
$PLIMCHECK
 70
     0
  9
$PEXTMIN
 10
1.000000000000000E+20
 20
1.000000000000000E+20
 30
1.000000000000000E+20
  9
$PEXTMAX
 10
-1.000000000000000E+20
 20
-1.000000000000000E+20
 30
-1.000000000000000E+20
  9
$PLIMMIN
 10
0.0
 20
0.0
  9
$PLIMMAX
 10
12.0
 20
9.0
  9
$UNITMODE
 70
     0
  9
$VISRETAIN
 70
     0
  9
$PLINEGEN
 70
     0
  9
$PSLTSCALE
 70
     1
  9
$TREEDEPTH
 70
  3020
  9
$CMLSTYLE
  2
STANDARD
  9
$CMLJUST
 70
     0
  9
$CMLSCALE
 40
1.0
  9
$PROXYGRAPHICS
 70
     1
  9
$MEASUREMENT
 70
     0
  9
$CELWEIGHT
370
    -1
  9
$ENDCAPS
280
     0
  9
$JOINSTYLE
280
     0
  9
$LWDISPLAY
290
     0
  9
$INSUNITS
 70
     0
  9
$HYPERLINKBASE
  1

  9
$STYLESHEET
  1

  9
$XEDIT
290
     1
  9
$CEPSNTYPE
380
     0
  9
$PSTYLEMODE
290
     1
  9
$FINGERPRINTGUID
  2
{2011480C-793A-4786-AE92-1FB6B8D14116}
  9
$VERSIONGUID
  2
{7B9E2A4D-C36B-4896-A4CE-B89A5887BB28}
  9
$EXTNAMES
290
     1
  9
$PSVPSCALE
 40
0.0
  9
$OLESTARTUP
290
     0
  0
ENDSEC
  0
SECTION
  2
CLASSES
  0
CLASS
  1
ACDBDICTIONARYWDFLT
  2
AcDbDictionaryWithDefault
  3
ObjectDBX Classes
 90
        0
280
     0
281
     0
  0
CLASS
  1
ACDBPLACEHOLDER
  2
AcDbPlaceHolder
  3
ObjectDBX Classes
 90
        0
280
     0
281
     0
  0
CLASS
  1
LAYOUT
  2
AcDbLayout
  3
ObjectDBX Classes
 90
        0
280
     0
281
     0
  0
CLASS
  1
DICTIONARYVAR
  2
AcDbDictionaryVar
  3
ObjectDBX Classes
 90
        0
280
     0
281
     0
  0
CLASS
  1
MATERIAL
  2
AcDbMaterial
  3
ObjectDBX Classes
 90
     1024
280
     0
281
     0
  0
CLASS
  1
VISUALSTYLE
  2
AcDbVisualStyle
  3
ObjectDBX Classes
 90
     4095
280
     0
281
     0
  0
CLASS
  1
TABLESTYLE
  2
AcDbTableStyle
  3
ObjectDBX Classes
 90
     4095
280
     0
281
     0
  0
CLASS
  1
ACAD_EVALUATION_GRAPH
  2
AcDbEvalGraph
  3
ObjectDBX Classes
 90
    33921
280
     0
281
     0
  0
CLASS
  1
ACAECUSTOBJ
  2
AcAeEditorObj
  3
AcAeEditorObj
 90
    33792
280
     0
281
     0
  0
CLASS
  1
ACDB_DYNAMICBLOCKPURGEPREVENTER_VERSION
  2
AcDbDynamicBlockPurgePreventer
  3
ObjectDBX Classes
 90
    33921
280
     0
281
     0
  0
ENDSEC
  0
SECTION
  2
TABLES
  0
TABLE
  2
VPORT
  5
8
102
{ACAD_XDICTIONARY
360
1F1
102
}
330
0
100
AcDbSymbolTable
 70
     1
  0
VPORT
  5
17D
330
8
100
AcDbSymbolTableRecord
100
AcDbViewportTableRecord
  2
*Active
 70
     0
 10
0.0
 20
0.0
 11
1.0
 21
1.0
 12
4.745457637643347
 22
0.1056137772292942
 13
0.0
 23
0.0
 14
0.5740882589684922
 24
0.5740882589684922
 15
0.5
 25
0.5
 16
0.0
 26
0.0
 36
1.0
 17
0.0
 27
0.0
 37
0.0
 40
4.259942724638715
 41
2.277467411545623
 42
50.0
 43
0.0
 44
0.0
 50
0.0
 51
0.0
 71
     0
 72
   100
 73
     1
 74
     1
 75
     0
 76
     0
 77
     0
 78
     0
281
     0
 65
     1
110
0.0
120
0.0
130
0.0
111
1.0
121
0.0
131
0.0
112
0.0
122
1.0
132
0.0
 79
     0
146
0.0
  0
ENDTAB
  0
TABLE
  2
LTYPE
  5
5
330
0
100
AcDbSymbolTable
 70
    18
  0
LTYPE
  5
12
330
5
100
AcDbSymbolTableRecord
100
AcDbLinetypeTableRecord
  2
BYBLOCK
 70
     0
  3

 72
    65
 73
     0
 40
0.0
  0
LTYPE
  5
13
330
5
100
AcDbSymbolTableRecord
100
AcDbLinetypeTableRecord
  2
BYLAYER
 70
     0
  3

 72
    65
 73
     0
 40
0.0
  0
LTYPE
  5
14
330
5
100
AcDbSymbolTableRecord
100
AcDbLinetypeTableRecord
  2
CONTINUOUS
 70
     0
  3
Solid line
 72
    65
 73
     0
 40
0.0
  0
LTYPE
  5
36D
330
5
100
AcDbSymbolTableRecord
100
AcDbLinetypeTableRecord
  2
AI-Linetype-1
 70
     0
  3
Adobe Illustrator Linetype No. 1
 72
    65
 73
     2
 40
0.0555555921913822
 49
0.0277777960956911
 74
     0
 49
-0.0277777960956911
 74
     0
  0
LTYPE
  5
36E
330
5
100
AcDbSymbolTableRecord
100
AcDbLinetypeTableRecord
  2
AI-Linetype-5
 70
     0
  3
Adobe Illustrator Linetype No. 5
 72
    65
 73
     2
 40
0.0555555921913822
 49
0.0277777960956911
 74
     0
 49
-0.0277777960956911
 74
     0
  0
LTYPE
  5
36F
330
5
100
AcDbSymbolTableRecord
100
AcDbLinetypeTableRecord
  2
AI-Linetype-6
 70
     0
  3
Adobe Illustrator Linetype No. 6
 72
    65
 73
     2
 40
0.0555555921913822
 49
0.0277777960956911
 74
     0
 49
-0.0277777960956911
 74
     0
  0
LTYPE
  5
3EA
330
5
100
AcDbSymbolTableRecord
100
AcDbLinetypeTableRecord
  2
AI-Linetype-2
 70
     0
  3
Adobe Illustrator Linetype No. 2
 72
    65
 73
     2
 40
3.959999918937683
 49
2.375999927520751
 74
     0
 49
-1.583999991416931
 74
     0
  0
LTYPE
  5
3EB
330
5
100
AcDbSymbolTableRecord
100
AcDbLinetypeTableRecord
  2
AI-Linetype-3
 70
     0
  3
Adobe Illustrator Linetype No. 3
 72
    65
 73
     2
 40
3.959999918937683
 49
2.375999927520751
 74
     0
 49
-1.583999991416931
 74
     0
  0
LTYPE
  5
3EC
330
5
100
AcDbSymbolTableRecord
100
AcDbLinetypeTableRecord
  2
AI-Linetype-4
 70
     0
  3
Adobe Illustrator Linetype No. 4
 72
    65
 73
     2
 40
3.959999918937683
 49
2.375999927520751
 74
     0
 49
-1.583999991416931
 74
     0
  0
LTYPE
  5
3ED
330
5
100
AcDbSymbolTableRecord
100
AcDbLinetypeTableRecord
  2
AI-Linetype-7
 70
     0
  3
Adobe Illustrator Linetype No. 7
 72
    65
 73
     2
 40
3.959999918937683
 49
2.375999927520751
 74
     0
 49
-1.583999991416931
 74
     0
  0
LTYPE
  5
3EE
330
5
100
AcDbSymbolTableRecord
100
AcDbLinetypeTableRecord
  2
AI-Linetype-8
 70
     0
  3
Adobe Illustrator Linetype No. 8
 72
    65
 73
     2
 40
3.959999918937683
 49
2.375999927520751
 74
     0
 49
-1.583999991416931
 74
     0
  0
LTYPE
  5
3EF
330
5
100
AcDbSymbolTableRecord
100
AcDbLinetypeTableRecord
  2
AI-Linetype-9
 70
     0
  3
Adobe Illustrator Linetype No. 9
 72
    65
 73
     2
 40
3.959999918937683
 49
2.375999927520751
 74
     0
 49
-1.583999991416931
 74
     0
  0
LTYPE
  5
3F0
330
5
100
AcDbSymbolTableRecord
100
AcDbLinetypeTableRecord
  2
AI-Linetype-10
 70
     0
  3
Adobe Illustrator Linetype No. 10
 72
    65
 73
     2
 40
3.959999918937683
 49
2.375999927520751
 74
     0
 49
-1.583999991416931
 74
     0
  0
LTYPE
  5
3F1
330
5
100
AcDbSymbolTableRecord
100
AcDbLinetypeTableRecord
  2
AI-Linetype-11
 70
     0
  3
Adobe Illustrator Linetype No. 11
 72
    65
 73
     2
 40
3.959999918937683
 49
2.375999927520751
 74
     0
 49
-1.583999991416931
 74
     0
  0
LTYPE
  5
3F2
330
5
100
AcDbSymbolTableRecord
100
AcDbLinetypeTableRecord
  2
AI-Linetype-12
 70
     0
  3
Adobe Illustrator Linetype No. 12
 72
    65
 73
     2
 40
3.959999918937683
 49
2.375999927520751
 74
     0
 49
-1.583999991416931
 74
     0
  0
LTYPE
  5
3F3
330
5
100
AcDbSymbolTableRecord
100
AcDbLinetypeTableRecord
  2
AI-Linetype-13
 70
     0
  3
Adobe Illustrator Linetype No. 13
 72
    65
 73
     2
 40
3.959999918937683
 49
2.375999927520751
 74
     0
 49
-1.583999991416931
 74
     0
  0
LTYPE
  5
3F4
330
5
100
AcDbSymbolTableRecord
100
AcDbLinetypeTableRecord
  2
AI-Linetype-14
 70
     0
  3
Adobe Illustrator Linetype No. 14
 72
    65
 73
     2
 40
3.959999918937683
 49
2.375999927520751
 74
     0
 49
-1.583999991416931
 74
     0
  0
LTYPE
  5
3F5
330
5
100
AcDbSymbolTableRecord
100
AcDbLinetypeTableRecord
  2
AI-Linetype-15
 70
     0
  3
Adobe Illustrator Linetype No. 15
 72
    65
 73
     2
 40
3.959999918937683
 49
2.375999927520751
 74
     0
 49
-1.583999991416931
 74
     0
  0
LTYPE
  5
3F6
330
5
100
AcDbSymbolTableRecord
100
AcDbLinetypeTableRecord
  2
AI-Linetype-16
 70
     0
  3
Adobe Illustrator Linetype No. 16
 72
    65
 73
     2
 40
3.959999918937683
 49
2.375999927520751
 74
     0
 49
-1.583999991416931
 74
     0
  0
LTYPE
  5
3F7
330
5
100
AcDbSymbolTableRecord
100
AcDbLinetypeTableRecord
  2
AI-Linetype-17
 70
     0
  3
Adobe Illustrator Linetype No. 17
 72
    65
 73
     2
 40
3.959999918937683
 49
2.375999927520751
 74
     0
 49
-1.583999991416931
 74
     0
  0
ENDTAB
  0
TABLE
  2
LAYER
  5
2
330
0
100
AcDbSymbolTable
 70
     5
  0
LAYER
  5
F
330
2
100
AcDbSymbolTableRecord
100
AcDbLayerTableRecord
  2
0
 70
     0
 62
     7
  6
CONTINUOUS
370
    -3
390
61
  0
LAYER
  5
22
330
2
100
AcDbSymbolTableRecord
100
AcDbLayerTableRecord
  2
ADPDIM
 70
     0
 62
     3
  6
CONTINUOUS
370
    -3
390
61
  0
LAYER
  5
23
330
2
100
AcDbSymbolTableRecord
100
AcDbLayerTableRecord
  2
ADP1DETAIL
 70
     0
 62
     7
  6
CONTINUOUS
370
    -3
390
61
  0
LAYER
  5
24
330
2
100
AcDbSymbolTableRecord
100
AcDbLayerTableRecord
  2
DEFPOINTS
 70
     0
 62
     7
  6
CONTINUOUS
290
     0
370
    -3
390
61
  0
LAYER
  5
370
330
2
100
AcDbSymbolTableRecord
100
AcDbLayerTableRecord
  2
Layer 1
 70
     0
 62
     7
  6
CONTINUOUS
370
    -3
390
61
  0
ENDTAB
  0
TABLE
  2
STYLE
  5
3
330
0
100
AcDbSymbolTable
 70
     2
  0
STYLE
  5
10
330
3
100
AcDbSymbolTableRecord
100
AcDbTextStyleTableRecord
  2
STANDARD
 70
     0
 40
0.0
 41
1.0
 50
0.0
 71
     0
 42
0.2
  3
txt
  4

  0
STYLE
  5
68
330
3
100
AcDbSymbolTableRecord
100
AcDbTextStyleTableRecord
  2
ARIAL_WIDE
 70
     0
 40
0.0
 41
1.25
 50
0.0
 71
     0
 42
0.2
  3
arial.ttf
  4

1001
ACAD
1000
Arial
1071
       34
  0
ENDTAB
  0
TABLE
  2
VIEW
  5
6
330
0
100
AcDbSymbolTable
 70
     0
  0
ENDTAB
  0
TABLE
  2
UCS
  5
7
330
0
100
AcDbSymbolTable
 70
     0
  0
ENDTAB
  0
TABLE
  2
APPID
  5
9
330
0
100
AcDbSymbolTable
 70
     5
  0
APPID
  5
11
330
9
100
AcDbSymbolTableRecord
100
AcDbRegAppTableRecord
  2
ACAD
 70
     0
  0
APPID
  5
371
330
9
100
AcDbSymbolTableRecord
100
AcDbRegAppTableRecord
  2
AcDbDynamicBlockGUID
 70
     0
  0
APPID
  5
372
330
9
100
AcDbSymbolTableRecord
100
AcDbRegAppTableRecord
  2
AcDbBlockRepETag
 70
     0
  0
APPID
  5
3C9
330
9
100
AcDbSymbolTableRecord
100
AcDbRegAppTableRecord
  2
ACAUTHENVIRON
 70
     0
  0
APPID
  5
3CC
330
9
100
AcDbSymbolTableRecord
100
AcDbRegAppTableRecord
  2
AcDbDynamicBlockTrueName
 70
     0
  0
ENDTAB
  0
TABLE
  2
DIMSTYLE
  5
A
330
0
100
AcDbSymbolTable
 70
     1
100
AcDbDimStyleTable
 71
     1
340
5C
  0
DIMSTYLE
105
5C
102
{ACAD_REACTORS
330
1D2
330
38D
102
}
330
A
100
AcDbSymbolTableRecord
100
AcDbDimStyleTableRecord
  2
STANDARD
 70
     0
340
10
  0
ENDTAB
  0
TABLE
  2
BLOCK_RECORD
  5
1
330
0
100
AcDbSymbolTable
 70
    11
  0
BLOCK_RECORD
  5
18
102
{ACAD_XDICTIONARY
360
BD
102
}
330
1
100
AcDbSymbolTableRecord
100
AcDbBlockTableRecord
  2
*MODEL_SPACE
340
64
  0
BLOCK_RECORD
  5
15
102
{ACAD_XDICTIONARY
360
BB
102
}
330
1
100
AcDbSymbolTableRecord
100
AcDbBlockTableRecord
  2
*PAPER_SPACE
340
65
  0
BLOCK_RECORD
  5
1D3
330
1
100
AcDbSymbolTableRecord
100
AcDbBlockTableRecord
  2
*D1
340
0
  0
BLOCK_RECORD
  5
20E
102
{ACAD_XDICTIONARY
360
3C8
102
}
330
1
100
AcDbSymbolTableRecord
100
AcDbBlockTableRecord
  2
block 2
340
0
1001
AcDbDynamicBlockGUID
1000
{2DD9DB0B-1C2F-41C8-ACF0-0380B1F1FE9E}
1001
AcDbBlockRepETag
1070
     1
1071
        7
  0
BLOCK_RECORD
  5
232
330
1
100
AcDbSymbolTableRecord
100
AcDbBlockTableRecord
  2
block 3
340
0
102
{BLKREFS
331
3C2
102
}
  0
BLOCK_RECORD
  5
38E
330
1
100
AcDbSymbolTableRecord
100
AcDbBlockTableRecord
  2
*D4
340
0
  0
BLOCK_RECORD
  5
825
330
1
100
AcDbSymbolTableRecord
100
AcDbBlockTableRecord
  2
*D8
340
0
  0
BLOCK_RECORD
  5
839
330
1
100
AcDbSymbolTableRecord
100
AcDbBlockTableRecord
  2
*D10
340
0
  0
ENDTAB
  0
ENDSEC
  0
SECTION
  2
BLOCKS
  0
BLOCK
  5
27
330
18
100
AcDbEntity
  8
0
100
AcDbBlockBegin
  2
*MODEL_SPACE
 70
     0
 10
0.0
 20
0.0
 30
0.0
  3
*MODEL_SPACE
  1

  0
ENDBLK
  5
28
330
18
100
AcDbEntity
  8
0
100
AcDbBlockEnd
  0
BLOCK
  5
25
330
15
100
AcDbEntity
 67
     1
  8
0
100
AcDbBlockBegin
  2
*PAPER_SPACE
 70
     0
 10
0.0
 20
0.0
 30
0.0
  3
*PAPER_SPACE
  1

  0
ENDBLK
  5
26
330
15
100
AcDbEntity
 67
     1
  8
0
100
AcDbBlockEnd
  0
BLOCK
  5
1DE
330
1D3
100
AcDbEntity
  8
0
 62
     3
100
AcDbBlockBegin
  2
*D1
 70
     1
 10
0.0
 20
0.0
 30
0.0
  3
*D1
  1

  0
LINE
  5
1D4
330
1D3
100
AcDbEntity
  8
ADPDIM
 62
     0
370
    -2
100
AcDbLine
 10
3.253921690334891
 20
1.218150918157014
 30
0.0
 11
2.197225868716252
 21
1.218150918157014
 31
0.0
  0
LINE
  5
1D5
330
1D3
100
AcDbEntity
  8
ADPDIM
 62
     0
370
    -2
100
AcDbLine
 10
3.253921690334891
 20
-0.4418490818429857
 30
0.0
 11
2.197225868716252
 21
-0.4418490818429854
 31
0.0
  0
LINE
  5
1D6
330
1D3
100
AcDbEntity
  8
ADPDIM
 62
     0
370
    -2
100
AcDbLine
 10
2.377225868716252
 20
1.218150918157014
 30
0.0
 11
2.377225868716251
 21
0.7839842514903476
 31
0.0
  0
LINE
  5
1D7
330
1D3
100
AcDbEntity
  8
ADPDIM
 62
     0
370
    -2
100
AcDbLine
 10
2.377225868716251
 20
-0.4418490818429854
 30
0.0
 11
2.377225868716251
 21
-0.007682415176319
 31
0.0
  0
LINE
  5
1D8
330
1D3
100
AcDbEntity
  8
ADPDIM
 62
     0
370
    -2
100
AcDbLine
 10
2.502225868716251
 20
-0.5668490818429854
 30
0.0
 11
2.252225868716251
 21
-0.3168490818429854
 31
0.0
  0
LINE
  5
1D9
330
1D3
100
AcDbEntity
  8
ADPDIM
 62
     0
370
    -2
100
AcDbLine
 10
2.502225868716252
 20
1.093150918157014
 30
0.0
 11
2.252225868716252
 21
1.343150918157014
 31
0.0
  0
MTEXT
  5
1DA
330
1D3
100
AcDbEntity
  8
ADPDIM
 62
     0
100
AcDbMText
 10
2.377225868716251
 20
0.3881509181570148
 30
0.0
 40
0.125
 41
0.0
 71
     5
 72
     1
  1
\A1;1.6600
 11
0.0000000000000001
 21
1.0
 31
0.0
 73
     1
 44
1.0
1001
ACAD
1000
MTEXTBEGIN
1070
    73
1070
     1
1070
    44
1040
1.0
1070
    74
1070
     0
1000
MTEXTEND
  0
POINT
  5
1DB
330
1D3
100
AcDbEntity
  8
DEFPOINTS
 62
     0
100
AcDbPoint
 10
3.316421690334891
 20
1.218150918157014
 30
0.0
  0
POINT
  5
1DC
330
1D3
100
AcDbEntity
  8
DEFPOINTS
 62
     0
100
AcDbPoint
 10
3.316421690334891
 20
-0.4418490818429857
 30
0.0
  0
POINT
  5
1DD
330
1D3
100
AcDbEntity
  8
DEFPOINTS
 62
     0
100
AcDbPoint
 10
2.377225868716251
 20
-0.4418490818429854
 30
0.0
  0
ENDBLK
  5
1DF
330
1D3
100
AcDbEntity
  8
0
 62
     3
100
AcDbBlockEnd
  0
BLOCK
  5
210
330
20E
100
AcDbEntity
  8
0
100
AcDbBlockBegin
  2
block 2
 70
     0
 10
0.0
 20
0.0
 30
0.0
  3
block 2
  1

  0
SPLINE
  5
3A8
330
20E
100
AcDbEntity
  8
Layer 1
 62
     7
370
    18
100
AcDbSpline
210
0.0
220
0.0
230
1.0
 70
     8
 71
     3
 72
    20
 73
    16
 74
     0
 42
0.0000000001
 43
0.0000000001
 40
0.0
 40
0.0
 40
0.0
 40
0.0
 40
1.0
 40
1.0
 40
1.0
 40
2.0
 40
2.0
 40
2.0
 40
3.0
 40
3.0
 40
3.0
 40
4.0
 40
4.0
 40
4.0
 40
5.0
 40
5.0
 40
5.0
 40
5.0
 10
2.486112750564352
 20
8.844020317817149
 30
0.0
 10
2.486112750564352
 20
8.346122311529686
 30
0.0
 10
2.649253049118538
 20
8.072006462362734
 30
0.0
 10
2.661276982828904
 20
8.072006462362734
 30
0.0
 10
2.761842641594286
 20
8.072006462362734
 30
0.0
 10
2.767485006426223
 20
8.013521180739385
 30
0.0
 10
2.767485006426223
 20
8.013521180739385
 30
0.0
 10
2.767485006426223
 20
8.013521180739385
 30
0.0
 10
2.767485006426223
 20
9.673522546685424
 30
0.0
 10
2.767485006426223
 20
9.673522546685424
 30
0.0
 10
2.767485006426223
 20
9.673522546685424
 30
0.0
 10
2.74617694115946
 20
9.61730234902105
 30
0.0
 10
2.661276982828904
 20
9.61730234902105
 30
0.0
 10
2.649042816775041
 20
9.598910409809255
 30
0.0
 10
2.486112750564352
 20
9.340948542649122
 30
0.0
 10
2.486112750564352
 20
8.84302340960766
 30
0.0
1001
AcDbBlockRepETag
1070
     1
1071
        0
1005
3A8
  0
POLYLINE
  5
3A9
330
20E
100
AcDbEntity
  8
Layer 1
 62
     7
370
    18
100
AcDb2dPolyline
 66
     1
 10
0.0
 20
0.0
 30
0.0
1001
AcDbBlockRepETag
1070
     1
1071
        1
1005
3A9
  0
VERTEX
  5
3AA
330
3A9
100
AcDbEntity
  8
Layer 1
 62
     7
370
    18
100
AcDbVertex
100
AcDb2dVertex
 10
4.203412602646255
 20
9.533521369292982
 30
0.0
  0
VERTEX
  5
3AB
330
3A9
100
AcDbEntity
  8
Layer 1
 62
     7
370
    18
100
AcDbVertex
100
AcDb2dVertex
 10
3.236113245148012
 20
9.533521369292982
 30
0.0
  0
VERTEX
  5
3AC
330
3A9
100
AcDbEntity
  8
Layer 1
 62
     7
370
    18
100
AcDbVertex
100
AcDb2dVertex
 10
3.236113245148012
 20
8.153515576443327
 30
0.0
  0
VERTEX
  5
3AD
330
3A9
100
AcDbEntity
  8
Layer 1
 62
     7
370
    18
100
AcDbVertex
100
AcDb2dVertex
 10
4.203412602646255
 20
8.153515576443327
 30
0.0
  0
VERTEX
  5
3AE
330
3A9
100
AcDbEntity
  8
Layer 1
 62
     7
370
    18
100
AcDbVertex
100
AcDb2dVertex
 10
4.233821693879917
 20
8.167418037868173
 30
0.0
  0
VERTEX
  5
3AF
330
3A9
100
AcDbEntity
  8
Layer 1
 62
     7
370
    18
100
AcDbVertex
100
AcDb2dVertex
 10
4.233821693879917
 20
8.785596071390298
 30
0.0
  0
VERTEX
  5
3B0
330
3A9
100
AcDbEntity
  8
Layer 1
 62
     7
370
    18
100
AcDbVertex
100
AcDb2dVertex
 10
4.233821693879917
 20
8.901406965903511
 30
0.0
  0
VERTEX
  5
3B1
330
3A9
100
AcDbEntity
  8
Layer 1
 62
     7
370
    18
100
AcDbVertex
100
AcDb2dVertex
 10
4.233821693879917
 20
9.519618907868135
 30
0.0
  0
VERTEX
  5
3B2
330
3A9
100
AcDbEntity
  8
Layer 1
 62
     7
370
    18
100
AcDbVertex
100
AcDb2dVertex
 10
4.203412602646255
 20
9.533521369292982
 30
0.0
  0
SEQEND
  5
3B3
330
3A9
100
AcDbEntity
  8
Layer 1
370
    18
  0
POLYLINE
  5
3B4
330
20E
100
AcDbEntity
  8
Layer 1
 62
     7
370
    18
100
AcDb2dPolyline
 66
     1
 10
0.0
 20
0.0
 30
0.0
1001
AcDbBlockRepETag
1070
     1
1071
        2
1005
3B4
  0
VERTEX
  5
3B5
330
3B4
100
AcDbEntity
  8
Layer 1
 62
     7
370
    18
100
AcDbVertex
100
AcDb2dVertex
 10
2.767485006426223
 20
8.013521180739385
 30
0.0
  0
VERTEX
  5
3B6
330
3B4
100
AcDbEntity
  8
Layer 1
 62
     7
370
    18
100
AcDbVertex
100
AcDb2dVertex
 10
3.236113245148012
 20
8.013521180739385
 30
0.0
  0
VERTEX
  5
3B7
330
3B4
100
AcDbEntity
  8
Layer 1
 62
     7
370
    18
100
AcDbVertex
100
AcDb2dVertex
 10
3.236113245148012
 20
9.673522546685424
 30
0.0
  0
VERTEX
  5
3B8
330
3B4
100
AcDbEntity
  8
Layer 1
 62
     7
370
    18
100
AcDbVertex
100
AcDb2dVertex
 10
2.767485006426223
 20
9.673522546685424
 30
0.0
  0
VERTEX
  5
3B9
330
3B4
100
AcDbEntity
  8
Layer 1
 62
     7
370
    18
100
AcDbVertex
100
AcDb2dVertex
 10
2.767485006426223
 20
8.013521180739385
 30
0.0
  0
SEQEND
  5
3BA
330
3B4
100
AcDbEntity
  8
Layer 1
370
    18
  0
POLYLINE
  5
3BB
330
20E
100
AcDbEntity
  8
Layer 1
 62
     7
370
    18
100
AcDb2dPolyline
 66
     1
 10
0.0
 20
0.0
 30
0.0
1001
AcDbBlockRepETag
1070
     1
1071
        3
1005
3BB
  0
VERTEX
  5
3BC
330
3BB
100
AcDbEntity
  8
Layer 1
 62
     7
370
    18
100
AcDbVertex
100
AcDb2dVertex
 10
2.767485006426223
 20
8.013521180739385
 30
0.0
  0
VERTEX
  5
3BD
330
3BB
100
AcDbEntity
  8
Layer 1
 62
     7
370
    18
100
AcDbVertex
100
AcDb2dVertex
 10
2.903322227079713
 20
8.013521180739385
 30
0.0
  0
VERTEX
  5
3BE
330
3BB
100
AcDbEntity
  8
Layer 1
 62
     7
370
    18
100
AcDbVertex
100
AcDb2dVertex
 10
2.903322227079713
 20
9.673522546685424
 30
0.0
  0
VERTEX
  5
3BF
330
3BB
100
AcDbEntity
  8
Layer 1
 62
     7
370
    18
100
AcDbVertex
100
AcDb2dVertex
 10
2.767485006426223
 20
9.673522546685424
 30
0.0
  0
VERTEX
  5
3C0
330
3BB
100
AcDbEntity
  8
Layer 1
 62
     7
370
    18
100
AcDbVertex
100
AcDb2dVertex
 10
2.767485006426223
 20
8.013521180739385
 30
0.0
  0
SEQEND
  5
3C1
330
3BB
100
AcDbEntity
  8
Layer 1
370
    18
  0
INSERT
  5
3C2
330
20E
100
AcDbEntity
  8
Layer 1
100
AcDbBlockReference
  2
block 3
 10
0.0
 20
0.0
 30
0.0
1001
AcDbBlockRepETag
1070
     1
1071
        4
1005
3C2
  0
POLYLINE
  5
3C3
330
20E
100
AcDbEntity
  8
Layer 1
 62
     7
370
    18
100
AcDb2dPolyline
 66
     1
 10
0.0
 20
0.0
 30
0.0
1001
AcDbBlockRepETag
1070
     1
1071
        5
1005
3C3
  0
VERTEX
  5
3C4
330
3C3
100
AcDbEntity
  8
Layer 1
 62
     7
370
    18
100
AcDbVertex
100
AcDb2dVertex
 10
4.203412602646255
 20
9.533528150981481
 30
0.0
  0
VERTEX
  5
3C5
330
3C3
100
AcDbEntity
  8
Layer 1
 62
     7
370
    18
100
AcDbVertex
100
AcDb2dVertex
 10
4.203412602646255
 20
8.153522358131828
 30
0.0
  0
SEQEND
  5
3C6
330
3C3
100
AcDbEntity
  8
Layer 1
370
    18
  0
SPLINE
  5
3C7
330
20E
100
AcDbEntity
  8
ADP1DETAIL
  6
AI-Linetype-1
 62
     5
370
    18
100
AcDbSpline
210
0.0
220
0.0
230
1.0
 70
     8
 71
     3
 72
    29
 73
    25
 74
     0
 42
0.0000000001
 43
0.0000000001
 40
0.0
 40
0.0
 40
0.0
 40
0.0
 40
1.0
 40
1.0
 40
1.0
 40
2.0
 40
2.0
 40
2.0
 40
3.0
 40
3.0
 40
3.0
 40
4.0
 40
4.0
 40
4.0
 40
5.0
 40
5.0
 40
5.0
 40
6.0
 40
6.0
 40
6.0
 40
7.0
 40
7.0
 40
7.0
 40
8.0
 40
8.0
 40
8.0
 40
8.0
 10
4.233821693879917
 20
8.264619979137592
 30
0.0
 10
4.233821693879917
 20
8.264619979137592
 30
0.0
 10
4.203412602646255
 20
8.278522440562438
 30
0.0
 10
4.203412602646255
 20
8.278522440562438
 30
0.0
 10
4.203412602646255
 20
8.278522440562438
 30
0.0
 10
3.236113245148012
 20
8.278522440562438
 30
0.0
 10
3.236113245148012
 20
8.278522440562438
 30
0.0
 10
3.236113245148012
 20
8.278515658873937
 30
0.0
 10
3.236113245148012
 20
8.405489212658025
 30
0.0
 10
3.236113245148012
 20
8.405489212658025
 30
0.0
 10
3.236113245148012
 20
8.405489212658025
 30
0.0
 10
3.159724305884862
 20
8.557419380121835
 30
0.0
 10
3.159724305884862
 20
8.843525254556654
 30
0.0
 10
3.159724305884862
 20
9.129631128991473
 30
0.0
 10
3.236113245148012
 20
9.281547733078284
 30
0.0
 10
3.236113245148012
 20
9.281547733078284
 30
0.0
 10
3.236113245148012
 20
9.281547733078284
 30
0.0
 10
3.236113245148012
 20
9.408521286862372
 30
0.0
 10
3.236113245148012
 20
9.408528068550872
 30
0.0
 10
3.236113245148012
 20
9.408521286862372
 30
0.0
 10
4.203412602646255
 20
9.408521286862372
 30
0.0
 10
4.203412602646255
 20
9.408521286862372
 30
0.0
 10
4.203412602646255
 20
9.408521286862372
 30
0.0
 10
4.233821693879917
 20
9.422423748287217
 30
0.0
 10
4.233821693879917
 20
9.422430529975716
 30
0.0
1001
AcDbBlockRepETag
1070
     1
1071
        6
1005
3C7
  0
ENDBLK
  5
231
330
20E
100
AcDbEntity
  8
0
100
AcDbBlockEnd
  0
BLOCK
  5
233
330
232
100
AcDbEntity
  8
0
100
AcDbBlockBegin
  2
block 3
 70
     0
 10
0.0
 20
0.0
 30
0.0
  3
block 3
  1

  0
POLYLINE
  5
234
330
232
100
AcDbEntity
  8
Layer 1
 62
     7
370
    18
100
AcDb2dPolyline
 66
     1
 10
0.0
 20
0.0
 30
0.0
  0
VERTEX
  5
235
330
234
100
AcDbEntity
  8
Layer 1
 62
     7
370
    18
100
AcDbVertex
100
AcDb2dVertex
 10
3.893035065070207
 20
9.533528150981481
 30
0.0
  0
VERTEX
  5
236
330
234
100
AcDbEntity
  8
Layer 1
 62
     7
370
    18
100
AcDbVertex
100
AcDb2dVertex
 10
3.51771607841888
 20
9.533528150981481
 30
0.0
  0
SEQEND
  5
237
330
234
100
AcDbEntity
  8
Layer 1
370
    18
  0
POLYLINE
  5
238
330
232
100
AcDbEntity
  8
Layer 1
 62
     7
370
    18
100
AcDb2dPolyline
 66
     1
 10
0.0
 20
0.0
 30
0.0
  0
VERTEX
  5
239
330
238
100
AcDbEntity
  8
Layer 1
 62
     7
370
    18
100
AcDbVertex
100
AcDb2dVertex
 10
3.893035065070207
 20
9.51561092996468
 30
0.0
  0
VERTEX
  5
23A
330
238
100
AcDbEntity
  8
Layer 1
 62
     7
370
    18
100
AcDbVertex
100
AcDb2dVertex
 10
3.51771607841888
 20
9.51561092996468
 30
0.0
  0
SEQEND
  5
23B
330
238
100
AcDbEntity
  8
Layer 1
370
    18
  0
POLYLINE
  5
23C
330
232
100
AcDbEntity
  8
Layer 1
 62
     7
370
    18
100
AcDb2dPolyline
 66
     1
 10
0.0
 20
0.0
 30
0.0
  0
VERTEX
  5
23D
330
23C
100
AcDbEntity
  8
Layer 1
 62
     7
370
    18
100
AcDbVertex
100
AcDb2dVertex
 10
3.893035065070207
 20
9.49768692725938
 30
0.0
  0
VERTEX
  5
23E
330
23C
100
AcDbEntity
  8
Layer 1
 62
     7
370
    18
100
AcDbVertex
100
AcDb2dVertex
 10
3.51771607841888
 20
9.49768692725938
 30
0.0
  0
SEQEND
  5
23F
330
23C
100
AcDbEntity
  8
Layer 1
370
    18
  0
POLYLINE
  5
240
330
232
100
AcDbEntity
  8
Layer 1
 62
     7
370
    18
100
AcDb2dPolyline
 66
     1
 10
0.0
 20
0.0
 30
0.0
  0
VERTEX
  5
241
330
240
100
AcDbEntity
  8
Layer 1
 62
     7
370
    18
100
AcDbVertex
100
AcDb2dVertex
 10
3.893035065070207
 20
9.47976970624258
 30
0.0
  0
VERTEX
  5
242
330
240
100
AcDbEntity
  8
Layer 1
 62
     7
370
    18
100
AcDbVertex
100
AcDb2dVertex
 10
3.51771607841888
 20
9.47976970624258
 30
0.0
  0
SEQEND
  5
243
330
240
100
AcDbEntity
  8
Layer 1
370
    18
  0
POLYLINE
  5
244
330
232
100
AcDbEntity
  8
Layer 1
 62
     7
370
    18
100
AcDb2dPolyline
 66
     1
 10
0.0
 20
0.0
 30
0.0
  0
VERTEX
  5
245
330
244
100
AcDbEntity
  8
Layer 1
 62
     7
370
    18
100
AcDbVertex
100
AcDb2dVertex
 10
3.893035065070207
 20
9.461838921848778
 30
0.0
  0
VERTEX
  5
246
330
244
100
AcDbEntity
  8
Layer 1
 62
     7
370
    18
100
AcDbVertex
100
AcDb2dVertex
 10
3.51771607841888
 20
9.461838921848778
 30
0.0
  0
SEQEND
  5
247
330
244
100
AcDbEntity
  8
Layer 1
370
    18
  0
POLYLINE
  5
248
330
232
100
AcDbEntity
  8
Layer 1
 62
     7
370
    18
100
AcDb2dPolyline
 66
     1
 10
0.0
 20
0.0
 30
0.0
  0
VERTEX
  5
249
330
248
100
AcDbEntity
  8
Layer 1
 62
     7
370
    18
100
AcDbVertex
100
AcDb2dVertex
 10
3.893028283381707
 20
9.443914919143477
 30
0.0
  0
VERTEX
  5
24A
330
248
100
AcDbEntity
  8
Layer 1
 62
     7
370
    18
100
AcDbVertex
100
AcDb2dVertex
 10
3.51771607841888
 20
9.443914919143477
 30
0.0
  0
SEQEND
  5
24B
330
248
100
AcDbEntity
  8
Layer 1
370
    18
  0
POLYLINE
  5
24C
330
232
100
AcDbEntity
  8
Layer 1
 62
     7
370
    18
100
AcDb2dPolyline
 66
     1
 10
0.0
 20
0.0
 30
0.0
  0
VERTEX
  5
24D
330
24C
100
AcDbEntity
  8
Layer 1
 62
     7
370
    18
100
AcDbVertex
100
AcDb2dVertex
 10
3.893035065070207
 20
9.425990916438177
 30
0.0
  0
VERTEX
  5
24E
330
24C
100
AcDbEntity
  8
Layer 1
 62
     7
370
    18
100
AcDbVertex
100
AcDb2dVertex
 10
3.51772286010738
 20
9.425990916438177
 30
0.0
  0
SEQEND
  5
24F
330
24C
100
AcDbEntity
  8
Layer 1
370
    18
  0
POLYLINE
  5
250
330
232
100
AcDbEntity
  8
Layer 1
 62
     7
370
    18
100
AcDb2dPolyline
 66
     1
 10
0.0
 20
0.0
 30
0.0
  0
VERTEX
  5
251
330
250
100
AcDbEntity
  8
Layer 1
 62
     7
370
    18
100
AcDbVertex
100
AcDb2dVertex
 10
3.893035065070207
 20
9.408066913732875
 30
0.0
  0
VERTEX
  5
252
330
250
100
AcDbEntity
  8
Layer 1
 62
     7
370
    18
100
AcDbVertex
100
AcDb2dVertex
 10
3.51771607841888
 20
9.408066913732875
 30
0.0
  0
SEQEND
  5
253
330
250
100
AcDbEntity
  8
Layer 1
370
    18
  0
POLYLINE
  5
254
330
232
100
AcDbEntity
  8
Layer 1
 62
     7
370
    18
100
AcDb2dPolyline
 66
     1
 10
0.0
 20
0.0
 30
0.0
  0
VERTEX
  5
255
330
254
100
AcDbEntity
  8
Layer 1
 62
     7
370
    18
100
AcDbVertex
100
AcDb2dVertex
 10
3.893035065070207
 20
9.390149692716075
 30
0.0
  0
VERTEX
  5
256
330
254
100
AcDbEntity
  8
Layer 1
 62
     7
370
    18
100
AcDbVertex
100
AcDb2dVertex
 10
3.51771607841888
 20
9.390149692716075
 30
0.0
  0
SEQEND
  5
257
330
254
100
AcDbEntity
  8
Layer 1
370
    18
  0
POLYLINE
  5
258
330
232
100
AcDbEntity
  8
Layer 1
 62
     7
370
    18
100
AcDb2dPolyline
 66
     1
 10
0.0
 20
0.0
 30
0.0
  0
VERTEX
  5
259
330
258
100
AcDbEntity
  8
Layer 1
 62
     7
370
    18
100
AcDbVertex
100
AcDb2dVertex
 10
3.893035065070207
 20
9.372225690010775
 30
0.0
  0
VERTEX
  5
25A
330
258
100
AcDbEntity
  8
Layer 1
 62
     7
370
    18
100
AcDbVertex
100
AcDb2dVertex
 10
3.51771607841888
 20
9.372225690010775
 30
0.0
  0
SEQEND
  5
25B
330
258
100
AcDbEntity
  8
Layer 1
370
    18
  0
POLYLINE
  5
25C
330
232
100
AcDbEntity
  8
Layer 1
 62
     7
370
    18
100
AcDb2dPolyline
 66
     1
 10
0.0
 20
0.0
 30
0.0
  0
VERTEX
  5
25D
330
25C
100
AcDbEntity
  8
Layer 1
 62
     7
370
    18
100
AcDbVertex
100
AcDb2dVertex
 10
3.893035065070207
 20
9.354308468993973
 30
0.0
  0
VERTEX
  5
25E
330
25C
100
AcDbEntity
  8
Layer 1
 62
     7
370
    18
100
AcDbVertex
100
AcDb2dVertex
 10
3.51771607841888
 20
9.354308468993973
 30
0.0
  0
SEQEND
  5
25F
330
25C
100
AcDbEntity
  8
Layer 1
370
    18
  0
POLYLINE
  5
260
330
232
100
AcDbEntity
  8
Layer 1
 62
     7
370
    18
100
AcDb2dPolyline
 66
     1
 10
0.0
 20
0.0
 30
0.0
  0
VERTEX
  5
261
330
260
100
AcDbEntity
  8
Layer 1
 62
     7
370
    18
100
AcDbVertex
100
AcDb2dVertex
 10
3.893035065070207
 20
9.336384466288674
 30
0.0
  0
VERTEX
  5
262
330
260
100
AcDbEntity
  8
Layer 1
 62
     7
370
    18
100
AcDbVertex
100
AcDb2dVertex
 10
3.51771607841888
 20
9.336384466288674
 30
0.0
  0
SEQEND
  5
263
330
260
100
AcDbEntity
  8
Layer 1
370
    18
  0
POLYLINE
  5
264
330
232
100
AcDbEntity
  8
Layer 1
 62
     7
370
    18
100
AcDb2dPolyline
 66
     1
 10
0.0
 20
0.0
 30
0.0
  0
VERTEX
  5
265
330
264
100
AcDbEntity
  8
Layer 1
 62
     7
370
    18
100
AcDbVertex
100
AcDb2dVertex
 10
3.893035065070207
 20
9.318467245271873
 30
0.0
  0
VERTEX
  5
266
330
264
100
AcDbEntity
  8
Layer 1
 62
     7
370
    18
100
AcDbVertex
100
AcDb2dVertex
 10
3.51771607841888
 20
9.318467245271873
 30
0.0
  0
SEQEND
  5
267
330
264
100
AcDbEntity
  8
Layer 1
370
    18
  0
POLYLINE
  5
268
330
232
100
AcDbEntity
  8
Layer 1
 62
     7
370
    18
100
AcDb2dPolyline
 66
     1
 10
0.0
 20
0.0
 30
0.0
  0
VERTEX
  5
269
330
268
100
AcDbEntity
  8
Layer 1
 62
     7
370
    18
100
AcDbVertex
100
AcDb2dVertex
 10
3.893035065070207
 20
9.300543242566572
 30
0.0
  0
VERTEX
  5
26A
330
268
100
AcDbEntity
  8
Layer 1
 62
     7
370
    18
100
AcDbVertex
100
AcDb2dVertex
 10
3.51771607841888
 20
9.300543242566572
 30
0.0
  0
SEQEND
  5
26B
330
268
100
AcDbEntity
  8
Layer 1
370
    18
  0
POLYLINE
  5
26C
330
232
100
AcDbEntity
  8
Layer 1
 62
     7
370
    18
100
AcDb2dPolyline
 66
     1
 10
0.0
 20
0.0
 30
0.0
  0
VERTEX
  5
26D
330
26C
100
AcDbEntity
  8
Layer 1
 62
     7
370
    18
100
AcDbVertex
100
AcDb2dVertex
 10
3.893041846758706
 20
9.282619239861272
 30
0.0
  0
VERTEX
  5
26E
330
26C
100
AcDbEntity
  8
Layer 1
 62
     7
370
    18
100
AcDbVertex
100
AcDb2dVertex
 10
3.51771607841888
 20
9.282619239861272
 30
0.0
  0
SEQEND
  5
26F
330
26C
100
AcDbEntity
  8
Layer 1
370
    18
  0
POLYLINE
  5
270
330
232
100
AcDbEntity
  8
Layer 1
 62
     7
370
    18
100
AcDb2dPolyline
 66
     1
 10
0.0
 20
0.0
 30
0.0
  0
VERTEX
  5
271
330
270
100
AcDbEntity
  8
Layer 1
 62
     7
370
    18
100
AcDbVertex
100
AcDb2dVertex
 10
3.893028283381707
 20
9.26469523715597
 30
0.0
  0
VERTEX
  5
272
330
270
100
AcDbEntity
  8
Layer 1
 62
     7
370
    18
100
AcDbVertex
100
AcDb2dVertex
 10
3.51771607841888
 20
9.26469523715597
 30
0.0
  0
SEQEND
  5
273
330
270
100
AcDbEntity
  8
Layer 1
370
    18
  0
POLYLINE
  5
274
330
232
100
AcDbEntity
  8
Layer 1
 62
     7
370
    18
100
AcDb2dPolyline
 66
     1
 10
0.0
 20
0.0
 30
0.0
  0
VERTEX
  5
275
330
274
100
AcDbEntity
  8
Layer 1
 62
     7
370
    18
100
AcDbVertex
100
AcDb2dVertex
 10
3.893035065070207
 20
9.246771234450671
 30
0.0
  0
VERTEX
  5
276
330
274
100
AcDbEntity
  8
Layer 1
 62
     7
370
    18
100
AcDbVertex
100
AcDb2dVertex
 10
3.51771607841888
 20
9.246771234450671
 30
0.0
  0
SEQEND
  5
277
330
274
100
AcDbEntity
  8
Layer 1
370
    18
  0
POLYLINE
  5
278
330
232
100
AcDbEntity
  8
Layer 1
 62
     7
370
    18
100
AcDb2dPolyline
 66
     1
 10
0.0
 20
0.0
 30
0.0
  0
VERTEX
  5
279
330
278
100
AcDbEntity
  8
Layer 1
 62
     7
370
    18
100
AcDbVertex
100
AcDb2dVertex
 10
3.893035065070207
 20
9.228854013433869
 30
0.0
  0
VERTEX
  5
27A
330
278
100
AcDbEntity
  8
Layer 1
 62
     7
370
    18
100
AcDbVertex
100
AcDb2dVertex
 10
3.51771607841888
 20
9.228854013433869
 30
0.0
  0
SEQEND
  5
27B
330
278
100
AcDbEntity
  8
Layer 1
370
    18
  0
POLYLINE
  5
27C
330
232
100
AcDbEntity
  8
Layer 1
 62
     7
370
    18
100
AcDb2dPolyline
 66
     1
 10
0.0
 20
0.0
 30
0.0
  0
VERTEX
  5
27D
330
27C
100
AcDbEntity
  8
Layer 1
 62
     7
370
    18
100
AcDbVertex
100
AcDb2dVertex
 10
3.893035065070207
 20
9.210930010728569
 30
0.0
  0
VERTEX
  5
27E
330
27C
100
AcDbEntity
  8
Layer 1
 62
     7
370
    18
100
AcDbVertex
100
AcDb2dVertex
 10
3.51771607841888
 20
9.210930010728569
 30
0.0
  0
SEQEND
  5
27F
330
27C
100
AcDbEntity
  8
Layer 1
370
    18
  0
POLYLINE
  5
280
330
232
100
AcDbEntity
  8
Layer 1
 62
     7
370
    18
100
AcDb2dPolyline
 66
     1
 10
0.0
 20
0.0
 30
0.0
  0
VERTEX
  5
281
330
280
100
AcDbEntity
  8
Layer 1
 62
     7
370
    18
100
AcDbVertex
100
AcDb2dVertex
 10
3.893035065070207
 20
9.193012789711767
 30
0.0
  0
VERTEX
  5
282
330
280
100
AcDbEntity
  8
Layer 1
 62
     7
370
    18
100
AcDbVertex
100
AcDb2dVertex
 10
3.51771607841888
 20
9.193012789711767
 30
0.0
  0
SEQEND
  5
283
330
280
100
AcDbEntity
  8
Layer 1
370
    18
  0
POLYLINE
  5
284
330
232
100
AcDbEntity
  8
Layer 1
 62
     7
370
    18
100
AcDb2dPolyline
 66
     1
 10
0.0
 20
0.0
 30
0.0
  0
VERTEX
  5
285
330
284
100
AcDbEntity
  8
Layer 1
 62
     7
370
    18
100
AcDbVertex
100
AcDb2dVertex
 10
3.893035065070207
 20
9.175082005317968
 30
0.0
  0
VERTEX
  5
286
330
284
100
AcDbEntity
  8
Layer 1
 62
     7
370
    18
100
AcDbVertex
100
AcDb2dVertex
 10
3.51771607841888
 20
9.175082005317968
 30
0.0
  0
SEQEND
  5
287
330
284
100
AcDbEntity
  8
Layer 1
370
    18
  0
POLYLINE
  5
288
330
232
100
AcDbEntity
  8
Layer 1
 62
     7
370
    18
100
AcDb2dPolyline
 66
     1
 10
0.0
 20
0.0
 30
0.0
  0
VERTEX
  5
289
330
288
100
AcDbEntity
  8
Layer 1
 62
     7
370
    18
100
AcDbVertex
100
AcDb2dVertex
 10
3.893035065070207
 20
9.157164784301166
 30
0.0
  0
VERTEX
  5
28A
330
288
100
AcDbEntity
  8
Layer 1
 62
     7
370
    18
100
AcDbVertex
100
AcDb2dVertex
 10
3.51771607841888
 20
9.157164784301166
 30
0.0
  0
SEQEND
  5
28B
330
288
100
AcDbEntity
  8
Layer 1
370
    18
  0
POLYLINE
  5
28C
330
232
100
AcDbEntity
  8
Layer 1
 62
     7
370
    18
100
AcDb2dPolyline
 66
     1
 10
0.0
 20
0.0
 30
0.0
  0
VERTEX
  5
28D
330
28C
100
AcDbEntity
  8
Layer 1
 62
     7
370
    18
100
AcDbVertex
100
AcDb2dVertex
 10
3.893041846758706
 20
9.139240781595866
 30
0.0
  0
VERTEX
  5
28E
330
28C
100
AcDbEntity
  8
Layer 1
 62
     7
370
    18
100
AcDbVertex
100
AcDb2dVertex
 10
3.51771607841888
 20
9.139240781595866
 30
0.0
  0
SEQEND
  5
28F
330
28C
100
AcDbEntity
  8
Layer 1
370
    18
  0
POLYLINE
  5
290
330
232
100
AcDbEntity
  8
Layer 1
 62
     7
370
    18
100
AcDb2dPolyline
 66
     1
 10
0.0
 20
0.0
 30
0.0
  0
VERTEX
  5
291
330
290
100
AcDbEntity
  8
Layer 1
 62
     7
370
    18
100
AcDbVertex
100
AcDb2dVertex
 10
3.893041846758706
 20
9.121316778890564
 30
0.0
  0
VERTEX
  5
292
330
290
100
AcDbEntity
  8
Layer 1
 62
     7
370
    18
100
AcDbVertex
100
AcDb2dVertex
 10
3.51771607841888
 20
9.121316778890564
 30
0.0
  0
SEQEND
  5
293
330
290
100
AcDbEntity
  8
Layer 1
370
    18
  0
POLYLINE
  5
294
330
232
100
AcDbEntity
  8
Layer 1
 62
     7
370
    18
100
AcDb2dPolyline
 66
     1
 10
0.0
 20
0.0
 30
0.0
  0
VERTEX
  5
295
330
294
100
AcDbEntity
  8
Layer 1
 62
     7
370
    18
100
AcDbVertex
100
AcDb2dVertex
 10
3.893028283381707
 20
9.103399557873764
 30
0.0
  0
VERTEX
  5
296
330
294
100
AcDbEntity
  8
Layer 1
 62
     7
370
    18
100
AcDbVertex
100
AcDb2dVertex
 10
3.51771607841888
 20
9.103399557873764
 30
0.0
  0
SEQEND
  5
297
330
294
100
AcDbEntity
  8
Layer 1
370
    18
  0
POLYLINE
  5
298
330
232
100
AcDbEntity
  8
Layer 1
 62
     7
370
    18
100
AcDb2dPolyline
 66
     1
 10
0.0
 20
0.0
 30
0.0
  0
VERTEX
  5
299
330
298
100
AcDbEntity
  8
Layer 1
 62
     7
370
    18
100
AcDbVertex
100
AcDb2dVertex
 10
3.893028283381707
 20
9.085482336856964
 30
0.0
  0
VERTEX
  5
29A
330
298
100
AcDbEntity
  8
Layer 1
 62
     7
370
    18
100
AcDbVertex
100
AcDb2dVertex
 10
3.51771607841888
 20
9.085482336856964
 30
0.0
  0
SEQEND
  5
29B
330
298
100
AcDbEntity
  8
Layer 1
370
    18
  0
POLYLINE
  5
29C
330
232
100
AcDbEntity
  8
Layer 1
 62
     7
370
    18
100
AcDb2dPolyline
 66
     1
 10
0.0
 20
0.0
 30
0.0
  0
VERTEX
  5
29D
330
29C
100
AcDbEntity
  8
Layer 1
 62
     7
370
    18
100
AcDbVertex
100
AcDb2dVertex
 10
3.893028283381707
 20
9.067551552463163
 30
0.0
  0
VERTEX
  5
29E
330
29C
100
AcDbEntity
  8
Layer 1
 62
     7
370
    18
100
AcDbVertex
100
AcDb2dVertex
 10
3.51771607841888
 20
9.067551552463163
 30
0.0
  0
SEQEND
  5
29F
330
29C
100
AcDbEntity
  8
Layer 1
370
    18
  0
POLYLINE
  5
2A0
330
232
100
AcDbEntity
  8
Layer 1
 62
     7
370
    18
100
AcDb2dPolyline
 66
     1
 10
0.0
 20
0.0
 30
0.0
  0
VERTEX
  5
2A1
330
2A0
100
AcDbEntity
  8
Layer 1
 62
     7
370
    18
100
AcDbVertex
100
AcDb2dVertex
 10
3.893035065070207
 20
9.049627549757863
 30
0.0
  0
VERTEX
  5
2A2
330
2A0
100
AcDbEntity
  8
Layer 1
 62
     7
370
    18
100
AcDbVertex
100
AcDb2dVertex
 10
3.51771607841888
 20
9.049627549757863
 30
0.0
  0
SEQEND
  5
2A3
330
2A0
100
AcDbEntity
  8
Layer 1
370
    18
  0
POLYLINE
  5
2A4
330
232
100
AcDbEntity
  8
Layer 1
 62
     7
370
    18
100
AcDb2dPolyline
 66
     1
 10
0.0
 20
0.0
 30
0.0
  0
VERTEX
  5
2A5
330
2A4
100
AcDbEntity
  8
Layer 1
 62
     7
370
    18
100
AcDbVertex
100
AcDb2dVertex
 10
3.893035065070207
 20
9.031710328741061
 30
0.0
  0
VERTEX
  5
2A6
330
2A4
100
AcDbEntity
  8
Layer 1
 62
     7
370
    18
100
AcDbVertex
100
AcDb2dVertex
 10
3.51771607841888
 20
9.031710328741061
 30
0.0
  0
SEQEND
  5
2A7
330
2A4
100
AcDbEntity
  8
Layer 1
370
    18
  0
POLYLINE
  5
2A8
330
232
100
AcDbEntity
  8
Layer 1
 62
     7
370
    18
100
AcDb2dPolyline
 66
     1
 10
0.0
 20
0.0
 30
0.0
  0
VERTEX
  5
2A9
330
2A8
100
AcDbEntity
  8
Layer 1
 62
     7
370
    18
100
AcDbVertex
100
AcDb2dVertex
 10
3.893035065070207
 20
9.013786326035761
 30
0.0
  0
VERTEX
  5
2AA
330
2A8
100
AcDbEntity
  8
Layer 1
 62
     7
370
    18
100
AcDbVertex
100
AcDb2dVertex
 10
3.51771607841888
 20
9.013786326035761
 30
0.0
  0
SEQEND
  5
2AB
330
2A8
100
AcDbEntity
  8
Layer 1
370
    18
  0
POLYLINE
  5
2AC
330
232
100
AcDbEntity
  8
Layer 1
 62
     7
370
    18
100
AcDb2dPolyline
 66
     1
 10
0.0
 20
0.0
 30
0.0
  0
VERTEX
  5
2AD
330
2AC
100
AcDbEntity
  8
Layer 1
 62
     7
370
    18
100
AcDbVertex
100
AcDb2dVertex
 10
3.893035065070207
 20
8.995869105018961
 30
0.0
  0
VERTEX
  5
2AE
330
2AC
100
AcDbEntity
  8
Layer 1
 62
     7
370
    18
100
AcDbVertex
100
AcDb2dVertex
 10
3.51771607841888
 20
8.995869105018961
 30
0.0
  0
SEQEND
  5
2AF
330
2AC
100
AcDbEntity
  8
Layer 1
370
    18
  0
POLYLINE
  5
2B0
330
232
100
AcDbEntity
  8
Layer 1
 62
     7
370
    18
100
AcDb2dPolyline
 66
     1
 10
0.0
 20
0.0
 30
0.0
  0
VERTEX
  5
2B1
330
2B0
100
AcDbEntity
  8
Layer 1
 62
     7
370
    18
100
AcDbVertex
100
AcDb2dVertex
 10
3.893035065070207
 20
8.97793832062516
 30
0.0
  0
VERTEX
  5
2B2
330
2B0
100
AcDbEntity
  8
Layer 1
 62
     7
370
    18
100
AcDbVertex
100
AcDb2dVertex
 10
3.51771607841888
 20
8.97793832062516
 30
0.0
  0
SEQEND
  5
2B3
330
2B0
100
AcDbEntity
  8
Layer 1
370
    18
  0
POLYLINE
  5
2B4
330
232
100
AcDbEntity
  8
Layer 1
 62
     7
370
    18
100
AcDb2dPolyline
 66
     1
 10
0.0
 20
0.0
 30
0.0
  0
VERTEX
  5
2B5
330
2B4
100
AcDbEntity
  8
Layer 1
 62
     7
370
    18
100
AcDbVertex
100
AcDb2dVertex
 10
3.893041846758706
 20
8.96002109960836
 30
0.0
  0
VERTEX
  5
2B6
330
2B4
100
AcDbEntity
  8
Layer 1
 62
     7
370
    18
100
AcDbVertex
100
AcDb2dVertex
 10
3.51771607841888
 20
8.96002109960836
 30
0.0
  0
SEQEND
  5
2B7
330
2B4
100
AcDbEntity
  8
Layer 1
370
    18
  0
POLYLINE
  5
2B8
330
232
100
AcDbEntity
  8
Layer 1
 62
     7
370
    18
100
AcDb2dPolyline
 66
     1
 10
0.0
 20
0.0
 30
0.0
  0
VERTEX
  5
2B9
330
2B8
100
AcDbEntity
  8
Layer 1
 62
     7
370
    18
100
AcDbVertex
100
AcDb2dVertex
 10
3.893041846758706
 20
8.942097096903058
 30
0.0
  0
VERTEX
  5
2BA
330
2B8
100
AcDbEntity
  8
Layer 1
 62
     7
370
    18
100
AcDbVertex
100
AcDb2dVertex
 10
3.51771607841888
 20
8.942097096903058
 30
0.0
  0
SEQEND
  5
2BB
330
2B8
100
AcDbEntity
  8
Layer 1
370
    18
  0
POLYLINE
  5
2BC
330
232
100
AcDbEntity
  8
Layer 1
 62
     7
370
    18
100
AcDb2dPolyline
 66
     1
 10
0.0
 20
0.0
 30
0.0
  0
VERTEX
  5
2BD
330
2BC
100
AcDbEntity
  8
Layer 1
 62
     7
370
    18
100
AcDbVertex
100
AcDb2dVertex
 10
3.893028283381707
 20
8.924173094197758
 30
0.0
  0
VERTEX
  5
2BE
330
2BC
100
AcDbEntity
  8
Layer 1
 62
     7
370
    18
100
AcDbVertex
100
AcDb2dVertex
 10
3.51771607841888
 20
8.924173094197758
 30
0.0
  0
SEQEND
  5
2BF
330
2BC
100
AcDbEntity
  8
Layer 1
370
    18
  0
POLYLINE
  5
2C0
330
232
100
AcDbEntity
  8
Layer 1
 62
     7
370
    18
100
AcDb2dPolyline
 66
     1
 10
0.0
 20
0.0
 30
0.0
  0
VERTEX
  5
2C1
330
2C0
100
AcDbEntity
  8
Layer 1
 62
     7
370
    18
100
AcDbVertex
100
AcDb2dVertex
 10
3.893028283381707
 20
8.906255873180956
 30
0.0
  0
VERTEX
  5
2C2
330
2C0
100
AcDbEntity
  8
Layer 1
 62
     7
370
    18
100
AcDbVertex
100
AcDb2dVertex
 10
3.51771607841888
 20
8.906255873180956
 30
0.0
  0
SEQEND
  5
2C3
330
2C0
100
AcDbEntity
  8
Layer 1
370
    18
  0
POLYLINE
  5
2C4
330
232
100
AcDbEntity
  8
Layer 1
 62
     7
370
    18
100
AcDb2dPolyline
 66
     1
 10
0.0
 20
0.0
 30
0.0
  0
VERTEX
  5
2C5
330
2C4
100
AcDbEntity
  8
Layer 1
 62
     7
370
    18
100
AcDbVertex
100
AcDb2dVertex
 10
3.893035065070207
 20
8.888325088787157
 30
0.0
  0
VERTEX
  5
2C6
330
2C4
100
AcDbEntity
  8
Layer 1
 62
     7
370
    18
100
AcDbVertex
100
AcDb2dVertex
 10
3.51771607841888
 20
8.888325088787157
 30
0.0
  0
SEQEND
  5
2C7
330
2C4
100
AcDbEntity
  8
Layer 1
370
    18
  0
POLYLINE
  5
2C8
330
232
100
AcDbEntity
  8
Layer 1
 62
     7
370
    18
100
AcDb2dPolyline
 66
     1
 10
0.0
 20
0.0
 30
0.0
  0
VERTEX
  5
2C9
330
2C8
100
AcDbEntity
  8
Layer 1
 62
     7
370
    18
100
AcDbVertex
100
AcDb2dVertex
 10
3.893035065070207
 20
8.870407867770355
 30
0.0
  0
VERTEX
  5
2CA
330
2C8
100
AcDbEntity
  8
Layer 1
 62
     7
370
    18
100
AcDbVertex
100
AcDb2dVertex
 10
3.51771607841888
 20
8.870407867770355
 30
0.0
  0
SEQEND
  5
2CB
330
2C8
100
AcDbEntity
  8
Layer 1
370
    18
  0
POLYLINE
  5
2CC
330
232
100
AcDbEntity
  8
Layer 1
 62
     7
370
    18
100
AcDb2dPolyline
 66
     1
 10
0.0
 20
0.0
 30
0.0
  0
VERTEX
  5
2CD
330
2CC
100
AcDbEntity
  8
Layer 1
 62
     7
370
    18
100
AcDbVertex
100
AcDb2dVertex
 10
3.893035065070207
 20
8.852490646753555
 30
0.0
  0
VERTEX
  5
2CE
330
2CC
100
AcDbEntity
  8
Layer 1
 62
     7
370
    18
100
AcDbVertex
100
AcDb2dVertex
 10
3.51771607841888
 20
8.852490646753555
 30
0.0
  0
SEQEND
  5
2CF
330
2CC
100
AcDbEntity
  8
Layer 1
370
    18
  0
POLYLINE
  5
2D0
330
232
100
AcDbEntity
  8
Layer 1
 62
     7
370
    18
100
AcDb2dPolyline
 66
     1
 10
0.0
 20
0.0
 30
0.0
  0
VERTEX
  5
2D1
330
2D0
100
AcDbEntity
  8
Layer 1
 62
     7
370
    18
100
AcDbVertex
100
AcDb2dVertex
 10
3.893035065070207
 20
8.834566644048253
 30
0.0
  0
VERTEX
  5
2D2
330
2D0
100
AcDbEntity
  8
Layer 1
 62
     7
370
    18
100
AcDbVertex
100
AcDb2dVertex
 10
3.51771607841888
 20
8.834566644048253
 30
0.0
  0
SEQEND
  5
2D3
330
2D0
100
AcDbEntity
  8
Layer 1
370
    18
  0
POLYLINE
  5
2D4
330
232
100
AcDbEntity
  8
Layer 1
 62
     7
370
    18
100
AcDb2dPolyline
 66
     1
 10
0.0
 20
0.0
 30
0.0
  0
VERTEX
  5
2D5
330
2D4
100
AcDbEntity
  8
Layer 1
 62
     7
370
    18
100
AcDbVertex
100
AcDb2dVertex
 10
3.893035065070207
 20
8.816642641342953
 30
0.0
  0
VERTEX
  5
2D6
330
2D4
100
AcDbEntity
  8
Layer 1
 62
     7
370
    18
100
AcDbVertex
100
AcDb2dVertex
 10
3.51771607841888
 20
8.816642641342953
 30
0.0
  0
SEQEND
  5
2D7
330
2D4
100
AcDbEntity
  8
Layer 1
370
    18
  0
POLYLINE
  5
2D8
330
232
100
AcDbEntity
  8
Layer 1
 62
     7
370
    18
100
AcDb2dPolyline
 66
     1
 10
0.0
 20
0.0
 30
0.0
  0
VERTEX
  5
2D9
330
2D8
100
AcDbEntity
  8
Layer 1
 62
     7
370
    18
100
AcDbVertex
100
AcDb2dVertex
 10
3.893028283381707
 20
8.798711856949152
 30
0.0
  0
VERTEX
  5
2DA
330
2D8
100
AcDbEntity
  8
Layer 1
 62
     7
370
    18
100
AcDbVertex
100
AcDb2dVertex
 10
3.51771607841888
 20
8.798711856949152
 30
0.0
  0
SEQEND
  5
2DB
330
2D8
100
AcDbEntity
  8
Layer 1
370
    18
  0
POLYLINE
  5
2DC
330
232
100
AcDbEntity
  8
Layer 1
 62
     7
370
    18
100
AcDb2dPolyline
 66
     1
 10
0.0
 20
0.0
 30
0.0
  0
VERTEX
  5
2DD
330
2DC
100
AcDbEntity
  8
Layer 1
 62
     7
370
    18
100
AcDbVertex
100
AcDb2dVertex
 10
3.893028283381707
 20
8.780794635932352
 30
0.0
  0
VERTEX
  5
2DE
330
2DC
100
AcDbEntity
  8
Layer 1
 62
     7
370
    18
100
AcDbVertex
100
AcDb2dVertex
 10
3.51771607841888
 20
8.780794635932352
 30
0.0
  0
SEQEND
  5
2DF
330
2DC
100
AcDbEntity
  8
Layer 1
370
    18
  0
POLYLINE
  5
2E0
330
232
100
AcDbEntity
  8
Layer 1
 62
     7
370
    18
100
AcDb2dPolyline
 66
     1
 10
0.0
 20
0.0
 30
0.0
  0
VERTEX
  5
2E1
330
2E0
100
AcDbEntity
  8
Layer 1
 62
     7
370
    18
100
AcDbVertex
100
AcDb2dVertex
 10
3.893028283381707
 20
8.762877414915552
 30
0.0
  0
VERTEX
  5
2E2
330
2E0
100
AcDbEntity
  8
Layer 1
 62
     7
370
    18
100
AcDbVertex
100
AcDb2dVertex
 10
3.51771607841888
 20
8.762877414915552
 30
0.0
  0
SEQEND
  5
2E3
330
2E0
100
AcDbEntity
  8
Layer 1
370
    18
  0
POLYLINE
  5
2E4
330
232
100
AcDbEntity
  8
Layer 1
 62
     7
370
    18
100
AcDb2dPolyline
 66
     1
 10
0.0
 20
0.0
 30
0.0
  0
VERTEX
  5
2E5
330
2E4
100
AcDbEntity
  8
Layer 1
 62
     7
370
    18
100
AcDbVertex
100
AcDb2dVertex
 10
3.893041846758706
 20
8.74495341221025
 30
0.0
  0
VERTEX
  5
2E6
330
2E4
100
AcDbEntity
  8
Layer 1
 62
     7
370
    18
100
AcDbVertex
100
AcDb2dVertex
 10
3.51771607841888
 20
8.74495341221025
 30
0.0
  0
SEQEND
  5
2E7
330
2E4
100
AcDbEntity
  8
Layer 1
370
    18
  0
POLYLINE
  5
2E8
330
232
100
AcDbEntity
  8
Layer 1
 62
     7
370
    18
100
AcDb2dPolyline
 66
     1
 10
0.0
 20
0.0
 30
0.0
  0
VERTEX
  5
2E9
330
2E8
100
AcDbEntity
  8
Layer 1
 62
     7
370
    18
100
AcDbVertex
100
AcDb2dVertex
 10
3.893041846758706
 20
8.72702940950495
 30
0.0
  0
VERTEX
  5
2EA
330
2E8
100
AcDbEntity
  8
Layer 1
 62
     7
370
    18
100
AcDbVertex
100
AcDb2dVertex
 10
3.51771607841888
 20
8.72702940950495
 30
0.0
  0
SEQEND
  5
2EB
330
2E8
100
AcDbEntity
  8
Layer 1
370
    18
  0
POLYLINE
  5
2EC
330
232
100
AcDbEntity
  8
Layer 1
 62
     7
370
    18
100
AcDb2dPolyline
 66
     1
 10
0.0
 20
0.0
 30
0.0
  0
VERTEX
  5
2ED
330
2EC
100
AcDbEntity
  8
Layer 1
 62
     7
370
    18
100
AcDbVertex
100
AcDb2dVertex
 10
3.893035065070207
 20
8.709112188488148
 30
0.0
  0
VERTEX
  5
2EE
330
2EC
100
AcDbEntity
  8
Layer 1
 62
     7
370
    18
100
AcDbVertex
100
AcDb2dVertex
 10
3.51771607841888
 20
8.709112188488148
 30
0.0
  0
SEQEND
  5
2EF
330
2EC
100
AcDbEntity
  8
Layer 1
370
    18
  0
POLYLINE
  5
2F0
330
232
100
AcDbEntity
  8
Layer 1
 62
     7
370
    18
100
AcDb2dPolyline
 66
     1
 10
0.0
 20
0.0
 30
0.0
  0
VERTEX
  5
2F1
330
2F0
100
AcDbEntity
  8
Layer 1
 62
     7
370
    18
100
AcDbVertex
100
AcDb2dVertex
 10
3.893035065070207
 20
8.691181404094349
 30
0.0
  0
VERTEX
  5
2F2
330
2F0
100
AcDbEntity
  8
Layer 1
 62
     7
370
    18
100
AcDbVertex
100
AcDb2dVertex
 10
3.51771607841888
 20
8.691181404094349
 30
0.0
  0
SEQEND
  5
2F3
330
2F0
100
AcDbEntity
  8
Layer 1
370
    18
  0
POLYLINE
  5
2F4
330
232
100
AcDbEntity
  8
Layer 1
 62
     7
370
    18
100
AcDb2dPolyline
 66
     1
 10
0.0
 20
0.0
 30
0.0
  0
VERTEX
  5
2F5
330
2F4
100
AcDbEntity
  8
Layer 1
 62
     7
370
    18
100
AcDbVertex
100
AcDb2dVertex
 10
3.893035065070207
 20
8.673264183077547
 30
0.0
  0
VERTEX
  5
2F6
330
2F4
100
AcDbEntity
  8
Layer 1
 62
     7
370
    18
100
AcDbVertex
100
AcDb2dVertex
 10
3.51771607841888
 20
8.673264183077547
 30
0.0
  0
SEQEND
  5
2F7
330
2F4
100
AcDbEntity
  8
Layer 1
370
    18
  0
POLYLINE
  5
2F8
330
232
100
AcDbEntity
  8
Layer 1
 62
     7
370
    18
100
AcDb2dPolyline
 66
     1
 10
0.0
 20
0.0
 30
0.0
  0
VERTEX
  5
2F9
330
2F8
100
AcDbEntity
  8
Layer 1
 62
     7
370
    18
100
AcDbVertex
100
AcDb2dVertex
 10
3.893035065070207
 20
8.655346962060747
 30
0.0
  0
VERTEX
  5
2FA
330
2F8
100
AcDbEntity
  8
Layer 1
 62
     7
370
    18
100
AcDbVertex
100
AcDb2dVertex
 10
3.51771607841888
 20
8.655346962060747
 30
0.0
  0
SEQEND
  5
2FB
330
2F8
100
AcDbEntity
  8
Layer 1
370
    18
  0
POLYLINE
  5
2FC
330
232
100
AcDbEntity
  8
Layer 1
 62
     7
370
    18
100
AcDb2dPolyline
 66
     1
 10
0.0
 20
0.0
 30
0.0
  0
VERTEX
  5
2FD
330
2FC
100
AcDbEntity
  8
Layer 1
 62
     7
370
    18
100
AcDbVertex
100
AcDb2dVertex
 10
3.893035065070207
 20
8.637422959355447
 30
0.0
  0
VERTEX
  5
2FE
330
2FC
100
AcDbEntity
  8
Layer 1
 62
     7
370
    18
100
AcDbVertex
100
AcDb2dVertex
 10
3.51771607841888
 20
8.637422959355447
 30
0.0
  0
SEQEND
  5
2FF
330
2FC
100
AcDbEntity
  8
Layer 1
370
    18
  0
POLYLINE
  5
300
330
232
100
AcDbEntity
  8
Layer 1
 62
     7
370
    18
100
AcDb2dPolyline
 66
     1
 10
0.0
 20
0.0
 30
0.0
  0
VERTEX
  5
301
330
300
100
AcDbEntity
  8
Layer 1
 62
     7
370
    18
100
AcDbVertex
100
AcDb2dVertex
 10
3.893028283381707
 20
8.619498956650145
 30
0.0
  0
VERTEX
  5
302
330
300
100
AcDbEntity
  8
Layer 1
 62
     7
370
    18
100
AcDbVertex
100
AcDb2dVertex
 10
3.51771607841888
 20
8.619498956650145
 30
0.0
  0
SEQEND
  5
303
330
300
100
AcDbEntity
  8
Layer 1
370
    18
  0
POLYLINE
  5
304
330
232
100
AcDbEntity
  8
Layer 1
 62
     7
370
    18
100
AcDb2dPolyline
 66
     1
 10
0.0
 20
0.0
 30
0.0
  0
VERTEX
  5
305
330
304
100
AcDbEntity
  8
Layer 1
 62
     7
370
    18
100
AcDbVertex
100
AcDb2dVertex
 10
3.893028283381707
 20
8.601568172256344
 30
0.0
  0
VERTEX
  5
306
330
304
100
AcDbEntity
  8
Layer 1
 62
     7
370
    18
100
AcDbVertex
100
AcDb2dVertex
 10
3.51771607841888
 20
8.601568172256344
 30
0.0
  0
SEQEND
  5
307
330
304
100
AcDbEntity
  8
Layer 1
370
    18
  0
POLYLINE
  5
308
330
232
100
AcDbEntity
  8
Layer 1
 62
     7
370
    18
100
AcDb2dPolyline
 66
     1
 10
0.0
 20
0.0
 30
0.0
  0
VERTEX
  5
309
330
308
100
AcDbEntity
  8
Layer 1
 62
     7
370
    18
100
AcDbVertex
100
AcDb2dVertex
 10
3.893041846758706
 20
8.583650951239544
 30
0.0
  0
VERTEX
  5
30A
330
308
100
AcDbEntity
  8
Layer 1
 62
     7
370
    18
100
AcDbVertex
100
AcDb2dVertex
 10
3.51771607841888
 20
8.583650951239544
 30
0.0
  0
SEQEND
  5
30B
330
308
100
AcDbEntity
  8
Layer 1
370
    18
  0
POLYLINE
  5
30C
330
232
100
AcDbEntity
  8
Layer 1
 62
     7
370
    18
100
AcDb2dPolyline
 66
     1
 10
0.0
 20
0.0
 30
0.0
  0
VERTEX
  5
30D
330
30C
100
AcDbEntity
  8
Layer 1
 62
     7
370
    18
100
AcDbVertex
100
AcDb2dVertex
 10
3.893041846758706
 20
8.565733730222744
 30
0.0
  0
VERTEX
  5
30E
330
30C
100
AcDbEntity
  8
Layer 1
 62
     7
370
    18
100
AcDbVertex
100
AcDb2dVertex
 10
3.51771607841888
 20
8.565733730222744
 30
0.0
  0
SEQEND
  5
30F
330
30C
100
AcDbEntity
  8
Layer 1
370
    18
  0
POLYLINE
  5
310
330
232
100
AcDbEntity
  8
Layer 1
 62
     7
370
    18
100
AcDb2dPolyline
 66
     1
 10
0.0
 20
0.0
 30
0.0
  0
VERTEX
  5
311
330
310
100
AcDbEntity
  8
Layer 1
 62
     7
370
    18
100
AcDbVertex
100
AcDb2dVertex
 10
3.893041846758706
 20
8.547809727517442
 30
0.0
  0
VERTEX
  5
312
330
310
100
AcDbEntity
  8
Layer 1
 62
     7
370
    18
100
AcDbVertex
100
AcDb2dVertex
 10
3.51771607841888
 20
8.547809727517442
 30
0.0
  0
SEQEND
  5
313
330
310
100
AcDbEntity
  8
Layer 1
370
    18
  0
POLYLINE
  5
314
330
232
100
AcDbEntity
  8
Layer 1
 62
     7
370
    18
100
AcDb2dPolyline
 66
     1
 10
0.0
 20
0.0
 30
0.0
  0
VERTEX
  5
315
330
314
100
AcDbEntity
  8
Layer 1
 62
     7
370
    18
100
AcDbVertex
100
AcDb2dVertex
 10
3.893035065070207
 20
8.529885724812142
 30
0.0
  0
VERTEX
  5
316
330
314
100
AcDbEntity
  8
Layer 1
 62
     7
370
    18
100
AcDbVertex
100
AcDb2dVertex
 10
3.51771607841888
 20
8.529885724812142
 30
0.0
  0
SEQEND
  5
317
330
314
100
AcDbEntity
  8
Layer 1
370
    18
  0
POLYLINE
  5
318
330
232
100
AcDbEntity
  8
Layer 1
 62
     7
370
    18
100
AcDb2dPolyline
 66
     1
 10
0.0
 20
0.0
 30
0.0
  0
VERTEX
  5
319
330
318
100
AcDbEntity
  8
Layer 1
 62
     7
370
    18
100
AcDbVertex
100
AcDb2dVertex
 10
3.893035065070207
 20
8.51196850379534
 30
0.0
  0
VERTEX
  5
31A
330
318
100
AcDbEntity
  8
Layer 1
 62
     7
370
    18
100
AcDbVertex
100
AcDb2dVertex
 10
3.51771607841888
 20
8.51196850379534
 30
0.0
  0
SEQEND
  5
31B
330
318
100
AcDbEntity
  8
Layer 1
370
    18
  0
POLYLINE
  5
31C
330
232
100
AcDbEntity
  8
Layer 1
 62
     7
370
    18
100
AcDb2dPolyline
 66
     1
 10
0.0
 20
0.0
 30
0.0
  0
VERTEX
  5
31D
330
31C
100
AcDbEntity
  8
Layer 1
 62
     7
370
    18
100
AcDbVertex
100
AcDb2dVertex
 10
3.893035065070207
 20
8.494037719401541
 30
0.0
  0
VERTEX
  5
31E
330
31C
100
AcDbEntity
  8
Layer 1
 62
     7
370
    18
100
AcDbVertex
100
AcDb2dVertex
 10
3.51771607841888
 20
8.494037719401541
 30
0.0
  0
SEQEND
  5
31F
330
31C
100
AcDbEntity
  8
Layer 1
370
    18
  0
POLYLINE
  5
320
330
232
100
AcDbEntity
  8
Layer 1
 62
     7
370
    18
100
AcDb2dPolyline
 66
     1
 10
0.0
 20
0.0
 30
0.0
  0
VERTEX
  5
321
330
320
100
AcDbEntity
  8
Layer 1
 62
     7
370
    18
100
AcDbVertex
100
AcDb2dVertex
 10
3.893035065070207
 20
8.476120498384741
 30
0.0
  0
VERTEX
  5
322
330
320
100
AcDbEntity
  8
Layer 1
 62
     7
370
    18
100
AcDbVertex
100
AcDb2dVertex
 10
3.51771607841888
 20
8.476120498384741
 30
0.0
  0
SEQEND
  5
323
330
320
100
AcDbEntity
  8
Layer 1
370
    18
  0
POLYLINE
  5
324
330
232
100
AcDbEntity
  8
Layer 1
 62
     7
370
    18
100
AcDb2dPolyline
 66
     1
 10
0.0
 20
0.0
 30
0.0
  0
VERTEX
  5
325
330
324
100
AcDbEntity
  8
Layer 1
 62
     7
370
    18
100
AcDbVertex
100
AcDb2dVertex
 10
3.893035065070207
 20
8.458196495679439
 30
0.0
  0
VERTEX
  5
326
330
324
100
AcDbEntity
  8
Layer 1
 62
     7
370
    18
100
AcDbVertex
100
AcDb2dVertex
 10
3.51771607841888
 20
8.458196495679439
 30
0.0
  0
SEQEND
  5
327
330
324
100
AcDbEntity
  8
Layer 1
370
    18
  0
POLYLINE
  5
328
330
232
100
AcDbEntity
  8
Layer 1
 62
     7
370
    18
100
AcDb2dPolyline
 66
     1
 10
0.0
 20
0.0
 30
0.0
  0
VERTEX
  5
329
330
328
100
AcDbEntity
  8
Layer 1
 62
     7
370
    18
100
AcDbVertex
100
AcDb2dVertex
 10
3.893035065070207
 20
8.440279274662639
 30
0.0
  0
VERTEX
  5
32A
330
328
100
AcDbEntity
  8
Layer 1
 62
     7
370
    18
100
AcDbVertex
100
AcDb2dVertex
 10
3.51771607841888
 20
8.440279274662639
 30
0.0
  0
SEQEND
  5
32B
330
328
100
AcDbEntity
  8
Layer 1
370
    18
  0
POLYLINE
  5
32C
330
232
100
AcDbEntity
  8
Layer 1
 62
     7
370
    18
100
AcDb2dPolyline
 66
     1
 10
0.0
 20
0.0
 30
0.0
  0
VERTEX
  5
32D
330
32C
100
AcDbEntity
  8
Layer 1
 62
     7
370
    18
100
AcDbVertex
100
AcDb2dVertex
 10
3.893028283381707
 20
8.422355271957338
 30
0.0
  0
VERTEX
  5
32E
330
32C
100
AcDbEntity
  8
Layer 1
 62
     7
370
    18
100
AcDbVertex
100
AcDb2dVertex
 10
3.51771607841888
 20
8.422355271957338
 30
0.0
  0
SEQEND
  5
32F
330
32C
100
AcDbEntity
  8
Layer 1
370
    18
  0
POLYLINE
  5
330
330
232
100
AcDbEntity
  8
Layer 1
 62
     7
370
    18
100
AcDb2dPolyline
 66
     1
 10
0.0
 20
0.0
 30
0.0
  0
VERTEX
  5
331
330
330
100
AcDbEntity
  8
Layer 1
 62
     7
370
    18
100
AcDbVertex
100
AcDb2dVertex
 10
3.893041846758706
 20
8.404438050940537
 30
0.0
  0
VERTEX
  5
332
330
330
100
AcDbEntity
  8
Layer 1
 62
     7
370
    18
100
AcDbVertex
100
AcDb2dVertex
 10
3.51771607841888
 20
8.404438050940537
 30
0.0
  0
SEQEND
  5
333
330
330
100
AcDbEntity
  8
Layer 1
370
    18
  0
POLYLINE
  5
334
330
232
100
AcDbEntity
  8
Layer 1
 62
     7
370
    18
100
AcDb2dPolyline
 66
     1
 10
0.0
 20
0.0
 30
0.0
  0
VERTEX
  5
335
330
334
100
AcDbEntity
  8
Layer 1
 62
     7
370
    18
100
AcDbVertex
100
AcDb2dVertex
 10
3.893035065070207
 20
8.386507266546736
 30
0.0
  0
VERTEX
  5
336
330
334
100
AcDbEntity
  8
Layer 1
 62
     7
370
    18
100
AcDbVertex
100
AcDb2dVertex
 10
3.51771607841888
 20
8.386507266546736
 30
0.0
  0
SEQEND
  5
337
330
334
100
AcDbEntity
  8
Layer 1
370
    18
  0
POLYLINE
  5
338
330
232
100
AcDbEntity
  8
Layer 1
 62
     7
370
    18
100
AcDb2dPolyline
 66
     1
 10
0.0
 20
0.0
 30
0.0
  0
VERTEX
  5
339
330
338
100
AcDbEntity
  8
Layer 1
 62
     7
370
    18
100
AcDbVertex
100
AcDb2dVertex
 10
3.893035065070207
 20
8.368590045529936
 30
0.0
  0
VERTEX
  5
33A
330
338
100
AcDbEntity
  8
Layer 1
 62
     7
370
    18
100
AcDbVertex
100
AcDb2dVertex
 10
3.51771607841888
 20
8.368590045529936
 30
0.0
  0
SEQEND
  5
33B
330
338
100
AcDbEntity
  8
Layer 1
370
    18
  0
POLYLINE
  5
33C
330
232
100
AcDbEntity
  8
Layer 1
 62
     7
370
    18
100
AcDb2dPolyline
 66
     1
 10
0.0
 20
0.0
 30
0.0
  0
VERTEX
  5
33D
330
33C
100
AcDbEntity
  8
Layer 1
 62
     7
370
    18
100
AcDbVertex
100
AcDb2dVertex
 10
3.893035065070207
 20
8.350666042824634
 30
0.0
  0
VERTEX
  5
33E
330
33C
100
AcDbEntity
  8
Layer 1
 62
     7
370
    18
100
AcDbVertex
100
AcDb2dVertex
 10
3.51771607841888
 20
8.350666042824634
 30
0.0
  0
SEQEND
  5
33F
330
33C
100
AcDbEntity
  8
Layer 1
370
    18
  0
POLYLINE
  5
340
330
232
100
AcDbEntity
  8
Layer 1
 62
     7
370
    18
100
AcDb2dPolyline
 66
     1
 10
0.0
 20
0.0
 30
0.0
  0
VERTEX
  5
341
330
340
100
AcDbEntity
  8
Layer 1
 62
     7
370
    18
100
AcDbVertex
100
AcDb2dVertex
 10
3.893035065070207
 20
8.332742040119335
 30
0.0
  0
VERTEX
  5
342
330
340
100
AcDbEntity
  8
Layer 1
 62
     7
370
    18
100
AcDbVertex
100
AcDb2dVertex
 10
3.51771607841888
 20
8.332742040119335
 30
0.0
  0
SEQEND
  5
343
330
340
100
AcDbEntity
  8
Layer 1
370
    18
  0
POLYLINE
  5
344
330
232
100
AcDbEntity
  8
Layer 1
 62
     7
370
    18
100
AcDb2dPolyline
 66
     1
 10
0.0
 20
0.0
 30
0.0
  0
VERTEX
  5
345
330
344
100
AcDbEntity
  8
Layer 1
 62
     7
370
    18
100
AcDbVertex
100
AcDb2dVertex
 10
3.893035065070207
 20
8.314824819102534
 30
0.0
  0
VERTEX
  5
346
330
344
100
AcDbEntity
  8
Layer 1
 62
     7
370
    18
100
AcDbVertex
100
AcDb2dVertex
 10
3.51771607841888
 20
8.314824819102534
 30
0.0
  0
SEQEND
  5
347
330
344
100
AcDbEntity
  8
Layer 1
370
    18
  0
POLYLINE
  5
348
330
232
100
AcDbEntity
  8
Layer 1
 62
     7
370
    18
100
AcDb2dPolyline
 66
     1
 10
0.0
 20
0.0
 30
0.0
  0
VERTEX
  5
349
330
348
100
AcDbEntity
  8
Layer 1
 62
     7
370
    18
100
AcDbVertex
100
AcDb2dVertex
 10
3.893035065070207
 20
8.296894034708733
 30
0.0
  0
VERTEX
  5
34A
330
348
100
AcDbEntity
  8
Layer 1
 62
     7
370
    18
100
AcDbVertex
100
AcDb2dVertex
 10
3.51771607841888
 20
8.296894034708733
 30
0.0
  0
SEQEND
  5
34B
330
348
100
AcDbEntity
  8
Layer 1
370
    18
  0
POLYLINE
  5
34C
330
232
100
AcDbEntity
  8
Layer 1
 62
     7
370
    18
100
AcDb2dPolyline
 66
     1
 10
0.0
 20
0.0
 30
0.0
  0
VERTEX
  5
34D
330
34C
100
AcDbEntity
  8
Layer 1
 62
     7
370
    18
100
AcDbVertex
100
AcDb2dVertex
 10
3.893035065070207
 20
8.278976813691933
 30
0.0
  0
VERTEX
  5
34E
330
34C
100
AcDbEntity
  8
Layer 1
 62
     7
370
    18
100
AcDbVertex
100
AcDb2dVertex
 10
3.51771607841888
 20
8.278976813691933
 30
0.0
  0
SEQEND
  5
34F
330
34C
100
AcDbEntity
  8
Layer 1
370
    18
  0
POLYLINE
  5
350
330
232
100
AcDbEntity
  8
Layer 1
 62
     7
370
    18
100
AcDb2dPolyline
 66
     1
 10
0.0
 20
0.0
 30
0.0
  0
VERTEX
  5
351
330
350
100
AcDbEntity
  8
Layer 1
 62
     7
370
    18
100
AcDbVertex
100
AcDb2dVertex
 10
3.893035065070207
 20
8.261052810986631
 30
0.0
  0
VERTEX
  5
352
330
350
100
AcDbEntity
  8
Layer 1
 62
     7
370
    18
100
AcDbVertex
100
AcDb2dVertex
 10
3.51771607841888
 20
8.261052810986631
 30
0.0
  0
SEQEND
  5
353
330
350
100
AcDbEntity
  8
Layer 1
370
    18
  0
POLYLINE
  5
354
330
232
100
AcDbEntity
  8
Layer 1
 62
     7
370
    18
100
AcDb2dPolyline
 66
     1
 10
0.0
 20
0.0
 30
0.0
  0
VERTEX
  5
355
330
354
100
AcDbEntity
  8
Layer 1
 62
     7
370
    18
100
AcDbVertex
100
AcDb2dVertex
 10
3.893028283381707
 20
8.243135589969831
 30
0.0
  0
VERTEX
  5
356
330
354
100
AcDbEntity
  8
Layer 1
 62
     7
370
    18
100
AcDbVertex
100
AcDb2dVertex
 10
3.51771607841888
 20
8.243135589969831
 30
0.0
  0
SEQEND
  5
357
330
354
100
AcDbEntity
  8
Layer 1
370
    18
  0
POLYLINE
  5
358
330
232
100
AcDbEntity
  8
Layer 1
 62
     7
370
    18
100
AcDb2dPolyline
 66
     1
 10
0.0
 20
0.0
 30
0.0
  0
VERTEX
  5
359
330
358
100
AcDbEntity
  8
Layer 1
 62
     7
370
    18
100
AcDbVertex
100
AcDb2dVertex
 10
3.893035065070207
 20
8.22521158726453
 30
0.0
  0
VERTEX
  5
35A
330
358
100
AcDbEntity
  8
Layer 1
 62
     7
370
    18
100
AcDbVertex
100
AcDb2dVertex
 10
3.51771607841888
 20
8.22521158726453
 30
0.0
  0
SEQEND
  5
35B
330
358
100
AcDbEntity
  8
Layer 1
370
    18
  0
POLYLINE
  5
35C
330
232
100
AcDbEntity
  8
Layer 1
 62
     7
370
    18
100
AcDb2dPolyline
 66
     1
 10
0.0
 20
0.0
 30
0.0
  0
VERTEX
  5
35D
330
35C
100
AcDbEntity
  8
Layer 1
 62
     7
370
    18
100
AcDbVertex
100
AcDb2dVertex
 10
3.893035065070207
 20
8.20729436624773
 30
0.0
  0
VERTEX
  5
35E
330
35C
100
AcDbEntity
  8
Layer 1
 62
     7
370
    18
100
AcDbVertex
100
AcDb2dVertex
 10
3.51771607841888
 20
8.20729436624773
 30
0.0
  0
SEQEND
  5
35F
330
35C
100
AcDbEntity
  8
Layer 1
370
    18
  0
POLYLINE
  5
360
330
232
100
AcDbEntity
  8
Layer 1
 62
     7
370
    18
100
AcDb2dPolyline
 66
     1
 10
0.0
 20
0.0
 30
0.0
  0
VERTEX
  5
361
330
360
100
AcDbEntity
  8
Layer 1
 62
     7
370
    18
100
AcDbVertex
100
AcDb2dVertex
 10
3.893035065070207
 20
8.189363581853928
 30
0.0
  0
VERTEX
  5
362
330
360
100
AcDbEntity
  8
Layer 1
 62
     7
370
    18
100
AcDbVertex
100
AcDb2dVertex
 10
3.51771607841888
 20
8.189363581853928
 30
0.0
  0
SEQEND
  5
363
330
360
100
AcDbEntity
  8
Layer 1
370
    18
  0
POLYLINE
  5
364
330
232
100
AcDbEntity
  8
Layer 1
 62
     7
370
    18
100
AcDb2dPolyline
 66
     1
 10
0.0
 20
0.0
 30
0.0
  0
VERTEX
  5
365
330
364
100
AcDbEntity
  8
Layer 1
 62
     7
370
    18
100
AcDbVertex
100
AcDb2dVertex
 10
3.893035065070207
 20
8.171446360837128
 30
0.0
  0
VERTEX
  5
366
330
364
100
AcDbEntity
  8
Layer 1
 62
     7
370
    18
100
AcDbVertex
100
AcDb2dVertex
 10
3.51771607841888
 20
8.171446360837128
 30
0.0
  0
SEQEND
  5
367
330
364
100
AcDbEntity
  8
Layer 1
370
    18
  0
POLYLINE
  5
368
330
232
100
AcDbEntity
  8
Layer 1
 62
     7
370
    18
100
AcDb2dPolyline
 66
     1
 10
0.0
 20
0.0
 30
0.0
  0
VERTEX
  5
369
330
368
100
AcDbEntity
  8
Layer 1
 62
     7
370
    18
100
AcDbVertex
100
AcDb2dVertex
 10
3.893035065070207
 20
8.153522358131828
 30
0.0
  0
VERTEX
  5
36A
330
368
100
AcDbEntity
  8
Layer 1
 62
     7
370
    18
100
AcDbVertex
100
AcDb2dVertex
 10
3.51771607841888
 20
8.153522358131828
 30
0.0
  0
SEQEND
  5
36B
330
368
100
AcDbEntity
  8
Layer 1
370
    18
  0
ENDBLK
  5
36C
330
232
100
AcDbEntity
  8
0
100
AcDbBlockEnd
  0
BLOCK
  5
399
330
38E
100
AcDbEntity
  8
0
100
AcDbBlockBegin
  2
*D4
 70
     1
 10
0.0
 20
0.0
 30
0.0
  3
*D4
  1

  0
LINE
  5
39B
330
38E
100
AcDbEntity
  8
ADP1DETAIL
 62
     0
370
    -2
100
AcDbLine
 10
4.698241024511911
 20
1.077707452575557
 30
0.0
 11
5.130669642159841
 21
1.077707452575557
 31
0.0
  0
LINE
  5
39C
330
38E
100
AcDbEntity
  8
ADP1DETAIL
 62
     0
370
    -2
100
AcDbLine
 10
4.698241024511911
 20
-0.3022983402740955
 30
0.0
 11
5.130669642159841
 21
-0.3022983402740957
 31
0.0
  0
LINE
  5
39D
330
38E
100
AcDbEntity
  8
ADP1DETAIL
 62
     0
370
    -2
100
AcDbLine
 10
4.950669642159841
 20
1.077707452575557
 30
0.0
 11
4.950669642159841
 21
0.7835378894840643
 31
0.0
  0
LINE
  5
39E
330
38E
100
AcDbEntity
  8
ADP1DETAIL
 62
     0
370
    -2
100
AcDbLine
 10
4.950669642159841
 20
-0.3022983402740956
 30
0.0
 11
4.950669642159841
 21
-0.0081287771826022
 31
0.0
  0
LINE
  5
39F
330
38E
100
AcDbEntity
  8
ADP1DETAIL
 62
     0
370
    -2
100
AcDbLine
 10
5.075669642159841
 20
-0.4272983402740957
 30
0.0
 11
4.825669642159841
 21
-0.1772983402740955
 31
0.0
  0
LINE
  5
3A0
330
38E
100
AcDbEntity
  8
ADP1DETAIL
 62
     0
370
    -2
100
AcDbLine
 10
5.075669642159841
 20
0.9527074525755576
 30
0.0
 11
4.825669642159841
 21
1.202707452575557
 31
0.0
  0
MTEXT
  5
3A1
330
38E
100
AcDbEntity
  8
ADP1DETAIL
 62
     0
100
AcDbMText
 10
4.950669642159841
 20
0.3877045561507319
 30
0.0
 40
0.125
 41
0.0
 71
     5
 72
     1
  1
\A1;1.3800
 11
0.0000000000000001
 21
1.0
 31
0.0
 73
     1
 44
1.0
1001
ACAD
1000
MTEXTBEGIN
1070
    73
1070
     1
1070
    44
1040
1.0
1070
    74
1070
     0
1000
MTEXTEND
  0
POINT
  5
3A2
330
38E
100
AcDbEntity
  8
DEFPOINTS
 62
     0
100
AcDbPoint
 10
4.635741024511911
 20
1.077707452575557
 30
0.0
  0
POINT
  5
3A3
330
38E
100
AcDbEntity
  8
DEFPOINTS
 62
     0
100
AcDbPoint
 10
4.635741024511911
 20
-0.3022983402740955
 30
0.0
  0
POINT
  5
3A4
330
38E
100
AcDbEntity
  8
DEFPOINTS
 62
     0
100
AcDbPoint
 10
4.950669642159841
 20
-0.3022983402740956
 30
0.0
  0
ENDBLK
  5
39A
330
38E
100
AcDbEntity
  8
0
100
AcDbBlockEnd
  0
BLOCK
  5
826
330
825
100
AcDbEntity
  8
0
 62
     3
100
AcDbBlockBegin
  2
*D8
 70
     1
 10
0.0
 20
0.0
 30
0.0
  3
*D8
  1

  0
LINE
  5
827
330
825
100
AcDbEntity
  8
ADPDIM
 62
     0
370
    -2
100
AcDbLine
 10
3.253921690334891
 20
1.218150918157014
 30
0.0
 11
2.197225868716252
 21
1.218150918157014
 31
0.0
  0
LINE
  5
828
330
825
100
AcDbEntity
  8
ADPDIM
 62
     0
370
    -2
100
AcDbLine
 10
3.253921690334891
 20
-0.4418490818429857
 30
0.0
 11
2.197225868716252
 21
-0.4418490818429854
 31
0.0
  0
LINE
  5
829
330
825
100
AcDbEntity
  8
ADPDIM
 62
     0
370
    -2
100
AcDbLine
 10
2.377225868716252
 20
1.218150918157014
 30
0.0
 11
2.377225868716251
 21
0.7839842514903476
 31
0.0
  0
LINE
  5
82A
330
825
100
AcDbEntity
  8
ADPDIM
 62
     0
370
    -2
100
AcDbLine
 10
2.377225868716251
 20
-0.4418490818429854
 30
0.0
 11
2.377225868716251
 21
-0.007682415176319
 31
0.0
  0
LINE
  5
82B
330
825
100
AcDbEntity
  8
ADPDIM
 62
     0
370
    -2
100
AcDbLine
 10
2.502225868716251
 20
-0.5668490818429854
 30
0.0
 11
2.252225868716251
 21
-0.3168490818429854
 31
0.0
  0
LINE
  5
82C
330
825
100
AcDbEntity
  8
ADPDIM
 62
     0
370
    -2
100
AcDbLine
 10
2.502225868716252
 20
1.093150918157014
 30
0.0
 11
2.252225868716252
 21
1.343150918157014
 31
0.0
  0
MTEXT
  5
82D
330
825
100
AcDbEntity
  8
ADPDIM
 62
     0
100
AcDbMText
 10
2.377225868716251
 20
0.3881509181570148
 30
0.0
 40
0.125
 41
0.0
 71
     5
 72
     1
  1
\A1;1.6600
 11
0.0000000000000001
 21
1.0
 31
0.0
 73
     1
 44
1.0
1001
ACAD
1000
MTEXTBEGIN
1070
    73
1070
     1
1070
    44
1040
1.0
1070
    74
1070
     0
1000
MTEXTEND
  0
POINT
  5
82E
330
825
100
AcDbEntity
  8
DEFPOINTS
 62
     0
100
AcDbPoint
 10
3.316421690334891
 20
1.218150918157014
 30
0.0
  0
POINT
  5
82F
330
825
100
AcDbEntity
  8
DEFPOINTS
 62
     0
100
AcDbPoint
 10
3.316421690334891
 20
-0.4418490818429857
 30
0.0
  0
POINT
  5
830
330
825
100
AcDbEntity
  8
DEFPOINTS
 62
     0
100
AcDbPoint
 10
2.377225868716251
 20
-0.4418490818429854
 30
0.0
  0
ENDBLK
  5
831
330
825
100
AcDbEntity
  8
0
 62
     3
100
AcDbBlockEnd
  0
BLOCK
  5
844
330
839
100
AcDbEntity
  8
0
100
AcDbBlockBegin
  2
*D10
 70
     1
 10
0.0
 20
0.0
 30
0.0
  3
*D10
  1

  0
LINE
  5
846
330
839
100
AcDbEntity
  8
ADPDIM
 62
     0
370
    -2
100
AcDbLine
 10
3.332678106882066
 20
3.233280457004332
 30
0.0
 11
2.275982285263427
 21
3.233280457004333
 31
0.0
  0
LINE
  5
847
330
839
100
AcDbEntity
  8
ADPDIM
 62
     0
370
    -2
100
AcDbLine
 10
3.332678106882066
 20
1.573280457004333
 30
0.0
 11
2.275982285263427
 21
1.573280457004333
 31
0.0
  0
LINE
  5
848
330
839
100
AcDbEntity
  8
ADPDIM
 62
     0
370
    -2
100
AcDbLine
 10
2.455982285263428
 20
3.233280457004333
 30
0.0
 11
2.455982285263427
 21
2.799113790337666
 31
0.0
  0
LINE
  5
849
330
839
100
AcDbEntity
  8
ADPDIM
 62
     0
370
    -2
100
AcDbLine
 10
2.455982285263427
 20
1.573280457004333
 30
0.0
 11
2.455982285263427
 21
2.007447123670999
 31
0.0
  0
LINE
  5
84A
330
839
100
AcDbEntity
  8
ADPDIM
 62
     0
370
    -2
100
AcDbLine
 10
2.580982285263427
 20
1.448280457004333
 30
0.0
 11
2.330982285263427
 21
1.698280457004333
 31
0.0
  0
LINE
  5
84B
330
839
100
AcDbEntity
  8
ADPDIM
 62
     0
370
    -2
100
AcDbLine
 10
2.580982285263428
 20
3.108280457004333
 30
0.0
 11
2.330982285263428
 21
3.358280457004333
 31
0.0
  0
MTEXT
  5
84C
330
839
100
AcDbEntity
  8
ADPDIM
 62
     0
100
AcDbMText
 10
2.455982285263427
 20
2.403280457004333
 30
0.0
 40
0.125
 41
0.0
 71
     5
 72
     1
  1
\A1;1.6600
 11
0.0000000000000001
 21
1.0
 31
0.0
 73
     1
 44
1.0
1001
ACAD
1000
MTEXTBEGIN
1070
    73
1070
     1
1070
    44
1040
1.0
1070
    74
1070
     0
1000
MTEXTEND
  0
POINT
  5
84D
330
839
100
AcDbEntity
  8
DEFPOINTS
 62
     0
100
AcDbPoint
 10
3.395178106882066
 20
3.233280457004332
 30
0.0
  0
POINT
  5
84E
330
839
100
AcDbEntity
  8
DEFPOINTS
 62
     0
100
AcDbPoint
 10
3.395178106882066
 20
1.573280457004333
 30
0.0
  0
POINT
  5
84F
330
839
100
AcDbEntity
  8
DEFPOINTS
 62
     0
100
AcDbPoint
 10
2.455982285263427
 20
1.573280457004333
 30
0.0
  0
ENDBLK
  5
845
330
839
100
AcDbEntity
  8
0
100
AcDbBlockEnd
  0
ENDSEC
  0
SECTION
  2
ENTITIES
  0
TEXT
  5
69
330
18
100
AcDbEntity
  8
ADPDIM
100
AcDbText
 10
-0.0809635984807065
 20
-1.103914201575905
 30
0.0
 40
0.09375
  1
J U L I U S  B L U M  &  C O . ,  I N C .      ( 8 0 0 )  5 2 6 - 6 2 9 3        W W W . J U L I U S B L U M . C O M        P A R T  N o .  7 0 7
 41
1.25
  7
ARIAL_WIDE
 72
     1
 11
4.745067054657083
 21
-1.010164201575905
 31
0.0
100
AcDbText
 73
     3
  0
DIMENSION
  5
1D2
330
18
100
AcDbEntity
  8
ADPDIM
 62
     3
100
AcDbDimension
  2
*D1
 10
2.377225868716251
 20
-0.4418490818429854
 30
0.0
 11
2.377225868716251
 21
0.3881509181570148
 31
0.0
 70
    32
 71
     5
 42
1.659999999999999
  3
STANDARD
100
AcDbAlignedDimension
 13
3.316421690334891
 23
1.218150918157014
 33
0.0
 14
3.316421690334891
 24
-0.4418490818429857
 34
0.0
 50
90.0
100
AcDbRotatedDimension
1001
ACAD
1000
DSTYLE
1002
{
1070
    41
1040
0.125
1070
    73
1070
     0
1070
    74
1070
     0
1070
    78
1070
     3
1070
   140
1040
0.125
1070
   141
1040
0.1875
1070
   142
1040
0.125
1070
   147
1040
0.125
1070
   171
1070
     1
1002
}
  0
SPLINE
  5
38A
330
18
100
AcDbEntity
  8
Layer 1
 62
     7
370
    18
100
AcDbSpline
210
0.0
220
0.0
230
1.0
 70
    11
 71
     3
 72
    17
 73
    13
 74
     0
 42
0.0000000001
 43
0.0000000001
 40
0.0
 40
0.0
 40
0.0
 40
0.0
 40
1.0
 40
1.0
 40
1.0
 40
2.0
 40
2.0
 40
2.0
 40
3.0
 40
3.0
 40
3.0
 40
4.0
 40
4.0
 40
4.0
 40
4.0
 10
5.146812904067997
 20
0.3881549918857945
 30
0.0
 10
5.146812904067997
 20
-0.0702464605781068
 30
0.0
 10
5.518422307109865
 20
-0.4418490819314749
 30
0.0
 10
5.976823759573766
 20
-0.4418490819314749
 30
0.0
 10
6.43521164866067
 20
-0.4418490819314749
 30
0.0
 10
6.806821051702536
 20
-0.0702464605781068
 30
0.0
 10
6.806821051702536
 20
0.3881549918857945
 30
0.0
 10
6.806821051702536
 20
0.8465496626611979
 30
0.0
 10
6.43521164866067
 20
1.218152284014564
 30
0.0
 10
5.976823759573766
 20
1.218152284014564
 30
0.0
 10
5.518422307109865
 20
1.218152284014564
 30
0.0
 10
5.146812904067997
 20
0.8465496626611979
 30
0.0
 10
5.146812904067997
 20
0.3881549918857945
 30
0.0
  0
SPLINE
  5
38B
330
18
100
AcDbEntity
  8
ADP1DETAIL
  6
AI-Linetype-5
 62
     5
370
    18
100
AcDbSpline
210
0.0
220
0.0
230
1.0
 70
    11
 71
     3
 72
    17
 73
    13
 74
     0
 42
0.0000000001
 43
0.0000000001
 40
0.0
 40
0.0
 40
0.0
 40
0.0
 40
1.0
 40
1.0
 40
1.0
 40
2.0
 40
2.0
 40
2.0
 40
3.0
 40
3.0
 40
3.0
 40
4.0
 40
4.0
 40
4.0
 40
4.0
 10
6.666819874310094
 20
0.3881549918857945
 30
0.0
 10
6.666819874310094
 20
0.0070783516980319
 30
0.0
 10
6.35788683638453
 20
-0.3018479045390312
 30
0.0
 10
5.976810196196767
 20
-0.3018479045390312
 30
0.0
 10
5.595733556009005
 20
-0.3018479045390312
 30
0.0
 10
5.286814081460441
 20
0.0070783516980319
 30
0.0
 10
5.286814081460441
 20
0.3881549918857945
 30
0.0
 10
5.286814081460441
 20
0.7692316320735571
 30
0.0
 10
5.595733556009005
 20
1.078157888310621
 30
0.0
 10
5.976810196196767
 20
1.078157888310621
 30
0.0
 10
6.35788683638453
 20
1.078157888310621
 30
0.0
 10
6.666819874310094
 20
0.7692316320735571
 30
0.0
 10
6.666819874310094
 20
0.3881549918857945
 30
0.0
  0
SPLINE
  5
38C
330
18
100
AcDbEntity
  8
ADP1DETAIL
  6
AI-Linetype-6
 62
     5
370
    18
100
AcDbSpline
210
0.0
220
0.0
230
1.0
 70
    11
 71
     3
 72
    17
 73
    13
 74
     0
 42
0.0000000001
 43
0.0000000001
 40
0.0
 40
0.0
 40
0.0
 40
0.0
 40
1.0
 40
1.0
 40
1.0
 40
2.0
 40
2.0
 40
2.0
 40
3.0
 40
3.0
 40
3.0
 40
4.0
 40
4.0
 40
4.0
 40
4.0
 10
6.541819791879484
 20
0.3881549918857945
 30
0.0
 10
6.541819791879484
 20
0.0761091589387646
 30
0.0
 10
6.288849247455297
 20
-0.1768478221084213
 30
0.0
 10
5.976810196196767
 20
-0.1768478221084213
 30
0.0
 10
5.664771144938237
 20
-0.1768478221084213
 30
0.0
 10
5.411814163891051
 20
0.0761091589387646
 30
0.0
 10
5.411814163891051
 20
0.3881549918857945
 30
0.0
 10
5.411814163891051
 20
0.7001940431443248
 30
0.0
 10
5.664771144938237
 20
0.9531510241915125
 30
0.0
 10
5.976810196196767
 20
0.9531510241915125
 30
0.0
 10
6.288849247455297
 20
0.9531510241915125
 30
0.0
 10
6.541819791879484
 20
0.7001940431443248
 30
0.0
 10
6.541819791879484
 20
0.3881549918857945
 30
0.0
  0
DIMENSION
  5
38D
330
18
100
AcDbEntity
  8
ADP1DETAIL
 62
     3
100
AcDbDimension
  2
*D4
 10
4.950669642159841
 20
-0.3022983402740956
 30
0.0
 11
4.950669642159841
 21
0.3877045561507319
 31
0.0
 70
    32
 71
     5
 42
1.380005792849653
  3
STANDARD
100
AcDbAlignedDimension
 13
4.635741024511911
 23
1.077707452575557
 33
0.0
 14
4.635741024511911
 24
-0.3022983402740955
 34
0.0
 50
90.0
100
AcDbRotatedDimension
1001
ACAD
1000
DSTYLE
1002
{
1070
    41
1040
0.125
1070
    73
1070
     0
1070
    74
1070
     0
1070
    78
1070
     3
1070
   140
1040
0.125
1070
   141
1040
0.1875
1070
   142
1040
0.125
1070
   147
1040
0.125
1070
   171
1070
     1
1002
}
  0
POLYLINE
  5
641
330
18
100
AcDbEntity
  8
Layer 1
  6
AI-Linetype-1
 62
   253
370
    25
100
AcDb2dPolyline
 66
     1
 10
0.0
 20
0.0
 30
0.0
  0
VERTEX
  5
642
330
641
100
AcDbEntity
  8
Layer 1
  6
AI-Linetype-1
 62
   253
370
    25
100
AcDbVertex
100
AcDb2dVertex
 10
4.681296709143491
 20
-0.1232764152691459
 30
0.0
  0
VERTEX
  5
643
330
641
100
AcDbEntity
  8
Layer 1
  6
AI-Linetype-1
 62
   253
370
    25
100
AcDbVertex
100
AcDb2dVertex
 10
4.681296709143491
 20
0.8940581759170399
 30
0.0
  0
SEQEND
  5
644
330
641
100
AcDbEntity
  8
Layer 1
  6
AI-Linetype-1
370
    25
  0
POLYLINE
  5
649
330
18
100
AcDbEntity
  8
Layer 1
 62
     7
370
    25
100
AcDb2dPolyline
 66
     1
 10
0.0
 20
0.0
 30
0.0
  0
VERTEX
  5
64A
330
649
100
AcDbEntity
  8
Layer 1
 62
     7
370
    25
100
AcDbVertex
100
AcDb2dVertex
 10
3.683915690580731
 20
-0.442438882323041
 30
0.0
  0
VERTEX
  5
64B
330
649
100
AcDbEntity
  8
Layer 1
 62
     7
370
    25
100
AcDbVertex
100
AcDb2dVertex
 10
3.250382050818545
 20
-0.442438882323041
 30
0.0
  0
SEQEND
  5
64C
330
649
100
AcDbEntity
  8
Layer 1
370
    25
  0
POLYLINE
  5
651
330
18
100
AcDbEntity
  8
Layer 1
  6
AI-Linetype-2
 62
   253
370
    25
100
AcDb2dPolyline
 66
     1
 10
0.0
 20
0.0
 30
0.0
  0
VERTEX
  5
652
330
651
100
AcDbEntity
  8
Layer 1
  6
AI-Linetype-2
 62
   253
370
    25
100
AcDbVertex
100
AcDb2dVertex
 10
4.671326686754707
 20
1.071083566662894
 30
0.0
  0
VERTEX
  5
653
330
651
100
AcDbEntity
  8
Layer 1
  6
AI-Linetype-2
 62
   253
370
    25
100
AcDbVertex
100
AcDb2dVertex
 10
4.67135716505672
 20
-0.3002791217470122
 30
0.0
  0
SEQEND
  5
654
330
651
100
AcDbEntity
  8
Layer 1
  6
AI-Linetype-2
370
    25
  0
POLYLINE
  5
664
330
18
100
AcDbEntity
  8
Layer 1
 62
     7
370
    25
100
AcDb2dPolyline
 66
     1
 10
0.0
 20
0.0
 30
0.0
  0
VERTEX
  5
665
330
664
100
AcDbEntity
  8
Layer 1
 62
     7
370
    25
100
AcDbVertex
100
AcDb2dVertex
 10
3.996097789177923
 20
-0.3102853562496435
 30
0.0
  0
VERTEX
  5
666
330
664
100
AcDbEntity
  8
Layer 1
 62
     7
370
    25
100
AcDbVertex
100
AcDb2dVertex
 10
4.370115671138918
 20
-0.3102853562496435
 30
0.0
  0
SEQEND
  5
667
330
664
100
AcDbEntity
  8
Layer 1
370
    25
  0
POLYLINE
  5
668
330
18
100
AcDbEntity
  8
Layer 1
 62
     7
370
    25
100
AcDb2dPolyline
 66
     1
 10
0.0
 20
0.0
 30
0.0
  0
VERTEX
  5
669
330
668
100
AcDbEntity
  8
Layer 1
 62
     7
370
    25
100
AcDbVertex
100
AcDb2dVertex
 10
3.996097789177923
 20
-0.3097104228011878
 30
0.0
  0
VERTEX
  5
66A
330
668
100
AcDbEntity
  8
Layer 1
 62
     7
370
    25
100
AcDbVertex
100
AcDb2dVertex
 10
4.370115671138918
 20
-0.3097104228011878
 30
0.0
  0
SEQEND
  5
66B
330
668
100
AcDbEntity
  8
Layer 1
370
    25
  0
POLYLINE
  5
66C
330
18
100
AcDbEntity
  8
Layer 1
 62
     7
370
    25
100
AcDb2dPolyline
 66
     1
 10
0.0
 20
0.0
 30
0.0
  0
VERTEX
  5
66D
330
66C
100
AcDbEntity
  8
Layer 1
 62
     7
370
    25
100
AcDbVertex
100
AcDb2dVertex
 10
3.996097789177923
 20
-0.307762412999304
 30
0.0
  0
VERTEX
  5
66E
330
66C
100
AcDbEntity
  8
Layer 1
 62
     7
370
    25
100
AcDbVertex
100
AcDb2dVertex
 10
4.370115671138918
 20
-0.307762412999304
 30
0.0
  0
SEQEND
  5
66F
330
66C
100
AcDbEntity
  8
Layer 1
370
    25
  0
POLYLINE
  5
670
330
18
100
AcDbEntity
  8
Layer 1
 62
     7
370
    25
100
AcDb2dPolyline
 66
     1
 10
0.0
 20
0.0
 30
0.0
  0
VERTEX
  5
671
330
670
100
AcDbEntity
  8
Layer 1
 62
     7
370
    25
100
AcDbVertex
100
AcDb2dVertex
 10
3.996097789177923
 20
-0.3007008774674471
 30
0.0
  0
VERTEX
  5
672
330
670
100
AcDbEntity
  8
Layer 1
 62
     7
370
    25
100
AcDbVertex
100
AcDb2dVertex
 10
4.370115671138918
 20
-0.3007008774674471
 30
0.0
  0
SEQEND
  5
673
330
670
100
AcDbEntity
  8
Layer 1
370
    25
  0
POLYLINE
  5
674
330
18
100
AcDbEntity
  8
Layer 1
 62
     7
370
    25
100
AcDb2dPolyline
 66
     1
 10
0.0
 20
0.0
 30
0.0
  0
VERTEX
  5
675
330
674
100
AcDbEntity
  8
Layer 1
 62
     7
370
    25
100
AcDbVertex
100
AcDb2dVertex
 10
4.67135716505672
 20
-0.3002791217470122
 30
0.0
  0
VERTEX
  5
676
330
674
100
AcDbEntity
  8
Layer 1
 62
     7
370
    25
100
AcDbVertex
100
AcDb2dVertex
 10
4.370115671138918
 20
-0.30030856993793
 30
0.0
  0
SEQEND
  5
677
330
674
100
AcDbEntity
  8
Layer 1
370
    25
  0
POLYLINE
  5
678
330
18
100
AcDbEntity
  8
Layer 1
 62
     7
370
    25
100
AcDb2dPolyline
 66
     1
 10
0.0
 20
0.0
 30
0.0
  0
VERTEX
  5
679
330
678
100
AcDbEntity
  8
Layer 1
 62
     7
370
    25
100
AcDbVertex
100
AcDb2dVertex
 10
3.996097789177923
 20
-0.30030856993793
 30
0.0
  0
VERTEX
  5
67A
330
678
100
AcDbEntity
  8
Layer 1
 62
     7
370
    25
100
AcDbVertex
100
AcDb2dVertex
 10
3.683915690580731
 20
-0.30030856993793
 30
0.0
  0
SEQEND
  5
67B
330
678
100
AcDbEntity
  8
Layer 1
370
    25
  0
POLYLINE
  5
67C
330
18
100
AcDbEntity
  8
Layer 1
  6
AI-Linetype-3
 62
   253
370
    25
100
AcDb2dPolyline
 66
     1
 10
0.0
 20
0.0
 30
0.0
  0
VERTEX
  5
67D
330
67C
100
AcDbEntity
  8
Layer 1
  6
AI-Linetype-3
 62
   253
370
    25
100
AcDbVertex
100
AcDb2dVertex
 10
4.370115671138918
 20
-0.2989557853532911
 30
0.0
  0
VERTEX
  5
67E
330
67C
100
AcDbEntity
  8
Layer 1
  6
AI-Linetype-3
 62
   253
370
    25
100
AcDbVertex
100
AcDb2dVertex
 10
3.996097789177923
 20
-0.2989557853532911
 30
0.0
  0
SEQEND
  5
67F
330
67C
100
AcDbEntity
  8
Layer 1
  6
AI-Linetype-3
370
    25
  0
POLYLINE
  5
680
330
18
100
AcDbEntity
  8
Layer 1
 62
     7
370
    25
100
AcDb2dPolyline
 66
     1
 10
0.0
 20
0.0
 30
0.0
  0
VERTEX
  5
681
330
680
100
AcDbEntity
  8
Layer 1
 62
     7
370
    25
100
AcDbVertex
100
AcDb2dVertex
 10
3.996097789177923
 20
-0.2948771398305849
 30
0.0
  0
VERTEX
  5
682
330
680
100
AcDbEntity
  8
Layer 1
 62
     7
370
    25
100
AcDbVertex
100
AcDb2dVertex
 10
4.370115671138918
 20
-0.2948771398305849
 30
0.0
  0
SEQEND
  5
683
330
680
100
AcDbEntity
  8
Layer 1
370
    25
  0
POLYLINE
  5
684
330
18
100
AcDbEntity
  8
Layer 1
  6
AI-Linetype-4
 62
   253
370
    25
100
AcDb2dPolyline
 66
     1
 10
0.0
 20
0.0
 30
0.0
  0
VERTEX
  5
685
330
684
100
AcDbEntity
  8
Layer 1
  6
AI-Linetype-4
 62
   253
370
    25
100
AcDbVertex
100
AcDb2dVertex
 10
4.370115671138918
 20
-0.2881605643678959
 30
0.0
  0
VERTEX
  5
686
330
684
100
AcDbEntity
  8
Layer 1
  6
AI-Linetype-4
 62
   253
370
    25
100
AcDbVertex
100
AcDb2dVertex
 10
3.996097789177923
 20
-0.2881605643678959
 30
0.0
  0
SEQEND
  5
687
330
684
100
AcDbEntity
  8
Layer 1
  6
AI-Linetype-4
370
    25
  0
POLYLINE
  5
688
330
18
100
AcDbEntity
  8
Layer 1
 62
     7
370
    25
100
AcDb2dPolyline
 66
     1
 10
0.0
 20
0.0
 30
0.0
  0
VERTEX
  5
689
330
688
100
AcDbEntity
  8
Layer 1
 62
     7
370
    25
100
AcDbVertex
100
AcDb2dVertex
 10
3.996097789177923
 20
-0.2808690554566722
 30
0.0
  0
VERTEX
  5
68A
330
688
100
AcDbEntity
  8
Layer 1
 62
     7
370
    25
100
AcDbVertex
100
AcDb2dVertex
 10
4.370115671138918
 20
-0.2808690554566722
 30
0.0
  0
SEQEND
  5
68B
330
688
100
AcDbEntity
  8
Layer 1
370
    25
  0
POLYLINE
  5
68C
330
18
100
AcDbEntity
  8
Layer 1
 62
     7
370
    25
100
AcDb2dPolyline
 66
     1
 10
0.0
 20
0.0
 30
0.0
  0
VERTEX
  5
68D
330
68C
100
AcDbEntity
  8
Layer 1
 62
     7
370
    25
100
AcDbVertex
100
AcDb2dVertex
 10
3.996097789177923
 20
-0.2712710488286167
 30
0.0
  0
VERTEX
  5
68E
330
68C
100
AcDbEntity
  8
Layer 1
 62
     7
370
    25
100
AcDbVertex
100
AcDb2dVertex
 10
4.370115671138918
 20
-0.2712710488286167
 30
0.0
  0
SEQEND
  5
68F
330
68C
100
AcDbEntity
  8
Layer 1
370
    25
  0
POLYLINE
  5
690
330
18
100
AcDbEntity
  8
Layer 1
  6
AI-Linetype-5
 62
   253
370
    25
100
AcDb2dPolyline
 66
     1
 10
0.0
 20
0.0
 30
0.0
  0
VERTEX
  5
691
330
690
100
AcDbEntity
  8
Layer 1
  6
AI-Linetype-5
 62
   253
370
    25
100
AcDbVertex
100
AcDb2dVertex
 10
4.370115671138918
 20
-0.2667459843930371
 30
0.0
  0
VERTEX
  5
692
330
690
100
AcDbEntity
  8
Layer 1
  6
AI-Linetype-5
 62
   253
370
    25
100
AcDbVertex
100
AcDb2dVertex
 10
3.996097789177923
 20
-0.2667459843930371
 30
0.0
  0
SEQEND
  5
693
330
690
100
AcDbEntity
  8
Layer 1
  6
AI-Linetype-5
370
    25
  0
POLYLINE
  5
694
330
18
100
AcDbEntity
  8
Layer 1
 62
     7
370
    25
100
AcDb2dPolyline
 66
     1
 10
0.0
 20
0.0
 30
0.0
  0
VERTEX
  5
695
330
694
100
AcDbEntity
  8
Layer 1
 62
     7
370
    25
100
AcDbVertex
100
AcDb2dVertex
 10
3.996097789177923
 20
-0.2505260972232266
 30
0.0
  0
VERTEX
  5
696
330
694
100
AcDbEntity
  8
Layer 1
 62
     7
370
    25
100
AcDbVertex
100
AcDb2dVertex
 10
4.370115671138918
 20
-0.2505260972232266
 30
0.0
  0
SEQEND
  5
697
330
694
100
AcDbEntity
  8
Layer 1
370
    25
  0
POLYLINE
  5
698
330
18
100
AcDbEntity
  8
Layer 1
 62
     7
370
    25
100
AcDb2dPolyline
 66
     1
 10
0.0
 20
0.0
 30
0.0
  0
VERTEX
  5
699
330
698
100
AcDbEntity
  8
Layer 1
 62
     7
370
    25
100
AcDbVertex
100
AcDb2dVertex
 10
3.996097789177923
 20
-0.2373026279083477
 30
0.0
  0
VERTEX
  5
69A
330
698
100
AcDbEntity
  8
Layer 1
 62
     7
370
    25
100
AcDbVertex
100
AcDb2dVertex
 10
4.370115671138918
 20
-0.2373026279083477
 30
0.0
  0
SEQEND
  5
69B
330
698
100
AcDbEntity
  8
Layer 1
370
    25
  0
POLYLINE
  5
69C
330
18
100
AcDbEntity
  8
Layer 1
  6
AI-Linetype-6
 62
   253
370
    25
100
AcDb2dPolyline
 66
     1
 10
0.0
 20
0.0
 30
0.0
  0
VERTEX
  5
69D
330
69C
100
AcDbEntity
  8
Layer 1
  6
AI-Linetype-6
 62
   253
370
    25
100
AcDbVertex
100
AcDb2dVertex
 10
4.370115671138918
 20
-0.2350502415749522
 30
0.0
  0
VERTEX
  5
69E
330
69C
100
AcDbEntity
  8
Layer 1
  6
AI-Linetype-6
 62
   253
370
    25
100
AcDbVertex
100
AcDb2dVertex
 10
3.996097789177923
 20
-0.2350502415749522
 30
0.0
  0
SEQEND
  5
69F
330
69C
100
AcDbEntity
  8
Layer 1
  6
AI-Linetype-6
370
    25
  0
POLYLINE
  5
6A0
330
18
100
AcDbEntity
  8
Layer 1
 62
     7
370
    25
100
AcDb2dPolyline
 66
     1
 10
0.0
 20
0.0
 30
0.0
  0
VERTEX
  5
6A1
330
6A0
100
AcDbEntity
  8
Layer 1
 62
     7
370
    25
100
AcDbVertex
100
AcDb2dVertex
 10
3.996097789177923
 20
-0.210159005217561
 30
0.0
  0
VERTEX
  5
6A2
330
6A0
100
AcDbEntity
  8
Layer 1
 62
     7
370
    25
100
AcDbVertex
100
AcDb2dVertex
 10
4.370115671138918
 20
-0.210159005217561
 30
0.0
  0
SEQEND
  5
6A3
330
6A0
100
AcDbEntity
  8
Layer 1
370
    25
  0
POLYLINE
  5
6A4
330
18
100
AcDbEntity
  8
Layer 1
 62
     7
370
    25
100
AcDb2dPolyline
 66
     1
 10
0.0
 20
0.0
 30
0.0
  0
VERTEX
  5
6A5
330
6A4
100
AcDbEntity
  8
Layer 1
 62
     7
370
    25
100
AcDbVertex
100
AcDb2dVertex
 10
3.996097789177923
 20
-0.1935197548265157
 30
0.0
  0
VERTEX
  5
6A6
330
6A4
100
AcDbEntity
  8
Layer 1
 62
     7
370
    25
100
AcDbVertex
100
AcDb2dVertex
 10
4.370115671138918
 20
-0.1935197548265157
 30
0.0
  0
SEQEND
  5
6A7
330
6A4
100
AcDbEntity
  8
Layer 1
370
    25
  0
POLYLINE
  5
6A8
330
18
100
AcDbEntity
  8
Layer 1
 62
     7
370
    25
100
AcDb2dPolyline
 66
     1
 10
0.0
 20
0.0
 30
0.0
  0
VERTEX
  5
6A9
330
6A8
100
AcDbEntity
  8
Layer 1
 62
     7
370
    25
100
AcDbVertex
100
AcDb2dVertex
 10
4.370115671138918
 20
-0.3102853562496435
 30
0.0
  0
VERTEX
  5
6AA
330
6A8
100
AcDbEntity
  8
Layer 1
 62
     7
370
    25
100
AcDbVertex
100
AcDb2dVertex
 10
4.370115671138918
 20
1.081067116897537
 30
0.0
  0
SEQEND
  5
6AB
330
6A8
100
AcDbEntity
  8
Layer 1
370
    25
  0
POLYLINE
  5
6AC
330
18
100
AcDbEntity
  8
Layer 1
 62
     7
370
    25
100
AcDb2dPolyline
 66
     1
 10
0.0
 20
0.0
 30
0.0
  0
VERTEX
  5
6AD
330
6AC
100
AcDbEntity
  8
Layer 1
 62
     7
370
    25
100
AcDbVertex
100
AcDb2dVertex
 10
3.996097789177923
 20
-0.1604035881945758
 30
0.0
  0
VERTEX
  5
6AE
330
6AC
100
AcDbEntity
  8
Layer 1
 62
     7
370
    25
100
AcDbVertex
100
AcDb2dVertex
 10
4.370115671138918
 20
-0.1604035881945758
 30
0.0
  0
SEQEND
  5
6AF
330
6AC
100
AcDbEntity
  8
Layer 1
370
    25
  0
POLYLINE
  5
6B0
330
18
100
AcDbEntity
  8
Layer 1
 62
     7
370
    25
100
AcDb2dPolyline
 66
     1
 10
0.0
 20
0.0
 30
0.0
  0
VERTEX
  5
6B1
330
6B0
100
AcDbEntity
  8
Layer 1
 62
     7
370
    25
100
AcDbVertex
100
AcDb2dVertex
 10
4.370115671138918
 20
-0.1429526670526995
 30
0.0
  0
VERTEX
  5
6B2
330
6B0
100
AcDbEntity
  8
Layer 1
 62
     7
370
    25
100
AcDbVertex
100
AcDb2dVertex
 10
3.996097789177923
 20
-0.1429526670526995
 30
0.0
  0
SEQEND
  5
6B3
330
6B0
100
AcDbEntity
  8
Layer 1
370
    25
  0
POLYLINE
  5
6B4
330
18
100
AcDbEntity
  8
Layer 1
 62
     7
370
    25
100
AcDb2dPolyline
 66
     1
 10
0.0
 20
0.0
 30
0.0
  0
VERTEX
  5
6B5
330
6B4
100
AcDbEntity
  8
Layer 1
 62
     7
370
    25
100
AcDbVertex
100
AcDb2dVertex
 10
3.996097789177923
 20
-0.1405988218754404
 30
0.0
  0
VERTEX
  5
6B6
330
6B4
100
AcDbEntity
  8
Layer 1
 62
     7
370
    25
100
AcDbVertex
100
AcDb2dVertex
 10
4.370115671138918
 20
-0.1405988218754404
 30
0.0
  0
SEQEND
  5
6B7
330
6B4
100
AcDbEntity
  8
Layer 1
370
    25
  0
POLYLINE
  5
6B8
330
18
100
AcDbEntity
  8
ADP1DETAIL
  6
AI-Linetype-5
 62
     5
370
    25
100
AcDb2dPolyline
 66
     1
 10
0.0
 20
0.0
 30
0.0
  0
VERTEX
  5
6B9
330
6B8
100
AcDbEntity
  8
ADP1DETAIL
  6
AI-Linetype-5
 62
     5
370
    25
100
AcDbVertex
100
AcDb2dVertex
 10
3.683915690580731
 20
-0.1132996289574324
 30
0.0
  0
VERTEX
  5
6BA
330
6B8
100
AcDbEntity
  8
ADP1DETAIL
  6
AI-Linetype-5
 62
     5
370
    25
100
AcDbVertex
100
AcDb2dVertex
 10
4.671313158908848
 20
-0.1132996289574324
 30
0.0
  0
SEQEND
  5
6BB
330
6B8
100
AcDbEntity
  8
ADP1DETAIL
  6
AI-Linetype-5
 62
     5
370
    25
  0
POLYLINE
  5
6BC
330
18
100
AcDbEntity
  8
Layer 1
 62
     7
370
    25
100
AcDb2dPolyline
 66
     1
 10
0.0
 20
0.0
 30
0.0
  0
VERTEX
  5
6BD
330
6BC
100
AcDbEntity
  8
Layer 1
 62
     7
370
    25
100
AcDbVertex
100
AcDb2dVertex
 10
3.996097789177923
 20
-0.1020309333673666
 30
0.0
  0
VERTEX
  5
6BE
330
6BC
100
AcDbEntity
  8
Layer 1
 62
     7
370
    25
100
AcDbVertex
100
AcDb2dVertex
 10
4.370115671138918
 20
-0.1020309333673666
 30
0.0
  0
SEQEND
  5
6BF
330
6BC
100
AcDbEntity
  8
Layer 1
370
    25
  0
POLYLINE
  5
6C0
330
18
100
AcDbEntity
  8
Layer 1
 62
     7
370
    25
100
AcDb2dPolyline
 66
     1
 10
0.0
 20
0.0
 30
0.0
  0
VERTEX
  5
6C1
330
6C0
100
AcDbEntity
  8
Layer 1
 62
     7
370
    25
100
AcDbVertex
100
AcDb2dVertex
 10
4.370115671138918
 20
-0.0840050787770346
 30
0.0
  0
VERTEX
  5
6C2
330
6C0
100
AcDbEntity
  8
Layer 1
 62
     7
370
    25
100
AcDbVertex
100
AcDb2dVertex
 10
3.996097789177923
 20
-0.0840050787770346
 30
0.0
  0
SEQEND
  5
6C3
330
6C0
100
AcDbEntity
  8
Layer 1
370
    25
  0
POLYLINE
  5
6C4
330
18
100
AcDbEntity
  8
Layer 1
 62
     7
370
    25
100
AcDb2dPolyline
 66
     1
 10
0.0
 20
0.0
 30
0.0
  0
VERTEX
  5
6C5
330
6C4
100
AcDbEntity
  8
Layer 1
 62
     7
370
    25
100
AcDbVertex
100
AcDb2dVertex
 10
3.996097789177923
 20
-0.0793920833434503
 30
0.0
  0
VERTEX
  5
6C6
330
6C4
100
AcDbEntity
  8
Layer 1
 62
     7
370
    25
100
AcDbVertex
100
AcDb2dVertex
 10
4.370115671138918
 20
-0.0793920833434503
 30
0.0
  0
SEQEND
  5
6C7
330
6C4
100
AcDbEntity
  8
Layer 1
370
    25
  0
POLYLINE
  5
6C8
330
18
100
AcDbEntity
  8
Layer 1
 62
     7
370
    25
100
AcDb2dPolyline
 66
     1
 10
0.0
 20
0.0
 30
0.0
  0
VERTEX
  5
6C9
330
6C8
100
AcDbEntity
  8
Layer 1
 62
     7
370
    25
100
AcDbVertex
100
AcDb2dVertex
 10
3.996097789177923
 20
-0.0359812260223467
 30
0.0
  0
VERTEX
  5
6CA
330
6C8
100
AcDbEntity
  8
Layer 1
 62
     7
370
    25
100
AcDbVertex
100
AcDb2dVertex
 10
4.370115671138918
 20
-0.0359812260223467
 30
0.0
  0
SEQEND
  5
6CB
330
6C8
100
AcDbEntity
  8
Layer 1
370
    25
  0
POLYLINE
  5
6CC
330
18
100
AcDbEntity
  8
Layer 1
 62
     7
370
    25
100
AcDb2dPolyline
 66
     1
 10
0.0
 20
0.0
 30
0.0
  0
VERTEX
  5
6CD
330
6CC
100
AcDbEntity
  8
Layer 1
 62
     7
370
    25
100
AcDbVertex
100
AcDb2dVertex
 10
4.370115671138918
 20
-0.0176509949005022
 30
0.0
  0
VERTEX
  5
6CE
330
6CC
100
AcDbEntity
  8
Layer 1
 62
     7
370
    25
100
AcDbVertex
100
AcDb2dVertex
 10
3.996097789177923
 20
-0.0176509949005022
 30
0.0
  0
SEQEND
  5
6CF
330
6CC
100
AcDbEntity
  8
Layer 1
370
    25
  0
POLYLINE
  5
6D0
330
18
100
AcDbEntity
  8
Layer 1
 62
     7
370
    25
100
AcDb2dPolyline
 66
     1
 10
0.0
 20
0.0
 30
0.0
  0
VERTEX
  5
6D1
330
6D0
100
AcDbEntity
  8
Layer 1
 62
     7
370
    25
100
AcDbVertex
100
AcDb2dVertex
 10
3.996097789177923
 20
-0.0108464884398085
 30
0.0
  0
VERTEX
  5
6D2
330
6D0
100
AcDbEntity
  8
Layer 1
 62
     7
370
    25
100
AcDbVertex
100
AcDb2dVertex
 10
4.370115671138918
 20
-0.0108464884398085
 30
0.0
  0
SEQEND
  5
6D3
330
6D0
100
AcDbEntity
  8
Layer 1
370
    25
  0
POLYLINE
  5
6D4
330
18
100
AcDbEntity
  8
Layer 1
 62
     7
370
    25
100
AcDb2dPolyline
 66
     1
 10
0.0
 20
0.0
 30
0.0
  0
VERTEX
  5
6D5
330
6D4
100
AcDbEntity
  8
Layer 1
 62
     7
370
    25
100
AcDbVertex
100
AcDb2dVertex
 10
3.996097789177923
 20
0.0367241814790762
 30
0.0
  0
VERTEX
  5
6D6
330
6D4
100
AcDbEntity
  8
Layer 1
 62
     7
370
    25
100
AcDbVertex
100
AcDb2dVertex
 10
4.370115671138918
 20
0.0367241814790762
 30
0.0
  0
SEQEND
  5
6D7
330
6D4
100
AcDbEntity
  8
Layer 1
370
    25
  0
POLYLINE
  5
6D8
330
18
100
AcDbEntity
  8
Layer 1
 62
     7
370
    25
100
AcDb2dPolyline
 66
     1
 10
0.0
 20
0.0
 30
0.0
  0
VERTEX
  5
6D9
330
6D8
100
AcDbEntity
  8
Layer 1
 62
     7
370
    25
100
AcDbVertex
100
AcDb2dVertex
 10
4.370115671138918
 20
0.0550544126009203
 30
0.0
  0
VERTEX
  5
6DA
330
6D8
100
AcDbEntity
  8
Layer 1
 62
     7
370
    25
100
AcDbVertex
100
AcDb2dVertex
 10
3.996097789177923
 20
0.0550544126009203
 30
0.0
  0
SEQEND
  5
6DB
330
6D8
100
AcDbEntity
  8
Layer 1
370
    25
  0
POLYLINE
  5
6DC
330
18
100
AcDbEntity
  8
Layer 1
 62
     7
370
    25
100
AcDb2dPolyline
 66
     1
 10
0.0
 20
0.0
 30
0.0
  0
VERTEX
  5
6DD
330
6DC
100
AcDbEntity
  8
Layer 1
 62
     7
370
    25
100
AcDbVertex
100
AcDb2dVertex
 10
3.996097789177923
 20
0.0639422073220088
 30
0.0
  0
VERTEX
  5
6DE
330
6DC
100
AcDbEntity
  8
Layer 1
 62
     7
370
    25
100
AcDbVertex
100
AcDb2dVertex
 10
4.370115671138918
 20
0.0639422073220088
 30
0.0
  0
SEQEND
  5
6DF
330
6DC
100
AcDbEntity
  8
Layer 1
370
    25
  0
POLYLINE
  5
6E0
330
18
100
AcDbEntity
  8
ADP1DETAIL
  6
AI-Linetype-5
 62
     5
370
    25
100
AcDb2dPolyline
 66
     1
 10
0.0
 20
0.0
 30
0.0
  0
VERTEX
  5
6E1
330
6E0
100
AcDbEntity
  8
ADP1DETAIL
  6
AI-Linetype-5
 62
     5
370
    25
100
AcDbVertex
100
AcDb2dVertex
 10
3.38426714116024
 20
0.3853908803239472
 30
0.0
  0
VERTEX
  5
6E2
330
6E0
100
AcDbEntity
  8
ADP1DETAIL
  6
AI-Linetype-5
 62
     5
370
    25
100
AcDbVertex
100
AcDb2dVertex
 10
3.683915690580731
 20
-0.1132996289574324
 30
0.0
  0
SEQEND
  5
6E3
330
6E0
100
AcDbEntity
  8
ADP1DETAIL
  6
AI-Linetype-5
 62
     5
370
    25
  0
POLYLINE
  5
6E4
330
18
100
AcDbEntity
  8
Layer 1
 62
     7
370
    25
100
AcDb2dPolyline
 66
     1
 10
0.0
 20
0.0
 30
0.0
  0
VERTEX
  5
6E5
330
6E4
100
AcDbEntity
  8
Layer 1
 62
     7
370
    25
100
AcDbVertex
100
AcDb2dVertex
 10
3.996097789177923
 20
0.1149218943941301
 30
0.0
  0
VERTEX
  5
6E6
330
6E4
100
AcDbEntity
  8
Layer 1
 62
     7
370
    25
100
AcDbVertex
100
AcDb2dVertex
 10
4.370115671138918
 20
0.1149218943941301
 30
0.0
  0
SEQEND
  5
6E7
330
6E4
100
AcDbEntity
  8
Layer 1
370
    25
  0
POLYLINE
  5
6E8
330
18
100
AcDbEntity
  8
Layer 1
 62
     7
370
    25
100
AcDb2dPolyline
 66
     1
 10
0.0
 20
0.0
 30
0.0
  0
VERTEX
  5
6E9
330
6E8
100
AcDbEntity
  8
Layer 1
 62
     7
370
    25
100
AcDbVertex
100
AcDb2dVertex
 10
4.370115671138918
 20
0.1329680407531719
 30
0.0
  0
VERTEX
  5
6EA
330
6E8
100
AcDbEntity
  8
Layer 1
 62
     7
370
    25
100
AcDbVertex
100
AcDb2dVertex
 10
3.996097789177923
 20
0.1329680407531719
 30
0.0
  0
SEQEND
  5
6EB
330
6E8
100
AcDbEntity
  8
Layer 1
370
    25
  0
POLYLINE
  5
6EC
330
18
100
AcDbEntity
  8
Layer 1
 62
     7
370
    25
100
AcDb2dPolyline
 66
     1
 10
0.0
 20
0.0
 30
0.0
  0
VERTEX
  5
6ED
330
6EC
100
AcDbEntity
  8
Layer 1
 62
     7
370
    25
100
AcDbVertex
100
AcDb2dVertex
 10
3.996097789177923
 20
0.1437970813532141
 30
0.0
  0
VERTEX
  5
6EE
330
6EC
100
AcDbEntity
  8
Layer 1
 62
     7
370
    25
100
AcDbVertex
100
AcDb2dVertex
 10
4.370115671138918
 20
0.1437970813532141
 30
0.0
  0
SEQEND
  5
6EF
330
6EC
100
AcDbEntity
  8
Layer 1
370
    25
  0
POLYLINE
  5
6F0
330
18
100
AcDbEntity
  8
Layer 1
  6
AI-Linetype-9
 62
   253
370
    25
100
AcDb2dPolyline
 66
     1
 10
0.0
 20
0.0
 30
0.0
  0
VERTEX
  5
6F1
330
6F0
100
AcDbEntity
  8
Layer 1
  6
AI-Linetype-9
 62
   253
370
    25
100
AcDbVertex
100
AcDb2dVertex
 10
4.671326686754707
 20
0.8840746256823969
 30
0.0
  0
VERTEX
  5
6F2
330
6F0
100
AcDbEntity
  8
Layer 1
  6
AI-Linetype-9
 62
   253
370
    25
100
AcDbVertex
100
AcDb2dVertex
 10
4.681296709143491
 20
0.8940581759170399
 30
0.0
  0
SEQEND
  5
6F3
330
6F0
100
AcDbEntity
  8
Layer 1
  6
AI-Linetype-9
370
    25
  0
POLYLINE
  5
6F4
330
18
100
AcDbEntity
  8
Layer 1
 62
     7
370
    25
100
AcDb2dPolyline
 66
     1
 10
0.0
 20
0.0
 30
0.0
  0
VERTEX
  5
6F5
330
6F4
100
AcDbEntity
  8
Layer 1
 62
     7
370
    25
100
AcDbVertex
100
AcDb2dVertex
 10
3.996097789177923
 20
0.1973808787508289
 30
0.0
  0
VERTEX
  5
6F6
330
6F4
100
AcDbEntity
  8
Layer 1
 62
     7
370
    25
100
AcDbVertex
100
AcDb2dVertex
 10
4.370115671138918
 20
0.1973808787508289
 30
0.0
  0
SEQEND
  5
6F7
330
6F4
100
AcDbEntity
  8
Layer 1
370
    25
  0
POLYLINE
  5
6F8
330
18
100
AcDbEntity
  8
Layer 1
 62
     7
370
    25
100
AcDb2dPolyline
 66
     1
 10
0.0
 20
0.0
 30
0.0
  0
VERTEX
  5
6F9
330
6F8
100
AcDbEntity
  8
Layer 1
 62
     7
370
    25
100
AcDbVertex
100
AcDb2dVertex
 10
4.370115671138918
 20
0.214865619507274
 30
0.0
  0
VERTEX
  5
6FA
330
6F8
100
AcDbEntity
  8
Layer 1
 62
     7
370
    25
100
AcDbVertex
100
AcDb2dVertex
 10
3.996097789177923
 20
0.214865619507274
 30
0.0
  0
SEQEND
  5
6FB
330
6F8
100
AcDbEntity
  8
Layer 1
370
    25
  0
POLYLINE
  5
6FC
330
18
100
AcDbEntity
  8
Layer 1
 62
     7
370
    25
100
AcDb2dPolyline
 66
     1
 10
0.0
 20
0.0
 30
0.0
  0
VERTEX
  5
6FD
330
6FC
100
AcDbEntity
  8
Layer 1
 62
     7
370
    25
100
AcDbVertex
100
AcDb2dVertex
 10
3.996097789177923
 20
0.2274735718361196
 30
0.0
  0
VERTEX
  5
6FE
330
6FC
100
AcDbEntity
  8
Layer 1
 62
     7
370
    25
100
AcDbVertex
100
AcDb2dVertex
 10
4.370115671138918
 20
0.2274735718361196
 30
0.0
  0
SEQEND
  5
6FF
330
6FC
100
AcDbEntity
  8
Layer 1
370
    25
  0
POLYLINE
  5
700
330
18
100
AcDbEntity
  8
Layer 1
 62
     7
370
    25
100
AcDb2dPolyline
 66
     1
 10
0.0
 20
0.0
 30
0.0
  0
VERTEX
  5
701
330
700
100
AcDbEntity
  8
Layer 1
 62
     7
370
    25
100
AcDbVertex
100
AcDb2dVertex
 10
3.996097789177923
 20
-0.3102853562496435
 30
0.0
  0
VERTEX
  5
702
330
700
100
AcDbEntity
  8
Layer 1
 62
     7
370
    25
100
AcDbVertex
100
AcDb2dVertex
 10
3.996097789177923
 20
1.081067116897537
 30
0.0
  0
SEQEND
  5
703
330
700
100
AcDbEntity
  8
Layer 1
370
    25
  0
POLYLINE
  5
704
330
18
100
AcDbEntity
  8
Layer 1
 62
     7
370
    25
100
AcDb2dPolyline
 66
     1
 10
0.0
 20
0.0
 30
0.0
  0
VERTEX
  5
705
330
704
100
AcDbEntity
  8
Layer 1
 62
     7
370
    25
100
AcDbVertex
100
AcDb2dVertex
 10
3.996097789177923
 20
0.2828092252707415
 30
0.0
  0
VERTEX
  5
706
330
704
100
AcDbEntity
  8
Layer 1
 62
     7
370
    25
100
AcDbVertex
100
AcDb2dVertex
 10
4.370115671138918
 20
0.2828092252707415
 30
0.0
  0
SEQEND
  5
707
330
704
100
AcDbEntity
  8
Layer 1
370
    25
  0
POLYLINE
  5
708
330
18
100
AcDbEntity
  8
Layer 1
 62
     7
370
    25
100
AcDb2dPolyline
 66
     1
 10
0.0
 20
0.0
 30
0.0
  0
VERTEX
  5
709
330
708
100
AcDbEntity
  8
Layer 1
 62
     7
370
    25
100
AcDbVertex
100
AcDb2dVertex
 10
4.370115671138918
 20
0.2994484756617868
 30
0.0
  0
VERTEX
  5
70A
330
708
100
AcDbEntity
  8
Layer 1
 62
     7
370
    25
100
AcDbVertex
100
AcDb2dVertex
 10
3.996097789177923
 20
0.2994484756617868
 30
0.0
  0
SEQEND
  5
70B
330
708
100
AcDbEntity
  8
Layer 1
370
    25
  0
POLYLINE
  5
70C
330
18
100
AcDbEntity
  8
Layer 1
 62
     7
370
    25
100
AcDb2dPolyline
 66
     1
 10
0.0
 20
0.0
 30
0.0
  0
VERTEX
  5
70D
330
70C
100
AcDbEntity
  8
Layer 1
 62
     7
370
    25
100
AcDbVertex
100
AcDb2dVertex
 10
3.996097789177923
 20
0.3136324220317874
 30
0.0
  0
VERTEX
  5
70E
330
70C
100
AcDbEntity
  8
Layer 1
 62
     7
370
    25
100
AcDbVertex
100
AcDb2dVertex
 10
4.370115671138918
 20
0.3136324220317874
 30
0.0
  0
SEQEND
  5
70F
330
70C
100
AcDbEntity
  8
Layer 1
370
    25
  0
POLYLINE
  5
710
330
18
100
AcDbEntity
  8
Layer 1
 62
     7
370
    25
100
AcDb2dPolyline
 66
     1
 10
0.0
 20
0.0
 30
0.0
  0
VERTEX
  5
711
330
710
100
AcDbEntity
  8
Layer 1
 62
     7
370
    25
100
AcDbVertex
100
AcDb2dVertex
 10
3.996097789177923
 20
0.3698609132923152
 30
0.0
  0
VERTEX
  5
712
330
710
100
AcDbEntity
  8
Layer 1
 62
     7
370
    25
100
AcDbVertex
100
AcDb2dVertex
 10
4.370115671138918
 20
0.3698609132923152
 30
0.0
  0
SEQEND
  5
713
330
710
100
AcDbEntity
  8
Layer 1
370
    25
  0
POLYLINE
  5
714
330
18
100
AcDbEntity
  8
Layer 1
 62
     7
370
    25
100
AcDb2dPolyline
 66
     1
 10
0.0
 20
0.0
 30
0.0
  0
VERTEX
  5
715
330
714
100
AcDbEntity
  8
Layer 1
 62
     7
370
    25
100
AcDbVertex
100
AcDb2dVertex
 10
4.370115671138918
 20
0.3853908803239472
 30
0.0
  0
VERTEX
  5
716
330
714
100
AcDbEntity
  8
Layer 1
 62
     7
370
    25
100
AcDbVertex
100
AcDb2dVertex
 10
3.996097789177923
 20
0.3853908803239472
 30
0.0
  0
SEQEND
  5
717
330
714
100
AcDbEntity
  8
Layer 1
370
    25
  0
POLYLINE
  5
718
330
18
100
AcDbEntity
  8
Layer 1
 62
     7
370
    25
100
AcDb2dPolyline
 66
     1
 10
0.0
 20
0.0
 30
0.0
  0
VERTEX
  5
719
330
718
100
AcDbEntity
  8
Layer 1
 62
     7
370
    25
100
AcDbVertex
100
AcDb2dVertex
 10
3.996097789177923
 20
0.4009208473555788
 30
0.0
  0
VERTEX
  5
71A
330
718
100
AcDbEntity
  8
Layer 1
 62
     7
370
    25
100
AcDbVertex
100
AcDb2dVertex
 10
4.370115671138918
 20
0.4009208473555788
 30
0.0
  0
SEQEND
  5
71B
330
718
100
AcDbEntity
  8
Layer 1
370
    25
  0
POLYLINE
  5
71C
330
18
100
AcDbEntity
  8
Layer 1
 62
     7
370
    25
100
AcDb2dPolyline
 66
     1
 10
0.0
 20
0.0
 30
0.0
  0
VERTEX
  5
71D
330
71C
100
AcDbEntity
  8
Layer 1
 62
     7
370
    25
100
AcDbVertex
100
AcDb2dVertex
 10
3.996097789177923
 20
0.4571493386161066
 30
0.0
  0
VERTEX
  5
71E
330
71C
100
AcDbEntity
  8
Layer 1
 62
     7
370
    25
100
AcDbVertex
100
AcDb2dVertex
 10
4.370115671138918
 20
0.4571493386161066
 30
0.0
  0
SEQEND
  5
71F
330
71C
100
AcDbEntity
  8
Layer 1
370
    25
  0
POLYLINE
  5
720
330
18
100
AcDbEntity
  8
Layer 1
 62
     7
370
    25
100
AcDb2dPolyline
 66
     1
 10
0.0
 20
0.0
 30
0.0
  0
VERTEX
  5
721
330
720
100
AcDbEntity
  8
Layer 1
 62
     7
370
    25
100
AcDbVertex
100
AcDb2dVertex
 10
4.370115671138918
 20
0.4713332849860286
 30
0.0
  0
VERTEX
  5
722
330
720
100
AcDbEntity
  8
Layer 1
 62
     7
370
    25
100
AcDbVertex
100
AcDb2dVertex
 10
3.996097789177923
 20
0.4713332849860286
 30
0.0
  0
SEQEND
  5
723
330
720
100
AcDbEntity
  8
Layer 1
370
    25
  0
POLYLINE
  5
724
330
18
100
AcDbEntity
  8
Layer 1
 62
     7
370
    25
100
AcDb2dPolyline
 66
     1
 10
0.0
 20
0.0
 30
0.0
  0
VERTEX
  5
725
330
724
100
AcDbEntity
  8
Layer 1
 62
     7
370
    25
100
AcDbVertex
100
AcDb2dVertex
 10
3.996097789177923
 20
0.4879657714542232
 30
0.0
  0
VERTEX
  5
726
330
724
100
AcDbEntity
  8
Layer 1
 62
     7
370
    25
100
AcDbVertex
100
AcDb2dVertex
 10
4.370115671138918
 20
0.4879657714542232
 30
0.0
  0
SEQEND
  5
727
330
724
100
AcDbEntity
  8
Layer 1
370
    25
  0
POLYLINE
  5
728
330
18
100
AcDbEntity
  8
Layer 1
 62
     7
370
    25
100
AcDb2dPolyline
 66
     1
 10
0.0
 20
0.0
 30
0.0
  0
VERTEX
  5
729
330
728
100
AcDbEntity
  8
Layer 1
 62
     7
370
    25
100
AcDbVertex
100
AcDb2dVertex
 10
3.996097789177923
 20
0.5433081888117744
 30
0.0
  0
VERTEX
  5
72A
330
728
100
AcDbEntity
  8
Layer 1
 62
     7
370
    25
100
AcDbVertex
100
AcDb2dVertex
 10
4.370115671138918
 20
0.5433081888117744
 30
0.0
  0
SEQEND
  5
72B
330
728
100
AcDbEntity
  8
Layer 1
370
    25
  0
POLYLINE
  5
72C
330
18
100
AcDbEntity
  8
Layer 1
 62
     7
370
    25
100
AcDb2dPolyline
 66
     1
 10
0.0
 20
0.0
 30
0.0
  0
VERTEX
  5
72D
330
72C
100
AcDbEntity
  8
Layer 1
 62
     7
370
    25
100
AcDbVertex
100
AcDb2dVertex
 10
4.370115671138918
 20
0.5559161411406204
 30
0.0
  0
VERTEX
  5
72E
330
72C
100
AcDbEntity
  8
Layer 1
 62
     7
370
    25
100
AcDbVertex
100
AcDb2dVertex
 10
3.996097789177923
 20
0.5559161411406204
 30
0.0
  0
SEQEND
  5
72F
330
72C
100
AcDbEntity
  8
Layer 1
370
    25
  0
POLYLINE
  5
730
330
18
100
AcDbEntity
  8
Layer 1
  6
AI-Linetype-10
 62
   253
370
    25
100
AcDb2dPolyline
 66
     1
 10
0.0
 20
0.0
 30
0.0
  0
VERTEX
  5
731
330
730
100
AcDbEntity
  8
Layer 1
  6
AI-Linetype-10
 62
   253
370
    25
100
AcDbVertex
100
AcDb2dVertex
 10
3.683915690580731
 20
0.8840746256823969
 30
0.0
  0
VERTEX
  5
732
330
730
100
AcDbEntity
  8
Layer 1
  6
AI-Linetype-10
 62
   253
370
    25
100
AcDbVertex
100
AcDb2dVertex
 10
3.683915690580731
 20
-0.1132996289574324
 30
0.0
  0
SEQEND
  5
733
330
730
100
AcDbEntity
  8
Layer 1
  6
AI-Linetype-10
370
    25
  0
POLYLINE
  5
734
330
18
100
AcDbEntity
  8
Layer 1
 62
     7
370
    25
100
AcDb2dPolyline
 66
     1
 10
0.0
 20
0.0
 30
0.0
  0
VERTEX
  5
735
330
734
100
AcDbEntity
  8
Layer 1
 62
     7
370
    25
100
AcDbVertex
100
AcDb2dVertex
 10
3.996097789177923
 20
0.5734008818970651
 30
0.0
  0
VERTEX
  5
736
330
734
100
AcDbEntity
  8
Layer 1
 62
     7
370
    25
100
AcDbVertex
100
AcDb2dVertex
 10
4.370115671138918
 20
0.5734008818970651
 30
0.0
  0
SEQEND
  5
737
330
734
100
AcDbEntity
  8
Layer 1
370
    25
  0
POLYLINE
  5
738
330
18
100
AcDbEntity
  8
Layer 1
 62
     7
370
    25
100
AcDb2dPolyline
 66
     1
 10
0.0
 20
0.0
 30
0.0
  0
VERTEX
  5
739
330
738
100
AcDbEntity
  8
Layer 1
 62
     7
370
    25
100
AcDbVertex
100
AcDb2dVertex
 10
3.996097789177923
 20
0.6269779153717506
 30
0.0
  0
VERTEX
  5
73A
330
738
100
AcDbEntity
  8
Layer 1
 62
     7
370
    25
100
AcDbVertex
100
AcDb2dVertex
 10
4.370115671138918
 20
0.6269779153717506
 30
0.0
  0
SEQEND
  5
73B
330
738
100
AcDbEntity
  8
Layer 1
370
    25
  0
POLYLINE
  5
73C
330
18
100
AcDbEntity
  8
Layer 1
 62
     7
370
    25
100
AcDb2dPolyline
 66
     1
 10
0.0
 20
0.0
 30
0.0
  0
VERTEX
  5
73D
330
73C
100
AcDbEntity
  8
Layer 1
 62
     7
370
    25
100
AcDbVertex
100
AcDb2dVertex
 10
4.370115671138918
 20
0.6378137198946435
 30
0.0
  0
VERTEX
  5
73E
330
73C
100
AcDbEntity
  8
Layer 1
 62
     7
370
    25
100
AcDbVertex
100
AcDb2dVertex
 10
3.996097789177923
 20
0.6378137198946435
 30
0.0
  0
SEQEND
  5
73F
330
73C
100
AcDbEntity
  8
Layer 1
370
    25
  0
POLYLINE
  5
740
330
18
100
AcDbEntity
  8
Layer 1
 62
     7
370
    25
100
AcDb2dPolyline
 66
     1
 10
0.0
 20
0.0
 30
0.0
  0
VERTEX
  5
741
330
740
100
AcDbEntity
  8
Layer 1
 62
     7
370
    25
100
AcDbVertex
100
AcDb2dVertex
 10
3.996097789177923
 20
0.6558598662537638
 30
0.0
  0
VERTEX
  5
742
330
740
100
AcDbEntity
  8
Layer 1
 62
     7
370
    25
100
AcDbVertex
100
AcDb2dVertex
 10
4.370115671138918
 20
0.6558598662537638
 30
0.0
  0
SEQEND
  5
743
330
740
100
AcDbEntity
  8
Layer 1
370
    25
  0
POLYLINE
  5
744
330
18
100
AcDbEntity
  8
Layer 1
 62
     7
370
    25
100
AcDb2dPolyline
 66
     1
 10
0.0
 20
0.0
 30
0.0
  0
VERTEX
  5
745
330
744
100
AcDbEntity
  8
Layer 1
 62
     7
370
    25
100
AcDbVertex
100
AcDb2dVertex
 10
3.996097789177923
 20
0.7068395533258856
 30
0.0
  0
VERTEX
  5
746
330
744
100
AcDbEntity
  8
Layer 1
 62
     7
370
    25
100
AcDbVertex
100
AcDb2dVertex
 10
4.370115671138918
 20
0.7068395533258856
 30
0.0
  0
SEQEND
  5
747
330
744
100
AcDbEntity
  8
Layer 1
370
    25
  0
POLYLINE
  5
748
330
18
100
AcDbEntity
  8
Layer 1
 62
     7
370
    25
100
AcDb2dPolyline
 66
     1
 10
0.0
 20
0.0
 30
0.0
  0
VERTEX
  5
749
330
748
100
AcDbEntity
  8
Layer 1
 62
     7
370
    25
100
AcDbVertex
100
AcDb2dVertex
 10
4.370115671138918
 20
0.7157273480469737
 30
0.0
  0
VERTEX
  5
74A
330
748
100
AcDbEntity
  8
Layer 1
 62
     7
370
    25
100
AcDbVertex
100
AcDb2dVertex
 10
3.996097789177923
 20
0.7157273480469737
 30
0.0
  0
SEQEND
  5
74B
330
748
100
AcDbEntity
  8
Layer 1
370
    25
  0
POLYLINE
  5
74C
330
18
100
AcDbEntity
  8
Layer 1
  6
AI-Linetype-11
 62
   253
370
    25
100
AcDb2dPolyline
 66
     1
 10
0.0
 20
0.0
 30
0.0
  0
VERTEX
  5
74D
330
74C
100
AcDbEntity
  8
Layer 1
  6
AI-Linetype-11
 62
   253
370
    25
100
AcDbVertex
100
AcDb2dVertex
 10
4.671326686754707
 20
-0.1132996289574324
 30
0.0
  0
VERTEX
  5
74E
330
74C
100
AcDbEntity
  8
Layer 1
  6
AI-Linetype-11
 62
   253
370
    25
100
AcDbVertex
100
AcDb2dVertex
 10
4.681296709143491
 20
-0.1232764152691459
 30
0.0
  0
SEQEND
  5
74F
330
74C
100
AcDbEntity
  8
Layer 1
  6
AI-Linetype-11
370
    25
  0
POLYLINE
  5
750
330
18
100
AcDbEntity
  8
Layer 1
 62
     7
370
    25
100
AcDb2dPolyline
 66
     1
 10
0.0
 20
0.0
 30
0.0
  0
VERTEX
  5
751
330
750
100
AcDbEntity
  8
Layer 1
 62
     7
370
    25
100
AcDbVertex
100
AcDb2dVertex
 10
3.996097789177923
 20
0.7340643430917475
 30
0.0
  0
VERTEX
  5
752
330
750
100
AcDbEntity
  8
Layer 1
 62
     7
370
    25
100
AcDbVertex
100
AcDb2dVertex
 10
4.370115671138918
 20
0.7340643430917475
 30
0.0
  0
SEQEND
  5
753
330
750
100
AcDbEntity
  8
Layer 1
370
    25
  0
POLYLINE
  5
754
330
18
100
AcDbEntity
  8
Layer 1
 62
     7
370
    25
100
AcDb2dPolyline
 66
     1
 10
0.0
 20
0.0
 30
0.0
  0
VERTEX
  5
755
330
754
100
AcDbEntity
  8
Layer 1
 62
     7
370
    25
100
AcDbVertex
100
AcDb2dVertex
 10
3.996097789177923
 20
0.7816282490876239
 30
0.0
  0
VERTEX
  5
756
330
754
100
AcDbEntity
  8
Layer 1
 62
     7
370
    25
100
AcDbVertex
100
AcDb2dVertex
 10
4.370115671138918
 20
0.7816282490876239
 30
0.0
  0
SEQEND
  5
757
330
754
100
AcDbEntity
  8
Layer 1
370
    25
  0
POLYLINE
  5
758
330
18
100
AcDbEntity
  8
Layer 1
 62
     7
370
    25
100
AcDb2dPolyline
 66
     1
 10
0.0
 20
0.0
 30
0.0
  0
VERTEX
  5
759
330
758
100
AcDbEntity
  8
Layer 1
 62
     7
370
    25
100
AcDbVertex
100
AcDb2dVertex
 10
4.370115671138918
 20
0.7884327555483966
 30
0.0
  0
VERTEX
  5
75A
330
758
100
AcDbEntity
  8
Layer 1
 62
     7
370
    25
100
AcDbVertex
100
AcDb2dVertex
 10
3.996097789177923
 20
0.7884327555483966
 30
0.0
  0
SEQEND
  5
75B
330
758
100
AcDbEntity
  8
Layer 1
370
    25
  0
POLYLINE
  5
75C
330
18
100
AcDbEntity
  8
ADP1DETAIL
  6
AI-Linetype-5
 62
     5
370
    25
100
AcDb2dPolyline
 66
     1
 10
0.0
 20
0.0
 30
0.0
  0
VERTEX
  5
75D
330
75C
100
AcDbEntity
  8
ADP1DETAIL
  6
AI-Linetype-5
 62
     5
370
    25
100
AcDbVertex
100
AcDb2dVertex
 10
3.38426714116024
 20
0.3853908803239472
 30
0.0
  0
VERTEX
  5
75E
330
75C
100
AcDbEntity
  8
ADP1DETAIL
  6
AI-Linetype-5
 62
     5
370
    25
100
AcDbVertex
100
AcDb2dVertex
 10
3.683915690580731
 20
0.8840746256823969
 30
0.0
  0
SEQEND
  5
75F
330
75C
100
AcDbEntity
  8
ADP1DETAIL
  6
AI-Linetype-5
 62
     5
370
    25
  0
POLYLINE
  5
760
330
18
100
AcDbEntity
  8
Layer 1
 62
     7
370
    25
100
AcDb2dPolyline
 66
     1
 10
0.0
 20
0.0
 30
0.0
  0
VERTEX
  5
761
330
760
100
AcDbEntity
  8
Layer 1
 62
     7
370
    25
100
AcDbVertex
100
AcDb2dVertex
 10
3.996097789177923
 20
0.8067629866702406
 30
0.0
  0
VERTEX
  5
762
330
760
100
AcDbEntity
  8
Layer 1
 62
     7
370
    25
100
AcDbVertex
100
AcDb2dVertex
 10
4.370115671138918
 20
0.8067629866702406
 30
0.0
  0
SEQEND
  5
763
330
760
100
AcDbEntity
  8
Layer 1
370
    25
  0
POLYLINE
  5
764
330
18
100
AcDbEntity
  8
Layer 1
 62
     7
370
    25
100
AcDb2dPolyline
 66
     1
 10
0.0
 20
0.0
 30
0.0
  0
VERTEX
  5
765
330
764
100
AcDbEntity
  8
Layer 1
 62
     7
370
    25
100
AcDbVertex
100
AcDb2dVertex
 10
3.996097789177923
 20
0.8501738439913442
 30
0.0
  0
VERTEX
  5
766
330
764
100
AcDbEntity
  8
Layer 1
 62
     7
370
    25
100
AcDbVertex
100
AcDb2dVertex
 10
4.370115671138918
 20
0.8501738439913442
 30
0.0
  0
SEQEND
  5
767
330
764
100
AcDbEntity
  8
Layer 1
370
    25
  0
POLYLINE
  5
768
330
18
100
AcDbEntity
  8
Layer 1
 62
     7
370
    25
100
AcDb2dPolyline
 66
     1
 10
0.0
 20
0.0
 30
0.0
  0
VERTEX
  5
769
330
768
100
AcDbEntity
  8
Layer 1
 62
     7
370
    25
100
AcDbVertex
100
AcDb2dVertex
 10
4.370115671138918
 20
0.8547868394249288
 30
0.0
  0
VERTEX
  5
76A
330
768
100
AcDbEntity
  8
Layer 1
 62
     7
370
    25
100
AcDbVertex
100
AcDb2dVertex
 10
3.996097789177923
 20
0.8547868394249288
 30
0.0
  0
SEQEND
  5
76B
330
768
100
AcDbEntity
  8
Layer 1
370
    25
  0
POLYLINE
  5
76C
330
18
100
AcDbEntity
  8
Layer 1
 62
     7
370
    25
100
AcDb2dPolyline
 66
     1
 10
0.0
 20
0.0
 30
0.0
  0
VERTEX
  5
76D
330
76C
100
AcDbEntity
  8
Layer 1
 62
     7
370
    25
100
AcDbVertex
100
AcDb2dVertex
 10
3.996097789177923
 20
0.8728194579381902
 30
0.0
  0
VERTEX
  5
76E
330
76C
100
AcDbEntity
  8
Layer 1
 62
     7
370
    25
100
AcDbVertex
100
AcDb2dVertex
 10
4.370115671138918
 20
0.8728194579381902
 30
0.0
  0
SEQEND
  5
76F
330
76C
100
AcDbEntity
  8
Layer 1
370
    25
  0
POLYLINE
  5
770
330
18
100
AcDbEntity
  8
ADP1DETAIL
  6
AI-Linetype-5
 62
     5
370
    25
100
AcDb2dPolyline
 66
     1
 10
0.0
 20
0.0
 30
0.0
  0
VERTEX
  5
771
330
770
100
AcDbEntity
  8
ADP1DETAIL
  6
AI-Linetype-5
 62
     5
370
    25
100
AcDbVertex
100
AcDb2dVertex
 10
3.683915690580731
 20
0.8840746256823969
 30
0.0
  0
VERTEX
  5
772
330
770
100
AcDbEntity
  8
ADP1DETAIL
  6
AI-Linetype-5
 62
     5
370
    25
100
AcDbVertex
100
AcDb2dVertex
 10
4.671313158908848
 20
0.8840746256823969
 30
0.0
  0
SEQEND
  5
773
330
770
100
AcDbEntity
  8
ADP1DETAIL
  6
AI-Linetype-5
 62
     5
370
    25
  0
POLYLINE
  5
774
330
18
100
AcDbEntity
  8
Layer 1
 62
     7
370
    25
100
AcDb2dPolyline
 66
     1
 10
0.0
 20
0.0
 30
0.0
  0
VERTEX
  5
775
330
774
100
AcDbEntity
  8
Layer 1
 62
     7
370
    25
100
AcDbVertex
100
AcDb2dVertex
 10
3.996097789177923
 20
0.9113873464462635
 30
0.0
  0
VERTEX
  5
776
330
774
100
AcDbEntity
  8
Layer 1
 62
     7
370
    25
100
AcDbVertex
100
AcDb2dVertex
 10
4.370115671138918
 20
0.9113873464462635
 30
0.0
  0
SEQEND
  5
777
330
774
100
AcDbEntity
  8
Layer 1
370
    25
  0
POLYLINE
  5
778
330
18
100
AcDbEntity
  8
Layer 1
 62
     7
370
    25
100
AcDb2dPolyline
 66
     1
 10
0.0
 20
0.0
 30
0.0
  0
VERTEX
  5
779
330
778
100
AcDbEntity
  8
Layer 1
 62
     7
370
    25
100
AcDbVertex
100
AcDb2dVertex
 10
4.370115671138918
 20
0.913727663777664
 30
0.0
  0
VERTEX
  5
77A
330
778
100
AcDbEntity
  8
Layer 1
 62
     7
370
    25
100
AcDbVertex
100
AcDb2dVertex
 10
3.996097789177923
 20
0.913727663777664
 30
0.0
  0
SEQEND
  5
77B
330
778
100
AcDbEntity
  8
Layer 1
370
    25
  0
POLYLINE
  5
77C
330
18
100
AcDbEntity
  8
Layer 1
 62
     7
370
    25
100
AcDb2dPolyline
 66
     1
 10
0.0
 20
0.0
 30
0.0
  0
VERTEX
  5
77D
330
77C
100
AcDbEntity
  8
Layer 1
 62
     7
370
    25
100
AcDbVertex
100
AcDb2dVertex
 10
3.996097789177923
 20
0.9311785849195398
 30
0.0
  0
VERTEX
  5
77E
330
77C
100
AcDbEntity
  8
Layer 1
 62
     7
370
    25
100
AcDbVertex
100
AcDb2dVertex
 10
4.370115671138918
 20
0.9311785849195398
 30
0.0
  0
SEQEND
  5
77F
330
77C
100
AcDbEntity
  8
Layer 1
370
    25
  0
POLYLINE
  5
780
330
18
100
AcDbEntity
  8
Layer 1
 62
     7
370
    25
100
AcDb2dPolyline
 66
     1
 10
0.0
 20
0.0
 30
0.0
  0
VERTEX
  5
781
330
780
100
AcDbEntity
  8
Layer 1
 62
     7
370
    25
100
AcDbVertex
100
AcDb2dVertex
 10
3.250382050818545
 20
1.213220642970934
 30
0.0
  0
VERTEX
  5
782
330
780
100
AcDbEntity
  8
Layer 1
 62
     7
370
    25
100
AcDbVertex
100
AcDb2dVertex
 10
3.250382050818545
 20
-0.442438882323041
 30
0.0
  0
SEQEND
  5
783
330
780
100
AcDbEntity
  8
Layer 1
370
    25
  0
POLYLINE
  5
784
330
18
100
AcDbEntity
  8
Layer 1
 62
     7
370
    25
100
AcDb2dPolyline
 66
     1
 10
0.0
 20
0.0
 30
0.0
  0
VERTEX
  5
785
330
784
100
AcDbEntity
  8
Layer 1
 62
     7
370
    25
100
AcDbVertex
100
AcDb2dVertex
 10
3.996097789177923
 20
0.9642947515514803
 30
0.0
  0
VERTEX
  5
786
330
784
100
AcDbEntity
  8
Layer 1
 62
     7
370
    25
100
AcDbVertex
100
AcDb2dVertex
 10
4.370115671138918
 20
0.9642947515514803
 30
0.0
  0
SEQEND
  5
787
330
784
100
AcDbEntity
  8
Layer 1
370
    25
  0
POLYLINE
  5
788
330
18
100
AcDbEntity
  8
Layer 1
 62
     7
370
    25
100
AcDb2dPolyline
 66
     1
 10
0.0
 20
0.0
 30
0.0
  0
VERTEX
  5
789
330
788
100
AcDbEntity
  8
Layer 1
 62
     7
370
    25
100
AcDbVertex
100
AcDb2dVertex
 10
3.996097789177923
 20
0.9809475297883846
 30
0.0
  0
VERTEX
  5
78A
330
788
100
AcDbEntity
  8
Layer 1
 62
     7
370
    25
100
AcDbVertex
100
AcDb2dVertex
 10
4.370115671138918
 20
0.9809475297883846
 30
0.0
  0
SEQEND
  5
78B
330
788
100
AcDbEntity
  8
Layer 1
370
    25
  0
POLYLINE
  5
78C
330
18
100
AcDbEntity
  8
Layer 1
  6
AI-Linetype-14
 62
   253
370
    25
100
AcDb2dPolyline
 66
     1
 10
0.0
 20
0.0
 30
0.0
  0
VERTEX
  5
78D
330
78C
100
AcDbEntity
  8
Layer 1
  6
AI-Linetype-14
 62
   253
370
    25
100
AcDbVertex
100
AcDb2dVertex
 10
4.370115671138918
 20
1.005825238299916
 30
0.0
  0
VERTEX
  5
78E
330
78C
100
AcDbEntity
  8
Layer 1
  6
AI-Linetype-14
 62
   253
370
    25
100
AcDbVertex
100
AcDb2dVertex
 10
3.996097789177923
 20
1.005825238299916
 30
0.0
  0
SEQEND
  5
78F
330
78C
100
AcDbEntity
  8
Layer 1
  6
AI-Linetype-14
370
    25
  0
POLYLINE
  5
790
330
18
100
AcDbEntity
  8
Layer 1
 62
     7
370
    25
100
AcDb2dPolyline
 66
     1
 10
0.0
 20
0.0
 30
0.0
  0
VERTEX
  5
791
330
790
100
AcDbEntity
  8
Layer 1
 62
     7
370
    25
100
AcDbVertex
100
AcDb2dVertex
 10
3.996097789177923
 20
1.008084388556242
 30
0.0
  0
VERTEX
  5
792
330
790
100
AcDbEntity
  8
Layer 1
 62
     7
370
    25
100
AcDbVertex
100
AcDb2dVertex
 10
4.370115671138918
 20
1.008084388556242
 30
0.0
  0
SEQEND
  5
793
330
790
100
AcDbEntity
  8
Layer 1
370
    25
  0
POLYLINE
  5
794
330
18
100
AcDbEntity
  8
Layer 1
 62
     7
370
    25
100
AcDb2dPolyline
 66
     1
 10
0.0
 20
0.0
 30
0.0
  0
VERTEX
  5
795
330
794
100
AcDbEntity
  8
Layer 1
 62
     7
370
    25
100
AcDbVertex
100
AcDb2dVertex
 10
3.996097789177923
 20
1.02131462179405
 30
0.0
  0
VERTEX
  5
796
330
794
100
AcDbEntity
  8
Layer 1
 62
     7
370
    25
100
AcDbVertex
100
AcDb2dVertex
 10
4.370115671138918
 20
1.02131462179405
 30
0.0
  0
SEQEND
  5
797
330
794
100
AcDbEntity
  8
Layer 1
370
    25
  0
POLYLINE
  5
798
330
18
100
AcDbEntity
  8
Layer 1
  6
AI-Linetype-15
 62
   253
370
    25
100
AcDb2dPolyline
 66
     1
 10
0.0
 20
0.0
 30
0.0
  0
VERTEX
  5
799
330
798
100
AcDbEntity
  8
Layer 1
  6
AI-Linetype-15
 62
   253
370
    25
100
AcDbVertex
100
AcDb2dVertex
 10
4.370115671138918
 20
1.03753450896386
 30
0.0
  0
VERTEX
  5
79A
330
798
100
AcDbEntity
  8
Layer 1
  6
AI-Linetype-15
 62
   253
370
    25
100
AcDbVertex
100
AcDb2dVertex
 10
3.996097789177923
 20
1.03753450896386
 30
0.0
  0
SEQEND
  5
79B
330
798
100
AcDbEntity
  8
Layer 1
  6
AI-Linetype-15
370
    25
  0
POLYLINE
  5
79C
330
18
100
AcDbEntity
  8
Layer 1
 62
     7
370
    25
100
AcDb2dPolyline
 66
     1
 10
0.0
 20
0.0
 30
0.0
  0
VERTEX
  5
79D
330
79C
100
AcDbEntity
  8
Layer 1
 62
     7
370
    25
100
AcDbVertex
100
AcDb2dVertex
 10
3.996097789177923
 20
1.042052809476511
 30
0.0
  0
VERTEX
  5
79E
330
79C
100
AcDbEntity
  8
Layer 1
 62
     7
370
    25
100
AcDbVertex
100
AcDb2dVertex
 10
4.370115671138918
 20
1.042052809476511
 30
0.0
  0
SEQEND
  5
79F
330
79C
100
AcDbEntity
  8
Layer 1
370
    25
  0
POLYLINE
  5
7A0
330
18
100
AcDbEntity
  8
Layer 1
 62
     7
370
    25
100
AcDb2dPolyline
 66
     1
 10
0.0
 20
0.0
 30
0.0
  0
VERTEX
  5
7A1
330
7A0
100
AcDbEntity
  8
Layer 1
 62
     7
370
    25
100
AcDbVertex
100
AcDb2dVertex
 10
3.996097789177923
 20
1.051644052181636
 30
0.0
  0
VERTEX
  5
7A2
330
7A0
100
AcDbEntity
  8
Layer 1
 62
     7
370
    25
100
AcDbVertex
100
AcDb2dVertex
 10
4.370115671138918
 20
1.051644052181636
 30
0.0
  0
SEQEND
  5
7A3
330
7A0
100
AcDbEntity
  8
Layer 1
370
    25
  0
POLYLINE
  5
7A4
330
18
100
AcDbEntity
  8
Layer 1
  6
AI-Linetype-16
 62
   253
370
    25
100
AcDb2dPolyline
 66
     1
 10
0.0
 20
0.0
 30
0.0
  0
VERTEX
  5
7A5
330
7A4
100
AcDbEntity
  8
Layer 1
  6
AI-Linetype-16
 62
   253
370
    25
100
AcDbVertex
100
AcDb2dVertex
 10
4.370115671138918
 20
1.058949088938641
 30
0.0
  0
VERTEX
  5
7A6
330
7A4
100
AcDbEntity
  8
Layer 1
  6
AI-Linetype-16
 62
   253
370
    25
100
AcDbVertex
100
AcDb2dVertex
 10
3.996097789177923
 20
1.058949088938641
 30
0.0
  0
SEQEND
  5
7A7
330
7A4
100
AcDbEntity
  8
Layer 1
  6
AI-Linetype-16
370
    25
  0
POLYLINE
  5
7A8
330
18
100
AcDbEntity
  8
Layer 1
 62
     7
370
    25
100
AcDb2dPolyline
 66
     1
 10
0.0
 20
0.0
 30
0.0
  0
VERTEX
  5
7A9
330
7A8
100
AcDbEntity
  8
Layer 1
 62
     7
370
    25
100
AcDbVertex
100
AcDb2dVertex
 10
3.996097789177923
 20
1.065658900478479
 30
0.0
  0
VERTEX
  5
7AA
330
7A8
100
AcDbEntity
  8
Layer 1
 62
     7
370
    25
100
AcDbVertex
100
AcDb2dVertex
 10
4.370115671138918
 20
1.065658900478479
 30
0.0
  0
SEQEND
  5
7AB
330
7A8
100
AcDbEntity
  8
Layer 1
370
    25
  0
POLYLINE
  5
7AC
330
18
100
AcDbEntity
  8
Layer 1
  6
AI-Linetype-17
 62
   253
370
    25
100
AcDb2dPolyline
 66
     1
 10
0.0
 20
0.0
 30
0.0
  0
VERTEX
  5
7AD
330
7AC
100
AcDbEntity
  8
Layer 1
  6
AI-Linetype-17
 62
   253
370
    25
100
AcDbVertex
100
AcDb2dVertex
 10
4.370115671138918
 20
1.069730782078255
 30
0.0
  0
VERTEX
  5
7AE
330
7AC
100
AcDbEntity
  8
Layer 1
  6
AI-Linetype-17
 62
   253
370
    25
100
AcDbVertex
100
AcDb2dVertex
 10
3.996097789177923
 20
1.069730782078255
 30
0.0
  0
SEQEND
  5
7AF
330
7AC
100
AcDbEntity
  8
Layer 1
  6
AI-Linetype-17
370
    25
  0
POLYLINE
  5
7B0
330
18
100
AcDbEntity
  8
Layer 1
 62
     7
370
    25
100
AcDb2dPolyline
 66
     1
 10
0.0
 20
0.0
 30
0.0
  0
VERTEX
  5
7B1
330
7B0
100
AcDbEntity
  8
Layer 1
 62
     7
370
    25
100
AcDbVertex
100
AcDb2dVertex
 10
4.671364527775963
 20
1.071050541806613
 30
0.0
  0
VERTEX
  5
7B2
330
7B0
100
AcDbEntity
  8
Layer 1
 62
     7
370
    25
100
AcDbVertex
100
AcDb2dVertex
 10
4.370115671138918
 20
1.071083566662894
 30
0.0
  0
SEQEND
  5
7B3
330
7B0
100
AcDbEntity
  8
Layer 1
370
    25
  0
POLYLINE
  5
7B4
330
18
100
AcDbEntity
  8
Layer 1
 62
     7
370
    25
100
AcDb2dPolyline
 66
     1
 10
0.0
 20
0.0
 30
0.0
  0
VERTEX
  5
7B5
330
7B4
100
AcDbEntity
  8
Layer 1
 62
     7
370
    25
100
AcDbVertex
100
AcDb2dVertex
 10
3.996097789177923
 20
1.071083566662894
 30
0.0
  0
VERTEX
  5
7B6
330
7B4
100
AcDbEntity
  8
Layer 1
 62
     7
370
    25
100
AcDbVertex
100
AcDb2dVertex
 10
3.683915690580731
 20
1.071083566662894
 30
0.0
  0
SEQEND
  5
7B7
330
7B4
100
AcDbEntity
  8
Layer 1
370
    25
  0
POLYLINE
  5
7B8
330
18
100
AcDbEntity
  8
Layer 1
 62
     7
370
    25
100
AcDb2dPolyline
 66
     1
 10
0.0
 20
0.0
 30
0.0
  0
VERTEX
  5
7B9
330
7B8
100
AcDbEntity
  8
Layer 1
 62
     7
370
    25
100
AcDbVertex
100
AcDb2dVertex
 10
3.996097789177923
 20
1.071475874192411
 30
0.0
  0
VERTEX
  5
7BA
330
7B8
100
AcDbEntity
  8
Layer 1
 62
     7
370
    25
100
AcDbVertex
100
AcDb2dVertex
 10
4.370115671138918
 20
1.071475874192411
 30
0.0
  0
SEQEND
  5
7BB
330
7B8
100
AcDbEntity
  8
Layer 1
370
    25
  0
POLYLINE
  5
7BC
330
18
100
AcDbEntity
  8
Layer 1
 62
     7
370
    25
100
AcDb2dPolyline
 66
     1
 10
0.0
 20
0.0
 30
0.0
  0
VERTEX
  5
7BD
330
7BC
100
AcDbEntity
  8
Layer 1
 62
     7
370
    25
100
AcDbVertex
100
AcDb2dVertex
 10
3.996097789177923
 20
1.078537409724268
 30
0.0
  0
VERTEX
  5
7BE
330
7BC
100
AcDbEntity
  8
Layer 1
 62
     7
370
    25
100
AcDbVertex
100
AcDb2dVertex
 10
4.370115671138918
 20
1.078537409724268
 30
0.0
  0
SEQEND
  5
7BF
330
7BC
100
AcDbEntity
  8
Layer 1
370
    25
  0
POLYLINE
  5
7C0
330
18
100
AcDbEntity
  8
Layer 1
 62
     7
370
    25
100
AcDb2dPolyline
 66
     1
 10
0.0
 20
0.0
 30
0.0
  0
VERTEX
  5
7C1
330
7C0
100
AcDbEntity
  8
Layer 1
 62
     7
370
    25
100
AcDbVertex
100
AcDb2dVertex
 10
3.996097789177923
 20
1.080498947372011
 30
0.0
  0
VERTEX
  5
7C2
330
7C0
100
AcDbEntity
  8
Layer 1
 62
     7
370
    25
100
AcDbVertex
100
AcDb2dVertex
 10
4.370115671138918
 20
1.080498947372011
 30
0.0
  0
SEQEND
  5
7C3
330
7C0
100
AcDbEntity
  8
Layer 1
370
    25
  0
POLYLINE
  5
7C4
330
18
100
AcDbEntity
  8
Layer 1
 62
     7
370
    25
100
AcDb2dPolyline
 66
     1
 10
0.0
 20
0.0
 30
0.0
  0
VERTEX
  5
7C5
330
7C4
100
AcDbEntity
  8
Layer 1
 62
     7
370
    25
100
AcDbVertex
100
AcDb2dVertex
 10
3.996097789177923
 20
1.081067116897537
 30
0.0
  0
VERTEX
  5
7C6
330
7C4
100
AcDbEntity
  8
Layer 1
 62
     7
370
    25
100
AcDbVertex
100
AcDb2dVertex
 10
4.370115671138918
 20
1.081067116897537
 30
0.0
  0
SEQEND
  5
7C7
330
7C4
100
AcDbEntity
  8
Layer 1
370
    25
  0
POLYLINE
  5
7C8
330
18
100
AcDbEntity
  8
Layer 1
 62
     7
370
    25
100
AcDb2dPolyline
 66
     1
 10
0.0
 20
0.0
 30
0.0
  0
VERTEX
  5
7C9
330
7C8
100
AcDbEntity
  8
Layer 1
 62
     7
370
    25
100
AcDbVertex
100
AcDb2dVertex
 10
3.136261143258409
 20
1.063250943917862
 30
0.0
  0
VERTEX
  5
7CA
330
7C8
100
AcDbEntity
  8
Layer 1
 62
     7
370
    25
100
AcDbVertex
100
AcDb2dVertex
 10
3.136261143258409
 20
-0.2924759471928979
 30
0.0
  0
SEQEND
  5
7CB
330
7C8
100
AcDbEntity
  8
Layer 1
370
    25
  0
POLYLINE
  5
7CC
330
18
100
AcDbEntity
  8
Layer 1
 62
     7
370
    25
100
AcDb2dPolyline
 66
     1
 10
0.0
 20
0.0
 30
0.0
  0
VERTEX
  5
7CD
330
7CC
100
AcDbEntity
  8
Layer 1
 62
     7
370
    25
100
AcDbVertex
100
AcDb2dVertex
 10
3.683915690580731
 20
1.213220642970934
 30
0.0
  0
VERTEX
  5
7CE
330
7CC
100
AcDbEntity
  8
Layer 1
 62
     7
370
    25
100
AcDbVertex
100
AcDb2dVertex
 10
3.250382050818545
 20
1.213220642970934
 30
0.0
  0
SEQEND
  5
7CF
330
7CC
100
AcDbEntity
  8
Layer 1
370
    25
  0
SPLINE
  5
7E8
330
18
100
AcDbEntity
  8
Layer 1
 62
     7
370
    25
100
AcDbSpline
210
0.0
220
0.0
230
1.0
 70
     8
 71
     3
 72
     8
 73
     4
 74
     0
 42
0.0000000001
 43
0.0000000001
 40
0.0
 40
0.0
 40
0.0
 40
0.0
 40
1.0
 40
1.0
 40
1.0
 40
1.0
 10
3.136261143258251
 20
1.063250943917941
 30
0.0
 10
2.869072659946168
 20
0.650834271521795
 30
0.0
 10
2.869072659946168
 20
0.1199407252030911
 30
0.0
 10
3.136261143258251
 20
-0.2924759471928193
 30
0.0
  0
SPLINE
  5
7E9
330
18
100
AcDbEntity
  8
Layer 1
 62
     7
370
    25
100
AcDbSpline
210
0.0
220
0.0
230
1.0
 70
     8
 71
     3
 72
     8
 73
     4
 74
     0
 42
0.0000000001
 43
0.0000000001
 40
0.0
 40
0.0
 40
0.0
 40
0.0
 40
1.0
 40
1.0
 40
1.0
 40
1.0
 10
3.250382050818466
 20
-0.4424388823229624
 30
0.0
 10
3.250382050818466
 20
-0.3724796275283162
 30
0.0
 10
3.203690690879628
 20
-0.3111105548462545
 30
0.0
 10
3.13626790718118
 20
-0.2924691832698896
 30
0.0
  0
SPLINE
  5
7EA
330
18
100
AcDbEntity
  8
Layer 1
 62
     7
370
    25
100
AcDbSpline
210
0.0
220
0.0
230
1.0
 70
     8
 71
     3
 72
     8
 73
     4
 74
     0
 42
0.0000000001
 43
0.0000000001
 40
0.0
 40
0.0
 40
0.0
 40
0.0
 40
1.0
 40
1.0
 40
1.0
 40
1.0
 10
3.136261143258251
 20
1.063250943917941
 30
0.0
 10
3.203697454802558
 20
1.081892315494227
 30
0.0
 10
3.250382050818466
 20
1.143254624253438
 30
0.0
 10
3.250382050818466
 20
1.213220642970934
 30
0.0
  0
POLYLINE
  5
7EB
330
18
100
AcDbEntity
  8
Layer 1
 62
     7
370
    25
100
AcDb2dPolyline
 66
     1
 10
0.0
 20
0.0
 30
0.0
  0
VERTEX
  5
7EC
330
7EB
100
AcDbEntity
  8
Layer 1
 62
     7
370
    25
100
AcDbVertex
100
AcDb2dVertex
 10
4.681334550164748
 20
1.061073755494899
 30
0.0
  0
VERTEX
  5
7ED
330
7EB
100
AcDbEntity
  8
Layer 1
 62
     7
370
    25
100
AcDbVertex
100
AcDb2dVertex
 10
4.681296986624474
 20
-0.2903258133114477
 30
0.0
  0
SEQEND
  5
7EE
330
7EB
100
AcDbEntity
  8
Layer 1
370
    25
  0
POLYLINE
  5
7EF
330
18
100
AcDbEntity
  8
Layer 1
 62
     7
370
    25
100
AcDb2dPolyline
 66
     1
 10
0.0
 20
0.0
 30
0.0
  0
VERTEX
  5
7F0
330
7EF
100
AcDbEntity
  8
Layer 1
 62
     7
370
    25
100
AcDbVertex
100
AcDb2dVertex
 10
3.250382050818545
 20
-0.442438882323041
 30
0.0
  0
VERTEX
  5
7F1
330
7EF
100
AcDbEntity
  8
Layer 1
 62
     7
370
    25
100
AcDbVertex
100
AcDb2dVertex
 10
3.683915690580731
 20
-0.442438882323041
 30
0.0
  0
SEQEND
  5
7F2
330
7EF
100
AcDbEntity
  8
Layer 1
370
    25
  0
POLYLINE
  5
7F3
330
18
100
AcDbEntity
  8
Layer 1
 62
     7
370
    25
100
AcDb2dPolyline
 66
     1
 10
0.0
 20
0.0
 30
0.0
  0
VERTEX
  5
7F4
330
7F3
100
AcDbEntity
  8
Layer 1
 62
     7
370
    25
100
AcDbVertex
100
AcDb2dVertex
 10
3.683915690580731
 20
-0.30030856993793
 30
0.0
  0
VERTEX
  5
7F5
330
7F3
100
AcDbEntity
  8
Layer 1
 62
     7
370
    25
100
AcDbVertex
100
AcDb2dVertex
 10
3.996097789177923
 20
-0.30030856993793
 30
0.0
  0
SEQEND
  5
7F6
330
7F3
100
AcDbEntity
  8
Layer 1
370
    25
  0
POLYLINE
  5
7F7
330
18
100
AcDbEntity
  8
Layer 1
 62
     7
370
    25
100
AcDb2dPolyline
 66
     1
 10
0.0
 20
0.0
 30
0.0
  0
VERTEX
  5
7F8
330
7F7
100
AcDbEntity
  8
Layer 1
 62
     7
370
    25
100
AcDbVertex
100
AcDb2dVertex
 10
4.370115671138918
 20
-0.30030856993793
 30
0.0
  0
VERTEX
  5
7F9
330
7F7
100
AcDbEntity
  8
Layer 1
 62
     7
370
    25
100
AcDbVertex
100
AcDb2dVertex
 10
4.67135716505672
 20
-0.3002791217470122
 30
0.0
  0
SEQEND
  5
7FA
330
7F7
100
AcDbEntity
  8
Layer 1
370
    25
  0
POLYLINE
  5
7FB
330
18
100
AcDbEntity
  8
Layer 1
 62
     7
370
    25
100
AcDb2dPolyline
 66
     1
 10
0.0
 20
0.0
 30
0.0
  0
VERTEX
  5
7FC
330
7FB
100
AcDbEntity
  8
Layer 1
 62
     7
370
    25
100
AcDbVertex
100
AcDb2dVertex
 10
3.683915690580731
 20
1.213220642970934
 30
0.0
  0
VERTEX
  5
7FD
330
7FB
100
AcDbEntity
  8
Layer 1
 62
     7
370
    25
100
AcDbVertex
100
AcDb2dVertex
 10
3.683915690580731
 20
-0.442438882323041
 30
0.0
  0
SEQEND
  5
7FE
330
7FB
100
AcDbEntity
  8
Layer 1
370
    25
  0
POLYLINE
  5
7FF
330
18
100
AcDbEntity
  8
Layer 1
 62
     7
370
    25
100
AcDb2dPolyline
 66
     1
 10
0.0
 20
0.0
 30
0.0
  0
VERTEX
  5
800
330
7FF
100
AcDbEntity
  8
Layer 1
 62
     7
370
    25
100
AcDbVertex
100
AcDb2dVertex
 10
3.683915690580731
 20
1.071083566662894
 30
0.0
  0
VERTEX
  5
801
330
7FF
100
AcDbEntity
  8
Layer 1
 62
     7
370
    25
100
AcDbVertex
100
AcDb2dVertex
 10
3.996097789177923
 20
1.071083566662894
 30
0.0
  0
SEQEND
  5
802
330
7FF
100
AcDbEntity
  8
Layer 1
370
    25
  0
POLYLINE
  5
803
330
18
100
AcDbEntity
  8
Layer 1
 62
     7
370
    25
100
AcDb2dPolyline
 66
     1
 10
0.0
 20
0.0
 30
0.0
  0
VERTEX
  5
804
330
803
100
AcDbEntity
  8
Layer 1
 62
     7
370
    25
100
AcDbVertex
100
AcDb2dVertex
 10
4.370115671138918
 20
1.071083566662894
 30
0.0
  0
VERTEX
  5
805
330
803
100
AcDbEntity
  8
Layer 1
 62
     7
370
    25
100
AcDbVertex
100
AcDb2dVertex
 10
4.671364527775963
 20
1.071050541806613
 30
0.0
  0
SEQEND
  5
806
330
803
100
AcDbEntity
  8
Layer 1
370
    25
  0
POLYLINE
  5
807
330
18
100
AcDbEntity
  8
Layer 1
 62
     7
370
    25
100
AcDb2dPolyline
 66
     1
 10
0.0
 20
0.0
 30
0.0
  0
VERTEX
  5
808
330
807
100
AcDbEntity
  8
Layer 1
 62
     7
370
    25
100
AcDbVertex
100
AcDb2dVertex
 10
3.250382050818545
 20
1.213220642970934
 30
0.0
  0
VERTEX
  5
809
330
807
100
AcDbEntity
  8
Layer 1
 62
     7
370
    25
100
AcDbVertex
100
AcDb2dVertex
 10
3.683915690580731
 20
1.213220642970934
 30
0.0
  0
SEQEND
  5
80A
330
807
100
AcDbEntity
  8
Layer 1
370
    25
  0
POLYLINE
  5
814
330
18
100
AcDbEntity
  8
Layer 1
  6
AI-Linetype-11
 62
   253
370
    25
100
AcDb2dPolyline
 66
     1
 10
0.0
 20
0.0
 30
0.0
  0
VERTEX
  5
815
330
814
100
AcDbEntity
  8
Layer 1
  6
AI-Linetype-11
 62
   253
370
    25
100
AcDbVertex
100
AcDb2dVertex
 10
4.671364527775963
 20
1.071050541806613
 30
0.0
  0
VERTEX
  5
816
330
814
100
AcDbEntity
  8
Layer 1
  6
AI-Linetype-11
 62
   253
370
    25
100
AcDbVertex
100
AcDb2dVertex
 10
4.681334550164748
 20
1.061073755494899
 30
0.0
  0
SEQEND
  5
817
330
814
100
AcDbEntity
  8
Layer 1
  6
AI-Linetype-11
370
    25
  0
POLYLINE
  5
821
330
18
100
AcDbEntity
  8
Layer 1
  6
AI-Linetype-9
 62
   253
370
    25
100
AcDb2dPolyline
 66
     1
 10
0.0
 20
0.0
 30
0.0
  0
VERTEX
  5
822
330
821
100
AcDbEntity
  8
Layer 1
  6
AI-Linetype-9
 62
   253
370
    25
100
AcDbVertex
100
AcDb2dVertex
 10
4.67135716505672
 20
-0.3002791217470122
 30
0.0
  0
VERTEX
  5
823
330
821
100
AcDbEntity
  8
Layer 1
  6
AI-Linetype-9
 62
   253
370
    25
100
AcDbVertex
100
AcDb2dVertex
 10
4.681296986624474
 20
-0.2903258133114477
 30
0.0
  0
SEQEND
  5
824
330
821
100
AcDbEntity
  8
Layer 1
  6
AI-Linetype-9
370
    25
  0
ENDSEC
  0
SECTION
  2
OBJECTS
  0
DICTIONARY
  5
C
330
0
100
AcDbDictionary
281
     1
  3
ACAD_COLOR
350
1BE
  3
ACAD_GROUP
350
D
  3
ACAD_LAYOUT
350
62
  3
ACAD_MATERIAL
350
1A9
  3
ACAD_MLINESTYLE
350
E
  3
ACAD_PLOTSETTINGS
350
63
  3
ACAD_PLOTSTYLENAME
350
60
  3
ACAD_TABLESTYLE
350
1BF
  3
ACAD_VISUALSTYLE
350
1AD
  3
AcDbVariableDictionary
350
C3
  3
DWGPROPS
350
868
  0
DICTIONARY
  5
1F1
330
8
100
AcDbDictionary
280
     1
281
     1
  0
DICTIONARY
  5
BD
330
18
100
AcDbDictionary
280
     1
281
     1
  3
ACAD_LAYOUTSELFREF
360
1A3
  0
DICTIONARY
  5
BB
330
15
100
AcDbDictionary
280
     1
281
     1
  3
ACAD_LAYOUTSELFREF
360
1A2
  0
DICTIONARY
  5
3C8
330
20E
100
AcDbDictionary
280
     1
281
     1
  0
DICTIONARY
  5
1BE
102
{ACAD_REACTORS
330
C
102
}
330
C
100
AcDbDictionary
281
     1
  0
DICTIONARY
  5
D
102
{ACAD_REACTORS
330
C
102
}
330
C
100
AcDbDictionary
281
     1
  0
DICTIONARY
  5
62
102
{ACAD_REACTORS
330
C
102
}
330
C
100
AcDbDictionary
281
     1
  3
Layout1
350
65
  3
Model
350
64
  0
DICTIONARY
  5
1A9
102
{ACAD_REACTORS
330
C
102
}
330
C
100
AcDbDictionary
281
     1
  3
ByBlock
350
1AB
  3
ByLayer
350
1AA
  3
Global
350
1AC
  0
DICTIONARY
  5
E
102
{ACAD_REACTORS
330
C
102
}
330
C
100
AcDbDictionary
281
     1
  3
STANDARD
350
1B
  0
DICTIONARY
  5
63
102
{ACAD_REACTORS
330
C
102
}
330
C
100
AcDbDictionary
281
     1
  0
ACDBDICTIONARYWDFLT
  5
60
102
{ACAD_REACTORS
330
C
102
}
330
C
100
AcDbDictionary
281
     1
  3
Normal
350
61
100
AcDbDictionaryWithDefault
340
61
  0
DICTIONARY
  5
1BF
102
{ACAD_REACTORS
330
C
102
}
330
C
100
AcDbDictionary
281
     1
  3
Standard
350
1C0
  0
DICTIONARY
  5
1AD
102
{ACAD_REACTORS
330
C
102
}
330
C
100
AcDbDictionary
281
     1
  3
2dWireframe
350
1B3
  3
3D Hidden
350
1B5
  3
3dWireframe
350
1B4
  3
Basic
350
1B2
  3
Brighten
350
1B9
  3
ColorChange
350
1BD
  3
Conceptual
350
1B6
  3
Dim
350
1B8
  3
Facepattern
350
1BC
  3
Flat
350
1AE
  3
FlatWithEdges
350
1AF
  3
Gouraud
350
1B0
  3
GouraudWithEdges
350
1B1
  3
Linepattern
350
1BB
  3
Realistic
350
1B7
  3
Thicken
350
1BA
  0
DICTIONARY
  5
C3
102
{ACAD_REACTORS
330
C
102
}
330
C
100
AcDbDictionary
281
     1
  3
CTABLESTYLE
350
207
  3
DIMASSOC
350
C4
  3
INDEXCTL
350
209
  3
SORTENTS
350
208
  0
XRECORD
  5
868
102
{ACAD_REACTORS
330
C
102
}
330
C
100
AcDbXrecord
280
     1
  1
DWGPROPS COOKIE
  2

  3

  4

  6

  7

  8
John
  9

300
=
301
=
302
=
303
=
304
=
305
=
306
=
307
=
308
=
309
=
 40
0.0434109606481482
 41
2450350.157799769
 42
2455238.878070278
  1

 90
        0
  0
XRECORD
  5
1A3
102
{ACAD_REACTORS
330
BD
102
}
330
BD
100
AcDbXrecord
280
     1
340
18
  0
XRECORD
  5
1A2
102
{ACAD_REACTORS
330
BB
102
}
330
BB
100
AcDbXrecord
280
     1
340
15
  0
LAYOUT
  5
65
102
{ACAD_XDICTIONARY
360
86B
102
}
102
{ACAD_REACTORS
330
62
102
}
330
62
100
AcDbPlotSettings
  1

  2
Fax
  4

  6

 40
0.0
 41
0.0
 42
0.0
 43
0.0
 44
0.0
 45
0.0
 46
0.0
 47
0.0
 48
0.0
 49
0.0
140
0.0
141
0.0
142
1.0
143
1.0
 70
   688
 72
     0
 73
     0
 74
     5
  7
Default R14 pen assignments.ctb
 75
    16
147
1.0
148
0.0
149
0.0
100
AcDbLayout
  1
Layout1
 70
     1
 71
     1
 10
0.0
 20
0.0
 11
12.0
 21
9.0
 12
0.0
 22
0.0
 32
0.0
 14
1.000000000000000E+20
 24
1.000000000000000E+20
 34
1.000000000000000E+20
 15
-1.000000000000000E+20
 25
-1.000000000000000E+20
 35
-1.000000000000000E+20
146
0.0
 13
0.0
 23
0.0
 33
0.0
 16
1.0
 26
0.0
 36
0.0
 17
0.0
 27
1.0
 37
0.0
 76
     0
330
15
  0
LAYOUT
  5
64
102
{ACAD_XDICTIONARY
360
869
102
}
102
{ACAD_REACTORS
330
62
102
}
330
62
100
AcDbPlotSettings
  1

  2
Fax
  4

  6

 40
0.0
 41
0.0
 42
0.0
 43
0.0
 44
0.0
 45
0.0
 46
0.0
 47
0.0
 48
0.0
 49
0.0
140
0.0
141
0.0
142
1.0
143
1.0
 70
  1712
 72
     0
 73
     0
 74
     0
  7
Default R14 pen assignments.ctb
 75
     0
147
1.0
148
0.0
149
0.0
100
AcDbLayout
  1
Model
 70
     1
 71
     0
 10
0.0
 20
0.0
 11
12.0
 21
9.0
 12
0.0
 22
0.0
 32
0.0
 14
0.0
 24
0.0
 34
0.0
 15
0.0
 25
0.0
 35
0.0
146
0.0
 13
0.0
 23
0.0
 33
0.0
 16
1.0
 26
0.0
 36
0.0
 17
0.0
 27
1.0
 37
0.0
 76
     0
330
18
331
17D
  0
MATERIAL
  5
1AB
102
{ACAD_XDICTIONARY
360
86F
102
}
102
{ACAD_REACTORS
330
1A9
102
}
330
1A9
100
AcDbMaterial
  1
ByBlock
  0
MATERIAL
  5
1AA
102
{ACAD_XDICTIONARY
360
86D
102
}
102
{ACAD_REACTORS
330
1A9
102
}
330
1A9
100
AcDbMaterial
  1
ByLayer
  0
MATERIAL
  5
1AC
102
{ACAD_XDICTIONARY
360
871
102
}
102
{ACAD_REACTORS
330
1A9
102
}
330
1A9
100
AcDbMaterial
  1
Global
  0
MLINESTYLE
  5
1B
102
{ACAD_REACTORS
330
E
102
}
330
E
100
AcDbMlineStyle
  2
STANDARD
 70
     0
  3

 62
     0
 51
90.0
 52
90.0
 71
     2
 49
0.5
 62
   256
  6
BYLAYER
 49
-0.5
 62
   256
  6
BYLAYER
  0
ACDBPLACEHOLDER
  5
61
102
{ACAD_REACTORS
330
60
102
}
330
60
  0
TABLESTYLE
  5
1C0
102
{ACAD_XDICTIONARY
360
873
102
}
102
{ACAD_REACTORS
330
1BF
102
}
330
1BF
100
AcDbTableStyle
  3
Standard
 70
     0
 71
     0
 40
0.06
 41
0.06
280
     0
281
     0
  7
STANDARD
140
0.18
170
     2
 62
     0
 63
     7
283
     0
274
    -2
284
     1
 64
     0
275
    -2
285
     1
 65
     0
276
    -2
286
     1
 66
     0
277
    -2
287
     1
 67
     0
278
    -2
288
     1
 68
     0
279
    -2
289
     1
 69
     0
  7
STANDARD
140
0.25
170
     5
 62
     0
 63
     7
283
     0
274
    -2
284
     1
 64
     0
275
    -2
285
     1
 65
     0
276
    -2
286
     1
 66
     0
277
    -2
287
     1
 67
     0
278
    -2
288
     1
 68
     0
279
    -2
289
     1
 69
     0
  7
STANDARD
140
0.18
170
     5
 62
     0
 63
     7
283
     0
274
    -2
284
     1
 64
     0
275
    -2
285
     1
 65
     0
276
    -2
286
     1
 66
     0
277
    -2
287
     1
 67
     0
278
    -2
288
     1
 68
     0
279
    -2
289
     1
 69
     0
  0
VISUALSTYLE
  5
1B3
102
{ACAD_REACTORS
330
1AD
102
}
330
1AD
100
AcDbVisualStyle
  2
2dWireframe
 70
     4
 71
     0
 72
     2
 73
     0
 90
        0
 40
-0.6
 41
-30.0
 62
     5
 63
     7
 74
     1
 91
        4
 64
     7
 65
   257
 75
     1
175
     1
 42
1.0
 92
        0
 66
   257
 43
1.0
 76
     1
 77
     6
 78
     2
 67
     7
 79
     5
170
     0
171
     0
290
     0
174
     0
 93
        1
 44
0.0
173
     0
291
     0
 45
0.0
1001
ACAD
1000
AcDbSavedByObjectVersion
1070
     0
  0
VISUALSTYLE
  5
1B5
102
{ACAD_REACTORS
330
1AD
102
}
330
1AD
100
AcDbVisualStyle
  2
3D Hidden
 70
     6
 71
     1
 72
     2
 73
     2
 90
        0
 40
-0.6
 41
-30.0
 62
     5
 63
     7
 74
     2
 91
        2
 64
     7
 65
   257
 75
     2
175
     1
 42
40.0
 92
        0
 66
   257
 43
1.0
 76
     1
 77
     6
 78
     2
 67
     7
 79
     3
170
     0
171
     0
290
     0
174
     0
 93
        1
 44
0.0
173
     0
291
     0
 45
0.0
1001
ACAD
1000
AcDbSavedByObjectVersion
1070
     0
  0
VISUALSTYLE
  5
1B4
102
{ACAD_REACTORS
330
1AD
102
}
330
1AD
100
AcDbVisualStyle
  2
3dWireframe
 70
     5
 71
     0
 72
     2
 73
     0
 90
        0
 40
-0.6
 41
-30.0
 62
     5
 63
     7
 74
     1
 91
        4
 64
     7
 65
   257
 75
     1
175
     1
 42
1.0
 92
        0
 66
   257
 43
1.0
 76
     1
 77
     6
 78
     2
 67
     7
 79
     5
170
     0
171
     0
290
     0
174
     0
 93
        1
 44
0.0
173
     0
291
     0
 45
0.0
1001
ACAD
1000
AcDbSavedByObjectVersion
1070
     0
  0
VISUALSTYLE
  5
1B2
102
{ACAD_REACTORS
330
1AD
102
}
330
1AD
100
AcDbVisualStyle
  2
Basic
 70
     7
 71
     1
 72
     0
 73
     1
 90
        0
 40
-0.6
 41
-30.0
 62
     5
 63
     7
 74
     0
 91
        4
 64
     7
 65
   257
 75
     1
175
     1
 42
1.0
 92
        8
 66
     7
 43
1.0
 76
     1
 77
     6
 78
     2
 67
     7
 79
     5
170
     0
171
     0
290
     0
174
     0
 93
        1
 44
0.0
173
     0
291
     1
 45
0.0
1001
ACAD
1000
AcDbSavedByObjectVersion
1070
     0
  0
VISUALSTYLE
  5
1B9
102
{ACAD_REACTORS
330
1AD
102
}
330
1AD
100
AcDbVisualStyle
  2
Brighten
 70
    12
 71
     2
 72
     2
 73
     0
 90
        0
 40
-0.6
 41
-30.0
 62
     5
 63
     7
 74
     1
 91
        4
 64
     7
 65
   257
 75
     1
175
     1
 42
1.0
 92
        8
 66
     7
 43
1.0
 76
     1
 77
     6
 78
     2
 67
     7
 79
     5
170
     0
171
     0
290
     0
174
     0
 93
        1
 44
50.0
173
     0
291
     1
 45
0.0
1001
ACAD
1000
AcDbSavedByObjectVersion
1070
     0
  0
VISUALSTYLE
  5
1BD
102
{ACAD_REACTORS
330
1AD
102
}
330
1AD
100
AcDbVisualStyle
  2
ColorChange
 70
    16
 71
     2
 72
     2
 73
     3
 90
        0
 40
-0.6
 41
-30.0
 62
     5
 63
     8
 74
     1
 91
        4
 64
     7
 65
   257
 75
     1
175
     1
 42
1.0
 92
        8
 66
     8
 43
1.0
 76
     1
 77
     6
 78
     2
 67
     7
 79
     5
170
     0
171
     0
290
     0
174
     0
 93
        1
 44
0.0
173
     0
291
     1
 45
0.0
1001
ACAD
1000
AcDbSavedByObjectVersion
1070
     0
  0
VISUALSTYLE
  5
1B6
102
{ACAD_REACTORS
330
1AD
102
}
330
1AD
100
AcDbVisualStyle
  2
Conceptual
 70
     9
 71
     3
 72
     2
 73
     0
 90
        0
 40
-0.6
 41
-30.0
 62
     5
 63
     7
 74
     2
 91
        2
 64
     7
 65
   257
 75
     1
175
     1
 42
40.0
 92
        8
 66
     7
 43
1.0
 76
     1
 77
     6
 78
     2
 67
     7
 79
     3
170
     0
171
     0
290
     0
174
     0
 93
        1
 44
0.0
173
     0
291
     0
 45
0.0
1001
ACAD
1000
AcDbSavedByObjectVersion
1070
     0
  0
VISUALSTYLE
  5
1B8
102
{ACAD_REACTORS
330
1AD
102
}
330
1AD
100
AcDbVisualStyle
  2
Dim
 70
    11
 71
     2
 72
     2
 73
     0
 90
        0
 40
-0.6
 41
-30.0
 62
     5
 63
     7
 74
     1
 91
        4
 64
     7
 65
   257
 75
     1
175
     1
 42
1.0
 92
        8
 66
     7
 43
1.0
 76
     1
 77
     6
 78
     2
 67
     7
 79
     5
170
     0
171
     0
290
     0
174
     0
 93
        1
 44
-50.0
173
     0
291
     1
 45
0.0
1001
ACAD
1000
AcDbSavedByObjectVersion
1070
     0
  0
VISUALSTYLE
  5
1BC
102
{ACAD_REACTORS
330
1AD
102
}
330
1AD
100
AcDbVisualStyle
  2
Facepattern
 70
    15
 71
     2
 72
     2
 73
     0
 90
        0
 40
-0.6
 41
-30.0
 62
     5
 63
     7
 74
     1
 91
        4
 64
     7
 65
   257
 75
     1
175
     1
 42
1.0
 92
        8
 66
     7
 43
1.0
 76
     1
 77
     6
 78
     2
 67
     7
 79
     5
170
     0
171
     0
290
     0
174
     0
 93
        1
 44
0.0
173
     0
291
     1
 45
0.0
1001
ACAD
1000
AcDbSavedByObjectVersion
1070
     0
  0
VISUALSTYLE
  5
1AE
102
{ACAD_REACTORS
330
1AD
102
}
330
1AD
100
AcDbVisualStyle
  2
Flat
 70
     0
 71
     2
 72
     1
 73
     1
 90
        2
 40
-0.6
 41
30.0
 62
     5
 63
     7
 74
     0
 91
        4
 64
     7
 65
   257
 75
     1
175
     1
 42
1.0
 92
        8
 66
     7
 43
1.0
 76
     1
 77
     6
 78
     2
 67
     7
 79
     5
170
     0
171
     0
290
     0
174
     0
 93
       13
 44
0.0
173
     0
291
     1
 45
0.0
1001
ACAD
1000
AcDbSavedByObjectVersion
1070
     0
  0
VISUALSTYLE
  5
1AF
102
{ACAD_REACTORS
330
1AD
102
}
330
1AD
100
AcDbVisualStyle
  2
FlatWithEdges
 70
     1
 71
     2
 72
     1
 73
     1
 90
        2
 40
-0.6
 41
30.0
 62
     5
 63
     7
 74
     1
 91
        4
 64
     7
 65
   257
 75
     1
175
     1
 42
1.0
 92
        0
 66
   257
 43
1.0
 76
     1
 77
     6
 78
     2
 67
     7
 79
     5
170
     0
171
     0
290
     0
174
     0
 93
       13
 44
0.0
173
     0
291
     1
 45
0.0
1001
ACAD
1000
AcDbSavedByObjectVersion
1070
     0
  0
VISUALSTYLE
  5
1B0
102
{ACAD_REACTORS
330
1AD
102
}
330
1AD
100
AcDbVisualStyle
  2
Gouraud
 70
     2
 71
     2
 72
     2
 73
     1
 90
        2
 40
-0.6
 41
30.0
 62
     5
 63
     7
 74
     0
 91
        4
 64
     7
 65
   257
 75
     1
175
     1
 42
1.0
 92
        0
 66
     7
 43
1.0
 76
     1
 77
     6
 78
     2
 67
     7
 79
     5
170
     0
171
     0
290
     0
174
     0
 93
       13
 44
0.0
173
     0
291
     1
 45
0.0
1001
ACAD
1000
AcDbSavedByObjectVersion
1070
     0
  0
VISUALSTYLE
  5
1B1
102
{ACAD_REACTORS
330
1AD
102
}
330
1AD
100
AcDbVisualStyle
  2
GouraudWithEdges
 70
     3
 71
     2
 72
     2
 73
     1
 90
        2
 40
-0.6
 41
30.0
 62
     5
 63
     7
 74
     1
 91
        4
 64
     7
 65
   257
 75
     1
175
     1
 42
1.0
 92
        0
 66
   257
 43
1.0
 76
     1
 77
     6
 78
     2
 67
     7
 79
     5
170
     0
171
     0
290
     0
174
     0
 93
       13
 44
0.0
173
     0
291
     1
 45
0.0
1001
ACAD
1000
AcDbSavedByObjectVersion
1070
     0
  0
VISUALSTYLE
  5
1BB
102
{ACAD_REACTORS
330
1AD
102
}
330
1AD
100
AcDbVisualStyle
  2
Linepattern
 70
    14
 71
     2
 72
     2
 73
     0
 90
        0
 40
-0.6
 41
-30.0
 62
     5
 63
     7
 74
     1
 91
        4
 64
     7
 65
   257
 75
     7
175
     7
 42
1.0
 92
        8
 66
     7
 43
1.0
 76
     1
 77
     6
 78
     2
 67
     7
 79
     5
170
     0
171
     0
290
     0
174
     0
 93
        1
 44
0.0
173
     0
291
     1
 45
0.0
1001
ACAD
1000
AcDbSavedByObjectVersion
1070
     0
  0
VISUALSTYLE
  5
1B7
102
{ACAD_REACTORS
330
1AD
102
}
330
1AD
100
AcDbVisualStyle
  2
Realistic
 70
     8
 71
     2
 72
     2
 73
     0
 90
        0
 40
-0.6
 41
-30.0
 62
     5
 63
     7
 74
     1
 91
        0
 64
     7
 65
   257
 75
     1
175
     1
 42
1.0
 92
        8
 66
     8
 43
1.0
 76
     1
 77
     6
 78
     2
 67
     7
 79
     5
170
     0
171
     0
290
     0
174
     0
 93
       13
 44
0.0
173
     0
291
     0
 45
0.0
1001
ACAD
1000
AcDbSavedByObjectVersion
1070
     0
  0
VISUALSTYLE
  5
1BA
102
{ACAD_REACTORS
330
1AD
102
}
330
1AD
100
AcDbVisualStyle
  2
Thicken
 70
    13
 71
     2
 72
     2
 73
     0
 90
        0
 40
-0.6
 41
-30.0
 62
     5
 63
     7
 74
     1
 91
        4
 64
     7
 65
   257
 75
     1
175
     1
 42
1.0
 92
       12
 66
     7
 43
1.0
 76
     1
 77
     6
 78
     2
 67
     7
 79
     5
170
     0
171
     0
290
     0
174
     0
 93
        1
 44
0.0
173
     0
291
     1
 45
0.0
1001
ACAD
1000
AcDbSavedByObjectVersion
1070
     0
  0
DICTIONARYVAR
  5
207
102
{ACAD_REACTORS
330
C3
102
}
330
C3
100
DictionaryVariables
280
     0
  1
STANDARD
  0
DICTIONARYVAR
  5
C4
102
{ACAD_REACTORS
330
C3
102
}
330
C3
100
DictionaryVariables
280
     0
  1
1
  0
DICTIONARYVAR
  5
209
102
{ACAD_REACTORS
330
C3
102
}
330
C3
100
DictionaryVariables
280
     0
  1
0
  0
DICTIONARYVAR
  5
208
102
{ACAD_REACTORS
330
C3
102
}
330
C3
100
DictionaryVariables
280
     0
  1
127
  0
DICTIONARY
  5
86B
330
65
100
AcDbDictionary
280
     1
281
     1
  3
ACAD_XREC_ROUNDTRIP
360
86C
  0
DICTIONARY
  5
869
330
64
100
AcDbDictionary
280
     1
281
     1
  3
ACAD_XREC_ROUNDTRIP
360
86A
  0
DICTIONARY
  5
86F
330
1AB
100
AcDbDictionary
280
     1
281
     1
  3
ACAD_XREC_ROUNDTRIP
360
870
  0
DICTIONARY
  5
86D
330
1AA
100
AcDbDictionary
280
     1
281
     1
  3
ACAD_XREC_ROUNDTRIP
360
86E
  0
DICTIONARY
  5
871
330
1AC
100
AcDbDictionary
280
     1
281
     1
  3
ACAD_XREC_ROUNDTRIP
360
872
  0
DICTIONARY
  5
873
330
1C0
100
AcDbDictionary
280
     1
281
     1
  3
ACAD_XREC_ROUNDTRIP
360
874
  0
XRECORD
  5
86C
102
{ACAD_REACTORS
330
86B
102
}
330
86B
100
AcDbXrecord
280
     1
102
SHADEPLOT
 70
     0
102
SHADEPLOTRESLEVEL
 70
     2
102
SHADEPLOTCUSTOMDPI
 70
   300
  0
XRECORD
  5
86A
102
{ACAD_REACTORS
330
869
102
}
330
869
100
AcDbXrecord
280
     1
102
SHADEPLOT
 70
     0
102
SHADEPLOTRESLEVEL
 70
     2
102
SHADEPLOTCUSTOMDPI
 70
   300
  0
XRECORD
  5
870
102
{ACAD_REACTORS
330
86F
102
}
330
86F
100
AcDbXrecord
280
     1
102
MATERIAL
148
0.0
149
0.0
149
0.0
 93
        0
 94
       63
282
     0
 72
     1
 77
     1
171
     1
175
     1
179
     1
273
     0
  0
XRECORD
  5
86E
102
{ACAD_REACTORS
330
86D
102
}
330
86D
100
AcDbXrecord
280
     1
102
MATERIAL
148
0.0
149
0.0
149
0.0
 93
        0
 94
       63
282
     0
 72
     1
 77
     1
171
     1
175
     1
179
     1
273
     0
  0
XRECORD
  5
872
102
{ACAD_REACTORS
330
871
102
}
330
871
100
AcDbXrecord
280
     1
102
MATERIAL
148
0.0
149
0.0
149
0.0
 93
        0
 94
       63
282
     0
 72
     1
 77
     1
171
     1
175
     1
179
     1
273
     0
  0
XRECORD
  5
874
102
{ACAD_REACTORS
330
873
102
}
330
873
100
AcDbXrecord
280
     1
102
ACAD_ROUNDTRIP_PRE2007_TABLESTYLE
 90
      512
 91
        0
  1

 92
      512
 93
        0
  2

 94
      512
 95
        0
  3

  0
ENDSEC
  0
EOF
