  0
SECTION
  2
HEADER
  9
$ACADVER
  1
AC1014
  9
$ACADMAINTVER
 70
     9
  9
$DWGCODEPAGE
  3
ANSI_1252
  9
$INSBASE
 10
44.24639623919248
 20
-12.9415356992275
 30
0.0
  9
$EXTMIN
 10
38.10116682268664
 20
-14.18251076463899
 30
0.0
  9
$EXTMAX
 10
51.50424066306864
 20
-9.841796610543893
 30
0.0
  9
$LIMMIN
 10
0.0
 20
0.0
  9
$LIMMAX
 10
36.0
 20
36.0
  9
$ORTHOMODE
 70
     1
  9
$REGENMODE
 70
     1
  9
$FILLMODE
 70
     1
  9
$QTEXTMODE
 70
     0
  9
$MIRRTEXT
 70
     1
  9
$DRAGMODE
 70
     0
  9
$LTSCALE
 40
1.0
  9
$OSMODE
 70
    37
  9
$ATTMODE
 70
     1
  9
$TEXTSIZE
 40
0.2
  9
$TRACEWID
 40
0.05
  9
$TEXTSTYLE
  7
STANDARD
  9
$CLAYER
  8
ADPDIM
  9
$CELTYPE
  6
BYLAYER
  9
$CECOLOR
 62
   256
  9
$CELTSCALE
 40
1.0
  9
$DELOBJ
 70
     1
  9
$DISPSILH
 70
     0
  9
$DIMSCALE
 40
1.0
  9
$DIMASZ
 40
0.25
  9
$DIMEXO
 40
0.0625
  9
$DIMDLI
 40
0.375
  9
$DIMRND
 40
0.0
  9
$DIMDLE
 40
0.0
  9
$DIMEXE
 40
0.1875
  9
$DIMTP
 40
0.0
  9
$DIMTM
 40
0.0
  9
$DIMTXT
 40
0.125
  9
$DIMCEN
 40
0.1875
  9
$DIMTSZ
 40
0.0
  9
$DIMTOL
 70
     0
  9
$DIMLIM
 70
     0
  9
$DIMTIH
 70
     0
  9
$DIMTOH
 70
     0
  9
$DIMSE1
 70
     0
  9
$DIMSE2
 70
     0
  9
$DIMTAD
 70
     0
  9
$DIMZIN
 70
     2
  9
$DIMBLK
  1

  9
$DIMASO
 70
     1
  9
$DIMSHO
 70
     1
  9
$DIMPOST
  1

  9
$DIMAPOST
  1

  9
$DIMALT
 70
     0
  9
$DIMALTD
 70
     1
  9
$DIMALTF
 40
25.4
  9
$DIMLFAC
 40
1.0
  9
$DIMTOFL
 70
     0
  9
$DIMTVP
 40
0.0
  9
$DIMTIX
 70
     0
  9
$DIMSOXD
 70
     0
  9
$DIMSAH
 70
     1
  9
$DIMBLK1
  1
OBLIQUE
  9
$DIMBLK2
  1
OBLIQUE
  9
$DIMSTYLE
  2
STANDARD
  9
$DIMCLRD
 70
     0
  9
$DIMCLRE
 70
     0
  9
$DIMCLRT
 70
     0
  9
$DIMTFAC
 40
1.0
  9
$DIMGAP
 40
0.125
  9
$DIMJUST
 70
     0
  9
$DIMSD1
 70
     0
  9
$DIMSD2
 70
     0
  9
$DIMTOLJ
 70
     1
  9
$DIMTZIN
 70
     0
  9
$DIMALTZ
 70
     0
  9
$DIMALTTZ
 70
     0
  9
$DIMFIT
 70
     3
  9
$DIMUPT
 70
     0
  9
$DIMUNIT
 70
     7
  9
$DIMDEC
 70
     2
  9
$DIMTDEC
 70
     4
  9
$DIMALTU
 70
     2
  9
$DIMALTTD
 70
     2
  9
$DIMTXSTY
  7
STANDARD
  9
$DIMAUNIT
 70
     0
  9
$LUNITS
 70
     5
  9
$LUPREC
 70
     4
  9
$SKETCHINC
 40
0.1
  9
$FILLETRAD
 40
0.25
  9
$AUNITS
 70
     0
  9
$AUPREC
 70
     0
  9
$MENU
  1
acad
  9
$ELEVATION
 40
0.0
  9
$PELEVATION
 40
0.0
  9
$THICKNESS
 40
0.0
  9
$LIMCHECK
 70
     0
  9
$BLIPMODE
 70
     0
  9
$CHAMFERA
 40
0.0
  9
$CHAMFERB
 40
0.0
  9
$CHAMFERC
 40
0.0
  9
$CHAMFERD
 40
0.0
  9
$SKPOLY
 70
     0
  9
$TDCREATE
 40
2450399.685780474
  9
$TDUPDATE
 40
2452297.098350324
  9
$TDINDWG
 40
0.0075778125
  9
$TDUSRTIMER
 40
0.0075778125
  9
$USRTIMER
 70
     1
  9
$ANGBASE
 50
0.0
  9
$ANGDIR
 70
     0
  9
$PDMODE
 70
     0
  9
$PDSIZE
 40
0.0
  9
$PLINEWID
 40
0.0
  9
$COORDS
 70
     2
  9
$SPLFRAME
 70
     0
  9
$SPLINETYPE
 70
     6
  9
$SPLINESEGS
 70
     8
  9
$ATTDIA
 70
     0
  9
$ATTREQ
 70
     1
  9
$HANDLING
 70
 22529
  9
$HANDSEED
  5
249
  9
$SURFTAB1
 70
     6
  9
$SURFTAB2
 70
     6
  9
$SURFTYPE
 70
     6
  9
$SURFU
 70
     6
  9
$SURFV
 70
     6
  9
$UCSNAME
  2

  9
$UCSORG
 10
0.0
 20
0.0
 30
0.0
  9
$UCSXDIR
 10
1.0
 20
0.0
 30
0.0
  9
$UCSYDIR
 10
0.0
 20
1.0
 30
0.0
  9
$PUCSNAME
  2

  9
$PUCSORG
 10
0.0
 20
0.0
 30
0.0
  9
$PUCSXDIR
 10
1.0
 20
0.0
 30
0.0
  9
$PUCSYDIR
 10
0.0
 20
1.0
 30
0.0
  9
$USERI1
 70
     0
  9
$USERI2
 70
     0
  9
$USERI3
 70
     0
  9
$USERI4
 70
     0
  9
$USERI5
 70
     0
  9
$USERR1
 40
0.0
  9
$USERR2
 40
0.0
  9
$USERR3
 40
0.0
  9
$USERR4
 40
0.0
  9
$USERR5
 40
0.0
  9
$WORLDVIEW
 70
     1
  9
$SHADEDGE
 70
     3
  9
$SHADEDIF
 70
    70
  9
$TILEMODE
 70
     1
  9
$MAXACTVP
 70
    15
  9
$PINSBASE
 10
0.0004882914945483
 20
0.7501408034022604
 30
0.0
  9
$PLIMCHECK
 70
     0
  9
$PEXTMIN
 10
1.000000000000000E+20
 20
1.000000000000000E+20
 30
1.000000000000000E+20
  9
$PEXTMAX
 10
-1.000000000000000E+20
 20
-1.000000000000000E+20
 30
-1.000000000000000E+20
  9
$PLIMMIN
 10
0.0
 20
0.0
  9
$PLIMMAX
 10
12.0
 20
9.0
  9
$UNITMODE
 70
     0
  9
$VISRETAIN
 70
     0
  9
$PLINEGEN
 70
     0
  9
$PSLTSCALE
 70
     1
  9
$TREEDEPTH
 70
  3020
  9
$PICKSTYLE
 70
     1
  9
$CMLSTYLE
  2
STANDARD
  9
$CMLJUST
 70
     0
  9
$CMLSCALE
 40
1.0
  9
$PROXYGRAPHICS
 70
     1
  9
$MEASUREMENT
 70
     0
  0
ENDSEC
  0
SECTION
  2
CLASSES
  0
CLASS
  1
ACDBDICTIONARYWDFLT
  2
AcDbDictionaryWithDefault
  3
AutoCAD 2000
 90
        0
280
     0
281
     0
  0
CLASS
  1
ACDBPLACEHOLDER
  2
AcDbPlaceHolder
  3
AutoCAD 2000
 90
        0
280
     0
281
     0
  0
CLASS
  1
LAYOUT
  2
AcDbLayout
  3
AutoCAD 2000
 90
        0
280
     0
281
     0
  0
CLASS
  1
DICTIONARYVAR
  2
AcDbDictionaryVar
  3
AutoCAD 2000
 90
        0
280
     0
281
     0
  0
CLASS
  1
LONG_TRANSACTION
  2
AcDbLongTransaction
  3
AutoCAD 2000
 90
        0
280
     0
281
     0
  0
CLASS
  1
LWPOLYLINE
  2
AcDbPolyline
  3
AutoCAD 2000
 90
        0
280
     0
281
     1
  0
CLASS
  1
HATCH
  2
AcDbHatch
  3
AutoCAD 2000
 90
        0
280
     0
281
     1
  0
CLASS
  1
XRECORD
  2
AcDbXrecord
  3
AutoCAD 2000
 90
        0
280
     0
281
     0
  0
CLASS
  1
LONG_TRANSACTION
  2
AcDbLongTransaction
  3
AutoCAD 2000
 90
        0
280
     0
281
     0
  0
CLASS
  1
LWPOLYLINE
  2
AcDbPolyline
  3
AutoCAD 2000
 90
        0
280
     0
281
     1
  0
CLASS
  1
HATCH
  2
AcDbHatch
  3
AutoCAD 2000
 90
        0
280
     0
281
     1
  0
CLASS
  1
XRECORD
  2
AcDbXrecord
  3
AutoCAD 2000
 90
        0
280
     0
281
     0
  0
CLASS
  1
LONG_TRANSACTION
  2
AcDbLongTransaction
  3
AutoCAD 2000
 90
        0
280
     0
281
     0
  0
CLASS
  1
LWPOLYLINE
  2
AcDbPolyline
  3
AutoCAD 2000
 90
        0
280
     0
281
     1
  0
CLASS
  1
HATCH
  2
AcDbHatch
  3
AutoCAD 2000
 90
        0
280
     0
281
     1
  0
CLASS
  1
XRECORD
  2
AcDbXrecord
  3
AutoCAD 2000
 90
        0
280
     0
281
     0
  0
CLASS
  1
LONG_TRANSACTION
  2
AcDbLongTransaction
  3
AutoCAD 2000
 90
        0
280
     0
281
     0
  0
CLASS
  1
LWPOLYLINE
  2
AcDbPolyline
  3
AutoCAD 2000
 90
        0
280
     0
281
     1
  0
CLASS
  1
HATCH
  2
AcDbHatch
  3
AutoCAD 2000
 90
        0
280
     0
281
     1
  0
CLASS
  1
XRECORD
  2
AcDbXrecord
  3
AutoCAD 2000
 90
        0
280
     0
281
     0
  0
CLASS
  1
LONG_TRANSACTION
  2
AcDbLongTransaction
  3
AutoCAD 2000
 90
        0
280
     0
281
     0
  0
CLASS
  1
LWPOLYLINE
  2
AcDbPolyline
  3
AutoCAD 2000
 90
        0
280
     0
281
     1
  0
CLASS
  1
HATCH
  2
AcDbHatch
  3
AutoCAD 2000
 90
        0
280
     0
281
     1
  0
CLASS
  1
XRECORD
  2
AcDbXrecord
  3
AutoCAD 2000
 90
        0
280
     0
281
     0
  0
ENDSEC
  0
SECTION
  2
TABLES
  0
TABLE
  2
VPORT
  5
12
330
0
100
AcDbSymbolTable
 70
     2
  0
VPORT
  5
21B
330
12
100
AcDbSymbolTableRecord
100
AcDbViewportTableRecord
  2
*ACTIVE
 70
     0
 10
0.0
 20
0.0
 11
1.0
 21
1.0
 12
44.81429351270601
 22
-12.01207695396994
 13
0.0
 23
0.0
 14
0.5740882589684922
 24
0.5740882589684922
 15
0.5
 25
0.5
 16
0.0
 26
0.0
 36
1.0
 17
0.0
 27
0.0
 37
0.0
 40
8.592515847474388
 41
1.570528967254408
 42
50.0
 43
0.0
 44
0.0
 50
0.0
 51
0.0
 71
     0
 72
   100
 73
     1
 74
     0
 75
     0
 76
     0
 77
     0
 78
     0
  0
ENDTAB
  0
TABLE
  2
LTYPE
  5
E
330
0
100
AcDbSymbolTable
 70
     2
  0
LTYPE
  5
F
330
E
100
AcDbSymbolTableRecord
100
AcDbLinetypeTableRecord
  2
BYBLOCK
 70
     0
  3

 72
    65
 73
     0
 40
0.0
  0
LTYPE
  5
6
330
E
100
AcDbSymbolTableRecord
100
AcDbLinetypeTableRecord
  2
BYLAYER
 70
     0
  3

 72
    65
 73
     0
 40
0.0
  0
LTYPE
  5
5
330
E
100
AcDbSymbolTableRecord
100
AcDbLinetypeTableRecord
  2
CONTINUOUS
 70
     0
  3
Solid line
 72
    65
 73
     0
 40
0.0
  0
LTYPE
  5
38
330
E
100
AcDbSymbolTableRecord
100
AcDbLinetypeTableRecord
  2
HIDDEN2
 70
     0
  3
_ _ _ _ _ _ _ _ _ _ _ _ _ _ _ _ _ _ _ _ _ _ _ _
 72
    65
 73
     2
 40
0.1875
 49
0.125
 74
     0
 49
-0.0625
 74
     0
  0
ENDTAB
  0
TABLE
  2
LAYER
  5
B
330
0
100
AcDbSymbolTable
 70
     5
  0
LAYER
  5
4
330
B
100
AcDbSymbolTableRecord
100
AcDbLayerTableRecord
  2
0
 70
     0
 62
     7
  6
CONTINUOUS
  0
LAYER
  5
32
330
B
100
AcDbSymbolTableRecord
100
AcDbLayerTableRecord
  2
ADP1DETAIL
 70
     0
 62
     7
  6
CONTINUOUS
  0
LAYER
  5
2C
330
B
100
AcDbSymbolTableRecord
100
AcDbLayerTableRecord
  2
DEFPOINTS
 70
     0
 62
     7
  6
CONTINUOUS
  0
LAYER
  5
1B
330
B
100
AcDbSymbolTableRecord
100
AcDbLayerTableRecord
  2
ADPDIM
 70
     0
 62
     3
  6
CONTINUOUS
  0
LAYER
  5
37
330
B
100
AcDbSymbolTableRecord
100
AcDbLayerTableRecord
  2
ADP2DETAIL
 70
     0
 62
     5
  6
CONTINUOUS
  0
ENDTAB
  0
TABLE
  2
STYLE
  5
C
330
0
100
AcDbSymbolTable
 70
     2
  0
STYLE
  5
D
330
C
100
AcDbSymbolTableRecord
100
AcDbTextStyleTableRecord
  2
STANDARD
 70
     0
 40
0.0
 41
1.0
 50
0.0
 71
     0
 42
0.2
  3
txt
  4

  0
STYLE
  5
84
330
C
100
AcDbSymbolTableRecord
100
AcDbTextStyleTableRecord
  2
ARIAL_WIDE
 70
     0
 40
0.0
 41
1.25
 50
0.0
 71
     0
 42
0.2
  3
ARIAL.TTF
  4

1001
ACAD
1000
Arial
1071
       34
  0
ENDTAB
  0
TABLE
  2
VIEW
  5
10
330
0
100
AcDbSymbolTable
 70
     0
  0
ENDTAB
  0
TABLE
  2
UCS
  5
11
330
0
100
AcDbSymbolTable
 70
     0
  0
ENDTAB
  0
TABLE
  2
APPID
  5
14
330
0
100
AcDbSymbolTable
 70
     1
  0
APPID
  5
15
330
14
100
AcDbSymbolTableRecord
100
AcDbRegAppTableRecord
  2
ACAD
 70
     0
  0
ENDTAB
  0
TABLE
  2
DIMSTYLE
  5
16
330
0
100
AcDbSymbolTable
 70
     1
  0
DIMSTYLE
105
1D
102
{ACAD_REACTORS
330
1E
102
}
330
16
100
AcDbSymbolTableRecord
100
AcDbDimStyleTableRecord
  2
STANDARD
 70
     0
  3

  4

  5

  6

  7

 40
1.0
 41
0.18
 42
0.0625
 43
0.38
 44
0.18
 45
0.0
 46
0.0
 47
0.0
 48
0.0
140
0.18
141
0.09
142
0.0
143
25.4
144
1.0
145
0.0
146
1.0
147
0.09
 71
     0
 72
     0
 73
     1
 74
     1
 75
     0
 76
     0
 77
     0
 78
     0
170
     0
171
     2
172
     0
173
     0
174
     0
175
     0
176
     0
177
     0
178
     0
270
     2
271
     4
272
     4
273
     2
274
     2
340
D
275
     0
280
     0
281
     0
282
     0
283
     1
284
     0
285
     0
286
     0
287
     3
288
     0
  0
ENDTAB
  0
TABLE
  2
BLOCK_RECORD
  5
1
330
0
100
AcDbSymbolTable
 70
     5
  0
BLOCK_RECORD
  5
2
102
{ACAD_XDICTIONARY
360
E6
102
}
330
1
100
AcDbSymbolTableRecord
100
AcDbBlockTableRecord
  2
*MODEL_SPACE
  0
BLOCK_RECORD
  5
8
102
{ACAD_XDICTIONARY
360
E8
102
}
330
1
100
AcDbSymbolTableRecord
100
AcDbBlockTableRecord
  2
*PAPER_SPACE
  0
BLOCK_RECORD
  5
3C
330
1
100
AcDbSymbolTableRecord
100
AcDbBlockTableRecord
  2
6985
  0
BLOCK_RECORD
  5
6E
330
1
100
AcDbSymbolTableRecord
100
AcDbBlockTableRecord
  2
*D1
  0
BLOCK_RECORD
  5
54
330
1
100
AcDbSymbolTableRecord
100
AcDbBlockTableRecord
  2
*D2
  0
BLOCK_RECORD
  5
25
330
1
100
AcDbSymbolTableRecord
100
AcDbBlockTableRecord
  2
_OBLIQUE
  0
BLOCK_RECORD
  5
EA
330
1
100
AcDbSymbolTableRecord
100
AcDbBlockTableRecord
  2
*D4
  0
ENDTAB
  0
ENDSEC
  0
SECTION
  2
BLOCKS
  0
BLOCK
  5
3
330
2
100
AcDbEntity
  8
0
100
AcDbBlockBegin
  2
*MODEL_SPACE
 70
     0
 10
0.0
 20
0.0
 30
0.0
  3
*MODEL_SPACE
  1

  0
ENDBLK
  5
7
330
2
100
AcDbEntity
  8
0
100
AcDbBlockEnd
  0
BLOCK
  5
9
330
8
100
AcDbEntity
 67
     1
  8
0
100
AcDbBlockBegin
  2
*PAPER_SPACE
 70
     0
 10
0.0
 20
0.0
 30
0.0
  3
*PAPER_SPACE
  1

  0
ENDBLK
  5
A
330
8
100
AcDbEntity
 67
     1
  8
0
100
AcDbBlockEnd
  0
BLOCK
  5
51
330
3C
100
AcDbEntity
  8
0
100
AcDbBlockBegin
  2
6985
 70
     0
 10
0.0
 20
0.0
 30
0.0
  3
6985
  1

  0
ARC
  5
3D
330
3C
100
AcDbEntity
  8
0
100
AcDbCircle
 10
1.03523296887258
 20
-1.623006156071138
 30
0.0
 40
2.561999999999999
100
AcDbArc
 50
90.0
 51
111.8050309081507
  0
LINE
  5
3E
330
3C
100
AcDbEntity
  8
0
100
AcDbLine
 10
0.2797329688725796
 20
0.5019938439288599
 30
0.0
 11
1.03523296887258
 21
0.5019938439288599
 31
0.0
  0
LINE
  5
3F
330
3C
100
AcDbEntity
  8
0
100
AcDbLine
 10
0.046160728948415
 20
0.6843450835967407
 30
0.0
 11
0.1429598524972633
 21
0.2597709733065994
 31
0.0
  0
LINE
  5
40
330
3C
100
AcDbEntity
  8
0
100
AcDbLine
 10
0.2697329688725816
 20
0.2619938439288614
 30
0.0
 11
0.2697329688725816
 21
0.4919938439288618
 31
0.0
  0
ARC
  5
41
330
3C
100
AcDbEntity
  8
0
100
AcDbCircle
 10
0.25973296887258
 20
0.2619938439288614
 30
0.0
 40
0.01
100
AcDbArc
 50
270.0
 51
0.0
  0
LINE
  5
42
330
3C
100
AcDbEntity
  8
0
100
AcDbLine
 10
0.1527096651209341
 20
0.2519938439288598
 30
0.0
 11
0.25973296887258
 21
0.2519938439288598
 31
0.0
  0
ARC
  5
43
330
3C
100
AcDbEntity
  8
0
100
AcDbCircle
 10
0.1527096651209341
 20
0.2619938439288614
 30
0.0
 40
0.01
100
AcDbArc
 50
192.84339876773
 51
270.0
  0
ARC
  5
44
330
3C
100
AcDbEntity
  8
0
100
AcDbCircle
 10
0.1066095672151732
 20
0.6981268814547637
 30
0.0
 40
0.062
100
AcDbArc
 50
111.8050309081505
 51
192.8433987677301
  0
ARC
  5
45
330
3C
100
AcDbEntity
  8
0
100
AcDbCircle
 10
0.2797329688725796
 20
0.4919938439288618
 30
0.0
 40
0.01
100
AcDbArc
 50
90.0
 51
180.0
  0
LINE
  5
46
330
3C
100
AcDbEntity
  8
0
100
AcDbLine
 10
2.022517663017648
 20
0.6843450835967407
 30
0.0
 11
1.925718539468796
 21
0.2597709733065994
 31
0.0
  0
ARC
  5
47
330
3C
100
AcDbEntity
  8
0
100
AcDbCircle
 10
1.033445423093482
 20
-1.623006156071138
 30
0.0
 40
2.561999999999999
100
AcDbArc
 50
68.19496909184923
 51
90.0
  0
LINE
  5
48
330
3C
100
AcDbEntity
  8
0
100
AcDbLine
 10
1.798945423093481
 20
0.2619938439288614
 30
0.0
 11
1.798945423093481
 21
0.4919938439288618
 31
0.0
  0
LINE
  5
49
330
3C
100
AcDbEntity
  8
0
100
AcDbLine
 10
1.915968726845125
 20
0.2519938439288598
 30
0.0
 11
1.808945423093479
 21
0.2519938439288598
 31
0.0
  0
ARC
  5
4A
330
3C
100
AcDbEntity
  8
0
100
AcDbCircle
 10
1.808945423093479
 20
0.2619938439288614
 30
0.0
 40
0.01
100
AcDbArc
 50
180.0
 51
270.0
  0
ARC
  5
4B
330
3C
100
AcDbEntity
  8
0
100
AcDbCircle
 10
1.915968726845125
 20
0.2619938439288614
 30
0.0
 40
0.01
100
AcDbArc
 50
270.0
 51
347.1566012322699
  0
LINE
  5
4C
330
3C
100
AcDbEntity
  8
0
100
AcDbLine
 10
1.78894542309348
 20
0.5019938439288599
 30
0.0
 11
1.033445423093482
 21
0.5019938439288599
 31
0.0
  0
LINE
  5
4D
330
3C
100
AcDbEntity
  8
0
100
AcDbLine
 10
1.03523296887258
 20
0.9389938439288609
 30
0.0
 11
1.034339195983029
 21
0.9389938439288609
 31
0.0
  0
LINE
  5
4E
330
3C
100
AcDbEntity
  8
0
100
AcDbLine
 10
1.033445423093482
 20
0.9389938439288609
 30
0.0
 11
1.034339195983029
 21
0.9389938439288609
 31
0.0
  0
ARC
  5
4F
330
3C
100
AcDbEntity
  8
0
100
AcDbCircle
 10
1.78894542309348
 20
0.4919938439288618
 30
0.0
 40
0.01
100
AcDbArc
 50
0.000000000000007
 51
90.0
  0
ARC
  5
50
330
3C
100
AcDbEntity
  8
0
100
AcDbCircle
 10
1.96206882475089
 20
0.6981268814547637
 30
0.0
 40
0.062
100
AcDbArc
 50
347.1566012322698
 51
68.19496909184945
  0
ENDBLK
  5
52
330
3C
100
AcDbEntity
  8
0
100
AcDbBlockEnd
  0
BLOCK
  5
79
330
6E
100
AcDbEntity
  8
0
100
AcDbBlockBegin
  2
*D1
 70
     1
 10
0.0
 20
0.0
 30
0.0
  3
*D1
  1

  0
LINE
  5
6F
330
6E
100
AcDbEntity
  8
0
  6
BYBLOCK
 62
     0
100
AcDbLine
 10
41.91574632106789
 20
-13.00110676703936
 30
0.0
 11
41.91574632106789
 21
-13.35561408728231
 31
0.0
  0
LINE
  5
70
330
6E
100
AcDbEntity
  8
0
  6
BYBLOCK
 62
     0
100
AcDbLine
 10
43.44788770747692
 20
-12.99403569922749
 30
0.0
 11
43.44788770747692
 21
-13.35561408728231
 31
0.0
  0
LINE
  5
71
330
6E
100
AcDbEntity
  8
0
  6
BYBLOCK
 62
     0
100
AcDbLine
 10
41.91574632106789
 20
-13.17561408728232
 30
0.0
 11
42.24431701427241
 21
-13.17561408728232
 31
0.0
  0
LINE
  5
72
330
6E
100
AcDbEntity
  8
0
  6
BYBLOCK
 62
     0
100
AcDbLine
 10
43.44788770747692
 20
-13.17561408728232
 30
0.0
 11
43.11931701427241
 21
-13.17561408728232
 31
0.0
  0
LINE
  5
73
330
6E
100
AcDbEntity
  8
0
  6
BYBLOCK
 62
     0
100
AcDbLine
 10
41.79074632106789
 20
-13.30061408728232
 30
0.0
 11
42.04074632106789
 21
-13.05061408728231
 31
0.0
  0
LINE
  5
74
330
6E
100
AcDbEntity
  8
0
  6
BYBLOCK
 62
     0
100
AcDbLine
 10
43.32288770747692
 20
-13.30061408728232
 30
0.0
 11
43.57288770747692
 21
-13.05061408728231
 31
0.0
  0
TEXT
  5
75
330
6E
100
AcDbEntity
  8
0
  6
BYBLOCK
 62
     0
100
AcDbText
 10
42.3693170142724
 20
-13.23811408728231
 30
0.0
 40
0.125
  1
1 9/16
 72
     1
 11
42.6818170142724
 21
-13.17561408728232
 31
0.0
100
AcDbText
 73
     2
  0
POINT
  5
76
330
6E
100
AcDbEntity
  8
DEFPOINTS
  6
BYBLOCK
 62
     0
100
AcDbPoint
 10
41.91574632106789
 20
-12.93860676703936
 30
0.0
  0
POINT
  5
77
330
6E
100
AcDbEntity
  8
DEFPOINTS
  6
BYBLOCK
 62
     0
100
AcDbPoint
 10
43.44788770747692
 20
-12.9315356992275
 30
0.0
  0
POINT
  5
78
330
6E
100
AcDbEntity
  8
DEFPOINTS
  6
BYBLOCK
 62
     0
100
AcDbPoint
 10
43.44788770747692
 20
-13.17561408728232
 30
0.0
  0
ENDBLK
  5
7A
330
6E
100
AcDbEntity
  8
0
100
AcDbBlockEnd
  0
BLOCK
  5
5F
330
54
100
AcDbEntity
  8
0
100
AcDbBlockBegin
  2
*D2
 70
     1
 10
0.0
 20
0.0
 30
0.0
  3
*D2
  1

  0
LINE
  5
55
330
54
100
AcDbEntity
  8
0
  6
BYBLOCK
 62
     0
100
AcDbLine
 10
41.69510301333185
 20
-12.44668445955962
 30
0.0
 11
41.69510301333185
 21
-11.88928226579266
 31
0.0
  0
LINE
  5
56
330
54
100
AcDbEntity
  8
0
  6
BYBLOCK
 62
     0
100
AcDbLine
 10
43.69510301333185
 20
-12.44668445955962
 30
0.0
 11
43.69510301333185
 21
-11.88928226579266
 31
0.0
  0
LINE
  5
57
330
54
100
AcDbEntity
  8
0
  6
BYBLOCK
 62
     0
100
AcDbLine
 10
41.69510301333185
 20
-12.06928226579266
 30
0.0
 11
42.52843634666519
 21
-12.06928226579266
 31
0.0
  0
LINE
  5
58
330
54
100
AcDbEntity
  8
0
  6
BYBLOCK
 62
     0
100
AcDbLine
 10
43.69510301333185
 20
-12.06928226579266
 30
0.0
 11
42.86176967999852
 21
-12.06928226579266
 31
0.0
  0
LINE
  5
59
330
54
100
AcDbEntity
  8
0
  6
BYBLOCK
 62
     0
100
AcDbLine
 10
41.57010301333186
 20
-12.19428226579267
 30
0.0
 11
41.82010301333185
 21
-11.94428226579266
 31
0.0
  0
LINE
  5
5A
330
54
100
AcDbEntity
  8
0
  6
BYBLOCK
 62
     0
100
AcDbLine
 10
43.57010301333185
 20
-12.19428226579267
 30
0.0
 11
43.82010301333186
 21
-11.94428226579266
 31
0.0
  0
TEXT
  5
5B
330
54
100
AcDbEntity
  8
0
  6
BYBLOCK
 62
     0
100
AcDbText
 10
42.65343634666519
 20
-12.13178226579266
 30
0.0
 40
0.125
  1
2
 72
     1
 11
42.69510301333186
 21
-12.06928226579266
 31
0.0
100
AcDbText
 73
     2
  0
POINT
  5
5C
330
54
100
AcDbEntity
  8
DEFPOINTS
  6
BYBLOCK
 62
     0
100
AcDbPoint
 10
41.69510301333185
 20
-12.50918445955962
 30
0.0
  0
POINT
  5
5D
330
54
100
AcDbEntity
  8
DEFPOINTS
  6
BYBLOCK
 62
     0
100
AcDbPoint
 10
43.69510301333185
 20
-12.50918445955962
 30
0.0
  0
POINT
  5
5E
330
54
100
AcDbEntity
  8
DEFPOINTS
  6
BYBLOCK
 62
     0
100
AcDbPoint
 10
43.69510301333185
 20
-12.06928226579266
 30
0.0
  0
ENDBLK
  5
60
330
54
100
AcDbEntity
  8
0
100
AcDbBlockEnd
  0
BLOCK
  5
27
330
25
100
AcDbEntity
  8
0
100
AcDbBlockBegin
  2
_OBLIQUE
 70
     0
 10
0.0
 20
0.0
 30
0.0
  3
_OBLIQUE
  1

  0
LINE
  5
26
330
25
100
AcDbEntity
  8
0
  6
BYBLOCK
 62
     0
100
AcDbLine
 10
-0.5
 20
-0.5
 30
0.0
 11
0.5
 21
0.5
 31
0.0
  0
ENDBLK
  5
28
330
25
100
AcDbEntity
  8
0
100
AcDbBlockEnd
  0
BLOCK
  5
F5
330
EA
100
AcDbEntity
  8
0
100
AcDbBlockBegin
  2
*D4
 70
     1
 10
0.0
 20
0.0
 30
0.0
  3
*D4
  1

  0
LINE
  5
23F
330
EA
100
AcDbEntity
  8
ADPDIM
 62
     0
100
AcDbLine
 10
44.24639623919248
 20
-13.0040356992275
 30
0.0
 11
44.24639623919248
 21
-13.36616533962772
 31
0.0
  0
LINE
  5
240
330
EA
100
AcDbEntity
  8
ADPDIM
 62
     0
100
AcDbLine
 10
48.24639623919249
 20
-12.73337533607361
 30
0.0
 11
48.24639623919249
 21
-13.36616533962772
 31
0.0
  0
LINE
  5
241
330
EA
100
AcDbEntity
  8
ADPDIM
 62
     0
100
AcDbLine
 10
44.24639623919248
 20
-13.17866533962772
 30
0.0
 11
46.07972957252582
 21
-13.17866533962772
 31
0.0
  0
LINE
  5
242
330
EA
100
AcDbEntity
  8
ADPDIM
 62
     0
100
AcDbLine
 10
48.24639623919249
 20
-13.17866533962772
 30
0.0
 11
46.41306290585915
 21
-13.17866533962772
 31
0.0
  0
INSERT
  5
243
330
EA
100
AcDbEntity
  8
ADPDIM
 62
     0
100
AcDbBlockReference
  2
_OBLIQUE
 10
44.24639623919248
 20
-13.17866533962772
 30
0.0
 41
0.25
 42
0.25
 43
0.25
 50
180.0
  0
INSERT
  5
244
330
EA
100
AcDbEntity
  8
ADPDIM
 62
     0
100
AcDbBlockReference
  2
_OBLIQUE
 10
48.24639623919249
 20
-13.17866533962772
 30
0.0
 41
0.25
 42
0.25
 43
0.25
  0
MTEXT
  5
245
330
EA
100
AcDbEntity
  8
ADPDIM
 62
     0
100
AcDbMText
 10
46.24639623919248
 20
-13.17866533962772
 30
0.0
 40
0.125
 41
0.0
 71
     5
 72
     1
  1
\A1;4
  0
POINT
  5
246
330
EA
100
AcDbEntity
  8
DEFPOINTS
 62
     0
100
AcDbPoint
 10
44.24639623919248
 20
-12.9415356992275
 30
0.0
  0
POINT
  5
247
330
EA
100
AcDbEntity
  8
DEFPOINTS
 62
     0
100
AcDbPoint
 10
48.24639623919249
 20
-12.67087533607361
 30
0.0
  0
POINT
  5
248
330
EA
100
AcDbEntity
  8
DEFPOINTS
 62
     0
100
AcDbPoint
 10
48.24639623919249
 20
-13.17866533962772
 30
0.0
  0
ENDBLK
  5
F6
330
EA
100
AcDbEntity
  8
0
100
AcDbBlockEnd
  0
ENDSEC
  0
SECTION
  2
ENTITIES
  0
DIMENSION
  5
1E
330
2
100
AcDbEntity
  8
ADPDIM
100
AcDbDimension
  2
*D4
 10
48.24639623919249
 20
-13.17866533962772
 30
0.0
 11
46.24639623919248
 21
-13.17866533962772
 31
0.0
 70
    32
  3
STANDARD
100
AcDbAlignedDimension
 13
44.24639623919248
 23
-12.9415356992275
 33
0.0
 14
48.24639623919249
 24
-12.67087533607361
 34
0.0
100
AcDbRotatedDimension
1001
ACAD
1000
DSTYLE
1002
{
1070
   270
1070
     7
1070
   270
1070
     7
1070
   270
1070
     7
1070
   270
1070
     7
1070
   270
1070
     7
1070
    41
1040
0.25
1070
    43
1040
0.375
1070
    44
1040
0.1875
1070
    73
1070
     0
1070
    74
1070
     0
1070
    78
1070
     2
1070
   140
1040
0.125
1070
   141
1040
0.1875
1070
   147
1040
0.125
1070
   171
1070
     1
1070
   173
1070
     1
1070
   271
1070
     2
1070
   276
1070
     2
1070
   277
1070
     5
1070
     6
1000
OBLIQUE
1070
     7
1000
OBLIQUE
1002
}
  0
LINE
  5
31
330
2
100
AcDbEntity
  8
ADP1DETAIL
100
AcDbLine
 10
48.22646859577498
 20
-12.69913392119167
 30
0.0
 11
47.55128188042886
 21
-12.93979428434556
 31
0.0
  0
LINE
  5
33
330
2
100
AcDbEntity
  8
ADP1DETAIL
100
AcDbLine
 10
47.55014662871698
 20
-12.25848051698638
 30
0.0
 11
48.22402447497136
 21
-12.43565380383404
 31
0.0
  0
ARC
  5
34
330
2
100
AcDbEntity
  8
ADP1DETAIL
100
AcDbCircle
 10
48.51607997197352
 20
-10.89357330584053
 30
0.0
 40
0.9881802868410602
100
AcDbArc
 50
110.3044552335675
 51
249.6955447664322
  0
LINE
  5
35
330
2
100
AcDbEntity
  8
ADP1DETAIL
100
AcDbLine
 10
47.99639623919248
 20
-11.89357330584053
 30
0.0
 11
44.24639623919248
 21
-11.89357330584053
 31
0.0
  0
LINE
  5
36
330
2
100
AcDbEntity
  8
ADP2DETAIL
  6
HIDDEN2
100
AcDbLine
 10
48.24639623919249
 20
-12.69203100611255
 30
0.0
 11
44.24639623919248
 21
-12.69203100611255
 31
0.0
  0
LINE
  5
39
330
2
100
AcDbEntity
  8
ADP1DETAIL
100
AcDbLine
 10
48.24639623919249
 20
-12.4415356992275
 30
0.0
 11
44.24639623919248
 21
-12.4415356992275
 31
0.0
  0
LINE
  5
3A
330
2
100
AcDbEntity
  8
ADP1DETAIL
100
AcDbLine
 10
44.24639623919248
 20
-11.89357330584053
 30
0.0
 11
44.24639623919248
 21
-9.893573305840529
 31
0.0
  0
INSERT
  5
3B
330
2
100
AcDbEntity
  8
ADP1DETAIL
100
AcDbBlockReference
  2
6985
 10
41.64894228438345
 20
-13.19352954315636
 30
0.0
  0
DIMENSION
  5
53
330
2
100
AcDbEntity
  8
ADPDIM
100
AcDbDimension
  2
*D2
 10
43.69510301333185
 20
-12.06928226579266
 30
0.0
 11
42.69510301333186
 21
-12.06928226579266
 31
0.0
100
AcDbAlignedDimension
 13
41.69510301333185
 23
-12.50918445955962
 33
0.0
 14
43.69510301333185
 24
-12.50918445955962
 34
0.0
100
AcDbRotatedDimension
  0
LINE
  5
61
330
2
100
AcDbEntity
  8
ADP1DETAIL
100
AcDbLine
 10
47.54120952384636
 20
-12.9415356992275
 30
0.0
 11
44.24639623919248
 21
-12.9415356992275
 31
0.0
  0
LINE
  5
62
330
2
100
AcDbEntity
  8
ADP1DETAIL
100
AcDbLine
 10
44.24639623919248
 20
-12.25749447946829
 30
0.0
 11
47.5425183929381
 21
-12.25749447946829
 31
0.0
  0
LINE
  5
63
330
2
100
AcDbEntity
  8
ADP1DETAIL
100
AcDbLine
 10
44.24639623919248
 20
-12.9415356992275
 30
0.0
 11
44.24639623919248
 21
-12.25749447946829
 31
0.0
  0
ARC
  5
64
330
2
100
AcDbEntity
  8
ADP1DETAIL
100
AcDbCircle
 10
47.54120952384636
 20
-12.9115356992275
 30
0.0
 40
0.03
100
AcDbArc
 50
270.0
 51
289.6178607160298
  0
ARC
  5
65
330
2
100
AcDbEntity
  8
ADP1DETAIL
100
AcDbCircle
 10
47.5425183929381
 20
-12.28749447946829
 30
0.0
 40
0.03
100
AcDbArc
 50
75.26939833069985
 51
89.99999999999998
  0
ARC
  5
66
330
2
100
AcDbEntity
  8
ADP1DETAIL
100
AcDbCircle
 10
47.99639623919248
 20
-11.64357330584053
 30
0.0
 40
0.25
100
AcDbArc
 50
270.0
 51
0.0
  0
ARC
  5
67
330
2
100
AcDbEntity
  8
ADP1DETAIL
100
AcDbCircle
 10
48.21639623919248
 20
-12.67087533607361
 30
0.0
 40
0.03
100
AcDbArc
 50
289.6178607160298
 51
0.0
  0
LINE
  5
68
330
2
100
AcDbEntity
  8
ADP1DETAIL
100
AcDbLine
 10
48.24639623919249
 20
-12.46466776631595
 30
0.0
 11
48.24639623919249
 21
-12.67087533607361
 31
0.0
  0
ARC
  5
69
330
2
100
AcDbEntity
  8
ADP1DETAIL
100
AcDbCircle
 10
48.21639623919248
 20
-12.46466776631595
 30
0.0
 40
0.03
100
AcDbArc
 50
0.0
 51
75.26939833069969
  0
LINE
  5
6A
330
2
100
AcDbEntity
  8
ADP1DETAIL
100
AcDbLine
 10
48.24639623919249
 20
-10.14357330584052
 30
0.0
 11
48.24639623919249
 21
-11.64357330584053
 31
0.0
  0
ARC
  5
6B
330
2
100
AcDbEntity
  8
ADP1DETAIL
100
AcDbCircle
 10
47.99639623919248
 20
-10.14357330584052
 30
0.0
 40
0.25
100
AcDbArc
 50
0.0
 51
90.0
  0
LINE
  5
6C
330
2
100
AcDbEntity
  8
ADP1DETAIL
100
AcDbLine
 10
44.24639623919248
 20
-9.893573305840529
 30
0.0
 11
47.99639623919248
 21
-9.893573305840529
 31
0.0
  0
DIMENSION
  5
6D
330
2
100
AcDbEntity
  8
ADPDIM
100
AcDbDimension
  2
*D1
 10
43.44788770747692
 20
-13.17561408728232
 30
0.0
 11
42.6818170142724
 21
-13.17561408728232
 31
0.0
100
AcDbAlignedDimension
 13
41.91574632106789
 23
-12.93860676703936
 33
0.0
 14
43.44788770747692
 24
-12.9315356992275
 34
0.0
100
AcDbRotatedDimension
  0
TEXT
  5
85
330
2
100
AcDbEntity
  8
ADPDIM
100
AcDbText
 10
38.10116682268664
 20
-14.14550530761307
 30
0.0
 40
0.125
  1
J U L I U S  B L U M  &  C O . ,  I N C .      ( 8 0 0 )  5 2 6 - 6 2 9 3        W W W . J U L I U S B L U M . C O M        P A R T  N o .  6 9 8 5 - N
 41
1.25
  7
ARIAL_WIDE
 72
     1
 11
44.80270374287764
 21
-14.02050530761307
 31
0.0
100
AcDbText
 73
     3
  0
ENDSEC
  0
SECTION
  2
OBJECTS
  0
DICTIONARY
  5
1A
330
0
100
AcDbDictionary
  3
ACAD_GROUP
350
18
  3
ACAD_LAYOUT
350
7E
  3
ACAD_MLINESTYLE
350
19
  3
ACAD_PLOTSETTINGS
350
7F
  3
ACAD_PLOTSTYLENAME
350
7C
  3
ACDBHEADERROUNDTRIPXREC
350
21C
  3
ACDBVARIABLEDICTIONARY
350
FB
  0
DICTIONARY
  5
E6
330
2
100
AcDbDictionary
280
     1
  3
ACAD_LAYOUTSELFREF
360
23D
  0
DICTIONARY
  5
E8
330
8
100
AcDbDictionary
280
     1
  3
ACAD_LAYOUTSELFREF
360
23E
  0
DICTIONARY
  5
18
102
{ACAD_REACTORS
330
1A
102
}
330
1A
100
AcDbDictionary
  0
DICTIONARY
  5
7E
102
{ACAD_REACTORS
330
1A
102
}
330
1A
100
AcDbDictionary
  0
DICTIONARY
  5
19
102
{ACAD_REACTORS
330
1A
102
}
330
1A
100
AcDbDictionary
  3
STANDARD
350
1C
  0
DICTIONARY
  5
7F
102
{ACAD_REACTORS
330
1A
102
}
330
1A
100
AcDbDictionary
  0
ACDBDICTIONARYWDFLT
  5
7C
102
{ACAD_REACTORS
330
1A
102
}
330
1A
100
AcDbDictionary
281
     1
  3
Normal
350
7D
100
AcDbDictionaryWithDefault
340
7D
  0
DICTIONARY
  5
21C
102
{ACAD_REACTORS
330
1A
102
}
330
1A
100
AcDbDictionary
  3
CEPSNTYPE
350
226
  3
DIMSTYLEDATA
350
22A
  3
FINGERPRINTGUID
350
227
  3
HYPERLINKBASE
350
21F
  3
INSUNITS
350
225
  3
LAYOUTDICT
350
221
  3
LWETCUNION
350
224
  3
PLOTSETDICT
350
222
  3
PLOTSTYLNAMDICT
350
223
  3
PSVPSCALE
350
229
  3
PUCSBASE
350
22D
  3
PUCSORGBACK
350
233
  3
PUCSORGBOTTOM
350
22F
  3
PUCSORGFRONT
350
232
  3
PUCSORGLEFT
350
230
  3
PUCSORGRIGHT
350
231
  3
PUCSORGTOP
350
22E
  3
PUCSORTHOREF
350
22B
  3
PUCSORTHOVIEW
350
22C
  3
STYLESHEET
350
220
  3
TSTACKALIGN
350
21D
  3
TSTACKSIZE
350
21E
  3
UCSBASE
350
236
  3
UCSORGBACK
350
23C
  3
UCSORGBOTTOM
350
238
  3
UCSORGFRONT
350
23B
  3
UCSORGLEFT
350
239
  3
UCSORGRIGHT
350
23A
  3
UCSORGTOP
350
237
  3
UCSORTHOREF
350
234
  3
UCSORTHOVIEW
350
235
  3
VERSIONGUID
350
228
  0
DICTIONARY
  5
FB
102
{ACAD_REACTORS
330
1A
102
}
330
1A
100
AcDbDictionary
  3
DIMASSOC
350
FC
  0
XRECORD
  5
23D
102
{ACAD_REACTORS
330
E6
102
}
330
E6
100
AcDbXrecord
340
2
  0
XRECORD
  5
23E
102
{ACAD_REACTORS
330
E8
102
}
330
E8
100
AcDbXrecord
340
8
  0
MLINESTYLE
  5
1C
102
{ACAD_REACTORS
330
19
102
}
330
19
100
AcDbMlineStyle
  2
STANDARD
 70
     0
  3

 62
     0
 51
90.0
 52
90.0
 71
     2
 49
0.5
 62
   256
  6
BYLAYER
 49
-0.5
 62
   256
  6
BYLAYER
  0
ACDBPLACEHOLDER
  5
7D
102
{ACAD_REACTORS
330
7C
102
}
330
7C
100
AcDbPlaceHolder
280
     0
  0
XRECORD
  5
226
102
{ACAD_REACTORS
330
21C
102
}
330
21C
100
AcDbXrecord
 90
        0
  0
XRECORD
  5
22A
102
{ACAD_REACTORS
330
21C
102
}
330
21C
100
AcDbXrecord
1000
DSTYLE
1002
{
1070
   276
 70
     2
1070
   277
 70
     5
1070
   341
340
25
1070
   343
340
25
1070
   344
340
25
1002
}
  0
XRECORD
  5
227
102
{ACAD_REACTORS
330
21C
102
}
330
21C
100
AcDbXrecord
  1
{6D7EC639-40A1-424A-A4AC-546DA4F8EC7D}
  0
XRECORD
  5
21F
102
{ACAD_REACTORS
330
21C
102
}
330
21C
100
AcDbXrecord
  1

  0
XRECORD
  5
225
102
{ACAD_REACTORS
330
21C
102
}
330
21C
100
AcDbXrecord
 90
        0
  0
XRECORD
  5
221
102
{ACAD_REACTORS
330
21C
102
}
330
21C
100
AcDbXrecord
340
7E
  0
XRECORD
  5
224
102
{ACAD_REACTORS
330
21C
102
}
330
21C
100
AcDbXrecord
 90
    14877
  0
XRECORD
  5
222
102
{ACAD_REACTORS
330
21C
102
}
330
21C
100
AcDbXrecord
340
7F
  0
XRECORD
  5
223
102
{ACAD_REACTORS
330
21C
102
}
330
21C
100
AcDbXrecord
340
7C
  0
XRECORD
  5
229
102
{ACAD_REACTORS
330
21C
102
}
330
21C
100
AcDbXrecord
 40
0.0
  0
XRECORD
  5
22D
102
{ACAD_REACTORS
330
21C
102
}
330
21C
100
AcDbXrecord
340
0
  0
XRECORD
  5
233
102
{ACAD_REACTORS
330
21C
102
}
330
21C
100
AcDbXrecord
 10
0.0
 20
0.0
 30
0.0
  0
XRECORD
  5
22F
102
{ACAD_REACTORS
330
21C
102
}
330
21C
100
AcDbXrecord
 10
0.0
 20
0.0
 30
0.0
  0
XRECORD
  5
232
102
{ACAD_REACTORS
330
21C
102
}
330
21C
100
AcDbXrecord
 10
0.0
 20
0.0
 30
0.0
  0
XRECORD
  5
230
102
{ACAD_REACTORS
330
21C
102
}
330
21C
100
AcDbXrecord
 10
0.0
 20
0.0
 30
0.0
  0
XRECORD
  5
231
102
{ACAD_REACTORS
330
21C
102
}
330
21C
100
AcDbXrecord
 10
0.0
 20
0.0
 30
0.0
  0
XRECORD
  5
22E
102
{ACAD_REACTORS
330
21C
102
}
330
21C
100
AcDbXrecord
 10
0.0
 20
0.0
 30
0.0
  0
XRECORD
  5
22B
102
{ACAD_REACTORS
330
21C
102
}
330
21C
100
AcDbXrecord
340
0
  0
XRECORD
  5
22C
102
{ACAD_REACTORS
330
21C
102
}
330
21C
100
AcDbXrecord
 70
     0
  0
XRECORD
  5
220
102
{ACAD_REACTORS
330
21C
102
}
330
21C
100
AcDbXrecord
  1

  0
XRECORD
  5
21D
102
{ACAD_REACTORS
330
21C
102
}
330
21C
100
AcDbXrecord
 90
        1
  0
XRECORD
  5
21E
102
{ACAD_REACTORS
330
21C
102
}
330
21C
100
AcDbXrecord
 90
       70
  0
XRECORD
  5
236
102
{ACAD_REACTORS
330
21C
102
}
330
21C
100
AcDbXrecord
340
0
  0
XRECORD
  5
23C
102
{ACAD_REACTORS
330
21C
102
}
330
21C
100
AcDbXrecord
 10
0.0
 20
0.0
 30
0.0
  0
XRECORD
  5
238
102
{ACAD_REACTORS
330
21C
102
}
330
21C
100
AcDbXrecord
 10
0.0
 20
0.0
 30
0.0
  0
XRECORD
  5
23B
102
{ACAD_REACTORS
330
21C
102
}
330
21C
100
AcDbXrecord
 10
0.0
 20
0.0
 30
0.0
  0
XRECORD
  5
239
102
{ACAD_REACTORS
330
21C
102
}
330
21C
100
AcDbXrecord
 10
0.0
 20
0.0
 30
0.0
  0
XRECORD
  5
23A
102
{ACAD_REACTORS
330
21C
102
}
330
21C
100
AcDbXrecord
 10
0.0
 20
0.0
 30
0.0
  0
XRECORD
  5
237
102
{ACAD_REACTORS
330
21C
102
}
330
21C
100
AcDbXrecord
 10
0.0
 20
0.0
 30
0.0
  0
XRECORD
  5
234
102
{ACAD_REACTORS
330
21C
102
}
330
21C
100
AcDbXrecord
340
0
  0
XRECORD
  5
235
102
{ACAD_REACTORS
330
21C
102
}
330
21C
100
AcDbXrecord
 70
     0
  0
XRECORD
  5
228
102
{ACAD_REACTORS
330
21C
102
}
330
21C
100
AcDbXrecord
  1
{5B540DD8-6FBF-45AD-96D6-DA9D9E3CC0E2}
  0
DICTIONARYVAR
  5
FC
102
{ACAD_REACTORS
330
FB
102
}
330
FB
100
DictionaryVariables
280
     0
  1
1
  0
ENDSEC
  0
EOF
