  0
SECTION
  2
HEADER
  9
$ACADVER
  1
AC1014
  9
$ACADMAINTVER
 70
     9
  9
$DWGCODEPAGE
  3
ANSI_1252
  9
$INSBASE
 10
38.9899064028641
 20
-9.781955371009601
 30
0.0
  9
$EXTMIN
 10
32.28836948267311
 20
-10.96108736236528
 30
0.0
  9
$EXTMAX
 10
45.6914433230551
 20
-5.819281866324943
 30
0.0
  9
$LIMMIN
 10
0.0
 20
0.0
  9
$LIMMAX
 10
36.0
 20
36.0
  9
$ORTHOMODE
 70
     1
  9
$REGENMODE
 70
     1
  9
$FILLMODE
 70
     1
  9
$QTEXTMODE
 70
     0
  9
$MIRRTEXT
 70
     1
  9
$DRAGMODE
 70
     0
  9
$LTSCALE
 40
1.0
  9
$OSMODE
 70
    37
  9
$ATTMODE
 70
     1
  9
$TEXTSIZE
 40
0.2
  9
$TRACEWID
 40
0.05
  9
$TEXTSTYLE
  7
STANDARD
  9
$CLAYER
  8
ADPDIM
  9
$CELTYPE
  6
CONTINUOUS
  9
$CECOLOR
 62
   256
  9
$CELTSCALE
 40
1.0
  9
$DELOBJ
 70
     1
  9
$DISPSILH
 70
     0
  9
$DIMSCALE
 40
1.0
  9
$DIMASZ
 40
0.125
  9
$DIMEXO
 40
0.0625
  9
$DIMDLI
 40
0.38
  9
$DIMRND
 40
0.0
  9
$DIMDLE
 40
0.0
  9
$DIMEXE
 40
0.18
  9
$DIMTP
 40
0.0
  9
$DIMTM
 40
0.0
  9
$DIMTXT
 40
0.125
  9
$DIMCEN
 40
0.1875
  9
$DIMTSZ
 40
0.125
  9
$DIMTOL
 70
     0
  9
$DIMLIM
 70
     0
  9
$DIMTIH
 70
     0
  9
$DIMTOH
 70
     0
  9
$DIMSE1
 70
     0
  9
$DIMSE2
 70
     0
  9
$DIMTAD
 70
     0
  9
$DIMZIN
 70
     2
  9
$DIMBLK
  1

  9
$DIMASO
 70
     1
  9
$DIMSHO
 70
     1
  9
$DIMPOST
  1

  9
$DIMAPOST
  1

  9
$DIMALT
 70
     0
  9
$DIMALTD
 70
     1
  9
$DIMALTF
 40
25.4
  9
$DIMLFAC
 40
1.0
  9
$DIMTOFL
 70
     0
  9
$DIMTVP
 40
0.0
  9
$DIMTIX
 70
     0
  9
$DIMSOXD
 70
     0
  9
$DIMSAH
 70
     0
  9
$DIMBLK1
  1

  9
$DIMBLK2
  1

  9
$DIMSTYLE
  2
STANDARD
  9
$DIMCLRD
 70
     0
  9
$DIMCLRE
 70
     0
  9
$DIMCLRT
 70
     0
  9
$DIMTFAC
 40
1.0
  9
$DIMGAP
 40
0.125
  9
$DIMJUST
 70
     0
  9
$DIMSD1
 70
     0
  9
$DIMSD2
 70
     0
  9
$DIMTOLJ
 70
     1
  9
$DIMTZIN
 70
     0
  9
$DIMALTZ
 70
     0
  9
$DIMALTTZ
 70
     0
  9
$DIMFIT
 70
     3
  9
$DIMUPT
 70
     0
  9
$DIMUNIT
 70
     7
  9
$DIMDEC
 70
     2
  9
$DIMTDEC
 70
     4
  9
$DIMALTU
 70
     2
  9
$DIMALTTD
 70
     2
  9
$DIMTXSTY
  7
STANDARD
  9
$DIMAUNIT
 70
     0
  9
$LUNITS
 70
     5
  9
$LUPREC
 70
     4
  9
$SKETCHINC
 40
0.1
  9
$FILLETRAD
 40
0.125
  9
$AUNITS
 70
     0
  9
$AUPREC
 70
     0
  9
$MENU
  1
acad
  9
$ELEVATION
 40
0.0
  9
$PELEVATION
 40
0.0
  9
$THICKNESS
 40
0.0
  9
$LIMCHECK
 70
     0
  9
$BLIPMODE
 70
     0
  9
$CHAMFERA
 40
0.0
  9
$CHAMFERB
 40
0.0
  9
$CHAMFERC
 40
0.0
  9
$CHAMFERD
 40
0.0
  9
$SKPOLY
 70
     0
  9
$TDCREATE
 40
2450399.685653160
  9
$TDUPDATE
 40
2452297.098270937
  9
$TDINDWG
 40
0.0086445602
  9
$TDUSRTIMER
 40
0.0086445602
  9
$USRTIMER
 70
     1
  9
$ANGBASE
 50
0.0
  9
$ANGDIR
 70
     0
  9
$PDMODE
 70
     0
  9
$PDSIZE
 40
0.0
  9
$PLINEWID
 40
0.0
  9
$COORDS
 70
     2
  9
$SPLFRAME
 70
     0
  9
$SPLINETYPE
 70
     6
  9
$SPLINESEGS
 70
     8
  9
$ATTDIA
 70
     0
  9
$ATTREQ
 70
     1
  9
$HANDLING
 70
 22529
  9
$HANDSEED
  5
23E
  9
$SURFTAB1
 70
     6
  9
$SURFTAB2
 70
     6
  9
$SURFTYPE
 70
     6
  9
$SURFU
 70
     6
  9
$SURFV
 70
     6
  9
$UCSNAME
  2

  9
$UCSORG
 10
0.0
 20
0.0
 30
0.0
  9
$UCSXDIR
 10
1.0
 20
0.0
 30
0.0
  9
$UCSYDIR
 10
0.0
 20
1.0
 30
0.0
  9
$PUCSNAME
  2

  9
$PUCSORG
 10
0.0
 20
0.0
 30
0.0
  9
$PUCSXDIR
 10
1.0
 20
0.0
 30
0.0
  9
$PUCSYDIR
 10
0.0
 20
1.0
 30
0.0
  9
$USERI1
 70
     0
  9
$USERI2
 70
     0
  9
$USERI3
 70
     0
  9
$USERI4
 70
     0
  9
$USERI5
 70
     0
  9
$USERR1
 40
0.0
  9
$USERR2
 40
0.0
  9
$USERR3
 40
0.0
  9
$USERR4
 40
0.0
  9
$USERR5
 40
0.0
  9
$WORLDVIEW
 70
     1
  9
$SHADEDGE
 70
     3
  9
$SHADEDIF
 70
    70
  9
$TILEMODE
 70
     1
  9
$MAXACTVP
 70
    15
  9
$PINSBASE
 10
0.0004882914945483
 20
0.7501408034022604
 30
0.0
  9
$PLIMCHECK
 70
     0
  9
$PEXTMIN
 10
1.000000000000000E+20
 20
1.000000000000000E+20
 30
1.000000000000000E+20
  9
$PEXTMAX
 10
-1.000000000000000E+20
 20
-1.000000000000000E+20
 30
-1.000000000000000E+20
  9
$PLIMMIN
 10
0.0
 20
0.0
  9
$PLIMMAX
 10
12.0
 20
9.0
  9
$UNITMODE
 70
     0
  9
$VISRETAIN
 70
     0
  9
$PLINEGEN
 70
     0
  9
$PSLTSCALE
 70
     1
  9
$TREEDEPTH
 70
  3020
  9
$PICKSTYLE
 70
     1
  9
$CMLSTYLE
  2
STANDARD
  9
$CMLJUST
 70
     0
  9
$CMLSCALE
 40
1.0
  9
$PROXYGRAPHICS
 70
     1
  9
$MEASUREMENT
 70
     0
  0
ENDSEC
  0
SECTION
  2
CLASSES
  0
CLASS
  1
ACDBDICTIONARYWDFLT
  2
AcDbDictionaryWithDefault
  3
AutoCAD 2000
 90
        0
280
     0
281
     0
  0
CLASS
  1
ACDBPLACEHOLDER
  2
AcDbPlaceHolder
  3
AutoCAD 2000
 90
        0
280
     0
281
     0
  0
CLASS
  1
LAYOUT
  2
AcDbLayout
  3
AutoCAD 2000
 90
        0
280
     0
281
     0
  0
CLASS
  1
DICTIONARYVAR
  2
AcDbDictionaryVar
  3
AutoCAD 2000
 90
        0
280
     0
281
     0
  0
CLASS
  1
LONG_TRANSACTION
  2
AcDbLongTransaction
  3
AutoCAD 2000
 90
        0
280
     0
281
     0
  0
CLASS
  1
LWPOLYLINE
  2
AcDbPolyline
  3
AutoCAD 2000
 90
        0
280
     0
281
     1
  0
CLASS
  1
HATCH
  2
AcDbHatch
  3
AutoCAD 2000
 90
        0
280
     0
281
     1
  0
CLASS
  1
XRECORD
  2
AcDbXrecord
  3
AutoCAD 2000
 90
        0
280
     0
281
     0
  0
CLASS
  1
LONG_TRANSACTION
  2
AcDbLongTransaction
  3
AutoCAD 2000
 90
        0
280
     0
281
     0
  0
CLASS
  1
LWPOLYLINE
  2
AcDbPolyline
  3
AutoCAD 2000
 90
        0
280
     0
281
     1
  0
CLASS
  1
HATCH
  2
AcDbHatch
  3
AutoCAD 2000
 90
        0
280
     0
281
     1
  0
CLASS
  1
XRECORD
  2
AcDbXrecord
  3
AutoCAD 2000
 90
        0
280
     0
281
     0
  0
CLASS
  1
LONG_TRANSACTION
  2
AcDbLongTransaction
  3
AutoCAD 2000
 90
        0
280
     0
281
     0
  0
CLASS
  1
LWPOLYLINE
  2
AcDbPolyline
  3
AutoCAD 2000
 90
        0
280
     0
281
     1
  0
CLASS
  1
HATCH
  2
AcDbHatch
  3
AutoCAD 2000
 90
        0
280
     0
281
     1
  0
CLASS
  1
XRECORD
  2
AcDbXrecord
  3
AutoCAD 2000
 90
        0
280
     0
281
     0
  0
CLASS
  1
LONG_TRANSACTION
  2
AcDbLongTransaction
  3
AutoCAD 2000
 90
        0
280
     0
281
     0
  0
CLASS
  1
LWPOLYLINE
  2
AcDbPolyline
  3
AutoCAD 2000
 90
        0
280
     0
281
     1
  0
CLASS
  1
HATCH
  2
AcDbHatch
  3
AutoCAD 2000
 90
        0
280
     0
281
     1
  0
CLASS
  1
XRECORD
  2
AcDbXrecord
  3
AutoCAD 2000
 90
        0
280
     0
281
     0
  0
CLASS
  1
LONG_TRANSACTION
  2
AcDbLongTransaction
  3
AutoCAD 2000
 90
        0
280
     0
281
     0
  0
CLASS
  1
LWPOLYLINE
  2
AcDbPolyline
  3
AutoCAD 2000
 90
        0
280
     0
281
     1
  0
CLASS
  1
HATCH
  2
AcDbHatch
  3
AutoCAD 2000
 90
        0
280
     0
281
     1
  0
CLASS
  1
XRECORD
  2
AcDbXrecord
  3
AutoCAD 2000
 90
        0
280
     0
281
     0
  0
ENDSEC
  0
SECTION
  2
TABLES
  0
TABLE
  2
VPORT
  5
12
330
0
100
AcDbSymbolTable
 70
     2
  0
VPORT
  5
210
330
12
100
AcDbSymbolTableRecord
100
AcDbViewportTableRecord
  2
*ACTIVE
 70
     0
 10
0.0
 20
0.0
 11
1.0
 21
1.0
 12
39.00126509698175
 22
-8.391259958207321
 13
0.0
 23
0.0
 14
0.5740882589684922
 24
0.5740882589684922
 15
0.5
 25
0.5
 16
0.0
 26
0.0
 36
1.0
 17
0.0
 27
0.0
 37
0.0
 40
8.589937384682178
 41
1.570528967254408
 42
50.0
 43
0.0
 44
0.0
 50
0.0
 51
0.0
 71
     0
 72
   100
 73
     1
 74
     0
 75
     0
 76
     0
 77
     0
 78
     0
  0
ENDTAB
  0
TABLE
  2
LTYPE
  5
E
330
0
100
AcDbSymbolTable
 70
     2
  0
LTYPE
  5
F
330
E
100
AcDbSymbolTableRecord
100
AcDbLinetypeTableRecord
  2
BYBLOCK
 70
     0
  3

 72
    65
 73
     0
 40
0.0
  0
LTYPE
  5
6
330
E
100
AcDbSymbolTableRecord
100
AcDbLinetypeTableRecord
  2
BYLAYER
 70
     0
  3

 72
    65
 73
     0
 40
0.0
  0
LTYPE
  5
5
330
E
100
AcDbSymbolTableRecord
100
AcDbLinetypeTableRecord
  2
CONTINUOUS
 70
     0
  3
Solid line
 72
    65
 73
     0
 40
0.0
  0
LTYPE
  5
20
330
E
100
AcDbSymbolTableRecord
100
AcDbLinetypeTableRecord
  2
HIDDEN2
 70
     0
  3
_ _ _ _ _ _ _ _ _ _ _ _ _ _ _ _ _ _ _ _ _ _ _ _
 72
    65
 73
     2
 40
0.1875
 49
0.125
 74
     0
 49
-0.0625
 74
     0
  0
ENDTAB
  0
TABLE
  2
LAYER
  5
B
330
0
100
AcDbSymbolTable
 70
     5
  0
LAYER
  5
4
330
B
100
AcDbSymbolTableRecord
100
AcDbLayerTableRecord
  2
0
 70
     0
 62
     7
  6
CONTINUOUS
  0
LAYER
  5
23
330
B
100
AcDbSymbolTableRecord
100
AcDbLayerTableRecord
  2
ADP1DETAIL
 70
     0
 62
     7
  6
CONTINUOUS
  0
LAYER
  5
31
330
B
100
AcDbSymbolTableRecord
100
AcDbLayerTableRecord
  2
DEFPOINTS
 70
     0
 62
     7
  6
CONTINUOUS
  0
LAYER
  5
1B
330
B
100
AcDbSymbolTableRecord
100
AcDbLayerTableRecord
  2
ADPDIM
 70
     0
 62
     3
  6
CONTINUOUS
  0
LAYER
  5
1F
330
B
100
AcDbSymbolTableRecord
100
AcDbLayerTableRecord
  2
ADP2DETAIL
 70
     0
 62
     5
  6
CONTINUOUS
  0
ENDTAB
  0
TABLE
  2
STYLE
  5
C
330
0
100
AcDbSymbolTable
 70
     2
  0
STYLE
  5
D
330
C
100
AcDbSymbolTableRecord
100
AcDbTextStyleTableRecord
  2
STANDARD
 70
     0
 40
0.0
 41
1.0
 50
0.0
 71
     0
 42
0.2
  3
txt
  4

  0
STYLE
  5
79
330
C
100
AcDbSymbolTableRecord
100
AcDbTextStyleTableRecord
  2
ARIAL_WIDE
 70
     0
 40
0.0
 41
1.25
 50
0.0
 71
     0
 42
0.2
  3
ARIAL.TTF
  4

1001
ACAD
1000
Arial
1071
       34
  0
ENDTAB
  0
TABLE
  2
VIEW
  5
10
330
0
100
AcDbSymbolTable
 70
     0
  0
ENDTAB
  0
TABLE
  2
UCS
  5
11
330
0
100
AcDbSymbolTable
 70
     0
  0
ENDTAB
  0
TABLE
  2
APPID
  5
14
330
0
100
AcDbSymbolTable
 70
     1
  0
APPID
  5
15
330
14
100
AcDbSymbolTableRecord
100
AcDbRegAppTableRecord
  2
ACAD
 70
     0
  0
ENDTAB
  0
TABLE
  2
DIMSTYLE
  5
16
330
0
100
AcDbSymbolTable
 70
     1
  0
DIMSTYLE
105
1D
102
{ACAD_REACTORS
330
27
102
}
330
16
100
AcDbSymbolTableRecord
100
AcDbDimStyleTableRecord
  2
STANDARD
 70
     0
  3

  4

  5

  6

  7

 40
1.0
 41
0.18
 42
0.0625
 43
0.38
 44
0.18
 45
0.0
 46
0.0
 47
0.0
 48
0.0
140
0.18
141
0.09
142
0.0
143
25.4
144
1.0
145
0.0
146
1.0
147
0.09
 71
     0
 72
     0
 73
     1
 74
     1
 75
     0
 76
     0
 77
     0
 78
     0
170
     0
171
     2
172
     0
173
     0
174
     0
175
     0
176
     0
177
     0
178
     0
270
     2
271
     4
272
     4
273
     2
274
     2
340
D
275
     0
280
     0
281
     0
282
     0
283
     1
284
     0
285
     0
286
     0
287
     3
288
     0
  0
ENDTAB
  0
TABLE
  2
BLOCK_RECORD
  5
1
330
0
100
AcDbSymbolTable
 70
     3
  0
BLOCK_RECORD
  5
2
102
{ACAD_XDICTIONARY
360
DB
102
}
330
1
100
AcDbSymbolTableRecord
100
AcDbBlockTableRecord
  2
*MODEL_SPACE
  0
BLOCK_RECORD
  5
8
102
{ACAD_XDICTIONARY
360
DD
102
}
330
1
100
AcDbSymbolTableRecord
100
AcDbBlockTableRecord
  2
*PAPER_SPACE
  0
BLOCK_RECORD
  5
49
330
1
100
AcDbSymbolTableRecord
100
AcDbBlockTableRecord
  2
*D0
  0
BLOCK_RECORD
  5
3A
330
1
100
AcDbSymbolTableRecord
100
AcDbBlockTableRecord
  2
*D1
  0
BLOCK_RECORD
  5
DF
330
1
100
AcDbSymbolTableRecord
100
AcDbBlockTableRecord
  2
*D2
  0
ENDTAB
  0
ENDSEC
  0
SECTION
  2
BLOCKS
  0
BLOCK
  5
3
330
2
100
AcDbEntity
  8
0
100
AcDbBlockBegin
  2
*MODEL_SPACE
 70
     0
 10
0.0
 20
0.0
 30
0.0
  3
*MODEL_SPACE
  1

  0
ENDBLK
  5
7
330
2
100
AcDbEntity
  8
0
100
AcDbBlockEnd
  0
BLOCK
  5
9
330
8
100
AcDbEntity
 67
     1
  8
0
100
AcDbBlockBegin
  2
*PAPER_SPACE
 70
     0
 10
0.0
 20
0.0
 30
0.0
  3
*PAPER_SPACE
  1

  0
ENDBLK
  5
A
330
8
100
AcDbEntity
 67
     1
  8
0
100
AcDbBlockEnd
  0
BLOCK
  5
54
330
49
100
AcDbEntity
  8
0
100
AcDbBlockBegin
  2
*D0
 70
     1
 10
0.0
 20
0.0
 30
0.0
  3
*D0
  1

  0
LINE
  5
4A
330
49
100
AcDbEntity
  8
0
  6
BYBLOCK
 62
     0
100
AcDbLine
 10
36.25036606524407
 20
-9.813444573048732
 30
0.0
 11
36.25036606524407
 21
-10.19841400559976
 31
0.0
  0
LINE
  5
4B
330
49
100
AcDbEntity
  8
0
  6
BYBLOCK
 62
     0
100
AcDbLine
 10
37.78273289441807
 20
-9.818029101669338
 30
0.0
 11
37.78273289441807
 21
-10.19841400559976
 31
0.0
  0
LINE
  5
4C
330
49
100
AcDbEntity
  8
0
  6
BYBLOCK
 62
     0
100
AcDbLine
 10
36.25036606524407
 20
-10.01841400559976
 30
0.0
 11
36.57904947983107
 21
-10.01841400559976
 31
0.0
  0
LINE
  5
4D
330
49
100
AcDbEntity
  8
0
  6
BYBLOCK
 62
     0
100
AcDbLine
 10
37.78273289441807
 20
-10.01841400559976
 30
0.0
 11
37.45404947983107
 21
-10.01841400559976
 31
0.0
  0
LINE
  5
4E
330
49
100
AcDbEntity
  8
0
  6
BYBLOCK
 62
     0
100
AcDbLine
 10
36.12536606524407
 20
-10.14341400559976
 30
0.0
 11
36.37536606524407
 21
-9.893414005599762
 31
0.0
  0
LINE
  5
4F
330
49
100
AcDbEntity
  8
0
  6
BYBLOCK
 62
     0
100
AcDbLine
 10
37.65773289441807
 20
-10.14341400559976
 30
0.0
 11
37.90773289441807
 21
-9.893414005599762
 31
0.0
  0
TEXT
  5
50
330
49
100
AcDbEntity
  8
0
  6
BYBLOCK
 62
     0
100
AcDbText
 10
36.70404947983107
 20
-10.08091400559976
 30
0.0
 40
0.125
  1
1 9/16
 72
     1
 11
37.01654947983107
 21
-10.01841400559976
 31
0.0
100
AcDbText
 73
     2
  0
POINT
  5
51
330
49
100
AcDbEntity
  8
DEFPOINTS
  6
BYBLOCK
 62
     0
100
AcDbPoint
 10
36.25036606524407
 20
-9.750944573048732
 30
0.0
  0
POINT
  5
52
330
49
100
AcDbEntity
  8
DEFPOINTS
  6
BYBLOCK
 62
     0
100
AcDbPoint
 10
37.78273289441807
 20
-9.755529101669338
 30
0.0
  0
POINT
  5
53
330
49
100
AcDbEntity
  8
DEFPOINTS
  6
BYBLOCK
 62
     0
100
AcDbPoint
 10
37.78273289441807
 20
-10.01841400559976
 30
0.0
  0
ENDBLK
  5
55
330
49
100
AcDbEntity
  8
0
100
AcDbBlockEnd
  0
BLOCK
  5
45
330
3A
100
AcDbEntity
  8
0
100
AcDbBlockBegin
  2
*D1
 70
     1
 10
0.0
 20
0.0
 30
0.0
  3
*D1
  1

  0
LINE
  5
3B
330
3A
100
AcDbEntity
  8
0
  6
BYBLOCK
 62
     0
100
AcDbLine
 10
35.64642220646489
 20
-9.269995681373178
 30
0.0
 11
35.64642220646489
 21
-8.700472659719746
 31
0.0
  0
LINE
  5
3C
330
3A
100
AcDbEntity
  8
0
  6
BYBLOCK
 62
     0
100
AcDbLine
 10
38.38916974653143
 20
-9.278201421902883
 30
0.0
 11
38.38916974653143
 21
-8.700472659719746
 31
0.0
  0
LINE
  5
3D
330
3A
100
AcDbEntity
  8
0
  6
BYBLOCK
 62
     0
100
AcDbLine
 10
35.64642220646489
 20
-8.880472659719746
 30
0.0
 11
36.60112930983149
 21
-8.880472659719746
 31
0.0
  0
LINE
  5
3E
330
3A
100
AcDbEntity
  8
0
  6
BYBLOCK
 62
     0
100
AcDbLine
 10
38.38916974653143
 20
-8.880472659719746
 30
0.0
 11
37.43446264316482
 21
-8.880472659719746
 31
0.0
  0
LINE
  5
3F
330
3A
100
AcDbEntity
  8
0
  6
BYBLOCK
 62
     0
100
AcDbLine
 10
35.52142220646489
 20
-9.005472659719746
 30
0.0
 11
35.77142220646489
 21
-8.755472659719746
 31
0.0
  0
LINE
  5
40
330
3A
100
AcDbEntity
  8
0
  6
BYBLOCK
 62
     0
100
AcDbLine
 10
38.26416974653144
 20
-9.005472659719746
 30
0.0
 11
38.51416974653144
 21
-8.755472659719746
 31
0.0
  0
TEXT
  5
41
330
3A
100
AcDbEntity
  8
0
  6
BYBLOCK
 62
     0
100
AcDbText
 10
36.7261293098315
 20
-8.942972659719746
 30
0.0
 40
0.125
  1
2 3/4
 72
     1
 11
37.01779597649816
 21
-8.880472659719746
 31
0.0
100
AcDbText
 73
     2
  0
POINT
  5
42
330
3A
100
AcDbEntity
  8
DEFPOINTS
  6
BYBLOCK
 62
     0
100
AcDbPoint
 10
35.64642220646489
 20
-9.332495681373178
 30
0.0
  0
POINT
  5
43
330
3A
100
AcDbEntity
  8
DEFPOINTS
  6
BYBLOCK
 62
     0
100
AcDbPoint
 10
38.38916974653143
 20
-9.340701421902883
 30
0.0
  0
POINT
  5
44
330
3A
100
AcDbEntity
  8
DEFPOINTS
  6
BYBLOCK
 62
     0
100
AcDbPoint
 10
38.38916974653143
 20
-8.880472659719746
 30
0.0
  0
ENDBLK
  5
46
330
3A
100
AcDbEntity
  8
0
100
AcDbBlockEnd
  0
BLOCK
  5
EA
330
DF
100
AcDbEntity
  8
0
100
AcDbBlockBegin
  2
*D2
 70
     1
 10
0.0
 20
0.0
 30
0.0
  3
*D2
  1

  0
LINE
  5
234
330
DF
100
AcDbEntity
  8
ADPDIM
  6
CONTINUOUS
 62
     0
100
AcDbLine
 10
38.9899064028641
 20
-9.844455371009601
 30
0.0
 11
38.9899064028641
 21
-10.19413487367513
 31
0.0
  0
LINE
  5
235
330
DF
100
AcDbEntity
  8
ADPDIM
  6
CONTINUOUS
 62
     0
100
AcDbLine
 10
42.7399064028641
 20
-9.581318815855979
 30
0.0
 11
42.7399064028641
 21
-10.19413487367513
 31
0.0
  0
LINE
  5
236
330
DF
100
AcDbEntity
  8
ADPDIM
  6
CONTINUOUS
 62
     0
100
AcDbLine
 10
38.9899064028641
 20
-10.01413487367513
 30
0.0
 11
40.44823973619744
 21
-10.01413487367513
 31
0.0
  0
LINE
  5
237
330
DF
100
AcDbEntity
  8
ADPDIM
  6
CONTINUOUS
 62
     0
100
AcDbLine
 10
42.7399064028641
 20
-10.01413487367513
 30
0.0
 11
41.28157306953077
 21
-10.01413487367513
 31
0.0
  0
LINE
  5
238
330
DF
100
AcDbEntity
  8
ADPDIM
  6
CONTINUOUS
 62
     0
100
AcDbLine
 10
42.6149064028641
 20
-10.13913487367513
 30
0.0
 11
42.86490640286411
 21
-9.889134873675132
 31
0.0
  0
LINE
  5
239
330
DF
100
AcDbEntity
  8
ADPDIM
  6
CONTINUOUS
 62
     0
100
AcDbLine
 10
38.8649064028641
 20
-10.13913487367513
 30
0.0
 11
39.11490640286411
 21
-9.889134873675132
 31
0.0
  0
MTEXT
  5
23A
330
DF
100
AcDbEntity
  8
ADPDIM
  6
CONTINUOUS
 62
     0
100
AcDbMText
 10
40.8649064028641
 20
-10.01413487367513
 30
0.0
 40
0.125
 41
0.0
 71
     5
 72
     1
  1
\A1;3 3/4
  0
POINT
  5
23B
330
DF
100
AcDbEntity
  8
DEFPOINTS
  6
CONTINUOUS
 62
     0
100
AcDbPoint
 10
38.9899064028641
 20
-9.781955371009601
 30
0.0
  0
POINT
  5
23C
330
DF
100
AcDbEntity
  8
DEFPOINTS
  6
CONTINUOUS
 62
     0
100
AcDbPoint
 10
42.7399064028641
 20
-9.518818815855979
 30
0.0
  0
POINT
  5
23D
330
DF
100
AcDbEntity
  8
DEFPOINTS
  6
CONTINUOUS
 62
     0
100
AcDbPoint
 10
42.7399064028641
 20
-10.01413487367513
 30
0.0
  0
ENDBLK
  5
EB
330
DF
100
AcDbEntity
  8
0
100
AcDbBlockEnd
  0
ENDSEC
  0
SECTION
  2
ENTITIES
  0
LINE
  5
1E
330
2
100
AcDbEntity
  8
ADP2DETAIL
  6
HIDDEN2
100
AcDbLine
 10
38.9899064028641
 20
-6.46480856162158
 30
0.0
 11
42.73990640286411
 21
-6.46480856162158
 31
0.0
  0
LINE
  5
21
330
2
100
AcDbEntity
  8
ADP2DETAIL
  6
HIDDEN2
100
AcDbLine
 10
38.9899064028641
 20
-8.027308561621579
 30
0.0
 11
42.73990640286411
 21
-8.027308561621579
 31
0.0
  0
LINE
  5
22
330
2
100
AcDbEntity
  8
ADP1DETAIL
100
AcDbLine
 10
38.9899064028641
 20
-9.658126457117617
 30
0.0
 11
42.50990640286411
 21
-9.658126457117617
 31
0.0
  0
LINE
  5
24
330
2
100
AcDbEntity
  8
ADP2DETAIL
  6
HIDDEN2
100
AcDbLine
 10
38.9899064028641
 20
-9.518818815855979
 30
0.0
 11
42.7399064028641
 21
-9.518818815855979
 31
0.0
  0
LINE
  5
25
330
2
100
AcDbEntity
  8
ADP1DETAIL
100
AcDbLine
 10
41.9899064028641
 20
-9.781955371009601
 30
0.0
 11
38.9899064028641
 21
-9.781955371009601
 31
0.0
  0
LINE
  5
26
330
2
100
AcDbEntity
  8
ADP1DETAIL
100
AcDbLine
 10
38.9899064028641
 20
-9.162810399298479
 30
0.0
 11
41.9899064028641
 21
-9.162810399298479
 31
0.0
  0
DIMENSION
  5
27
330
2
100
AcDbEntity
  8
ADPDIM
  6
CONTINUOUS
100
AcDbDimension
  2
*D2
 10
42.7399064028641
 20
-10.01413487367513
 30
0.0
 11
40.8649064028641
 21
-10.01413487367513
 31
0.0
 70
    32
  3
STANDARD
100
AcDbAlignedDimension
 13
38.9899064028641
 23
-9.781955371009601
 33
0.0
 14
42.7399064028641
 24
-9.518818815855979
 34
0.0
100
AcDbRotatedDimension
1001
ACAD
1000
DSTYLE
1002
{
1070
   270
1070
     7
1070
   270
1070
     7
1070
   270
1070
     7
1070
   270
1070
     7
1070
   270
1070
     7
1070
    41
1040
0.125
1070
    73
1070
     0
1070
    74
1070
     0
1070
    78
1070
     2
1070
   140
1040
0.125
1070
   141
1040
0.1875
1070
   142
1040
0.125
1070
   147
1040
0.125
1070
   171
1070
     1
1070
   271
1070
     2
1070
   276
1070
     2
1070
   277
1070
     5
1002
}
  0
LINE
  5
36
330
2
100
AcDbEntity
  8
ADP1DETAIL
100
AcDbLine
 10
38.9899064028641
 20
-9.302118040560102
 30
0.0
 11
42.6149064028641
 21
-9.302118040560102
 31
0.0
  0
LINE
  5
37
330
2
100
AcDbEntity
  8
ADP1DETAIL
  6
CONTINUOUS
100
AcDbLine
 10
38.9899064028641
 20
-5.87105856162158
 30
0.0
 11
42.4899064028641
 21
-5.87105856162158
 31
0.0
  0
LINE
  5
38
330
2
100
AcDbEntity
  8
ADP1DETAIL
  6
CONTINUOUS
100
AcDbLine
 10
42.4899064028641
 20
-8.621058561621582
 30
0.0
 11
38.9899064028641
 21
-8.62105856162158
 31
0.0
  0
DIMENSION
  5
39
330
2
100
AcDbEntity
  8
ADPDIM
100
AcDbDimension
  2
*D1
 10
38.38916974653143
 20
-8.880472659719746
 30
0.0
 11
37.01779597649816
 21
-8.880472659719746
 31
0.0
100
AcDbAlignedDimension
 13
35.64642220646489
 23
-9.332495681373178
 33
0.0
 14
38.38916974653143
 24
-9.340701421902883
 34
0.0
100
AcDbRotatedDimension
  0
LINE
  5
47
330
2
100
AcDbEntity
  8
ADP1DETAIL
100
AcDbLine
 10
37.01723289441807
 20
-9.524807279959308
 30
0.0
 11
36.26674632951169
 21
-9.520316634681069
 31
0.0
  0
DIMENSION
  5
48
330
2
100
AcDbEntity
  8
ADPDIM
100
AcDbDimension
  2
*D0
 10
37.78273289441807
 20
-10.01841400559976
 30
0.0
 11
37.01654947983107
 21
-10.01841400559976
 31
0.0
100
AcDbAlignedDimension
 13
36.25036606524407
 23
-9.750944573048732
 33
0.0
 14
37.78273289441807
 24
-9.755529101669338
 34
0.0
100
AcDbRotatedDimension
  0
ARC
  5
56
330
2
100
AcDbEntity
  8
ADP1DETAIL
100
AcDbCircle
 10
36.98320451374207
 20
-15.21170547399343
 30
0.0
 40
6.062
100
AcDbArc
 50
89.6677704814755
 51
102.515719909372
  0
LINE
  5
57
330
2
100
AcDbEntity
  8
ADP1DETAIL
100
AcDbLine
 10
36.23159260006119
 20
-9.765372358816733
 30
0.0
 11
35.73256263649666
 21
-9.635652974927669
 31
0.0
  0
ARC
  5
58
330
2
100
AcDbEntity
  8
ADP1DETAIL
100
AcDbCircle
 10
35.67624178365095
 20
-9.324022617202247
 30
0.0
 40
0.031
100
AcDbArc
 50
102.5157199093738
 51
195.8621991326251
  0
LINE
  5
59
330
2
100
AcDbEntity
  8
ADP1DETAIL
100
AcDbLine
 10
35.64642220646489
 20
-9.332495681373178
 30
0.0
 11
35.73256263649666
 21
-9.635652974927669
 31
0.0
  0
LINE
  5
5A
330
2
100
AcDbEntity
  8
ADP1DETAIL
100
AcDbLine
 10
36.25165684496435
 20
-9.535226613088028
 30
0.0
 11
36.25036606524407
 21
-9.750944573048732
 31
0.0
  0
ARC
  5
5B
330
2
100
AcDbEntity
  8
ADP1DETAIL
100
AcDbCircle
 10
36.23536633376693
 20
-9.750854819978549
 30
0.0
 40
0.0149999999999988
100
AcDbArc
 50
255.4288388166105
 51
359.6571664795921
  0
ARC
  5
5C
330
2
100
AcDbEntity
  8
ADP1DETAIL
100
AcDbCircle
 10
36.2666565764415
 20
-9.535316366158212
 30
0.0
 40
0.0150000000000006
100
AcDbArc
 50
89.65716647958878
 51
179.6571664795887
  0
LINE
  5
5D
330
2
100
AcDbEntity
  8
ADP1DETAIL
100
AcDbLine
 10
37.01723289441807
 20
-9.524807279959308
 30
0.0
 11
37.76773289441807
 21
-9.524807279959306
 31
0.0
  0
ARC
  5
5E
330
2
100
AcDbEntity
  8
ADP1DETAIL
100
AcDbCircle
 10
37.01723289441807
 20
-15.2118072799593
 30
0.0
 40
6.062
100
AcDbArc
 50
77.14144657021674
 51
89.98939599811327
  0
LINE
  5
5F
330
2
100
AcDbEntity
  8
ADP1DETAIL
100
AcDbLine
 10
37.78273289441807
 20
-9.539807279959306
 30
0.0
 11
37.78273289441807
 21
-9.755529101669338
 31
0.0
  0
LINE
  5
60
330
2
100
AcDbEntity
  8
ADP1DETAIL
100
AcDbLine
 10
37.80141969432273
 20
-9.770068960900532
 30
0.0
 11
38.30121690535492
 21
-9.643337863942374
 31
0.0
  0
ARC
  5
61
330
2
100
AcDbEntity
  8
ADP1DETAIL
100
AcDbCircle
 10
37.79773289441807
 20
-9.755529101669338
 30
0.0
 40
0.0149999999999988
100
AcDbArc
 50
179.9999999999966
 51
284.2283276629783
  0
ARC
  5
62
330
2
100
AcDbEntity
  8
ADP1DETAIL
100
AcDbCircle
 10
37.76773289441807
 20
-9.539807279959306
 30
0.0
 40
0.0150000000000006
100
AcDbArc
 50
0.0
 51
90.0
  0
ARC
  5
63
330
2
100
AcDbEntity
  8
ADP1DETAIL
100
AcDbCircle
 10
38.35940140206279
 20
-9.33205008283911
 30
0.0
 40
0.031
100
AcDbArc
 50
343.7949673469637
 51
77.14144657021492
  0
LINE
  5
64
330
2
100
AcDbEntity
  8
ADP1DETAIL
100
AcDbLine
 10
38.38916974653143
 20
-9.340701421902883
 30
0.0
 11
38.30121690535492
 21
-9.643337863942374
 31
0.0
  0
LINE
  5
65
330
2
100
AcDbEntity
  8
ADP1DETAIL
100
AcDbLine
 10
38.9899064028641
 20
-9.781955371009601
 30
0.0
 11
38.9899064028641
 21
-9.162810399298479
 31
0.0
  0
LINE
  5
66
330
2
100
AcDbEntity
  8
ADP1DETAIL
  6
CONTINUOUS
100
AcDbLine
 10
38.9899064028641
 20
-8.62105856162158
 30
0.0
 11
38.9899064028641
 21
-5.87105856162158
 31
0.0
  0
LINE
  5
67
330
2
100
AcDbEntity
  8
ADP1DETAIL
  6
CONTINUOUS
100
AcDbLine
 10
42.50990640286411
 20
-9.658126457117617
 30
0.0
 11
42.7399064028641
 21
-9.518818815855979
 31
0.0
  0
LINE
  5
68
330
2
100
AcDbEntity
  8
ADP1DETAIL
  6
CONTINUOUS
100
AcDbLine
 10
41.9899064028641
 20
-9.781955371009601
 30
0.0
 11
42.50990640286411
 21
-9.658126457117617
 31
0.0
  0
LINE
  5
69
330
2
100
AcDbEntity
  8
ADP1DETAIL
  6
CONTINUOUS
100
AcDbLine
 10
41.9899064028641
 20
-9.162810399298479
 30
0.0
 11
42.6149064028641
 21
-9.302118040560102
 31
0.0
  0
LINE
  5
6A
330
2
100
AcDbEntity
  8
ADP1DETAIL
100
AcDbLine
 10
42.7399064028641
 20
-9.427118040560102
 30
0.0
 11
42.7399064028641
 21
-9.518818815855984
 31
0.0
  0
ARC
  5
6B
330
2
100
AcDbEntity
  8
ADP1DETAIL
100
AcDbCircle
 10
42.6149064028641
 20
-9.427118040560102
 30
0.0
 40
0.125
100
AcDbArc
 50
0.0
 51
90.0
  0
LINE
  5
6C
330
2
100
AcDbEntity
  8
ADP1DETAIL
  6
CONTINUOUS
100
AcDbLine
 10
42.7399064028641
 20
-6.12105856162158
 30
0.0
 11
42.7399064028641
 21
-8.371058561621582
 31
0.0
  0
ARC
  5
6D
330
2
100
AcDbEntity
  8
ADP1DETAIL
  6
CONTINUOUS
100
AcDbCircle
 10
43.62532306953077
 20
-7.24605856162158
 30
0.0
 40
1.635416666666665
100
AcDbArc
 50
126.4937696900819
 51
233.5062303099181
  0
ARC
  5
6E
330
2
100
AcDbEntity
  8
ADP1DETAIL
  6
CONTINUOUS
100
AcDbCircle
 10
42.4899064028641
 20
-8.371058561621582
 30
0.0
 40
0.25
100
AcDbArc
 50
270.0
 51
0.0
  0
ARC
  5
6F
330
2
100
AcDbEntity
  8
ADP1DETAIL
  6
CONTINUOUS
100
AcDbCircle
 10
42.4899064028641
 20
-6.12105856162158
 30
0.0
 40
0.25
100
AcDbArc
 50
0.0
 51
90.0
  0
TEXT
  5
7A
330
2
100
AcDbEntity
  8
ADPDIM
100
AcDbText
 10
32.28836948267311
 20
-10.92408190533936
 30
0.0
 40
0.125
  1
J U L I U S  B L U M  &  C O . ,  I N C .      ( 8 0 0 )  5 2 6 - 6 2 9 3        W W W . J U L I U S B L U M . C O M        P A R T  N o .  6 9 8 4 - N
 41
1.25
  7
ARIAL_WIDE
 72
     1
 11
38.9899064028641
 21
-10.79908190533936
 31
0.0
100
AcDbText
 73
     3
  0
ENDSEC
  0
SECTION
  2
OBJECTS
  0
DICTIONARY
  5
1A
330
0
100
AcDbDictionary
  3
ACAD_GROUP
350
18
  3
ACAD_LAYOUT
350
73
  3
ACAD_MLINESTYLE
350
19
  3
ACAD_PLOTSETTINGS
350
74
  3
ACAD_PLOTSTYLENAME
350
71
  3
ACDBHEADERROUNDTRIPXREC
350
211
  3
ACDBVARIABLEDICTIONARY
350
F0
  0
DICTIONARY
  5
DB
330
2
100
AcDbDictionary
280
     1
  3
ACAD_LAYOUTSELFREF
360
232
  0
DICTIONARY
  5
DD
330
8
100
AcDbDictionary
280
     1
  3
ACAD_LAYOUTSELFREF
360
233
  0
DICTIONARY
  5
18
102
{ACAD_REACTORS
330
1A
102
}
330
1A
100
AcDbDictionary
  0
DICTIONARY
  5
73
102
{ACAD_REACTORS
330
1A
102
}
330
1A
100
AcDbDictionary
  0
DICTIONARY
  5
19
102
{ACAD_REACTORS
330
1A
102
}
330
1A
100
AcDbDictionary
  3
STANDARD
350
1C
  0
DICTIONARY
  5
74
102
{ACAD_REACTORS
330
1A
102
}
330
1A
100
AcDbDictionary
  0
ACDBDICTIONARYWDFLT
  5
71
102
{ACAD_REACTORS
330
1A
102
}
330
1A
100
AcDbDictionary
281
     1
  3
Normal
350
72
100
AcDbDictionaryWithDefault
340
72
  0
DICTIONARY
  5
211
102
{ACAD_REACTORS
330
1A
102
}
330
1A
100
AcDbDictionary
  3
CEPSNTYPE
350
21B
  3
DIMSTYLEDATA
350
21F
  3
FINGERPRINTGUID
350
21C
  3
HYPERLINKBASE
350
214
  3
INSUNITS
350
21A
  3
LAYOUTDICT
350
216
  3
LWETCUNION
350
219
  3
PLOTSETDICT
350
217
  3
PLOTSTYLNAMDICT
350
218
  3
PSVPSCALE
350
21E
  3
PUCSBASE
350
222
  3
PUCSORGBACK
350
228
  3
PUCSORGBOTTOM
350
224
  3
PUCSORGFRONT
350
227
  3
PUCSORGLEFT
350
225
  3
PUCSORGRIGHT
350
226
  3
PUCSORGTOP
350
223
  3
PUCSORTHOREF
350
220
  3
PUCSORTHOVIEW
350
221
  3
STYLESHEET
350
215
  3
TSTACKALIGN
350
212
  3
TSTACKSIZE
350
213
  3
UCSBASE
350
22B
  3
UCSORGBACK
350
231
  3
UCSORGBOTTOM
350
22D
  3
UCSORGFRONT
350
230
  3
UCSORGLEFT
350
22E
  3
UCSORGRIGHT
350
22F
  3
UCSORGTOP
350
22C
  3
UCSORTHOREF
350
229
  3
UCSORTHOVIEW
350
22A
  3
VERSIONGUID
350
21D
  0
DICTIONARY
  5
F0
102
{ACAD_REACTORS
330
1A
102
}
330
1A
100
AcDbDictionary
  3
DIMASSOC
350
F1
  0
XRECORD
  5
232
102
{ACAD_REACTORS
330
DB
102
}
330
DB
100
AcDbXrecord
340
2
  0
XRECORD
  5
233
102
{ACAD_REACTORS
330
DD
102
}
330
DD
100
AcDbXrecord
340
8
  0
MLINESTYLE
  5
1C
102
{ACAD_REACTORS
330
19
102
}
330
19
100
AcDbMlineStyle
  2
STANDARD
 70
     0
  3

 62
     0
 51
90.0
 52
90.0
 71
     2
 49
0.5
 62
   256
  6
BYLAYER
 49
-0.5
 62
   256
  6
BYLAYER
  0
ACDBPLACEHOLDER
  5
72
102
{ACAD_REACTORS
330
71
102
}
330
71
100
AcDbPlaceHolder
280
     0
  0
XRECORD
  5
21B
102
{ACAD_REACTORS
330
211
102
}
330
211
100
AcDbXrecord
 90
        0
  0
XRECORD
  5
21F
102
{ACAD_REACTORS
330
211
102
}
330
211
100
AcDbXrecord
1000
DSTYLE
1002
{
1070
   276
 70
     2
1070
   277
 70
     5
1002
}
  0
XRECORD
  5
21C
102
{ACAD_REACTORS
330
211
102
}
330
211
100
AcDbXrecord
  1
{AC19FCEF-6B1D-4C05-8D5B-D81D30BA5801}
  0
XRECORD
  5
214
102
{ACAD_REACTORS
330
211
102
}
330
211
100
AcDbXrecord
  1

  0
XRECORD
  5
21A
102
{ACAD_REACTORS
330
211
102
}
330
211
100
AcDbXrecord
 90
        0
  0
XRECORD
  5
216
102
{ACAD_REACTORS
330
211
102
}
330
211
100
AcDbXrecord
340
73
  0
XRECORD
  5
219
102
{ACAD_REACTORS
330
211
102
}
330
211
100
AcDbXrecord
 90
    14877
  0
XRECORD
  5
217
102
{ACAD_REACTORS
330
211
102
}
330
211
100
AcDbXrecord
340
74
  0
XRECORD
  5
218
102
{ACAD_REACTORS
330
211
102
}
330
211
100
AcDbXrecord
340
71
  0
XRECORD
  5
21E
102
{ACAD_REACTORS
330
211
102
}
330
211
100
AcDbXrecord
 40
0.0
  0
XRECORD
  5
222
102
{ACAD_REACTORS
330
211
102
}
330
211
100
AcDbXrecord
340
0
  0
XRECORD
  5
228
102
{ACAD_REACTORS
330
211
102
}
330
211
100
AcDbXrecord
 10
0.0
 20
0.0
 30
0.0
  0
XRECORD
  5
224
102
{ACAD_REACTORS
330
211
102
}
330
211
100
AcDbXrecord
 10
0.0
 20
0.0
 30
0.0
  0
XRECORD
  5
227
102
{ACAD_REACTORS
330
211
102
}
330
211
100
AcDbXrecord
 10
0.0
 20
0.0
 30
0.0
  0
XRECORD
  5
225
102
{ACAD_REACTORS
330
211
102
}
330
211
100
AcDbXrecord
 10
0.0
 20
0.0
 30
0.0
  0
XRECORD
  5
226
102
{ACAD_REACTORS
330
211
102
}
330
211
100
AcDbXrecord
 10
0.0
 20
0.0
 30
0.0
  0
XRECORD
  5
223
102
{ACAD_REACTORS
330
211
102
}
330
211
100
AcDbXrecord
 10
0.0
 20
0.0
 30
0.0
  0
XRECORD
  5
220
102
{ACAD_REACTORS
330
211
102
}
330
211
100
AcDbXrecord
340
0
  0
XRECORD
  5
221
102
{ACAD_REACTORS
330
211
102
}
330
211
100
AcDbXrecord
 70
     0
  0
XRECORD
  5
215
102
{ACAD_REACTORS
330
211
102
}
330
211
100
AcDbXrecord
  1

  0
XRECORD
  5
212
102
{ACAD_REACTORS
330
211
102
}
330
211
100
AcDbXrecord
 90
        1
  0
XRECORD
  5
213
102
{ACAD_REACTORS
330
211
102
}
330
211
100
AcDbXrecord
 90
       70
  0
XRECORD
  5
22B
102
{ACAD_REACTORS
330
211
102
}
330
211
100
AcDbXrecord
340
0
  0
XRECORD
  5
231
102
{ACAD_REACTORS
330
211
102
}
330
211
100
AcDbXrecord
 10
0.0
 20
0.0
 30
0.0
  0
XRECORD
  5
22D
102
{ACAD_REACTORS
330
211
102
}
330
211
100
AcDbXrecord
 10
0.0
 20
0.0
 30
0.0
  0
XRECORD
  5
230
102
{ACAD_REACTORS
330
211
102
}
330
211
100
AcDbXrecord
 10
0.0
 20
0.0
 30
0.0
  0
XRECORD
  5
22E
102
{ACAD_REACTORS
330
211
102
}
330
211
100
AcDbXrecord
 10
0.0
 20
0.0
 30
0.0
  0
XRECORD
  5
22F
102
{ACAD_REACTORS
330
211
102
}
330
211
100
AcDbXrecord
 10
0.0
 20
0.0
 30
0.0
  0
XRECORD
  5
22C
102
{ACAD_REACTORS
330
211
102
}
330
211
100
AcDbXrecord
 10
0.0
 20
0.0
 30
0.0
  0
XRECORD
  5
229
102
{ACAD_REACTORS
330
211
102
}
330
211
100
AcDbXrecord
340
0
  0
XRECORD
  5
22A
102
{ACAD_REACTORS
330
211
102
}
330
211
100
AcDbXrecord
 70
     0
  0
XRECORD
  5
21D
102
{ACAD_REACTORS
330
211
102
}
330
211
100
AcDbXrecord
  1
{5139AA00-421E-49CE-AF39-350D3A4EA867}
  0
DICTIONARYVAR
  5
F1
102
{ACAD_REACTORS
330
F0
102
}
330
F0
100
DictionaryVariables
280
     0
  1
1
  0
ENDSEC
  0
EOF
