  0
SECTION
  2
HEADER
  9
$ACADVER
  1
AC1015
  9
$ACADMAINTVER
 70
    20
  9
$DWGCODEPAGE
  3
ANSI_1252
  9
$INSBASE
 10
0.0
 20
-0.05
 30
0.0
  9
$EXTMIN
 10
-4.192323217521748
 20
-1.835483141693094
 30
0.0
  9
$EXTMAX
 10
8.859134831591484
 20
0.8510254383362742
 30
0.0
  9
$LIMMIN
 10
0.0
 20
0.0
  9
$LIMMAX
 10
36.0
 20
36.0
  9
$ORTHOMODE
 70
     1
  9
$REGENMODE
 70
     1
  9
$FILLMODE
 70
     1
  9
$QTEXTMODE
 70
     0
  9
$MIRRTEXT
 70
     1
  9
$LTSCALE
 40
1.0
  9
$ATTMODE
 70
     1
  9
$TEXTSIZE
 40
0.2
  9
$TRACEWID
 40
0.05
  9
$TEXTSTYLE
  7
STANDARD
  9
$CLAYER
  8
ADPDIM
  9
$CELTYPE
  6
ByLayer
  9
$CECOLOR
 62
   256
  9
$CELTSCALE
 40
1.0
  9
$DISPSILH
 70
     0
  9
$DIMSCALE
 40
1.0
  9
$DIMASZ
 40
0.125
  9
$DIMEXO
 40
0.0625
  9
$DIMDLI
 40
0.38
  9
$DIMRND
 40
0.0
  9
$DIMDLE
 40
0.0
  9
$DIMEXE
 40
0.18
  9
$DIMTP
 40
0.0
  9
$DIMTM
 40
0.0
  9
$DIMTXT
 40
0.125
  9
$DIMCEN
 40
0.1875
  9
$DIMTSZ
 40
0.125
  9
$DIMTOL
 70
     0
  9
$DIMLIM
 70
     0
  9
$DIMTIH
 70
     0
  9
$DIMTOH
 70
     0
  9
$DIMSE1
 70
     0
  9
$DIMSE2
 70
     0
  9
$DIMTAD
 70
     0
  9
$DIMZIN
 70
     3
  9
$DIMBLK
  1

  9
$DIMASO
 70
     1
  9
$DIMSHO
 70
     1
  9
$DIMPOST
  1

  9
$DIMAPOST
  1

  9
$DIMALT
 70
     0
  9
$DIMALTD
 70
     1
  9
$DIMALTF
 40
25.4
  9
$DIMLFAC
 40
1.0
  9
$DIMTOFL
 70
     0
  9
$DIMTVP
 40
0.0
  9
$DIMTIX
 70
     0
  9
$DIMSOXD
 70
     0
  9
$DIMSAH
 70
     0
  9
$DIMBLK1
  1

  9
$DIMBLK2
  1

  9
$DIMSTYLE
  2
Standard
  9
$DIMCLRD
 70
     0
  9
$DIMCLRE
 70
     0
  9
$DIMCLRT
 70
     0
  9
$DIMTFAC
 40
1.0
  9
$DIMGAP
 40
0.125
  9
$DIMJUST
 70
     0
  9
$DIMSD1
 70
     0
  9
$DIMSD2
 70
     0
  9
$DIMTOLJ
 70
     1
  9
$DIMTZIN
 70
     3
  9
$DIMALTZ
 70
     3
  9
$DIMALTTZ
 70
     3
  9
$DIMUPT
 70
     0
  9
$DIMDEC
 70
     4
  9
$DIMTDEC
 70
     4
  9
$DIMALTU
 70
     5
  9
$DIMALTTD
 70
     1
  9
$DIMTXSTY
  7
STANDARD
  9
$DIMAUNIT
 70
     0
  9
$DIMADEC
 70
     0
  9
$DIMALTRND
 40
0.0
  9
$DIMAZIN
 70
     0
  9
$DIMDSEP
 70
    46
  9
$DIMATFIT
 70
     3
  9
$DIMFRAC
 70
     0
  9
$DIMLDRBLK
  1

  9
$DIMLUNIT
 70
     5
  9
$DIMLWD
 70
    -2
  9
$DIMLWE
 70
    -2
  9
$DIMTMOVE
 70
     2
  9
$LUNITS
 70
     5
  9
$LUPREC
 70
     4
  9
$SKETCHINC
 40
0.1
  9
$FILLETRAD
 40
0.047
  9
$AUNITS
 70
     0
  9
$AUPREC
 70
     0
  9
$MENU
  1
acad
  9
$ELEVATION
 40
0.0
  9
$PELEVATION
 40
0.0
  9
$THICKNESS
 40
0.0
  9
$LIMCHECK
 70
     0
  9
$CHAMFERA
 40
0.0
  9
$CHAMFERB
 40
0.0
  9
$CHAMFERC
 40
0.0
  9
$CHAMFERD
 40
0.0
  9
$SKPOLY
 70
     0
  9
$TDCREATE
 40
2450213.604877893
  9
$TDUCREATE
 40
2450213.771544560
  9
$TDUPDATE
 40
2453961.051977731
  9
$TDUUPDATE
 40
2453961.218644398
  9
$TDINDWG
 40
0.0182275579
  9
$TDUSRTIMER
 40
0.0182275579
  9
$USRTIMER
 70
     1
  9
$ANGBASE
 50
0.0
  9
$ANGDIR
 70
     0
  9
$PDMODE
 70
     0
  9
$PDSIZE
 40
0.0
  9
$PLINEWID
 40
0.0
  9
$SPLFRAME
 70
     0
  9
$SPLINETYPE
 70
     6
  9
$SPLINESEGS
 70
     8
  9
$HANDSEED
  5
307
  9
$SURFTAB1
 70
     6
  9
$SURFTAB2
 70
     6
  9
$SURFTYPE
 70
     6
  9
$SURFU
 70
     6
  9
$SURFV
 70
     6
  9
$UCSBASE
  2

  9
$UCSNAME
  2

  9
$UCSORG
 10
0.0
 20
0.0
 30
0.0
  9
$UCSXDIR
 10
1.0
 20
0.0
 30
0.0
  9
$UCSYDIR
 10
0.0
 20
1.0
 30
0.0
  9
$UCSORTHOREF
  2

  9
$UCSORTHOVIEW
 70
     0
  9
$UCSORGTOP
 10
0.0
 20
0.0
 30
0.0
  9
$UCSORGBOTTOM
 10
0.0
 20
0.0
 30
0.0
  9
$UCSORGLEFT
 10
0.0
 20
0.0
 30
0.0
  9
$UCSORGRIGHT
 10
0.0
 20
0.0
 30
0.0
  9
$UCSORGFRONT
 10
0.0
 20
0.0
 30
0.0
  9
$UCSORGBACK
 10
0.0
 20
0.0
 30
0.0
  9
$PUCSBASE
  2

  9
$PUCSNAME
  2

  9
$PUCSORG
 10
0.0
 20
0.0
 30
0.0
  9
$PUCSXDIR
 10
1.0
 20
0.0
 30
0.0
  9
$PUCSYDIR
 10
0.0
 20
1.0
 30
0.0
  9
$PUCSORTHOREF
  2

  9
$PUCSORTHOVIEW
 70
     0
  9
$PUCSORGTOP
 10
0.0
 20
0.0
 30
0.0
  9
$PUCSORGBOTTOM
 10
0.0
 20
0.0
 30
0.0
  9
$PUCSORGLEFT
 10
0.0
 20
0.0
 30
0.0
  9
$PUCSORGRIGHT
 10
0.0
 20
0.0
 30
0.0
  9
$PUCSORGFRONT
 10
0.0
 20
0.0
 30
0.0
  9
$PUCSORGBACK
 10
0.0
 20
0.0
 30
0.0
  9
$USERI1
 70
     0
  9
$USERI2
 70
     0
  9
$USERI3
 70
     0
  9
$USERI4
 70
     0
  9
$USERI5
 70
     0
  9
$USERR1
 40
0.0
  9
$USERR2
 40
0.0
  9
$USERR3
 40
0.0
  9
$USERR4
 40
0.0
  9
$USERR5
 40
0.0
  9
$WORLDVIEW
 70
     1
  9
$SHADEDGE
 70
     3
  9
$SHADEDIF
 70
    70
  9
$TILEMODE
 70
     1
  9
$MAXACTVP
 70
    15
  9
$PINSBASE
 10
0.0004882947541773
 20
1.000276130627782
 30
0.0
  9
$PLIMCHECK
 70
     0
  9
$PEXTMIN
 10
1.000000000000000E+20
 20
1.000000000000000E+20
 30
1.000000000000000E+20
  9
$PEXTMAX
 10
-1.000000000000000E+20
 20
-1.000000000000000E+20
 30
-1.000000000000000E+20
  9
$PLIMMIN
 10
0.0
 20
0.0
  9
$PLIMMAX
 10
12.0
 20
9.0
  9
$UNITMODE
 70
     0
  9
$VISRETAIN
 70
     0
  9
$PLINEGEN
 70
     0
  9
$PSLTSCALE
 70
     1
  9
$TREEDEPTH
 70
  3020
  9
$CMLSTYLE
  2
Standard
  9
$CMLJUST
 70
     0
  9
$CMLSCALE
 40
1.0
  9
$PROXYGRAPHICS
 70
     1
  9
$MEASUREMENT
 70
     0
  9
$CELWEIGHT
370
    -1
  9
$ENDCAPS
280
     0
  9
$JOINSTYLE
280
     0
  9
$LWDISPLAY
290
     0
  9
$INSUNITS
 70
     0
  9
$HYPERLINKBASE
  1

  9
$STYLESHEET
  1

  9
$XEDIT
290
     1
  9
$CEPSNTYPE
380
     0
  9
$PSTYLEMODE
290
     1
  9
$FINGERPRINTGUID
  2
{471A7F55-CEB9-441B-AFD5-1C4FA6EA750B}
  9
$VERSIONGUID
  2
{6EB4B333-2B3A-44D2-B32B-8671BE174FF8}
  9
$EXTNAMES
290
     1
  9
$PSVPSCALE
 40
0.0
  9
$OLESTARTUP
290
     0
  0
ENDSEC
  0
SECTION
  2
CLASSES
  0
CLASS
  1
ACDBDICTIONARYWDFLT
  2
AcDbDictionaryWithDefault
  3
ObjectDBX Classes
 90
        0
280
     0
281
     0
  0
CLASS
  1
ACDBPLACEHOLDER
  2
AcDbPlaceHolder
  3
ObjectDBX Classes
 90
        0
280
     0
281
     0
  0
CLASS
  1
LAYOUT
  2
AcDbLayout
  3
ObjectDBX Classes
 90
        0
280
     0
281
     0
  0
CLASS
  1
DICTIONARYVAR
  2
AcDbDictionaryVar
  3
ObjectDBX Classes
 90
        0
280
     0
281
     0
  0
CLASS
  1
MATERIAL
  2
AcDbMaterial
  3
ObjectDBX Classes
 90
     1024
280
     0
281
     0
  0
CLASS
  1
VISUALSTYLE
  2
AcDbVisualStyle
  3
ObjectDBX Classes
 90
     4095
280
     0
281
     0
  0
CLASS
  1
TABLESTYLE
  2
AcDbTableStyle
  3
ObjectDBX Classes
 90
     4095
280
     0
281
     0
  0
ENDSEC
  0
SECTION
  2
TABLES
  0
TABLE
  2
VPORT
  5
8
330
0
100
AcDbSymbolTable
 70
     1
  0
VPORT
  5
235
330
8
100
AcDbSymbolTableRecord
100
AcDbViewportTableRecord
  2
*Active
 70
     0
 10
0.0
 20
0.0
 11
1.0
 21
1.0
 12
2.809444473515338
 22
-0.3418761442106719
 13
0.0
 23
0.0
 14
0.5740882589684922
 24
0.5740882589684922
 15
0.5
 25
0.5
 16
0.0
 26
0.0
 36
1.0
 17
0.0
 27
0.0
 37
0.0
 40
5.228871741820339
 41
1.774011299435028
 42
50.0
 43
0.0
 44
0.0
 50
0.0
 51
0.0
 71
     0
 72
   100
 73
     1
 74
     0
 75
     0
 76
     0
 77
     0
 78
     0
281
     0
 65
     1
110
0.0
120
0.0
130
0.0
111
1.0
121
0.0
131
0.0
112
0.0
122
1.0
132
0.0
 79
     0
146
0.0
  0
ENDTAB
  0
TABLE
  2
LTYPE
  5
5
330
0
100
AcDbSymbolTable
 70
     2
  0
LTYPE
  5
13
330
5
100
AcDbSymbolTableRecord
100
AcDbLinetypeTableRecord
  2
ByBlock
 70
     0
  3

 72
    65
 73
     0
 40
0.0
  0
LTYPE
  5
14
330
5
100
AcDbSymbolTableRecord
100
AcDbLinetypeTableRecord
  2
ByLayer
 70
     0
  3

 72
    65
 73
     0
 40
0.0
  0
LTYPE
  5
15
330
5
100
AcDbSymbolTableRecord
100
AcDbLinetypeTableRecord
  2
CONTINUOUS
 70
     0
  3
Solid line
 72
    65
 73
     0
 40
0.0
  0
ENDTAB
  0
TABLE
  2
LAYER
  5
2
330
0
100
AcDbSymbolTable
 70
     4
  0
LAYER
  5
10
330
2
100
AcDbSymbolTableRecord
100
AcDbLayerTableRecord
  2
0
 70
     0
 62
     7
  6
CONTINUOUS
370
    -3
390
F
  0
LAYER
  5
5B
330
2
100
AcDbSymbolTableRecord
100
AcDbLayerTableRecord
  2
ADPDIM
 70
     0
 62
     3
  6
CONTINUOUS
370
    -3
390
F
  0
LAYER
  5
5D
330
2
100
AcDbSymbolTableRecord
100
AcDbLayerTableRecord
  2
ADP1DETAIL
 70
     0
 62
     7
  6
CONTINUOUS
370
    -3
390
F
  0
LAYER
  5
5F
330
2
100
AcDbSymbolTableRecord
100
AcDbLayerTableRecord
  2
DEFPOINTS
 70
     0
 62
     7
  6
CONTINUOUS
290
     0
370
    -3
390
F
  0
ENDTAB
  0
TABLE
  2
STYLE
  5
3
330
0
100
AcDbSymbolTable
 70
     2
  0
STYLE
  5
11
330
3
100
AcDbSymbolTableRecord
100
AcDbTextStyleTableRecord
  2
STANDARD
 70
     0
 40
0.0
 41
1.0
 50
0.0
 71
     0
 42
0.2
  3
txt
  4

  0
STYLE
  5
DC
330
3
100
AcDbSymbolTableRecord
100
AcDbTextStyleTableRecord
  2
ARIAL_WIDE
 70
     0
 40
0.0
 41
1.25
 50
0.0
 71
     0
 42
0.2
  3
ARIAL.TTF
  4

1001
ACAD
1000
Arial
1071
       34
  0
ENDTAB
  0
TABLE
  2
VIEW
  5
6
330
0
100
AcDbSymbolTable
 70
     0
  0
ENDTAB
  0
TABLE
  2
UCS
  5
7
330
0
100
AcDbSymbolTable
 70
     0
  0
ENDTAB
  0
TABLE
  2
APPID
  5
9
330
0
100
AcDbSymbolTable
 70
     2
  0
APPID
  5
12
330
9
100
AcDbSymbolTableRecord
100
AcDbRegAppTableRecord
  2
ACAD
 70
     0
  0
APPID
  5
2DB
330
9
100
AcDbSymbolTableRecord
100
AcDbRegAppTableRecord
  2
DCO15
 70
     0
  0
ENDTAB
  0
TABLE
  2
DIMSTYLE
  5
A
330
0
100
AcDbSymbolTable
 70
     2
100
AcDbDimStyleTable
 71
     1
340
DA
  0
DIMSTYLE
105
DA
102
{ACAD_REACTORS
330
28D
330
B1
330
B2
102
}
330
A
100
AcDbSymbolTableRecord
100
AcDbDimStyleTableRecord
  2
Standard
 70
     0
340
11
  0
ENDTAB
  0
TABLE
  2
BLOCK_RECORD
  5
1
330
0
100
AcDbSymbolTable
 70
     9
  0
BLOCK_RECORD
  5
1E
102
{ACAD_XDICTIONARY
360
119
102
}
330
1
100
AcDbSymbolTableRecord
100
AcDbBlockTableRecord
  2
*Model_Space
340
21
  0
BLOCK_RECORD
  5
1A
102
{ACAD_XDICTIONARY
360
11B
102
}
330
1
100
AcDbSymbolTableRecord
100
AcDbBlockTableRecord
  2
*Paper_Space
340
1D
  0
BLOCK_RECORD
  5
51
330
1
100
AcDbSymbolTableRecord
100
AcDbBlockTableRecord
  2
*D0
340
0
  0
BLOCK_RECORD
  5
55
330
1
100
AcDbSymbolTableRecord
100
AcDbBlockTableRecord
  2
*D1
340
0
  0
BLOCK_RECORD
  5
57
330
1
100
AcDbSymbolTableRecord
100
AcDbBlockTableRecord
  2
*D2
340
0
  0
BLOCK_RECORD
  5
58
330
1
100
AcDbSymbolTableRecord
100
AcDbBlockTableRecord
  2
*D3
340
0
  0
BLOCK_RECORD
  5
59
330
1
100
AcDbSymbolTableRecord
100
AcDbBlockTableRecord
  2
*D4
340
0
  0
BLOCK_RECORD
  5
28E
330
1
100
AcDbSymbolTableRecord
100
AcDbBlockTableRecord
  2
*D6
340
0
  0
BLOCK_RECORD
  5
29A
330
1
100
AcDbSymbolTableRecord
100
AcDbBlockTableRecord
  2
*D7
340
0
  0
BLOCK_RECORD
  5
2A7
330
1
100
AcDbSymbolTableRecord
100
AcDbBlockTableRecord
  2
*D8
340
0
  0
ENDTAB
  0
ENDSEC
  0
SECTION
  2
BLOCKS
  0
BLOCK
  5
62
330
1E
100
AcDbEntity
  8
0
100
AcDbBlockBegin
  2
*Model_Space
 70
     0
 10
0.0
 20
0.0
 30
0.0
  3
*Model_Space
  1

  0
ENDBLK
  5
63
330
1E
100
AcDbEntity
  8
0
100
AcDbBlockEnd
  0
BLOCK
  5
60
330
1A
100
AcDbEntity
 67
     1
  8
0
100
AcDbBlockBegin
  2
*Paper_Space
 70
     0
 10
0.0
 20
0.0
 30
0.0
  3
*Paper_Space
  1

  0
ENDBLK
  5
61
330
1A
100
AcDbEntity
 67
     1
  8
0
100
AcDbBlockEnd
  0
BLOCK
  5
65
330
51
100
AcDbEntity
  8
0
100
AcDbBlockBegin
  2
*D0
 70
     1
 10
0.0
 20
0.0
 30
0.0
  3
*D0
  1

  0
LINE
  5
66
330
51
100
AcDbEntity
  8
0
  6
ByBlock
 62
     0
100
AcDbLine
 10
-0.0625
 20
0.25
 30
0.0
 11
-0.4614595676327033
 21
0.25
 31
0.0
  0
LINE
  5
67
330
51
100
AcDbEntity
  8
0
  6
ByBlock
 62
     0
100
AcDbLine
 10
-0.0625
 20
-0.05
 30
0.0
 11
-0.4614595676327033
 21
-0.05
 31
0.0
  0
LINE
  5
68
330
51
100
AcDbEntity
  8
0
  6
ByBlock
 62
     0
100
AcDbLine
 10
-0.2814595676327032
 20
0.25
 30
0.0
 11
-0.2814595676327031
 21
0.5
 31
0.0
  0
LINE
  5
69
330
51
100
AcDbEntity
  8
0
  6
ByBlock
 62
     0
100
AcDbLine
 10
-0.2814595676327032
 20
-0.05
 30
0.0
 11
-0.2814595676327032
 21
-0.3
 31
0.0
  0
LINE
  5
6A
330
51
100
AcDbEntity
  8
0
  6
ByBlock
 62
     0
100
AcDbLine
 10
-0.1564595676327032
 20
0.125
 30
0.0
 11
-0.4064595676327033
 21
0.375
 31
0.0
  0
LINE
  5
6B
330
51
100
AcDbEntity
  8
0
  6
ByBlock
 62
     0
100
AcDbLine
 10
-0.1564595676327032
 20
-0.175
 30
0.0
 11
-0.4064595676327033
 21
0.075
 31
0.0
  0
TEXT
  5
6C
330
51
100
AcDbEntity
  8
0
  6
ByBlock
 62
     0
100
AcDbText
 10
-0.2189595676327032
 20
-0.8416666666666666
 30
0.0
 40
0.125
  1
5/16
 50
90.0
 72
     1
 11
-0.2814595676327032
 21
-0.6333333333333333
 31
0.0
100
AcDbText
 73
     2
  0
POINT
  5
6E
330
51
100
AcDbEntity
  8
DEFPOINTS
  6
ByBlock
 62
     0
100
AcDbPoint
 10
0.0
 20
0.25
 30
0.0
  0
POINT
  5
6F
330
51
100
AcDbEntity
  8
DEFPOINTS
  6
ByBlock
 62
     0
100
AcDbPoint
 10
0.0
 20
-0.05
 30
0.0
  0
POINT
  5
70
330
51
100
AcDbEntity
  8
DEFPOINTS
  6
ByBlock
 62
     0
100
AcDbPoint
 10
-0.2814595676327032
 20
-0.05
 30
0.0
  0
ENDBLK
  5
71
330
51
100
AcDbEntity
  8
0
100
AcDbBlockEnd
  0
BLOCK
  5
72
330
55
100
AcDbEntity
  8
0
100
AcDbBlockBegin
  2
*D1
 70
     1
 10
0.0
 20
0.0
 30
0.0
  3
*D1
  1

  0
LINE
  5
73
330
55
100
AcDbEntity
  8
0
  6
ByBlock
 62
     0
100
AcDbLine
 10
4.0625
 20
0.25
 30
0.0
 11
4.347919306405099
 21
0.25
 31
0.0
  0
LINE
  5
74
330
55
100
AcDbEntity
  8
0
  6
ByBlock
 62
     0
100
AcDbLine
 10
3.265499999999999
 20
-0.4379999999999999
 30
0.0
 11
4.347919306405099
 21
-0.438
 31
0.0
  0
LINE
  5
75
330
55
100
AcDbEntity
  8
0
  6
ByBlock
 62
     0
100
AcDbLine
 10
4.167919306405099
 20
0.25
 30
0.0
 11
4.167919306405099
 21
0.5
 31
0.0
  0
LINE
  5
76
330
55
100
AcDbEntity
  8
0
  6
ByBlock
 62
     0
100
AcDbLine
 10
4.167919306405099
 20
-0.438
 30
0.0
 11
4.167919306405099
 21
-0.6879999999999999
 31
0.0
  0
LINE
  5
77
330
55
100
AcDbEntity
  8
0
  6
ByBlock
 62
     0
100
AcDbLine
 10
4.292919306405099
 20
0.125
 30
0.0
 11
4.042919306405099
 21
0.375
 31
0.0
  0
LINE
  5
78
330
55
100
AcDbEntity
  8
0
  6
ByBlock
 62
     0
100
AcDbLine
 10
4.292919306405099
 20
-0.5629999999999999
 30
0.0
 11
4.042919306405099
 21
-0.3129999999999999
 31
0.0
  0
TEXT
  5
79
330
55
100
AcDbEntity
  8
0
  6
ByBlock
 62
     0
100
AcDbText
 10
4.230419306405099
 20
-1.271333333333333
 30
0.0
 40
0.125
  1
11/16
 50
90.0
 72
     1
 11
4.167919306405099
 21
-1.042166666666666
 31
0.0
100
AcDbText
 73
     2
  0
POINT
  5
7A
330
55
100
AcDbEntity
  8
DEFPOINTS
  6
ByBlock
 62
     0
100
AcDbPoint
 10
4.0
 20
0.25
 30
0.0
  0
POINT
  5
7B
330
55
100
AcDbEntity
  8
DEFPOINTS
  6
ByBlock
 62
     0
100
AcDbPoint
 10
3.202999999999999
 20
-0.4379999999999999
 30
0.0
  0
POINT
  5
7C
330
55
100
AcDbEntity
  8
DEFPOINTS
  6
ByBlock
 62
     0
100
AcDbPoint
 10
4.167919306405099
 20
-0.438
 30
0.0
  0
ENDBLK
  5
7D
330
55
100
AcDbEntity
  8
0
100
AcDbBlockEnd
  0
BLOCK
  5
7E
330
57
100
AcDbEntity
  8
0
100
AcDbBlockBegin
  2
*D2
 70
     1
 10
0.0
 20
0.0
 30
0.0
  3
*D2
  1

  0
LINE
  5
7F
330
57
100
AcDbEntity
  8
0
  6
ByBlock
 62
     0
100
AcDbLine
 10
4.0625
 20
0.25
 30
0.0
 11
4.677512621197019
 21
0.25
 31
0.0
  0
LINE
  5
80
330
57
100
AcDbEntity
  8
0
  6
ByBlock
 62
     0
100
AcDbLine
 10
4.0625
 20
0.0
 30
0.0
 11
4.677512621197019
 21
0.0
 31
0.0
  0
LINE
  5
81
330
57
100
AcDbEntity
  8
0
  6
ByBlock
 62
     0
100
AcDbLine
 10
4.497512621197019
 20
0.25
 30
0.0
 11
4.497512621197019
 21
0.5
 31
0.0
  0
LINE
  5
82
330
57
100
AcDbEntity
  8
0
  6
ByBlock
 62
     0
100
AcDbLine
 10
4.497512621197019
 20
0.0
 30
0.0
 11
4.497512621197019
 21
-0.25
 31
0.0
  0
LINE
  5
83
330
57
100
AcDbEntity
  8
0
  6
ByBlock
 62
     0
100
AcDbLine
 10
4.622512621197019
 20
0.125
 30
0.0
 11
4.372512621197019
 21
0.375
 31
0.0
  0
LINE
  5
84
330
57
100
AcDbEntity
  8
0
  6
ByBlock
 62
     0
100
AcDbLine
 10
4.622512621197019
 20
-0.125
 30
0.0
 11
4.372512621197019
 21
0.125
 31
0.0
  0
TEXT
  5
85
330
57
100
AcDbEntity
  8
0
  6
ByBlock
 62
     0
100
AcDbText
 10
4.560012621197019
 20
-0.6666666666666666
 30
0.0
 40
0.125
  1
1/4
 50
90.0
 72
     1
 11
4.497512621197019
 21
-0.5208333333333333
 31
0.0
100
AcDbText
 73
     2
  0
POINT
  5
86
330
57
100
AcDbEntity
  8
DEFPOINTS
  6
ByBlock
 62
     0
100
AcDbPoint
 10
4.0
 20
0.25
 30
0.0
  0
POINT
  5
87
330
57
100
AcDbEntity
  8
DEFPOINTS
  6
ByBlock
 62
     0
100
AcDbPoint
 10
4.0
 20
0.0
 30
0.0
  0
POINT
  5
88
330
57
100
AcDbEntity
  8
DEFPOINTS
  6
ByBlock
 62
     0
100
AcDbPoint
 10
4.497512621197019
 20
0.0
 30
0.0
  0
ENDBLK
  5
89
330
57
100
AcDbEntity
  8
0
100
AcDbBlockEnd
  0
BLOCK
  5
8A
330
58
100
AcDbEntity
  8
0
100
AcDbBlockBegin
  2
*D3
 70
     1
 10
0.0
 20
0.0
 30
0.0
  3
*D3
  1

  0
LINE
  5
8B
330
58
100
AcDbEntity
  8
0
  6
ByBlock
 62
     0
100
AcDbLine
 10
2.875
 20
-0.2504999999999999
 30
0.0
 11
2.875
 21
0.851025438336274
 31
0.0
  0
LINE
  5
8C
330
58
100
AcDbEntity
  8
0
  6
ByBlock
 62
     0
100
AcDbLine
 10
4.0
 20
0.3125
 30
0.0
 11
4.0
 21
0.8510254383362742
 31
0.0
  0
LINE
  5
8D
330
58
100
AcDbEntity
  8
0
  6
ByBlock
 62
     0
100
AcDbLine
 10
2.875
 20
0.6710254383362742
 30
0.0
 11
2.625
 21
0.6710254383362742
 31
0.0
  0
LINE
  5
8E
330
58
100
AcDbEntity
  8
0
  6
ByBlock
 62
     0
100
AcDbLine
 10
4.0
 20
0.6710254383362742
 30
0.0
 11
4.25
 21
0.6710254383362742
 31
0.0
  0
LINE
  5
8F
330
58
100
AcDbEntity
  8
0
  6
ByBlock
 62
     0
100
AcDbLine
 10
2.75
 20
0.5460254383362742
 30
0.0
 11
3.0
 21
0.7960254383362742
 31
0.0
  0
LINE
  5
90
330
58
100
AcDbEntity
  8
0
  6
ByBlock
 62
     0
100
AcDbLine
 10
3.875
 20
0.5460254383362742
 30
0.0
 11
4.125
 21
0.7960254383362742
 31
0.0
  0
TEXT
  5
91
330
58
100
AcDbEntity
  8
0
  6
ByBlock
 62
     0
100
AcDbText
 10
4.375
 20
0.6085254383362742
 30
0.0
 40
0.125
  1
1 1/8
 72
     1
 11
4.625
 21
0.6710254383362742
 31
0.0
100
AcDbText
 73
     2
  0
POINT
  5
92
330
58
100
AcDbEntity
  8
DEFPOINTS
  6
ByBlock
 62
     0
100
AcDbPoint
 10
2.875
 20
-0.3129999999999999
 30
0.0
  0
POINT
  5
93
330
58
100
AcDbEntity
  8
DEFPOINTS
  6
ByBlock
 62
     0
100
AcDbPoint
 10
4.0
 20
0.25
 30
0.0
  0
POINT
  5
94
330
58
100
AcDbEntity
  8
DEFPOINTS
  6
ByBlock
 62
     0
100
AcDbPoint
 10
4.0
 20
0.6710254383362742
 30
0.0
  0
ENDBLK
  5
95
330
58
100
AcDbEntity
  8
0
100
AcDbBlockEnd
  0
BLOCK
  5
96
330
59
100
AcDbEntity
  8
0
100
AcDbBlockBegin
  2
*D4
 70
     1
 10
0.0
 20
0.0
 30
0.0
  3
*D4
  1

  0
LINE
  5
97
330
59
100
AcDbEntity
  8
0
  6
ByBlock
 62
     0
100
AcDbLine
 10
0.0
 20
0.3125
 30
0.0
 11
0.0
 21
0.851025438336274
 31
0.0
  0
LINE
  5
98
330
59
100
AcDbEntity
  8
0
  6
ByBlock
 62
     0
100
AcDbLine
 10
2.875
 20
-0.2504999999999999
 30
0.0
 11
2.875
 21
0.851025438336274
 31
0.0
  0
LINE
  5
99
330
59
100
AcDbEntity
  8
0
  6
ByBlock
 62
     0
100
AcDbLine
 10
0.0
 20
0.6710254383362742
 30
0.0
 11
1.020833333333333
 21
0.6710254383362742
 31
0.0
  0
LINE
  5
9A
330
59
100
AcDbEntity
  8
0
  6
ByBlock
 62
     0
100
AcDbLine
 10
2.875
 20
0.6710254383362742
 30
0.0
 11
1.854166666666666
 21
0.6710254383362742
 31
0.0
  0
LINE
  5
9B
330
59
100
AcDbEntity
  8
0
  6
ByBlock
 62
     0
100
AcDbLine
 10
-0.125
 20
0.5460254383362742
 30
0.0
 11
0.125
 21
0.7960254383362742
 31
0.0
  0
LINE
  5
9C
330
59
100
AcDbEntity
  8
0
  6
ByBlock
 62
     0
100
AcDbLine
 10
2.75
 20
0.5460254383362742
 30
0.0
 11
3.0
 21
0.7960254383362742
 31
0.0
  0
TEXT
  5
9D
330
59
100
AcDbEntity
  8
0
  6
ByBlock
 62
     0
100
AcDbText
 10
1.145833333333333
 20
0.6085254383362742
 30
0.0
 40
0.125
  1
2 7/8
 72
     1
 11
1.4375
 21
0.6710254383362742
 31
0.0
100
AcDbText
 73
     2
  0
POINT
  5
9E
330
59
100
AcDbEntity
  8
DEFPOINTS
  6
ByBlock
 62
     0
100
AcDbPoint
 10
0.0
 20
0.25
 30
0.0
  0
POINT
  5
9F
330
59
100
AcDbEntity
  8
DEFPOINTS
  6
ByBlock
 62
     0
100
AcDbPoint
 10
2.875
 20
-0.3129999999999999
 30
0.0
  0
POINT
  5
A0
330
59
100
AcDbEntity
  8
DEFPOINTS
  6
ByBlock
 62
     0
100
AcDbPoint
 10
2.875
 20
0.6710254383362742
 30
0.0
  0
ENDBLK
  5
A1
330
59
100
AcDbEntity
  8
0
100
AcDbBlockEnd
  0
BLOCK
  5
298
330
28E
100
AcDbEntity
  8
0
 62
     3
100
AcDbBlockBegin
  2
*D6
 70
     1
 10
0.0
 20
0.0
 30
0.0
  3
*D6
  1

  0
LINE
  5
2D0
330
28E
100
AcDbEntity
  8
ADPDIM
 62
     0
370
    -2
100
AcDbLine
 10
-0.060288666354154
 20
0.2490713958355997
 30
0.0
 11
-0.4047699165785163
 21
0.2490713958355998
 31
0.0
  0
LINE
  5
2D1
330
28E
100
AcDbEntity
  8
ADPDIM
 62
     0
370
    -2
100
AcDbLine
 10
-0.060288666354154
 20
-0.0009286041644003
 30
0.0
 11
-0.4047699165785165
 21
-0.0009286041644002
 31
0.0
  0
LINE
  5
2D2
330
28E
100
AcDbEntity
  8
ADPDIM
 62
     0
370
    -2
100
AcDbLine
 10
-0.2247699165785164
 20
0.2490713958355998
 30
0.0
 11
-0.2247699165785165
 21
-0.0009286041644003
 31
0.0
  0
MTEXT
  5
2D3
330
28E
100
AcDbEntity
  8
ADPDIM
 62
     0
100
AcDbMText
 10
-0.6547699165785165
 20
0.1240713958355997
 30
0.0
 40
0.125
 41
0.0
 71
     5
 72
     1
  1
\A1;1/4
 11
0.0000000000000001
 21
1.0
 31
0.0
 73
     1
 44
1.0
1001
ACAD
1000
MTEXTBEGIN
1070
    73
1070
     1
1070
    44
1040
1.0
1070
    74
1070
     0
1000
MTEXTEND
  0
LINE
  5
2D4
330
28E
100
AcDbEntity
  8
ADPDIM
 62
     0
370
    -2
100
AcDbLine
 10
-0.0997699165785165
 20
-0.1259286041644003
 30
0.0
 11
-0.3497699165785164
 21
0.1240713958355998
 31
0.0
  0
LINE
  5
2D5
330
28E
100
AcDbEntity
  8
ADPDIM
 62
     0
370
    -2
100
AcDbLine
 10
-0.0997699165785164
 20
0.1240713958355997
 30
0.0
 11
-0.3497699165785164
 21
0.3740713958355997
 31
0.0
  0
POINT
  5
2D6
330
28E
100
AcDbEntity
  8
DEFPOINTS
 62
     0
100
AcDbPoint
 10
0.002211333645846
 20
0.2490713958355997
 30
0.0
  0
POINT
  5
2D7
330
28E
100
AcDbEntity
  8
DEFPOINTS
 62
     0
100
AcDbPoint
 10
0.002211333645846
 20
-0.0009286041644003
 30
0.0
  0
POINT
  5
2D8
330
28E
100
AcDbEntity
  8
DEFPOINTS
 62
     0
100
AcDbPoint
 10
-0.2247699165785165
 20
-0.0009286041644003
 30
0.0
  0
ENDBLK
  5
299
330
28E
100
AcDbEntity
  8
0
 62
     3
100
AcDbBlockEnd
  0
BLOCK
  5
2A5
330
29A
100
AcDbEntity
  8
0
100
AcDbBlockBegin
  2
*D7
 70
     1
 10
0.0
 20
0.0
 30
0.0
  3
*D7
  1

  0
LINE
  5
2C6
330
29A
100
AcDbEntity
  8
ADPDIM
 62
     0
370
    -2
100
AcDbLine
 10
2.875
 20
-0.2504999999999999
 30
0.0
 11
2.875
 21
0.851025438336274
 31
0.0
  0
LINE
  5
2C7
330
29A
100
AcDbEntity
  8
ADPDIM
 62
     0
370
    -2
100
AcDbLine
 10
4.0
 20
0.3125
 30
0.0
 11
4.0
 21
0.851025438336274
 31
0.0
  0
LINE
  5
2C8
330
29A
100
AcDbEntity
  8
ADPDIM
 62
     0
370
    -2
100
AcDbLine
 10
2.875
 20
0.6710254383362742
 30
0.0
 11
3.059334342225753
 21
0.6710254383362742
 31
0.0
  0
LINE
  5
2C9
330
29A
100
AcDbEntity
  8
ADPDIM
 62
     0
370
    -2
100
AcDbLine
 10
4.0
 20
0.6710254383362742
 30
0.0
 11
3.809334342225753
 21
0.6710254383362742
 31
0.0
  0
MTEXT
  5
2CA
330
29A
100
AcDbEntity
  8
ADPDIM
 62
     0
100
AcDbMText
 10
3.434334342225753
 20
0.6710254383362742
 30
0.0
 40
0.125
 41
0.0
 71
     5
 72
     1
  1
\A1;1 1/8
 73
     1
 44
1.0
1001
ACAD
1000
MTEXTBEGIN
1070
    73
1070
     1
1070
    44
1040
1.0
1070
    74
1070
     0
1000
MTEXTEND
  0
LINE
  5
2CB
330
29A
100
AcDbEntity
  8
ADPDIM
 62
     0
370
    -2
100
AcDbLine
 10
3.875
 20
0.5460254383362742
 30
0.0
 11
4.125
 21
0.7960254383362742
 31
0.0
  0
LINE
  5
2CC
330
29A
100
AcDbEntity
  8
ADPDIM
 62
     0
370
    -2
100
AcDbLine
 10
2.75
 20
0.5460254383362742
 30
0.0
 11
3.0
 21
0.7960254383362742
 31
0.0
  0
POINT
  5
2CD
330
29A
100
AcDbEntity
  8
DEFPOINTS
 62
     0
100
AcDbPoint
 10
2.875
 20
-0.3129999999999999
 30
0.0
  0
POINT
  5
2CE
330
29A
100
AcDbEntity
  8
DEFPOINTS
 62
     0
100
AcDbPoint
 10
4.0
 20
0.25
 30
0.0
  0
POINT
  5
2CF
330
29A
100
AcDbEntity
  8
DEFPOINTS
 62
     0
100
AcDbPoint
 10
4.0
 20
0.6710254383362742
 30
0.0
  0
ENDBLK
  5
2A6
330
29A
100
AcDbEntity
  8
0
100
AcDbBlockEnd
  0
BLOCK
  5
2B2
330
2A7
100
AcDbEntity
  8
0
100
AcDbBlockBegin
  2
*D8
 70
     1
 10
0.0
 20
0.0
 30
0.0
  3
*D8
  1

  0
LINE
  5
2BD
330
2A7
100
AcDbEntity
  8
ADPDIM
 62
     0
370
    -2
100
AcDbLine
 10
4.0625
 20
0.25
 30
0.0
 11
4.347919306405099
 21
0.2499999999999999
 31
0.0
  0
LINE
  5
2BE
330
2A7
100
AcDbEntity
  8
ADPDIM
 62
     0
370
    -2
100
AcDbLine
 10
3.265499999999999
 20
-0.4379999999999999
 30
0.0
 11
4.347919306405099
 21
-0.4380000000000003
 31
0.0
  0
LINE
  5
2BF
330
2A7
100
AcDbEntity
  8
ADPDIM
 62
     0
370
    -2
100
AcDbLine
 10
4.167919306405099
 20
0.25
 30
0.0
 11
4.167919306405099
 21
-0.4380000000000003
 31
0.0
  0
MTEXT
  5
2C0
330
2A7
100
AcDbEntity
  8
ADPDIM
 62
     0
100
AcDbMText
 10
4.541101067379486
 20
-0.0692549560841052
 30
0.0
 40
0.125
 41
0.0
 71
     5
 72
     1
  1
\A1;11/16
 11
0.0000000000000001
 21
1.0
 31
0.0
 73
     1
 44
1.0
1001
ACAD
1000
MTEXTBEGIN
1070
    73
1070
     1
1070
    44
1040
1.0
1070
    74
1070
     0
1000
MTEXTEND
  0
LINE
  5
2C1
330
2A7
100
AcDbEntity
  8
ADPDIM
 62
     0
370
    -2
100
AcDbLine
 10
4.292919306405099
 20
-0.5630000000000003
 30
0.0
 11
4.042919306405099
 21
-0.3130000000000002
 31
0.0
  0
LINE
  5
2C2
330
2A7
100
AcDbEntity
  8
ADPDIM
 62
     0
370
    -2
100
AcDbLine
 10
4.292919306405099
 20
0.1249999999999999
 30
0.0
 11
4.042919306405099
 21
0.375
 31
0.0
  0
POINT
  5
2C3
330
2A7
100
AcDbEntity
  8
DEFPOINTS
 62
     0
100
AcDbPoint
 10
4.0
 20
0.25
 30
0.0
  0
POINT
  5
2C4
330
2A7
100
AcDbEntity
  8
DEFPOINTS
 62
     0
100
AcDbPoint
 10
3.202999999999999
 20
-0.4379999999999999
 30
0.0
  0
POINT
  5
2C5
330
2A7
100
AcDbEntity
  8
DEFPOINTS
 62
     0
100
AcDbPoint
 10
4.167919306405099
 20
-0.4380000000000003
 30
0.0
  0
ENDBLK
  5
2B3
330
2A7
100
AcDbEntity
  8
0
100
AcDbBlockEnd
  0
ENDSEC
  0
SECTION
  2
ENTITIES
  0
ARC
  5
A3
330
1E
100
AcDbEntity
  8
ADP1DETAIL
100
AcDbCircle
 10
0.625
 20
0.25
 30
0.0
 40
0.125
100
AcDbArc
 50
180.0
 51
0.0
  0
DIMENSION
  5
A4
330
1E
100
AcDbEntity
  8
ADPDIM
100
AcDbDimension
  2
*D4
 10
2.875
 20
0.6710254383362742
 30
0.0
 11
1.4375
 21
0.6710254383362742
 31
0.0
 71
     5
 42
-1.0
100
AcDbAlignedDimension
 13
0.0
 23
0.25
 33
0.0
 14
2.875
 24
-0.3129999999999999
 34
0.0
100
AcDbRotatedDimension
  0
LWPOLYLINE
  5
A6
330
1E
100
AcDbEntity
  8
ADP1DETAIL
100
AcDbPolyline
 90
        3
 70
     0
 43
0.0
 10
0.0
 20
0.0
 10
0.0
 20
0.25
 10
0.5
 20
0.25
  0
LINE
  5
AD
330
1E
100
AcDbEntity
  8
ADP1DETAIL
100
AcDbLine
 10
3.25
 20
0.0
 30
0.0
 11
3.25
 21
-0.391
 31
0.0
  0
LINE
  5
AE
330
1E
100
AcDbEntity
  8
ADP1DETAIL
100
AcDbLine
 10
3.125
 20
0.25
 30
0.0
 11
3.125
 21
-0.3129999999999999
 31
0.0
  0
LINE
  5
AF
330
1E
100
AcDbEntity
  8
ADP1DETAIL
100
AcDbLine
 10
2.625
 20
-0.3129999999999999
 30
0.0
 11
2.625
 21
0.25
 31
0.0
  0
LINE
  5
B0
330
1E
100
AcDbEntity
  8
ADP1DETAIL
100
AcDbLine
 10
2.499999999999999
 20
-0.391
 30
0.0
 11
2.5
 21
0.0
 31
0.0
  0
DIMENSION
  5
B1
330
1E
100
AcDbEntity
  8
ADPDIM
100
AcDbDimension
  2
*D7
 10
4.0
 20
0.6710254383362742
 30
0.0
 11
3.434334342225753
 21
0.6710254383362742
 31
0.0
 70
   160
 71
     5
 42
1.125
  3
Standard
100
AcDbAlignedDimension
 13
2.875
 23
-0.3129999999999999
 33
0.0
 14
4.0
 24
0.25
 34
0.0
100
AcDbRotatedDimension
1001
ACAD
1000
DSTYLE
1002
{
1070
   276
1070
     2
1070
    41
1040
0.125
1070
    73
1070
     0
1070
    74
1070
     0
1070
    78
1070
     3
1070
   140
1040
0.125
1070
   141
1040
0.1875
1070
   142
1040
0.125
1070
   147
1040
0.125
1070
   171
1070
     1
1070
   273
1070
     5
1070
   274
1070
     1
1070
   277
1070
     5
1070
   279
1070
     2
1070
   284
1070
     3
1070
   285
1070
     3
1070
   286
1070
     3
1002
}
  0
DIMENSION
  5
B2
330
1E
100
AcDbEntity
  8
ADPDIM
100
AcDbDimension
  2
*D8
 10
4.167919306405099
 20
-0.4380000000000003
 30
0.0
 11
4.541101067379486
 21
-0.0692549560841052
 31
0.0
 70
   160
 71
     5
 42
0.6880000000000002
  3
Standard
100
AcDbAlignedDimension
 13
4.0
 23
0.25
 33
0.0
 14
3.202999999999999
 24
-0.4379999999999999
 34
0.0
 50
90.0
100
AcDbRotatedDimension
1001
ACAD
1000
DSTYLE
1002
{
1070
   276
1070
     2
1070
    41
1040
0.125
1070
    73
1070
     0
1070
    74
1070
     0
1070
    78
1070
     3
1070
   140
1040
0.125
1070
   141
1040
0.1875
1070
   142
1040
0.125
1070
   147
1040
0.125
1070
   171
1070
     1
1070
   273
1070
     5
1070
   274
1070
     1
1070
   277
1070
     5
1070
   279
1070
     2
1070
   284
1070
     3
1070
   285
1070
     3
1070
   286
1070
     3
1002
}
  0
LINE
  5
B3
330
1E
100
AcDbEntity
  8
ADP1DETAIL
100
AcDbLine
 10
3.202999999999999
 20
-0.4379999999999999
 30
0.0
 11
2.546999999999999
 21
-0.4379999999999999
 31
0.0
  0
LINE
  5
B4
330
1E
100
AcDbEntity
  8
ADP1DETAIL
100
AcDbLine
 10
3.125
 20
-0.3129999999999999
 30
0.0
 11
2.625
 21
-0.3129999999999999
 31
0.0
  0
ARC
  5
B5
330
1E
100
AcDbEntity
  8
ADP1DETAIL
100
AcDbCircle
 10
2.546999999999999
 20
-0.391
 30
0.0
 40
0.047
100
AcDbArc
 50
180.0
 51
270.0
  0
ARC
  5
B6
330
1E
100
AcDbEntity
  8
ADP1DETAIL
100
AcDbCircle
 10
3.202999999999999
 20
-0.391
 30
0.0
 40
0.047
100
AcDbArc
 50
270.0
 51
0.0
  0
ARC
  5
B7
330
1E
100
AcDbEntity
  8
ADP1DETAIL
100
AcDbCircle
 10
3.5625
 20
0.25
 30
0.0
 40
0.125
100
AcDbArc
 50
180.0
 51
0.0
  0
LWPOLYLINE
  5
B8
330
1E
100
AcDbEntity
  8
ADP1DETAIL
100
AcDbPolyline
 90
        4
 70
     0
 43
0.0
 10
3.6875
 20
0.25
 10
4.0
 20
0.25
 10
4.0
 20
0.0
 10
3.25
 20
0.0
  0
ARC
  5
BE
330
1E
100
AcDbEntity
  8
ADP1DETAIL
100
AcDbCircle
 10
2.125
 20
0.25
 30
0.0
 40
0.125
100
AcDbArc
 50
180.0
 51
0.0
  0
LWPOLYLINE
  5
BF
330
1E
100
AcDbEntity
  8
ADP1DETAIL
100
AcDbPolyline
 90
        2
 70
     0
 43
0.0
 10
2.499999999999999
 20
0.0
 10
0.0
 20
0.0
  0
LWPOLYLINE
  5
C3
330
1E
100
AcDbEntity
  8
ADP1DETAIL
100
AcDbPolyline
 90
        2
 70
     0
 43
0.0
 10
1.25
 20
0.25
 10
1.5
 20
0.25
  0
LWPOLYLINE
  5
C7
330
1E
100
AcDbEntity
  8
ADP1DETAIL
100
AcDbPolyline
 90
        2
 70
     0
 43
0.0
 10
0.75
 20
0.25
 10
1.0
 20
0.25
  0
ARC
  5
CC
330
1E
100
AcDbEntity
  8
ADP1DETAIL
100
AcDbCircle
 10
1.125
 20
0.25
 30
0.0
 40
0.125
100
AcDbArc
 50
180.0
 51
0.0
  0
ARC
  5
CD
330
1E
100
AcDbEntity
  8
ADP1DETAIL
100
AcDbCircle
 10
1.625
 20
0.25
 30
0.0
 40
0.125
100
AcDbArc
 50
180.0
 51
0.0
  0
LWPOLYLINE
  5
CE
330
1E
100
AcDbEntity
  8
ADP1DETAIL
100
AcDbPolyline
 90
        2
 70
     0
 43
0.0
 10
1.75
 20
0.25
 10
2.0
 20
0.25
  0
LWPOLYLINE
  5
D2
330
1E
100
AcDbEntity
  8
ADP1DETAIL
100
AcDbPolyline
 90
        2
 70
     0
 43
0.0
 10
2.25
 20
0.25
 10
2.625
 20
0.25
  0
LWPOLYLINE
  5
D6
330
1E
100
AcDbEntity
  8
ADP1DETAIL
100
AcDbPolyline
 90
        2
 70
     0
 43
0.0
 10
3.125
 20
0.25
 10
3.4375
 20
0.25
  0
TEXT
  5
DD
330
1E
100
AcDbEntity
  8
ADPDIM
100
AcDbText
 10
-4.192323217521748
 20
-1.798477684667174
 30
0.0
 40
0.125
  1
J U L I U S  B L U M  &  C O . ,  I N C .      ( 8 0 0 )  5 2 6 - 6 2 9 3        W W W . J U L I U S B L U M . C O M        P A R T  N o .  6 9 6 9
 41
1.25
  7
ARIAL_WIDE
 72
     1
 11
2.333405807034868
 21
-1.673477684667174
 31
0.0
100
AcDbText
 73
     3
  0
DIMENSION
  5
28D
330
1E
100
AcDbEntity
  8
ADPDIM
 62
     3
100
AcDbDimension
  2
*D6
 10
-0.2247699165785165
 20
-0.0009286041644003
 30
0.0
 11
-0.6547699165785165
 21
0.1240713958355997
 31
0.0
 70
    32
 71
     5
 42
0.25
  3
Standard
100
AcDbAlignedDimension
 13
0.002211333645846
 23
0.2490713958355997
 33
0.0
 14
0.002211333645846
 24
-0.0009286041644003
 34
0.0
 50
90.0
100
AcDbRotatedDimension
1001
ACAD
1000
DSTYLE
1002
{
1070
   276
1070
     2
1070
    41
1040
0.125
1070
    73
1070
     0
1070
    74
1070
     0
1070
    78
1070
     3
1070
   140
1040
0.125
1070
   141
1040
0.1875
1070
   142
1040
0.125
1070
   147
1040
0.125
1070
   171
1070
     1
1070
   273
1070
     5
1070
   274
1070
     1
1070
   277
1070
     5
1070
   279
1070
     2
1070
   284
1070
     3
1070
   285
1070
     3
1070
   286
1070
     3
1002
}
  0
ENDSEC
  0
SECTION
  2
OBJECTS
  0
DICTIONARY
  5
C
330
0
100
AcDbDictionary
281
     1
  3
ACAD_COLOR
350
281
  3
ACAD_GROUP
350
D
  3
ACAD_LAYOUT
350
19
  3
ACAD_MATERIAL
350
26C
  3
ACAD_MLINESTYLE
350
16
  3
ACAD_PLOTSETTINGS
350
18
  3
ACAD_PLOTSTYLENAME
350
E
  3
ACAD_TABLESTYLE
350
282
  3
ACAD_VISUALSTYLE
350
270
  3
AcDbVariableDictionary
350
14E
  3
ASE_INDEX_DICTIONARY
350
2DA
  3
DWGPROPS
350
2FA
  0
DICTIONARY
  5
119
330
1E
100
AcDbDictionary
280
     1
281
     1
  3
ACAD_LAYOUTSELFREF
360
268
  0
DICTIONARY
  5
11B
330
1A
100
AcDbDictionary
280
     1
281
     1
  3
ACAD_LAYOUTSELFREF
360
267
  0
DICTIONARY
  5
281
102
{ACAD_REACTORS
330
C
102
}
330
C
100
AcDbDictionary
281
     1
  0
DICTIONARY
  5
D
102
{ACAD_REACTORS
330
C
102
}
330
C
100
AcDbDictionary
281
     1
  0
DICTIONARY
  5
19
102
{ACAD_REACTORS
330
C
102
}
330
C
100
AcDbDictionary
281
     1
  3
Layout1
350
1D
  3
Model
350
21
  0
DICTIONARY
  5
26C
102
{ACAD_REACTORS
330
C
102
}
330
C
100
AcDbDictionary
281
     1
  3
ByBlock
350
26E
  3
ByLayer
350
26D
  3
Global
350
26F
  0
DICTIONARY
  5
16
102
{ACAD_REACTORS
330
C
102
}
330
C
100
AcDbDictionary
281
     1
  3
Standard
350
17
  0
DICTIONARY
  5
18
102
{ACAD_REACTORS
330
C
102
}
330
C
100
AcDbDictionary
281
     1
  0
ACDBDICTIONARYWDFLT
  5
E
102
{ACAD_REACTORS
330
C
102
}
330
C
100
AcDbDictionary
281
     1
  3
Normal
350
F
100
AcDbDictionaryWithDefault
340
F
  0
DICTIONARY
  5
282
102
{ACAD_REACTORS
330
C
102
}
330
C
100
AcDbDictionary
281
     1
  3
Standard
350
283
  0
DICTIONARY
  5
270
102
{ACAD_REACTORS
330
C
102
}
330
C
100
AcDbDictionary
281
     1
  3
2dWireframe
350
276
  3
3D Hidden
350
278
  3
3dWireframe
350
277
  3
Basic
350
275
  3
Brighten
350
27C
  3
ColorChange
350
280
  3
Conceptual
350
279
  3
Dim
350
27B
  3
Facepattern
350
27F
  3
Flat
350
271
  3
FlatWithEdges
350
272
  3
Gouraud
350
273
  3
GouraudWithEdges
350
274
  3
Linepattern
350
27E
  3
Realistic
350
27A
  3
Thicken
350
27D
  0
DICTIONARY
  5
14E
102
{ACAD_REACTORS
330
C
102
}
330
C
100
AcDbDictionary
281
     1
  3
CTABLESTYLE
350
2F7
  3
DIMASSOC
350
150
  3
HIDETEXT
350
14F
  3
INDEXCTL
350
2F9
  3
SORTENTS
350
2F8
  0
DICTIONARY
  5
2DA
102
{ACAD_REACTORS
330
C
102
}
330
C
100
AcDbDictionary
281
     1
  3
ASEBlockHierarchyIndexRecord
350
2DC
1001
DCO15
1040
1568837386.876
  0
XRECORD
  5
2FA
102
{ACAD_REACTORS
330
C
102
}
330
C
100
AcDbXrecord
280
     1
  1
DWGPROPS COOKIE
  2

  3

  4

  6

  7

  8
Yu Hu
  9

300
=
301
=
302
=
303
=
304
=
305
=
306
=
307
=
308
=
309
=
 40
0.0182274421296296
 41
2450213.604877893
 42
2453961.051977731
  1

 90
        0
  0
XRECORD
  5
268
102
{ACAD_REACTORS
330
119
102
}
330
119
100
AcDbXrecord
280
     1
340
1E
  0
XRECORD
  5
267
102
{ACAD_REACTORS
330
11B
102
}
330
11B
100
AcDbXrecord
280
     1
340
1A
  0
LAYOUT
  5
1D
102
{ACAD_XDICTIONARY
360
2FB
102
}
102
{ACAD_REACTORS
330
19
102
}
330
19
100
AcDbPlotSettings
  1

  2
Fax
  4

  6

 40
0.0
 41
0.0
 42
0.0
 43
0.0
 44
0.0
 45
0.0
 46
0.0
 47
0.0
 48
0.0
 49
0.0
140
0.0
141
0.0
142
1.0
143
1.0
 70
   688
 72
     0
 73
     0
 74
     5
  7
Default R14 pen assignments.ctb
 75
    16
147
1.0
148
0.0
149
0.0
100
AcDbLayout
  1
Layout1
 70
     1
 71
     1
 10
0.0
 20
0.0
 11
12.0
 21
9.0
 12
0.0004882947541773
 22
1.000276130627782
 32
0.0
 14
1.000000000000000E+20
 24
1.000000000000000E+20
 34
1.000000000000000E+20
 15
-1.000000000000000E+20
 25
-1.000000000000000E+20
 35
-1.000000000000000E+20
146
0.0
 13
0.0
 23
0.0
 33
0.0
 16
1.0
 26
0.0
 36
0.0
 17
0.0
 27
1.0
 37
0.0
 76
     0
330
1A
  0
LAYOUT
  5
21
102
{ACAD_XDICTIONARY
360
2FD
102
}
102
{ACAD_REACTORS
330
19
102
}
330
19
100
AcDbPlotSettings
  1

  2
Fax
  4

  6

 40
0.0
 41
0.0
 42
0.0
 43
0.0
 44
0.0
 45
0.0
 46
0.0
 47
0.0
 48
0.0
 49
0.0
140
0.0
141
0.0
142
1.0
143
1.0
 70
  1712
 72
     0
 73
     0
 74
     0
  7
Default R14 pen assignments.ctb
 75
     0
147
1.0
148
0.0
149
0.0
100
AcDbLayout
  1
Model
 70
     1
 71
     0
 10
0.0
 20
0.0
 11
12.0
 21
9.0
 12
0.0
 22
0.0
 32
0.0
 14
0.0
 24
0.0
 34
0.0
 15
0.0
 25
0.0
 35
0.0
146
0.0
 13
0.0
 23
0.0
 33
0.0
 16
1.0
 26
0.0
 36
0.0
 17
0.0
 27
1.0
 37
0.0
 76
     0
330
1E
331
235
  0
MATERIAL
  5
26E
102
{ACAD_XDICTIONARY
360
301
102
}
102
{ACAD_REACTORS
330
26C
102
}
330
26C
100
AcDbMaterial
  1
ByBlock
  0
MATERIAL
  5
26D
102
{ACAD_XDICTIONARY
360
2FF
102
}
102
{ACAD_REACTORS
330
26C
102
}
330
26C
100
AcDbMaterial
  1
ByLayer
  0
MATERIAL
  5
26F
102
{ACAD_XDICTIONARY
360
303
102
}
102
{ACAD_REACTORS
330
26C
102
}
330
26C
100
AcDbMaterial
  1
Global
  0
MLINESTYLE
  5
17
102
{ACAD_REACTORS
330
16
102
}
330
16
100
AcDbMlineStyle
  2
STANDARD
 70
     0
  3

 62
   256
 51
90.0
 52
90.0
 71
     2
 49
0.5
 62
   256
  6
BYLAYER
 49
-0.5
 62
   256
  6
BYLAYER
  0
ACDBPLACEHOLDER
  5
F
102
{ACAD_REACTORS
330
E
102
}
330
E
  0
TABLESTYLE
  5
283
102
{ACAD_XDICTIONARY
360
305
102
}
102
{ACAD_REACTORS
330
282
102
}
330
282
100
AcDbTableStyle
  3
Standard
 70
     0
 71
     0
 40
0.06
 41
0.06
280
     0
281
     0
  7
STANDARD
140
0.18
170
     2
 62
     0
 63
     7
283
     0
274
    -2
284
     1
 64
     0
275
    -2
285
     1
 65
     0
276
    -2
286
     1
 66
     0
277
    -2
287
     1
 67
     0
278
    -2
288
     1
 68
     0
279
    -2
289
     1
 69
     0
  7
STANDARD
140
0.25
170
     5
 62
     0
 63
     7
283
     0
274
    -2
284
     1
 64
     0
275
    -2
285
     1
 65
     0
276
    -2
286
     1
 66
     0
277
    -2
287
     1
 67
     0
278
    -2
288
     1
 68
     0
279
    -2
289
     1
 69
     0
  7
STANDARD
140
0.18
170
     5
 62
     0
 63
     7
283
     0
274
    -2
284
     1
 64
     0
275
    -2
285
     1
 65
     0
276
    -2
286
     1
 66
     0
277
    -2
287
     1
 67
     0
278
    -2
288
     1
 68
     0
279
    -2
289
     1
 69
     0
  0
VISUALSTYLE
  5
276
102
{ACAD_REACTORS
330
270
102
}
330
270
100
AcDbVisualStyle
  2
2dWireframe
 70
     4
 71
     0
 72
     2
 73
     0
 90
        0
 40
-0.6
 41
-30.0
 62
     5
 63
     7
 74
     1
 91
        4
 64
     7
 65
   257
 75
     1
175
     1
 42
1.0
 92
        0
 66
   257
 43
1.0
 76
     1
 77
     6
 78
     2
 67
     7
 79
     5
170
     0
171
     0
290
     0
174
     0
 93
        1
 44
0.0
173
     0
291
     0
 45
0.0
1001
ACAD
1000
AcDbSavedByObjectVersion
1070
     0
  0
VISUALSTYLE
  5
278
102
{ACAD_REACTORS
330
270
102
}
330
270
100
AcDbVisualStyle
  2
3D Hidden
 70
     6
 71
     1
 72
     2
 73
     2
 90
        0
 40
-0.6
 41
-30.0
 62
     5
 63
     7
 74
     2
 91
        2
 64
     7
 65
   257
 75
     2
175
     1
 42
40.0
 92
        0
 66
   257
 43
1.0
 76
     1
 77
     6
 78
     2
 67
     7
 79
     3
170
     0
171
     0
290
     0
174
     0
 93
        1
 44
0.0
173
     0
291
     0
 45
0.0
1001
ACAD
1000
AcDbSavedByObjectVersion
1070
     0
  0
VISUALSTYLE
  5
277
102
{ACAD_REACTORS
330
270
102
}
330
270
100
AcDbVisualStyle
  2
3dWireframe
 70
     5
 71
     0
 72
     2
 73
     0
 90
        0
 40
-0.6
 41
-30.0
 62
     5
 63
     7
 74
     1
 91
        4
 64
     7
 65
   257
 75
     1
175
     1
 42
1.0
 92
        0
 66
   257
 43
1.0
 76
     1
 77
     6
 78
     2
 67
     7
 79
     5
170
     0
171
     0
290
     0
174
     0
 93
        1
 44
0.0
173
     0
291
     0
 45
0.0
1001
ACAD
1000
AcDbSavedByObjectVersion
1070
     0
  0
VISUALSTYLE
  5
275
102
{ACAD_REACTORS
330
270
102
}
330
270
100
AcDbVisualStyle
  2
Basic
 70
     7
 71
     1
 72
     0
 73
     1
 90
        0
 40
-0.6
 41
-30.0
 62
     5
 63
     7
 74
     0
 91
        4
 64
     7
 65
   257
 75
     1
175
     1
 42
1.0
 92
        8
 66
     7
 43
1.0
 76
     1
 77
     6
 78
     2
 67
     7
 79
     5
170
     0
171
     0
290
     0
174
     0
 93
        1
 44
0.0
173
     0
291
     1
 45
0.0
1001
ACAD
1000
AcDbSavedByObjectVersion
1070
     0
  0
VISUALSTYLE
  5
27C
102
{ACAD_REACTORS
330
270
102
}
330
270
100
AcDbVisualStyle
  2
Brighten
 70
    12
 71
     2
 72
     2
 73
     0
 90
        0
 40
-0.6
 41
-30.0
 62
     5
 63
     7
 74
     1
 91
        4
 64
     7
 65
   257
 75
     1
175
     1
 42
1.0
 92
        8
 66
     7
 43
1.0
 76
     1
 77
     6
 78
     2
 67
     7
 79
     5
170
     0
171
     0
290
     0
174
     0
 93
        1
 44
50.0
173
     0
291
     1
 45
0.0
1001
ACAD
1000
AcDbSavedByObjectVersion
1070
     0
  0
VISUALSTYLE
  5
280
102
{ACAD_REACTORS
330
270
102
}
330
270
100
AcDbVisualStyle
  2
ColorChange
 70
    16
 71
     2
 72
     2
 73
     3
 90
        0
 40
-0.6
 41
-30.0
 62
     5
 63
     8
 74
     1
 91
        4
 64
     7
 65
   257
 75
     1
175
     1
 42
1.0
 92
        8
 66
     8
 43
1.0
 76
     1
 77
     6
 78
     2
 67
     7
 79
     5
170
     0
171
     0
290
     0
174
     0
 93
        1
 44
0.0
173
     0
291
     1
 45
0.0
1001
ACAD
1000
AcDbSavedByObjectVersion
1070
     0
  0
VISUALSTYLE
  5
279
102
{ACAD_REACTORS
330
270
102
}
330
270
100
AcDbVisualStyle
  2
Conceptual
 70
     9
 71
     3
 72
     2
 73
     0
 90
        0
 40
-0.6
 41
-30.0
 62
     5
 63
     7
 74
     2
 91
        2
 64
     7
 65
   257
 75
     1
175
     1
 42
40.0
 92
        8
 66
     7
 43
1.0
 76
     1
 77
     6
 78
     2
 67
     7
 79
     3
170
     0
171
     0
290
     0
174
     0
 93
        1
 44
0.0
173
     0
291
     0
 45
0.0
1001
ACAD
1000
AcDbSavedByObjectVersion
1070
     0
  0
VISUALSTYLE
  5
27B
102
{ACAD_REACTORS
330
270
102
}
330
270
100
AcDbVisualStyle
  2
Dim
 70
    11
 71
     2
 72
     2
 73
     0
 90
        0
 40
-0.6
 41
-30.0
 62
     5
 63
     7
 74
     1
 91
        4
 64
     7
 65
   257
 75
     1
175
     1
 42
1.0
 92
        8
 66
     7
 43
1.0
 76
     1
 77
     6
 78
     2
 67
     7
 79
     5
170
     0
171
     0
290
     0
174
     0
 93
        1
 44
-50.0
173
     0
291
     1
 45
0.0
1001
ACAD
1000
AcDbSavedByObjectVersion
1070
     0
  0
VISUALSTYLE
  5
27F
102
{ACAD_REACTORS
330
270
102
}
330
270
100
AcDbVisualStyle
  2
Facepattern
 70
    15
 71
     2
 72
     2
 73
     0
 90
        0
 40
-0.6
 41
-30.0
 62
     5
 63
     7
 74
     1
 91
        4
 64
     7
 65
   257
 75
     1
175
     1
 42
1.0
 92
        8
 66
     7
 43
1.0
 76
     1
 77
     6
 78
     2
 67
     7
 79
     5
170
     0
171
     0
290
     0
174
     0
 93
        1
 44
0.0
173
     0
291
     1
 45
0.0
1001
ACAD
1000
AcDbSavedByObjectVersion
1070
     0
  0
VISUALSTYLE
  5
271
102
{ACAD_REACTORS
330
270
102
}
330
270
100
AcDbVisualStyle
  2
Flat
 70
     0
 71
     2
 72
     1
 73
     1
 90
        2
 40
-0.6
 41
30.0
 62
     5
 63
     7
 74
     0
 91
        4
 64
     7
 65
   257
 75
     1
175
     1
 42
1.0
 92
        8
 66
     7
 43
1.0
 76
     1
 77
     6
 78
     2
 67
     7
 79
     5
170
     0
171
     0
290
     0
174
     0
 93
       13
 44
0.0
173
     0
291
     1
 45
0.0
1001
ACAD
1000
AcDbSavedByObjectVersion
1070
     0
  0
VISUALSTYLE
  5
272
102
{ACAD_REACTORS
330
270
102
}
330
270
100
AcDbVisualStyle
  2
FlatWithEdges
 70
     1
 71
     2
 72
     1
 73
     1
 90
        2
 40
-0.6
 41
30.0
 62
     5
 63
     7
 74
     1
 91
        4
 64
     7
 65
   257
 75
     1
175
     1
 42
1.0
 92
        0
 66
   257
 43
1.0
 76
     1
 77
     6
 78
     2
 67
     7
 79
     5
170
     0
171
     0
290
     0
174
     0
 93
       13
 44
0.0
173
     0
291
     1
 45
0.0
1001
ACAD
1000
AcDbSavedByObjectVersion
1070
     0
  0
VISUALSTYLE
  5
273
102
{ACAD_REACTORS
330
270
102
}
330
270
100
AcDbVisualStyle
  2
Gouraud
 70
     2
 71
     2
 72
     2
 73
     1
 90
        2
 40
-0.6
 41
30.0
 62
     5
 63
     7
 74
     0
 91
        4
 64
     7
 65
   257
 75
     1
175
     1
 42
1.0
 92
        0
 66
     7
 43
1.0
 76
     1
 77
     6
 78
     2
 67
     7
 79
     5
170
     0
171
     0
290
     0
174
     0
 93
       13
 44
0.0
173
     0
291
     1
 45
0.0
1001
ACAD
1000
AcDbSavedByObjectVersion
1070
     0
  0
VISUALSTYLE
  5
274
102
{ACAD_REACTORS
330
270
102
}
330
270
100
AcDbVisualStyle
  2
GouraudWithEdges
 70
     3
 71
     2
 72
     2
 73
     1
 90
        2
 40
-0.6
 41
30.0
 62
     5
 63
     7
 74
     1
 91
        4
 64
     7
 65
   257
 75
     1
175
     1
 42
1.0
 92
        0
 66
   257
 43
1.0
 76
     1
 77
     6
 78
     2
 67
     7
 79
     5
170
     0
171
     0
290
     0
174
     0
 93
       13
 44
0.0
173
     0
291
     1
 45
0.0
1001
ACAD
1000
AcDbSavedByObjectVersion
1070
     0
  0
VISUALSTYLE
  5
27E
102
{ACAD_REACTORS
330
270
102
}
330
270
100
AcDbVisualStyle
  2
Linepattern
 70
    14
 71
     2
 72
     2
 73
     0
 90
        0
 40
-0.6
 41
-30.0
 62
     5
 63
     7
 74
     1
 91
        4
 64
     7
 65
   257
 75
     7
175
     7
 42
1.0
 92
        8
 66
     7
 43
1.0
 76
     1
 77
     6
 78
     2
 67
     7
 79
     5
170
     0
171
     0
290
     0
174
     0
 93
        1
 44
0.0
173
     0
291
     1
 45
0.0
1001
ACAD
1000
AcDbSavedByObjectVersion
1070
     0
  0
VISUALSTYLE
  5
27A
102
{ACAD_REACTORS
330
270
102
}
330
270
100
AcDbVisualStyle
  2
Realistic
 70
     8
 71
     2
 72
     2
 73
     0
 90
        0
 40
-0.6
 41
-30.0
 62
     5
 63
     7
 74
     1
 91
        0
 64
     7
 65
   257
 75
     1
175
     1
 42
1.0
 92
        8
 66
     8
 43
1.0
 76
     1
 77
     6
 78
     2
 67
     7
 79
     5
170
     0
171
     0
290
     0
174
     0
 93
       13
 44
0.0
173
     0
291
     0
 45
0.0
1001
ACAD
1000
AcDbSavedByObjectVersion
1070
     0
  0
VISUALSTYLE
  5
27D
102
{ACAD_REACTORS
330
270
102
}
330
270
100
AcDbVisualStyle
  2
Thicken
 70
    13
 71
     2
 72
     2
 73
     0
 90
        0
 40
-0.6
 41
-30.0
 62
     5
 63
     7
 74
     1
 91
        4
 64
     7
 65
   257
 75
     1
175
     1
 42
1.0
 92
       12
 66
     7
 43
1.0
 76
     1
 77
     6
 78
     2
 67
     7
 79
     5
170
     0
171
     0
290
     0
174
     0
 93
        1
 44
0.0
173
     0
291
     1
 45
0.0
1001
ACAD
1000
AcDbSavedByObjectVersion
1070
     0
  0
DICTIONARYVAR
  5
2F7
102
{ACAD_REACTORS
330
14E
102
}
330
14E
100
DictionaryVariables
280
     0
  1
STANDARD
  0
DICTIONARYVAR
  5
150
102
{ACAD_REACTORS
330
14E
102
}
330
14E
100
DictionaryVariables
280
     0
  1
2
  0
DICTIONARYVAR
  5
14F
102
{ACAD_REACTORS
330
14E
102
}
330
14E
100
DictionaryVariables
280
     0
  1
1
  0
DICTIONARYVAR
  5
2F9
102
{ACAD_REACTORS
330
14E
102
}
330
14E
100
DictionaryVariables
280
     0
  1
0
  0
DICTIONARYVAR
  5
2F8
102
{ACAD_REACTORS
330
14E
102
}
330
14E
100
DictionaryVariables
280
     0
  1
127
  0
XRECORD
  5
2DC
102
{ACAD_REACTORS
330
2DA
102
}
330
2DA
100
AcDbXrecord
280
     1
  0
DICTIONARY
  5
2FB
330
1D
100
AcDbDictionary
280
     1
281
     1
  3
ACAD_XREC_ROUNDTRIP
360
2FC
  0
DICTIONARY
  5
2FD
330
21
100
AcDbDictionary
280
     1
281
     1
  3
ACAD_XREC_ROUNDTRIP
360
2FE
  0
DICTIONARY
  5
301
330
26E
100
AcDbDictionary
280
     1
281
     1
  3
ACAD_XREC_ROUNDTRIP
360
302
  0
DICTIONARY
  5
2FF
330
26D
100
AcDbDictionary
280
     1
281
     1
  3
ACAD_XREC_ROUNDTRIP
360
300
  0
DICTIONARY
  5
303
330
26F
100
AcDbDictionary
280
     1
281
     1
  3
ACAD_XREC_ROUNDTRIP
360
304
  0
DICTIONARY
  5
305
330
283
100
AcDbDictionary
280
     1
281
     1
  3
ACAD_XREC_ROUNDTRIP
360
306
  0
XRECORD
  5
2FC
102
{ACAD_REACTORS
330
2FB
102
}
330
2FB
100
AcDbXrecord
280
     1
102
SHADEPLOT
 70
     0
102
SHADEPLOTRESLEVEL
 70
     2
102
SHADEPLOTCUSTOMDPI
 70
   300
  0
XRECORD
  5
2FE
102
{ACAD_REACTORS
330
2FD
102
}
330
2FD
100
AcDbXrecord
280
     1
102
SHADEPLOT
 70
     0
102
SHADEPLOTRESLEVEL
 70
     2
102
SHADEPLOTCUSTOMDPI
 70
   300
  0
XRECORD
  5
302
102
{ACAD_REACTORS
330
301
102
}
330
301
100
AcDbXrecord
280
     1
102
MATERIAL
148
0.0
149
0.0
149
0.0
 93
        0
 94
       63
282
     0
 72
     1
 77
     1
171
     1
175
     1
179
     1
273
     0
  0
XRECORD
  5
300
102
{ACAD_REACTORS
330
2FF
102
}
330
2FF
100
AcDbXrecord
280
     1
102
MATERIAL
148
0.0
149
0.0
149
0.0
 93
        0
 94
       63
282
     0
 72
     1
 77
     1
171
     1
175
     1
179
     1
273
     0
  0
XRECORD
  5
304
102
{ACAD_REACTORS
330
303
102
}
330
303
100
AcDbXrecord
280
     1
102
MATERIAL
148
0.0
149
0.0
149
0.0
 93
        0
 94
       63
282
     0
 72
     1
 77
     1
171
     1
175
     1
179
     1
273
     0
  0
XRECORD
  5
306
102
{ACAD_REACTORS
330
305
102
}
330
305
100
AcDbXrecord
280
     1
102
ACAD_ROUNDTRIP_PRE2007_TABLESTYLE
 90
      512
 91
        0
  1

 92
      512
 93
        0
  2

 94
      512
 95
        0
  3

  0
ENDSEC
  0
EOF
