  0
SECTION
  2
HEADER
  9
$ACADVER
  1
AC1015
  9
$ACADMAINTVER
 70
    20
  9
$DWGCODEPAGE
  3
ANSI_1252
  9
$INSBASE
 10
12.19283349755493
 20
13.52800056963815
 30
0.0
  9
$EXTMIN
 10
6.142479738040279
 20
12.43454347712242
 30
-0.0015258207003583
  9
$EXTMAX
 10
19.54861999538819
 20
17.13296092380068
 30
0.0000000349246037
  9
$LIMMIN
 10
-23.61579290080726
 20
-21.96805058542325
  9
$LIMMAX
 10
-4.61579290080726
 20
2.031949414576754
  9
$ORTHOMODE
 70
     1
  9
$REGENMODE
 70
     1
  9
$FILLMODE
 70
     1
  9
$QTEXTMODE
 70
     0
  9
$MIRRTEXT
 70
     1
  9
$LTSCALE
 40
1.0
  9
$ATTMODE
 70
     1
  9
$TEXTSIZE
 40
0.2
  9
$TRACEWID
 40
0.125
  9
$TEXTSTYLE
  7
STANDARD
  9
$CLAYER
  8
ADPDIM
  9
$CELTYPE
  6
CONTINUOUS
  9
$CECOLOR
 62
   256
  9
$CELTSCALE
 40
1.0
  9
$DISPSILH
 70
     0
  9
$DIMSCALE
 40
1.0
  9
$DIMASZ
 40
0.1875
  9
$DIMEXO
 40
0.0625
  9
$DIMDLI
 40
0.375
  9
$DIMRND
 40
0.0
  9
$DIMDLE
 40
0.0
  9
$DIMEXE
 40
0.1875
  9
$DIMTP
 40
0.0
  9
$DIMTM
 40
0.0
  9
$DIMTXT
 40
0.18
  9
$DIMCEN
 40
0.09375
  9
$DIMTSZ
 40
0.0
  9
$DIMTOL
 70
     0
  9
$DIMLIM
 70
     0
  9
$DIMTIH
 70
     1
  9
$DIMTOH
 70
     1
  9
$DIMSE1
 70
     0
  9
$DIMSE2
 70
     0
  9
$DIMTAD
 70
     0
  9
$DIMZIN
 70
     2
  9
$DIMBLK
  1

  9
$DIMASO
 70
     1
  9
$DIMSHO
 70
     1
  9
$DIMPOST
  1

  9
$DIMAPOST
  1

  9
$DIMALT
 70
     0
  9
$DIMALTD
 70
     2
  9
$DIMALTF
 40
25.4
  9
$DIMLFAC
 40
1.0
  9
$DIMTOFL
 70
     0
  9
$DIMTVP
 40
0.0
  9
$DIMTIX
 70
     0
  9
$DIMSOXD
 70
     0
  9
$DIMSAH
 70
     1
  9
$DIMBLK1
  1
OBLIQUE
  9
$DIMBLK2
  1
OBLIQUE
  9
$DIMSTYLE
  2
STANDARD
  9
$DIMCLRD
 70
     0
  9
$DIMCLRE
 70
     0
  9
$DIMCLRT
 70
     0
  9
$DIMTFAC
 40
1.0
  9
$DIMGAP
 40
0.09375
  9
$DIMJUST
 70
     0
  9
$DIMSD1
 70
     0
  9
$DIMSD2
 70
     0
  9
$DIMTOLJ
 70
     1
  9
$DIMTZIN
 70
     0
  9
$DIMALTZ
 70
     0
  9
$DIMALTTZ
 70
     0
  9
$DIMUPT
 70
     0
  9
$DIMDEC
 70
     3
  9
$DIMTDEC
 70
     4
  9
$DIMALTU
 70
     2
  9
$DIMALTTD
 70
     2
  9
$DIMTXSTY
  7
STANDARD
  9
$DIMAUNIT
 70
     0
  9
$DIMADEC
 70
     0
  9
$DIMALTRND
 40
0.0
  9
$DIMAZIN
 70
     0
  9
$DIMDSEP
 70
    46
  9
$DIMATFIT
 70
     3
  9
$DIMFRAC
 70
     2
  9
$DIMLDRBLK
  1
OBLIQUE
  9
$DIMLUNIT
 70
     5
  9
$DIMLWD
 70
    -2
  9
$DIMLWE
 70
    -2
  9
$DIMTMOVE
 70
     0
  9
$LUNITS
 70
     5
  9
$LUPREC
 70
     5
  9
$SKETCHINC
 40
0.1
  9
$FILLETRAD
 40
0.0
  9
$AUNITS
 70
     0
  9
$AUPREC
 70
     0
  9
$MENU
  1
acad
  9
$ELEVATION
 40
0.0
  9
$PELEVATION
 40
0.0
  9
$THICKNESS
 40
0.0
  9
$LIMCHECK
 70
     0
  9
$CHAMFERA
 40
0.0
  9
$CHAMFERB
 40
0.0
  9
$CHAMFERC
 40
0.0
  9
$CHAMFERD
 40
0.0
  9
$SKPOLY
 70
     0
  9
$TDCREATE
 40
2450358.977603010
  9
$TDUCREATE
 40
2450359.144269676
  9
$TDUPDATE
 40
2453984.974842743
  9
$TDUUPDATE
 40
2453985.141509410
  9
$TDINDWG
 40
0.0288472569
  9
$TDUSRTIMER
 40
0.0288472569
  9
$USRTIMER
 70
     1
  9
$ANGBASE
 50
0.0
  9
$ANGDIR
 70
     0
  9
$PDMODE
 70
    34
  9
$PDSIZE
 40
0.0
  9
$PLINEWID
 40
0.0
  9
$SPLFRAME
 70
     0
  9
$SPLINETYPE
 70
     6
  9
$SPLINESEGS
 70
     8
  9
$HANDSEED
  5
3DB
  9
$SURFTAB1
 70
     6
  9
$SURFTAB2
 70
     6
  9
$SURFTYPE
 70
     6
  9
$SURFU
 70
     6
  9
$SURFV
 70
     6
  9
$UCSBASE
  2

  9
$UCSNAME
  2

  9
$UCSORG
 10
0.0
 20
0.0
 30
0.0
  9
$UCSXDIR
 10
1.0
 20
0.0
 30
0.0
  9
$UCSYDIR
 10
0.0
 20
1.0
 30
0.0
  9
$UCSORTHOREF
  2

  9
$UCSORTHOVIEW
 70
     0
  9
$UCSORGTOP
 10
0.0
 20
0.0
 30
0.0
  9
$UCSORGBOTTOM
 10
0.0
 20
0.0
 30
0.0
  9
$UCSORGLEFT
 10
0.0
 20
0.0
 30
0.0
  9
$UCSORGRIGHT
 10
0.0
 20
0.0
 30
0.0
  9
$UCSORGFRONT
 10
0.0
 20
0.0
 30
0.0
  9
$UCSORGBACK
 10
0.0
 20
0.0
 30
0.0
  9
$PUCSBASE
  2

  9
$PUCSNAME
  2

  9
$PUCSORG
 10
0.0
 20
0.0
 30
0.0
  9
$PUCSXDIR
 10
1.0
 20
0.0
 30
0.0
  9
$PUCSYDIR
 10
0.0
 20
1.0
 30
0.0
  9
$PUCSORTHOREF
  2

  9
$PUCSORTHOVIEW
 70
     0
  9
$PUCSORGTOP
 10
0.0
 20
0.0
 30
0.0
  9
$PUCSORGBOTTOM
 10
0.0
 20
0.0
 30
0.0
  9
$PUCSORGLEFT
 10
0.0
 20
0.0
 30
0.0
  9
$PUCSORGRIGHT
 10
0.0
 20
0.0
 30
0.0
  9
$PUCSORGFRONT
 10
0.0
 20
0.0
 30
0.0
  9
$PUCSORGBACK
 10
0.0
 20
0.0
 30
0.0
  9
$USERI1
 70
     0
  9
$USERI2
 70
     0
  9
$USERI3
 70
     0
  9
$USERI4
 70
     0
  9
$USERI5
 70
     0
  9
$USERR1
 40
0.0
  9
$USERR2
 40
0.0
  9
$USERR3
 40
0.0
  9
$USERR4
 40
0.0
  9
$USERR5
 40
0.0
  9
$WORLDVIEW
 70
     1
  9
$SHADEDGE
 70
     3
  9
$SHADEDIF
 70
    70
  9
$TILEMODE
 70
     1
  9
$MAXACTVP
 70
    15
  9
$PINSBASE
 10
0.0
 20
0.0
 30
0.0
  9
$PLIMCHECK
 70
     0
  9
$PEXTMIN
 10
1.000000000000000E+20
 20
1.000000000000000E+20
 30
1.000000000000000E+20
  9
$PEXTMAX
 10
-1.000000000000000E+20
 20
-1.000000000000000E+20
 30
-1.000000000000000E+20
  9
$PLIMMIN
 10
-21.61579290080726
 20
-19.96805058542324
  9
$PLIMMAX
 10
-9.61579290080726
 20
-10.96805058542324
  9
$UNITMODE
 70
     0
  9
$VISRETAIN
 70
     0
  9
$PLINEGEN
 70
     0
  9
$PSLTSCALE
 70
     1
  9
$TREEDEPTH
 70
  3020
  9
$CMLSTYLE
  2
STANDARD
  9
$CMLJUST
 70
     0
  9
$CMLSCALE
 40
1.0
  9
$PROXYGRAPHICS
 70
     1
  9
$MEASUREMENT
 70
     0
  9
$CELWEIGHT
370
    -1
  9
$ENDCAPS
280
     0
  9
$JOINSTYLE
280
     0
  9
$LWDISPLAY
290
     0
  9
$INSUNITS
 70
     0
  9
$HYPERLINKBASE
  1

  9
$STYLESHEET
  1

  9
$XEDIT
290
     1
  9
$CEPSNTYPE
380
     0
  9
$PSTYLEMODE
290
     1
  9
$FINGERPRINTGUID
  2
{48396F55-3A84-404E-8852-659B5FDCC4B3}
  9
$VERSIONGUID
  2
{13BAAD4F-1C4F-4BD7-AB29-05D6E20C6F29}
  9
$EXTNAMES
290
     1
  9
$PSVPSCALE
 40
0.0
  9
$OLESTARTUP
290
     0
  0
ENDSEC
  0
SECTION
  2
CLASSES
  0
CLASS
  1
ACDBDICTIONARYWDFLT
  2
AcDbDictionaryWithDefault
  3
ObjectDBX Classes
 90
        0
280
     0
281
     0
  0
CLASS
  1
ACDBPLACEHOLDER
  2
AcDbPlaceHolder
  3
ObjectDBX Classes
 90
        0
280
     0
281
     0
  0
CLASS
  1
LAYOUT
  2
AcDbLayout
  3
ObjectDBX Classes
 90
        0
280
     0
281
     0
  0
CLASS
  1
DICTIONARYVAR
  2
AcDbDictionaryVar
  3
ObjectDBX Classes
 90
        0
280
     0
281
     0
  0
CLASS
  1
MATERIAL
  2
AcDbMaterial
  3
ObjectDBX Classes
 90
     1024
280
     0
281
     0
  0
CLASS
  1
VISUALSTYLE
  2
AcDbVisualStyle
  3
ObjectDBX Classes
 90
     4095
280
     0
281
     0
  0
CLASS
  1
TABLESTYLE
  2
AcDbTableStyle
  3
ObjectDBX Classes
 90
     4095
280
     0
281
     0
  0
ENDSEC
  0
SECTION
  2
TABLES
  0
TABLE
  2
VPORT
  5
12
330
0
100
AcDbSymbolTable
 70
     1
  0
VPORT
  5
268
330
12
100
AcDbSymbolTableRecord
100
AcDbViewportTableRecord
  2
*Active
 70
     0
 10
0.0
 20
0.0
 11
1.0
 21
1.0
 12
34.4613427675215
 22
34.75180278588479
 13
0.0
 23
0.0
 14
1.0
 24
1.0
 15
1.0
 25
1.0
 16
0.0
 26
0.0
 36
1.0
 17
-21.61579290080726
 27
-19.96805058542324
 37
0.0
 40
7.813686865097637
 41
1.726930320150659
 42
50.0
 43
0.0
 44
0.0
 50
0.0
 51
0.0
 71
     0
 72
   100
 73
     1
 74
     3
 75
     0
 76
     0
 77
     0
 78
     0
281
     0
 65
     1
110
0.0
120
0.0
130
0.0
111
1.0
121
0.0
131
0.0
112
0.0
122
1.0
132
0.0
 79
     0
146
0.0
  0
ENDTAB
  0
TABLE
  2
LTYPE
  5
E
330
0
100
AcDbSymbolTable
 70
     2
  0
LTYPE
  5
F
330
E
100
AcDbSymbolTableRecord
100
AcDbLinetypeTableRecord
  2
BYBLOCK
 70
     0
  3

 72
    65
 73
     0
 40
0.0
  0
LTYPE
  5
6
330
E
100
AcDbSymbolTableRecord
100
AcDbLinetypeTableRecord
  2
BYLAYER
 70
     0
  3

 72
    65
 73
     0
 40
0.0
  0
LTYPE
  5
5
330
E
100
AcDbSymbolTableRecord
100
AcDbLinetypeTableRecord
  2
CONTINUOUS
 70
     0
  3
Solid line
 72
    65
 73
     0
 40
0.0
  0
LTYPE
  5
20
330
E
100
AcDbSymbolTableRecord
100
AcDbLinetypeTableRecord
  2
HIDDEN2
 70
     0
  3
_ _ _ _ _ _ _ _ _ _ _ _ _ _ _ _ _ _ _ _ _ _ _ _
 72
    65
 73
     2
 40
0.1875
 49
0.125
 74
     0
 49
-0.0625
 74
     0
  0
ENDTAB
  0
TABLE
  2
LAYER
  5
B
330
0
100
AcDbSymbolTable
 70
     5
  0
LAYER
  5
4
330
B
100
AcDbSymbolTableRecord
100
AcDbLayerTableRecord
  2
0
 70
     0
 62
     7
  6
CONTINUOUS
370
    -3
390
80
  0
LAYER
  5
36
330
B
100
AcDbSymbolTableRecord
100
AcDbLayerTableRecord
  2
DEFPOINTS
 70
     0
 62
    -7
  6
CONTINUOUS
290
     0
370
    -3
390
80
  0
LAYER
  5
1B
330
B
100
AcDbSymbolTableRecord
100
AcDbLayerTableRecord
  2
ADPDIM
 70
     0
 62
     3
  6
CONTINUOUS
370
    -3
390
80
  0
LAYER
  5
24
330
B
100
AcDbSymbolTableRecord
100
AcDbLayerTableRecord
  2
ADP1DETAIL
 70
     0
 62
     7
  6
CONTINUOUS
370
    -3
390
80
  0
LAYER
  5
1F
330
B
100
AcDbSymbolTableRecord
100
AcDbLayerTableRecord
  2
ADP2DETAIL
 70
     0
 62
     5
  6
CONTINUOUS
370
    -3
390
80
  0
ENDTAB
  0
TABLE
  2
STYLE
  5
C
330
0
100
AcDbSymbolTable
 70
     2
  0
STYLE
  5
D
330
C
100
AcDbSymbolTableRecord
100
AcDbTextStyleTableRecord
  2
STANDARD
 70
     0
 40
0.0
 41
1.0
 50
0.0
 71
     0
 42
0.2
  3
txt
  4

  0
STYLE
  5
87
330
C
100
AcDbSymbolTableRecord
100
AcDbTextStyleTableRecord
  2
ARIAL_WIDE
 70
     0
 40
0.0
 41
1.25
 50
0.0
 71
     0
 42
0.2
  3
ARIAL.TTF
  4

1001
ACAD
1000
Arial
1071
       34
  0
ENDTAB
  0
TABLE
  2
VIEW
  5
10
330
0
100
AcDbSymbolTable
 70
     0
  0
ENDTAB
  0
TABLE
  2
UCS
  5
11
330
0
100
AcDbSymbolTable
 70
     0
  0
ENDTAB
  0
TABLE
  2
APPID
  5
14
330
0
100
AcDbSymbolTable
 70
     1
  0
APPID
  5
15
330
14
100
AcDbSymbolTableRecord
100
AcDbRegAppTableRecord
  2
ACAD
 70
     0
  0
ENDTAB
  0
TABLE
  2
DIMSTYLE
  5
16
330
0
100
AcDbSymbolTable
 70
     1
100
AcDbDimStyleTable
 71
     0
  0
DIMSTYLE
105
1D
102
{ACAD_REACTORS
330
28
330
31E
330
31F
330
341
102
}
330
16
100
AcDbSymbolTableRecord
100
AcDbDimStyleTableRecord
  2
STANDARD
 70
     0
340
D
  0
ENDTAB
  0
TABLE
  2
BLOCK_RECORD
  5
1
330
0
100
AcDbSymbolTable
 70
    11
  0
BLOCK_RECORD
  5
2
102
{ACAD_XDICTIONARY
360
103
102
}
330
1
100
AcDbSymbolTableRecord
100
AcDbBlockTableRecord
  2
*MODEL_SPACE
340
83
  0
BLOCK_RECORD
  5
8
102
{ACAD_XDICTIONARY
360
105
102
}
330
1
100
AcDbSymbolTableRecord
100
AcDbBlockTableRecord
  2
*PAPER_SPACE
340
84
  0
BLOCK_RECORD
  5
2F
330
1
100
AcDbSymbolTableRecord
100
AcDbBlockTableRecord
  2
_OBLIQUE
340
0
102
{BLKREFS
331
2A0
331
2A1
331
2AA
331
2AB
331
38B
331
38C
102
}
  0
BLOCK_RECORD
  5
107
330
1
100
AcDbSymbolTableRecord
100
AcDbBlockTableRecord
  2
*D1
340
0
  0
BLOCK_RECORD
  5
116
330
1
100
AcDbSymbolTableRecord
100
AcDbBlockTableRecord
  2
*D2
340
0
  0
BLOCK_RECORD
  5
123
330
1
100
AcDbSymbolTableRecord
100
AcDbBlockTableRecord
  2
*D3
340
0
  0
BLOCK_RECORD
  5
2CE
330
1
100
AcDbSymbolTableRecord
100
AcDbBlockTableRecord
  2
*D4
340
0
  0
BLOCK_RECORD
  5
2DB
330
1
100
AcDbSymbolTableRecord
100
AcDbBlockTableRecord
  2
*D5
340
0
  0
BLOCK_RECORD
  5
2E8
330
1
100
AcDbSymbolTableRecord
100
AcDbBlockTableRecord
  2
*D6
340
0
  0
BLOCK_RECORD
  5
342
330
1
100
AcDbSymbolTableRecord
100
AcDbBlockTableRecord
  2
*D8
340
0
  0
BLOCK_RECORD
  5
34F
330
1
100
AcDbSymbolTableRecord
100
AcDbBlockTableRecord
  2
*D9
340
0
  0
BLOCK_RECORD
  5
35C
330
1
100
AcDbSymbolTableRecord
100
AcDbBlockTableRecord
  2
*D10
340
0
  0
ENDTAB
  0
ENDSEC
  0
SECTION
  2
BLOCKS
  0
BLOCK
  5
3
330
2
100
AcDbEntity
  8
0
100
AcDbBlockBegin
  2
*MODEL_SPACE
 70
     0
 10
0.0
 20
0.0
 30
0.0
  3
*MODEL_SPACE
  1

  0
ENDBLK
  5
7
330
2
100
AcDbEntity
  8
0
100
AcDbBlockEnd
  0
BLOCK
  5
9
330
8
100
AcDbEntity
 67
     1
  8
0
100
AcDbBlockBegin
  2
*PAPER_SPACE
 70
     0
 10
0.0
 20
0.0
 30
0.0
  3
*PAPER_SPACE
  1

  0
ENDBLK
  5
A
330
8
100
AcDbEntity
 67
     1
  8
0
100
AcDbBlockEnd
  0
BLOCK
  5
31
330
2F
100
AcDbEntity
  8
0
100
AcDbBlockBegin
  2
_OBLIQUE
 70
     0
 10
0.0
 20
0.0
 30
0.0
  3
_OBLIQUE
  1

  0
LINE
  5
30
330
2F
100
AcDbEntity
  8
0
  6
ByBlock
 62
     0
100
AcDbLine
 10
-0.5
 20
-0.5
 30
0.0
 11
0.5
 21
0.5
 31
0.0
  0
ENDBLK
  5
32
330
2F
100
AcDbEntity
  8
0
100
AcDbBlockEnd
  0
BLOCK
  5
112
330
107
100
AcDbEntity
  8
0
100
AcDbBlockBegin
  2
*D1
 70
     1
 10
0.0
 20
0.0
 30
0.0
  3
*D1
  1

  0
LINE
  5
387
330
107
100
AcDbEntity
  8
ADPDIM
  6
Continuous
 62
     0
370
    -2
100
AcDbLine
 10
12.19283349755493
 20
13.84599518168933
 30
0.0
 11
12.19283349755493
 21
13.43005782655772
 31
0.0
  0
LINE
  5
388
330
107
100
AcDbEntity
  8
ADPDIM
  6
Continuous
 62
     0
370
    -2
100
AcDbLine
 10
15.81787537248374
 20
14.21975995192845
 30
0.0
 11
15.81787537248374
 21
13.43005782655772
 31
0.0
  0
LINE
  5
389
330
107
100
AcDbEntity
  8
ADPDIM
  6
Continuous
 62
     0
370
    -2
100
AcDbLine
 10
12.19283349755493
 20
13.61755782655772
 30
0.0
 11
13.49160443501933
 21
13.61755782655772
 31
0.0
  0
LINE
  5
38A
330
107
100
AcDbEntity
  8
ADPDIM
  6
Continuous
 62
     0
370
    -2
100
AcDbLine
 10
15.81787537248374
 20
13.61755782655772
 30
0.0
 11
14.51910443501933
 21
13.61755782655772
 31
0.0
  0
INSERT
  5
38B
330
107
100
AcDbEntity
  8
ADPDIM
  6
Continuous
 62
     0
370
    -2
100
AcDbBlockReference
  2
_OBLIQUE
 10
12.19283349755493
 20
13.61755782655772
 30
0.0
 41
0.1875
 42
0.1875
 43
0.1875
 50
180.0
  0
INSERT
  5
38C
330
107
100
AcDbEntity
  8
ADPDIM
  6
Continuous
 62
     0
370
    -2
100
AcDbBlockReference
  2
_OBLIQUE
 10
15.81787537248374
 20
13.61755782655772
 30
0.0
 41
0.1875
 42
0.1875
 43
0.1875
  0
MTEXT
  5
38D
330
107
100
AcDbEntity
  8
ADPDIM
  6
Continuous
 62
     0
100
AcDbMText
 10
14.00535443501933
 20
13.61755782655772
 30
0.0
 40
0.18
 41
0.0
 71
     5
 72
     1
  1
\A1;3 5/8
 73
     1
 44
1.0
1001
ACAD
1000
MTEXTBEGIN
1070
    73
1070
     1
1070
    44
1040
1.0
1070
    74
1070
     0
1000
MTEXTEND
  0
POINT
  5
38E
330
107
100
AcDbEntity
  8
DEFPOINTS
  6
Continuous
 62
     0
100
AcDbPoint
 10
12.19283349755493
 20
13.90849518168933
 30
0.0
  0
POINT
  5
38F
330
107
100
AcDbEntity
  8
DEFPOINTS
  6
Continuous
 62
     0
100
AcDbPoint
 10
15.81787537248374
 20
14.28225995192845
 30
0.0
  0
POINT
  5
390
330
107
100
AcDbEntity
  8
DEFPOINTS
  6
Continuous
 62
     0
100
AcDbPoint
 10
15.81787537248374
 20
13.61755782655772
 30
0.0
  0
ENDBLK
  5
113
330
107
100
AcDbEntity
  8
0
100
AcDbBlockEnd
  0
BLOCK
  5
121
330
116
100
AcDbEntity
  8
0
100
AcDbBlockBegin
  2
*D2
 70
     1
 10
0.0
 20
0.0
 30
0.0
  3
*D2
  1

  0
LINE
  5
29C
330
116
100
AcDbEntity
  8
ADPDIM
 62
     0
100
AcDbLine
 10
9.656937234301697
 20
13.97890961193061
 30
0.0
 11
9.656937234301697
 21
14.74161380502247
 31
0.0
  0
LINE
  5
29D
330
116
100
AcDbEntity
  8
ADPDIM
 62
     0
100
AcDbLine
 10
11.78203455905209
 20
13.97890961193061
 30
0.0
 11
11.78203455905209
 21
14.74161380502247
 31
0.0
  0
LINE
  5
29E
330
116
100
AcDbEntity
  8
ADPDIM
 62
     0
100
AcDbLine
 10
9.656937234301697
 20
14.55411380502247
 30
0.0
 11
10.23573589667689
 21
14.55411380502247
 31
0.0
  0
LINE
  5
29F
330
116
100
AcDbEntity
  8
ADPDIM
 62
     0
100
AcDbLine
 10
11.78203455905209
 20
14.55411380502247
 30
0.0
 11
11.20323589667689
 21
14.55411380502247
 31
0.0
  0
INSERT
  5
2A0
330
116
100
AcDbEntity
  8
ADPDIM
 62
     0
100
AcDbBlockReference
  2
_OBLIQUE
 10
9.656937234301697
 20
14.55411380502247
 30
0.0
 41
0.1875
 42
0.1875
 43
0.1875
 50
180.0
  0
INSERT
  5
2A1
330
116
100
AcDbEntity
  8
ADPDIM
 62
     0
100
AcDbBlockReference
  2
_OBLIQUE
 10
11.78203455905209
 20
14.55411380502247
 30
0.0
 41
0.1875
 42
0.1875
 43
0.1875
  0
MTEXT
  5
2A2
330
116
100
AcDbEntity
  8
ADPDIM
 62
     0
100
AcDbMText
 10
10.71948589667689
 20
14.55411380502247
 30
0.0
 40
0.18
 41
0.0
 71
     5
 72
     1
  1
\A1;2 1/8
 73
     1
 44
1.0
1001
ACAD
1000
MTEXTBEGIN
1070
    73
1070
     1
1070
    44
1040
1.0
1070
    74
1070
     0
1000
MTEXTEND
  0
POINT
  5
2A3
330
116
100
AcDbEntity
  8
DEFPOINTS
 62
     0
100
AcDbPoint
 10
9.656937234301697
 20
13.91640961193061
 30
0.0
  0
POINT
  5
2A4
330
116
100
AcDbEntity
  8
DEFPOINTS
 62
     0
100
AcDbPoint
 10
11.78203455905209
 20
13.91640961193061
 30
0.0
  0
POINT
  5
2A5
330
116
100
AcDbEntity
  8
DEFPOINTS
 62
     0
100
AcDbPoint
 10
11.78203455905209
 20
14.55411380502247
 30
0.0
  0
ENDBLK
  5
122
330
116
100
AcDbEntity
  8
0
100
AcDbBlockEnd
  0
BLOCK
  5
12E
330
123
100
AcDbEntity
  8
0
100
AcDbBlockBegin
  2
*D3
 70
     1
 10
0.0
 20
0.0
 30
0.0
  3
*D3
  1

  0
LINE
  5
2A6
330
123
100
AcDbEntity
  8
ADPDIM
 62
     0
100
AcDbLine
 10
9.933577036440912
 20
13.46626587783817
 30
0.0
 11
9.933577036440912
 21
13.12761412288361
 31
0.0
  0
LINE
  5
2A7
330
123
100
AcDbEntity
  8
ADPDIM
 62
     0
100
AcDbLine
 10
11.49282017626115
 20
13.46626587783817
 30
0.0
 11
11.49282017626115
 21
13.12761412288361
 31
0.0
  0
LINE
  5
2A8
330
123
100
AcDbEntity
  8
ADPDIM
 62
     0
100
AcDbLine
 10
9.933577036440912
 20
13.31511412288362
 30
0.0
 11
10.25944860635103
 21
13.31511412288362
 31
0.0
  0
LINE
  5
2A9
330
123
100
AcDbEntity
  8
ADPDIM
 62
     0
100
AcDbLine
 10
11.49282017626115
 20
13.31511412288362
 30
0.0
 11
11.16694860635103
 21
13.31511412288362
 31
0.0
  0
INSERT
  5
2AA
330
123
100
AcDbEntity
  8
ADPDIM
 62
     0
100
AcDbBlockReference
  2
_OBLIQUE
 10
9.933577036440912
 20
13.31511412288362
 30
0.0
 41
0.1875
 42
0.1875
 43
0.1875
 50
180.0
  0
INSERT
  5
2AB
330
123
100
AcDbEntity
  8
ADPDIM
 62
     0
100
AcDbBlockReference
  2
_OBLIQUE
 10
11.49282017626115
 20
13.31511412288362
 30
0.0
 41
0.1875
 42
0.1875
 43
0.1875
  0
MTEXT
  5
2AC
330
123
100
AcDbEntity
  8
ADPDIM
 62
     0
100
AcDbMText
 10
10.71319860635103
 20
13.31511412288362
 30
0.0
 40
0.18
 41
0.0
 71
     5
 72
     1
  1
\A1;1 1/2
 73
     1
 44
1.0
1001
ACAD
1000
MTEXTBEGIN
1070
    73
1070
     1
1070
    44
1040
1.0
1070
    74
1070
     0
1000
MTEXTEND
  0
POINT
  5
2AD
330
123
100
AcDbEntity
  8
DEFPOINTS
 62
     0
100
AcDbPoint
 10
9.933577036440912
 20
13.52876587783817
 30
0.0
  0
POINT
  5
2AE
330
123
100
AcDbEntity
  8
DEFPOINTS
 62
     0
100
AcDbPoint
 10
11.49282017626115
 20
13.52876587783817
 30
0.0
  0
POINT
  5
2AF
330
123
100
AcDbEntity
  8
DEFPOINTS
 62
     0
100
AcDbPoint
 10
11.49282017626115
 20
13.31511412288362
 30
0.0
  0
ENDBLK
  5
12F
330
123
100
AcDbEntity
  8
0
100
AcDbBlockEnd
  0
BLOCK
  5
2CF
330
2CE
100
AcDbEntity
  8
0
100
AcDbBlockBegin
  2
*D4
 70
     1
 10
0.0
 20
0.0
 30
0.0
  3
*D4
  1

  0
LINE
  5
2D0
330
2CE
100
AcDbEntity
  8
ADPDIM
 62
     0
370
    -2
100
AcDbLine
 10
14.35211516547279
 20
-6.548316702674148
 30
0.0
 11
14.35211516547279
 21
-5.967210988905616
 31
0.0
  0
LINE
  5
2D1
330
2CE
100
AcDbEntity
  8
ADPDIM
 62
     0
370
    -2
100
AcDbLine
 10
16.47711516547279
 20
-6.548316702674148
 30
0.0
 11
16.47711516547279
 21
-5.967210988905616
 31
0.0
  0
LINE
  5
2D2
330
2CE
100
AcDbEntity
  8
ADPDIM
 62
     0
370
    -2
100
AcDbLine
 10
14.35211516547279
 20
-6.147210988905616
 30
0.0
 11
15.01878183213945
 21
-6.147210988905616
 31
0.0
  0
LINE
  5
2D3
330
2CE
100
AcDbEntity
  8
ADPDIM
 62
     0
370
    -2
100
AcDbLine
 10
16.47711516547279
 20
-6.147210988905616
 30
0.0
 11
15.81044849880612
 21
-6.147210988905616
 31
0.0
  0
LINE
  5
2D4
330
2CE
100
AcDbEntity
  8
ADPDIM
 62
     0
370
    -2
100
AcDbLine
 10
16.35211516547279
 20
-6.272210988905616
 30
0.0
 11
16.60211516547279
 21
-6.022210988905616
 31
0.0
  0
LINE
  5
2D5
330
2CE
100
AcDbEntity
  8
ADPDIM
 62
     0
370
    -2
100
AcDbLine
 10
14.22711516547279
 20
-6.272210988905616
 30
0.0
 11
14.47711516547279
 21
-6.022210988905616
 31
0.0
  0
MTEXT
  5
2D6
330
2CE
100
AcDbEntity
  8
ADPDIM
 62
     0
100
AcDbMText
 10
15.41461516547279
 20
-6.147210988905616
 30
0.0
 40
0.125
 41
0.0
 71
     5
 72
     1
  1
\A1;2 1/8
 73
     1
 44
1.0
1001
ACAD
1000
MTEXTBEGIN
1070
    73
1070
     1
1070
    44
1040
1.0
1070
    74
1070
     0
1000
MTEXTEND
  0
POINT
  5
2D7
330
2CE
100
AcDbEntity
  8
DEFPOINTS
 62
     0
100
AcDbPoint
 10
14.35211516547279
 20
-6.610816702674148
 30
0.0
  0
POINT
  5
2D8
330
2CE
100
AcDbEntity
  8
DEFPOINTS
 62
     0
100
AcDbPoint
 10
16.47711516547279
 20
-6.610816702674148
 30
0.0
  0
POINT
  5
2D9
330
2CE
100
AcDbEntity
  8
DEFPOINTS
 62
     0
100
AcDbPoint
 10
16.47711516547279
 20
-6.147210988905616
 30
0.0
  0
ENDBLK
  5
2DA
330
2CE
100
AcDbEntity
  8
0
100
AcDbBlockEnd
  0
BLOCK
  5
2DC
330
2DB
100
AcDbEntity
  8
0
100
AcDbBlockBegin
  2
*D5
 70
     1
 10
0.0
 20
0.0
 30
0.0
  3
*D5
  1

  0
LINE
  5
2DD
330
2DB
100
AcDbEntity
  8
ADPDIM
 62
     0
370
    -2
100
AcDbLine
 10
14.63611434022805
 20
-7.13395347853787
 30
0.0
 11
14.63611434022805
 21
-7.837732172021564
 31
0.0
  0
LINE
  5
2DE
330
2DB
100
AcDbEntity
  8
ADPDIM
 62
     0
370
    -2
100
AcDbLine
 10
16.19811434022805
 20
-7.062497362476356
 30
0.0
 11
16.19811434022805
 21
-7.837732172021564
 31
0.0
  0
LINE
  5
2DF
330
2DB
100
AcDbEntity
  8
ADPDIM
 62
     0
370
    -2
100
AcDbLine
 10
14.63611434022805
 20
-7.657732172021564
 30
0.0
 11
14.97961434022805
 21
-7.657732172021564
 31
0.0
  0
LINE
  5
2E0
330
2DB
100
AcDbEntity
  8
ADPDIM
 62
     0
370
    -2
100
AcDbLine
 10
16.19811434022805
 20
-7.657732172021564
 30
0.0
 11
15.85461434022805
 21
-7.657732172021564
 31
0.0
  0
LINE
  5
2E1
330
2DB
100
AcDbEntity
  8
ADPDIM
 62
     0
370
    -2
100
AcDbLine
 10
16.07311434022805
 20
-7.782732172021564
 30
0.0
 11
16.32311434022805
 21
-7.532732172021564
 31
0.0
  0
LINE
  5
2E2
330
2DB
100
AcDbEntity
  8
ADPDIM
 62
     0
370
    -2
100
AcDbLine
 10
14.51111434022805
 20
-7.782732172021564
 30
0.0
 11
14.76111434022805
 21
-7.532732172021564
 31
0.0
  0
MTEXT
  5
2E3
330
2DB
100
AcDbEntity
  8
ADPDIM
 62
     0
100
AcDbMText
 10
15.41711434022805
 20
-7.657732172021564
 30
0.0
 40
0.125
 41
0.0
 71
     5
 72
     1
  1
\A1;1 9/16
 73
     1
 44
1.0
1001
ACAD
1000
MTEXTBEGIN
1070
    73
1070
     1
1070
    44
1040
1.0
1070
    74
1070
     0
1000
MTEXTEND
  0
POINT
  5
2E4
330
2DB
100
AcDbEntity
  8
DEFPOINTS
 62
     0
100
AcDbPoint
 10
14.63611434022805
 20
-7.07145347853787
 30
0.0
  0
POINT
  5
2E5
330
2DB
100
AcDbEntity
  8
DEFPOINTS
 62
     0
100
AcDbPoint
 10
16.19811434022805
 20
-6.999997362476356
 30
0.0
  0
POINT
  5
2E6
330
2DB
100
AcDbEntity
  8
DEFPOINTS
 62
     0
100
AcDbPoint
 10
16.19811434022805
 20
-7.657732172021564
 30
0.0
  0
ENDBLK
  5
2E7
330
2DB
100
AcDbEntity
  8
0
100
AcDbBlockEnd
  0
BLOCK
  5
2E9
330
2E8
100
AcDbEntity
  8
0
 62
     3
100
AcDbBlockBegin
  2
*D6
 70
     1
 10
0.0
 20
0.0
 30
0.0
  3
*D6
  1

  0
LINE
  5
2EA
330
2E8
100
AcDbEntity
  8
ADPDIM
 62
     0
370
    -2
100
AcDbLine
 10
14.75115263635602
 20
-6.976042852406795
 30
0.0
 11
14.75115263635602
 21
-7.365071377413443
 31
0.0
  0
LINE
  5
2EB
330
2E8
100
AcDbEntity
  8
ADPDIM
 62
     0
370
    -2
100
AcDbLine
 10
16.06365263635602
 20
-6.976042852406795
 30
0.0
 11
16.06365263635602
 21
-7.365071377413443
 31
0.0
  0
LINE
  5
2EC
330
2E8
100
AcDbEntity
  8
ADPDIM
 62
     0
370
    -2
100
AcDbLine
 10
14.75115263635602
 20
-7.185071377413443
 30
0.0
 11
14.96990263635602
 21
-7.185071377413443
 31
0.0
  0
LINE
  5
2ED
330
2E8
100
AcDbEntity
  8
ADPDIM
 62
     0
370
    -2
100
AcDbLine
 10
16.06365263635602
 20
-7.185071377413443
 30
0.0
 11
15.84490263635602
 21
-7.185071377413443
 31
0.0
  0
LINE
  5
2EE
330
2E8
100
AcDbEntity
  8
ADPDIM
 62
     0
370
    -2
100
AcDbLine
 10
15.93865263635602
 20
-7.310071377413443
 30
0.0
 11
16.18865263635601
 21
-7.060071377413443
 31
0.0
  0
LINE
  5
2EF
330
2E8
100
AcDbEntity
  8
ADPDIM
 62
     0
370
    -2
100
AcDbLine
 10
14.62615263635601
 20
-7.310071377413443
 30
0.0
 11
14.87615263635602
 21
-7.060071377413443
 31
0.0
  0
MTEXT
  5
2F0
330
2E8
100
AcDbEntity
  8
ADPDIM
 62
     0
100
AcDbMText
 10
15.40740263635601
 20
-7.185071377413443
 30
0.0
 40
0.125
 41
0.0
 71
     5
 72
     1
  1
\A1;1 5/16
 73
     1
 44
1.0
1001
ACAD
1000
MTEXTBEGIN
1070
    73
1070
     1
1070
    44
1040
1.0
1070
    74
1070
     0
1000
MTEXTEND
  0
POINT
  5
2F1
330
2E8
100
AcDbEntity
  8
DEFPOINTS
 62
     0
100
AcDbPoint
 10
14.75115263635602
 20
-6.913542852406795
 30
0.0
  0
POINT
  5
2F2
330
2E8
100
AcDbEntity
  8
DEFPOINTS
 62
     0
100
AcDbPoint
 10
16.06365263635602
 20
-6.913542852406795
 30
0.0
  0
POINT
  5
2F3
330
2E8
100
AcDbEntity
  8
DEFPOINTS
 62
     0
100
AcDbPoint
 10
16.06365263635602
 20
-7.185071377413443
 30
0.0
  0
ENDBLK
  5
2F4
330
2E8
100
AcDbEntity
  8
0
 62
     3
100
AcDbBlockEnd
  0
BLOCK
  5
34D
330
342
100
AcDbEntity
  8
0
100
AcDbBlockBegin
  2
*D8
 70
     1
 10
0.0
 20
0.0
 30
0.0
  3
*D8
  1

  0
LINE
  5
391
330
342
100
AcDbEntity
  8
ADPDIM
 62
     0
370
    -2
100
AcDbLine
 10
9.310690109952766
 20
14.41242900590374
 30
0.0
 11
9.310690109952766
 21
14.99353471967227
 31
0.0
  0
LINE
  5
392
330
342
100
AcDbEntity
  8
ADPDIM
 62
     0
370
    -2
100
AcDbLine
 10
11.43569010995276
 20
14.41242900590374
 30
0.0
 11
11.43569010995276
 21
14.99353471967227
 31
0.0
  0
LINE
  5
393
330
342
100
AcDbEntity
  8
ADPDIM
 62
     0
370
    -2
100
AcDbLine
 10
9.310690109952766
 20
14.81353471967227
 30
0.0
 11
9.977356776619432
 21
14.81353471967227
 31
0.0
  0
LINE
  5
394
330
342
100
AcDbEntity
  8
ADPDIM
 62
     0
370
    -2
100
AcDbLine
 10
11.43569010995276
 20
14.81353471967227
 30
0.0
 11
10.7690234432861
 21
14.81353471967227
 31
0.0
  0
LINE
  5
395
330
342
100
AcDbEntity
  8
ADPDIM
 62
     0
370
    -2
100
AcDbLine
 10
11.31069010995276
 20
14.68853471967227
 30
0.0
 11
11.56069010995276
 21
14.93853471967227
 31
0.0
  0
LINE
  5
396
330
342
100
AcDbEntity
  8
ADPDIM
 62
     0
370
    -2
100
AcDbLine
 10
9.185690109952766
 20
14.68853471967227
 30
0.0
 11
9.435690109952766
 21
14.93853471967227
 31
0.0
  0
MTEXT
  5
397
330
342
100
AcDbEntity
  8
ADPDIM
 62
     0
100
AcDbMText
 10
10.37319010995276
 20
14.81353471967227
 30
0.0
 40
0.125
 41
0.0
 71
     5
 72
     1
  1
\A1;2 1/8
 73
     1
 44
1.0
1001
ACAD
1000
MTEXTBEGIN
1070
    73
1070
     1
1070
    44
1040
1.0
1070
    74
1070
     0
1000
MTEXTEND
  0
POINT
  5
398
330
342
100
AcDbEntity
  8
DEFPOINTS
 62
     0
100
AcDbPoint
 10
9.310690109952766
 20
14.34992900590374
 30
0.0
  0
POINT
  5
399
330
342
100
AcDbEntity
  8
DEFPOINTS
 62
     0
100
AcDbPoint
 10
11.43569010995276
 20
14.34992900590374
 30
0.0
  0
POINT
  5
39A
330
342
100
AcDbEntity
  8
DEFPOINTS
 62
     0
100
AcDbPoint
 10
11.43569010995276
 20
14.81353471967227
 30
0.0
  0
ENDBLK
  5
34E
330
342
100
AcDbEntity
  8
0
100
AcDbBlockEnd
  0
BLOCK
  5
35A
330
34F
100
AcDbEntity
  8
0
100
AcDbBlockBegin
  2
*D9
 70
     1
 10
0.0
 20
0.0
 30
0.0
  3
*D9
  1

  0
LINE
  5
39B
330
34F
100
AcDbEntity
  8
ADPDIM
 62
     0
370
    -2
100
AcDbLine
 10
9.59468928470803
 20
13.82679223004002
 30
0.0
 11
9.59468928470803
 21
13.12301353655633
 31
0.0
  0
LINE
  5
39C
330
34F
100
AcDbEntity
  8
ADPDIM
 62
     0
370
    -2
100
AcDbLine
 10
11.15668928470803
 20
13.89824834610153
 30
0.0
 11
11.15668928470803
 21
13.12301353655633
 31
0.0
  0
LINE
  5
39D
330
34F
100
AcDbEntity
  8
ADPDIM
 62
     0
370
    -2
100
AcDbLine
 10
9.59468928470803
 20
13.30301353655633
 30
0.0
 11
9.93818928470803
 21
13.30301353655633
 31
0.0
  0
LINE
  5
39E
330
34F
100
AcDbEntity
  8
ADPDIM
 62
     0
370
    -2
100
AcDbLine
 10
11.15668928470803
 20
13.30301353655633
 30
0.0
 11
10.81318928470803
 21
13.30301353655633
 31
0.0
  0
LINE
  5
39F
330
34F
100
AcDbEntity
  8
ADPDIM
 62
     0
370
    -2
100
AcDbLine
 10
11.03168928470803
 20
13.17801353655633
 30
0.0
 11
11.28168928470803
 21
13.42801353655633
 31
0.0
  0
LINE
  5
3A0
330
34F
100
AcDbEntity
  8
ADPDIM
 62
     0
370
    -2
100
AcDbLine
 10
9.46968928470803
 20
13.17801353655633
 30
0.0
 11
9.71968928470803
 21
13.42801353655633
 31
0.0
  0
MTEXT
  5
3A1
330
34F
100
AcDbEntity
  8
ADPDIM
 62
     0
100
AcDbMText
 10
10.37568928470803
 20
13.30301353655633
 30
0.0
 40
0.125
 41
0.0
 71
     5
 72
     1
  1
\A1;1 9/16
 73
     1
 44
1.0
1001
ACAD
1000
MTEXTBEGIN
1070
    73
1070
     1
1070
    44
1040
1.0
1070
    74
1070
     0
1000
MTEXTEND
  0
POINT
  5
3A2
330
34F
100
AcDbEntity
  8
DEFPOINTS
 62
     0
100
AcDbPoint
 10
9.59468928470803
 20
13.88929223004002
 30
0.0
  0
POINT
  5
3A3
330
34F
100
AcDbEntity
  8
DEFPOINTS
 62
     0
100
AcDbPoint
 10
11.15668928470803
 20
13.96074834610153
 30
0.0
  0
POINT
  5
3A4
330
34F
100
AcDbEntity
  8
DEFPOINTS
 62
     0
100
AcDbPoint
 10
11.15668928470803
 20
13.30301353655633
 30
0.0
  0
ENDBLK
  5
35B
330
34F
100
AcDbEntity
  8
0
100
AcDbBlockEnd
  0
BLOCK
  5
367
330
35C
100
AcDbEntity
  8
0
100
AcDbBlockBegin
  2
*D10
 70
     1
 10
0.0
 20
0.0
 30
0.0
  3
*D10
  1

  0
LINE
  5
3A5
330
35C
100
AcDbEntity
  8
ADPDIM
 62
     0
370
    -2
100
AcDbLine
 10
9.709727580835995
 20
13.9847028561711
 30
0.0
 11
9.709727580835995
 21
13.59567433116445
 31
0.0
  0
LINE
  5
3A6
330
35C
100
AcDbEntity
  8
ADPDIM
 62
     0
370
    -2
100
AcDbLine
 10
11.02222758083599
 20
13.9847028561711
 30
0.0
 11
11.02222758083599
 21
13.59567433116445
 31
0.0
  0
LINE
  5
3A7
330
35C
100
AcDbEntity
  8
ADPDIM
 62
     0
370
    -2
100
AcDbLine
 10
9.709727580835995
 20
13.77567433116445
 30
0.0
 11
9.928477580835995
 21
13.77567433116445
 31
0.0
  0
LINE
  5
3A8
330
35C
100
AcDbEntity
  8
ADPDIM
 62
     0
370
    -2
100
AcDbLine
 10
11.02222758083599
 20
13.77567433116445
 30
0.0
 11
10.80347758083599
 21
13.77567433116445
 31
0.0
  0
LINE
  5
3A9
330
35C
100
AcDbEntity
  8
ADPDIM
 62
     0
370
    -2
100
AcDbLine
 10
10.89722758083599
 20
13.65067433116445
 30
0.0
 11
11.14722758083599
 21
13.90067433116445
 31
0.0
  0
LINE
  5
3AA
330
35C
100
AcDbEntity
  8
ADPDIM
 62
     0
370
    -2
100
AcDbLine
 10
9.584727580835995
 20
13.65067433116445
 30
0.0
 11
9.834727580835995
 21
13.90067433116445
 31
0.0
  0
MTEXT
  5
3AB
330
35C
100
AcDbEntity
  8
ADPDIM
 62
     0
100
AcDbMText
 10
10.36597758083599
 20
13.77567433116445
 30
0.0
 40
0.125
 41
0.0
 71
     5
 72
     1
  1
\A1;1 5/16
 73
     1
 44
1.0
1001
ACAD
1000
MTEXTBEGIN
1070
    73
1070
     1
1070
    44
1040
1.0
1070
    74
1070
     0
1000
MTEXTEND
  0
POINT
  5
3AC
330
35C
100
AcDbEntity
  8
DEFPOINTS
 62
     0
100
AcDbPoint
 10
9.709727580835995
 20
14.04720285617109
 30
0.0
  0
POINT
  5
3AD
330
35C
100
AcDbEntity
  8
DEFPOINTS
 62
     0
100
AcDbPoint
 10
11.02222758083599
 20
14.04720285617109
 30
0.0
  0
POINT
  5
3AE
330
35C
100
AcDbEntity
  8
DEFPOINTS
 62
     0
100
AcDbPoint
 10
11.02222758083599
 20
13.77567433116445
 30
0.0
  0
ENDBLK
  5
368
330
35C
100
AcDbEntity
  8
0
100
AcDbBlockEnd
  0
ENDSEC
  0
SECTION
  2
ENTITIES
  0
LINE
  5
1E
330
2
100
AcDbEntity
  8
ADP2DETAIL
  6
HIDDEN2
100
AcDbLine
 10
12.19283349755493
 20
14.0232699923189
 30
0.0
 11
15.54283349755493
 21
14.0232699923189
 31
0.0
  0
LINE
  5
21
330
2
100
AcDbEntity
  8
ADP2DETAIL
  6
HIDDEN2
100
AcDbLine
 10
12.19283349755493
 20
14.2783251024325
 30
0.0
 11
15.31783349755493
 21
14.2783251024325
 31
0.0
  0
LINE
  5
22
330
2
100
AcDbEntity
  8
ADP2DETAIL
  6
HIDDEN2
100
AcDbLine
 10
12.19283349755493
 20
14.15079754737571
 30
0.0
 11
15.41783349755493
 21
14.1507975473757
 31
0.0
  0
LINE
  5
23
330
2
100
AcDbEntity
  8
ADP1DETAIL
  6
Continuous
100
AcDbLine
 10
12.19283349755493
 20
17.13023223641981
 30
0.0
 11
15.81783349755493
 21
17.13023223641981
 31
0.0
  0
LINE
  5
25
330
2
100
AcDbEntity
  8
ADP1DETAIL
  6
Continuous
100
AcDbLine
 10
15.81783349755493
 20
15.0052322364198
 30
0.0
 11
12.19283349755493
 21
15.0052322364198
 31
0.0
  0
LINE
  5
26
330
2
100
AcDbEntity
  8
ADP1DETAIL
100
AcDbLine
 10
15.54283349755493
 20
13.90849518168933
 30
0.0
 11
12.19283349755493
 21
13.90849518168933
 31
0.0
  0
LINE
  5
27
330
2
100
AcDbEntity
  8
ADP1DETAIL
100
AcDbLine
 10
12.19283349755493
 20
14.63540231567664
 30
0.0
 11
14.81783349755493
 21
14.63540231567664
 31
0.0
  0
DIMENSION
  5
28
330
2
100
AcDbEntity
  8
ADPDIM
  6
Continuous
100
AcDbDimension
  2
*D1
 10
15.81787537248374
 20
13.61755782655772
 30
0.0
 11
14.00535443501933
 21
13.61755782655772
 31
0.0
 70
    32
 71
     5
 42
3.625041874928806
  3
STANDARD
100
AcDbAlignedDimension
 13
12.19283349755493
 23
13.90849518168933
 33
0.0
 14
15.81787537248374
 24
14.28225995192845
 34
0.0
100
AcDbRotatedDimension
1001
ACAD
1000
DSTYLE
1002
{
1070
   270
1070
     7
1070
   270
1070
     7
1070
   270
1070
     7
1070
   270
1070
     7
1070
    41
1040
0.1875
1070
    43
1040
0.375
1070
    44
1040
0.1875
1070
    78
1070
     2
1070
   141
1040
0.09375
1070
   147
1040
0.09375
1070
   173
1070
     1
1070
   271
1070
     3
1070
   276
1070
     2
1070
   277
1070
     5
1070
     6
1000
OBLIQUE
1070
     7
1000
OBLIQUE
1002
}
  0
LINE
  5
3B
330
2
100
AcDbEntity
  8
ADP1DETAIL
  6
Continuous
100
AcDbLine
 10
12.19283349755493
 20
15.0052322364198
 30
0.0
 11
12.19283349755493
 21
17.13023223641981
 31
0.0
  0
LINE
  5
72
330
2
100
AcDbEntity
  8
ADP1DETAIL
100
AcDbLine
 10
12.19283349755493
 20
13.90849518168933
 30
0.0
 11
12.19283349755493
 21
14.63540231567664
 31
0.0
  0
ARC
  5
73
330
2
100
AcDbEntity
  8
ADP1DETAIL
  6
Continuous
100
AcDbCircle
 10
15.88228662255493
 20
16.0677322364198
 30
0.0
 40
1.064453125000003
100
AcDbArc
 50
93.47140917785672
 51
266.5285908221433
  0
LINE
  5
74
330
2
100
AcDbEntity
  8
ADP1DETAIL
  6
Continuous
100
AcDbLine
 10
15.81783349755493
 20
17.13023223641981
 30
0.0
 11
15.81783349755493
 21
15.0052322364198
 31
0.0
  0
LWPOLYLINE
  5
75
330
2
100
AcDbEntity
  8
ADP1DETAIL
  6
Continuous
100
AcDbPolyline
 90
        4
 70
     0
 43
0.0
 10
14.81783349755493
 20
14.63540231567664
 42
-0.1309294545738311
 10
15.75783349755494
 20
14.45602472216756
 42
-0.3455353743234627
 10
15.75783349755493
 20
14.10849518168934
 42
-0.3949349182824334
 10
15.54283349755493
 20
13.90849518168933
 42
-0.0998501853831555
  0
LINE
  5
7B
330
2
100
AcDbEntity
  8
ADP2DETAIL
  6
HIDDEN2
100
AcDbLine
 10
15.41783349755493
 20
14.0232699923189
 30
0.0
 11
15.41783349755493
 21
14.1507975473757
 31
0.0
  0
LINE
  5
7C
330
2
100
AcDbEntity
  8
ADP2DETAIL
  6
HIDDEN2
100
AcDbLine
 10
15.31783349755493
 20
14.1507975473757
 30
0.0
 11
15.31783349755493
 21
14.2783251024325
 31
0.0
  0
LINE
  5
7D
330
2
100
AcDbEntity
  8
ADP2DETAIL
  6
HIDDEN2
100
AcDbLine
 10
15.54283349755493
 20
13.90849518168933
 30
0.0
 11
15.54283349755493
 21
14.0232699923189
 31
0.0
  0
TEXT
  5
88
330
2
100
AcDbEntity
  8
ADPDIM
100
AcDbText
 10
6.144228821366819
 20
12.47287366968485
 30
0.0
 40
0.125
  1
J U L I U S  B L U M  &  C O . ,  I N C .      ( 8 0 0 )  5 2 6 - 6 2 9 3        W W W . J U L I U S B L U M . C O M        P A R T  N o .  6 9 3 5 - N
 41
1.25
  7
ARIAL_WIDE
 72
     1
 11
12.84576574155781
 21
12.59787366968485
 31
0.0
100
AcDbText
 73
     3
  0
DIMENSION
  5
31E
330
2
100
AcDbEntity
  8
ADPDIM
100
AcDbDimension
  2
*D8
 10
11.43569010995276
 20
14.81353471967227
 30
0.0
 11
10.37319010995276
 21
14.81353471967227
 31
0.0
 70
    32
 71
     5
 42
2.125
  3
STANDARD
100
AcDbAlignedDimension
 13
9.310690109952766
 23
14.34992900590374
 33
0.0
 14
11.43569010995276
 24
14.34992900590374
 34
0.0
100
AcDbRotatedDimension
1001
ACAD
1000
DSTYLE
1002
{
1070
   276
1070
     2
1070
    41
1040
0.125
1070
    73
1070
     0
1070
    74
1070
     0
1070
    78
1070
     3
1070
   140
1040
0.125
1070
   141
1040
0.1875
1070
   142
1040
0.125
1070
   147
1040
0.125
1070
   171
1070
     1
1070
   273
1070
     5
1070
   274
1070
     1
1070
   277
1070
     5
1070
   279
1070
     2
1070
   284
1070
     3
1070
   285
1070
     3
1070
   286
1070
     3
1002
}
  0
DIMENSION
  5
31F
330
2
100
AcDbEntity
  8
ADPDIM
100
AcDbDimension
  2
*D9
 10
11.15668928470803
 20
13.30301353655633
 30
0.0
 11
10.37568928470803
 21
13.30301353655633
 31
0.0
 70
    32
 71
     5
 42
1.561999999999999
  3
STANDARD
100
AcDbAlignedDimension
 13
9.59468928470803
 23
13.88929223004002
 33
0.0
 14
11.15668928470803
 24
13.96074834610153
 34
0.0
100
AcDbRotatedDimension
1001
ACAD
1000
DSTYLE
1002
{
1070
   276
1070
     2
1070
    41
1040
0.125
1070
    73
1070
     0
1070
    74
1070
     0
1070
    78
1070
     3
1070
   140
1040
0.125
1070
   141
1040
0.1875
1070
   142
1040
0.125
1070
   147
1040
0.125
1070
   171
1070
     1
1070
   273
1070
     5
1070
   274
1070
     1
1070
   277
1070
     5
1070
   279
1070
     2
1070
   284
1070
     3
1070
   285
1070
     3
1070
   286
1070
     3
1002
}
  0
LINE
  5
320
330
2
100
AcDbEntity
  8
ADP1DETAIL
100
AcDbLine
 10
10.37568928470803
 20
14.19974834610153
 30
0.0
 11
10.52168928470803
 21
14.19974834610153
 31
0.0
  0
ARC
  5
321
330
2
100
AcDbEntity
  8
ADP1DETAIL
100
AcDbCircle
 10
10.63168928470803
 20
14.22474834610153
 30
0.0
 40
0.0999999999999997
100
AcDbArc
 50
90.0
 51
180.0
  0
ARC
  5
322
330
2
100
AcDbEntity
  8
ADP1DETAIL
100
AcDbCircle
 10
10.37568928470803
 20
12.04374834610153
 30
0.0
 40
2.593999999999999
100
AcDbArc
 50
70.31821661310942
 51
90.03799324250975
  0
ARC
  5
323
330
2
100
AcDbEntity
  8
ADP1DETAIL
100
AcDbCircle
 10
9.62568928470803
 20
14.19974834610153
 30
0.0
 40
0.312
100
AcDbArc
 50
113.3476747754214
 51
264.2977414232918
  0
ARC
  5
324
330
2
100
AcDbEntity
  8
ADP1DETAIL
100
AcDbCircle
 10
10.37568928470803
 20
12.04374834610153
 30
0.0
 40
2.593999999999999
100
AcDbArc
 50
89.96200675749021
 51
109.6817833868905
  0
LINE
  5
325
330
2
100
AcDbEntity
  8
ADP1DETAIL
100
AcDbLine
 10
9.59468928470803
 20
14.03374834610153
 30
0.0
 11
9.59468928470803
 21
13.88774834610153
 31
0.0
  0
LINE
  5
326
330
2
100
AcDbEntity
  8
ADP1DETAIL
100
AcDbLine
 10
10.11968928470803
 20
14.32474834610153
 30
0.0
 11
9.906689284708029
 21
14.32474834610153
 31
0.0
  0
ARC
  5
327
330
2
100
AcDbEntity
  8
ADP1DETAIL
100
AcDbCircle
 10
9.906689284708029
 20
14.26274834610153
 30
0.0
 40
0.0620000000000003
100
AcDbArc
 50
90.0
 51
180.0
  0
ARC
  5
328
330
2
100
AcDbEntity
  8
ADP1DETAIL
100
AcDbCircle
 10
9.83468928470803
 20
14.20974834610153
 30
0.0
 40
0.0099999999999998
100
AcDbArc
 50
270.0
 51
0.0
  0
LINE
  5
329
330
2
100
AcDbEntity
  8
ADP1DETAIL
100
AcDbLine
 10
9.84468928470803
 20
14.26274834610153
 30
0.0
 11
9.84468928470803
 21
14.20974834610153
 31
0.0
  0
ARC
  5
32A
330
2
100
AcDbEntity
  8
ADP1DETAIL
100
AcDbCircle
 10
9.72968928470803
 20
14.18974834610154
 30
0.0
 40
0.0099999999999998
100
AcDbArc
 50
90.0
 51
180.0
  0
LINE
  5
32B
330
2
100
AcDbEntity
  8
ADP1DETAIL
100
AcDbLine
 10
9.83468928470803
 20
14.19974834610153
 30
0.0
 11
9.72968928470803
 21
14.19974834610153
 31
0.0
  0
ARC
  5
32C
330
2
100
AcDbEntity
  8
ADP1DETAIL
100
AcDbCircle
 10
9.70968928470803
 20
14.05374834610153
 30
0.0
 40
0.0099999999999998
100
AcDbArc
 50
270.0
 51
0.0
  0
LINE
  5
32D
330
2
100
AcDbEntity
  8
ADP1DETAIL
100
AcDbLine
 10
9.71968928470803
 20
14.18974834610154
 30
0.0
 11
9.71968928470803
 21
14.05374834610153
 31
0.0
  0
ARC
  5
32E
330
2
100
AcDbEntity
  8
ADP1DETAIL
100
AcDbCircle
 10
9.60468928470803
 20
14.03374834610153
 30
0.0
 40
0.0099999999999998
100
AcDbArc
 50
90.0
 51
180.0
  0
LINE
  5
32F
330
2
100
AcDbEntity
  8
ADP1DETAIL
100
AcDbLine
 10
9.70968928470803
 20
14.04374834610154
 30
0.0
 11
9.60468928470803
 21
14.04374834610153
 31
0.0
  0
ARC
  5
330
330
2
100
AcDbEntity
  8
ADP1DETAIL
100
AcDbCircle
 10
10.11968928470803
 20
14.22474834610153
 30
0.0
 40
0.0999999999999997
100
AcDbArc
 50
359.9999999999995
 51
90.0
  0
LINE
  5
331
330
2
100
AcDbEntity
  8
ADP1DETAIL
100
AcDbLine
 10
10.21968928470803
 20
14.20974834610153
 30
0.0
 11
10.21968928470803
 21
14.22474834610153
 31
0.0
  0
ARC
  5
332
330
2
100
AcDbEntity
  8
ADP1DETAIL
100
AcDbCircle
 10
10.22968928470803
 20
14.20974834610153
 30
0.0
 40
0.0099999999999998
100
AcDbArc
 50
180.0
 51
270.0
  0
LINE
  5
333
330
2
100
AcDbEntity
  8
ADP1DETAIL
100
AcDbLine
 10
10.37568928470803
 20
14.19974834610153
 30
0.0
 11
10.22968928470803
 21
14.19974834610153
 31
0.0
  0
LINE
  5
334
330
2
100
AcDbEntity
  8
ADP1DETAIL
100
AcDbLine
 10
11.15668928470803
 20
14.03374834610153
 30
0.0
 11
11.15668928470803
 21
13.88774834610153
 31
0.0
  0
ARC
  5
335
330
2
100
AcDbEntity
  8
ADP1DETAIL
100
AcDbCircle
 10
11.12568928470803
 20
14.19974834610153
 30
0.0
 40
0.312
100
AcDbArc
 50
275.7022585767081
 51
66.65232522457853
  0
LINE
  5
336
330
2
100
AcDbEntity
  8
ADP1DETAIL
100
AcDbLine
 10
10.90668928470803
 20
14.19974834610153
 30
0.0
 11
11.02168928470803
 21
14.19974834610153
 31
0.0
  0
LINE
  5
337
330
2
100
AcDbEntity
  8
ADP1DETAIL
100
AcDbLine
 10
10.90668928470803
 20
14.26274834610153
 30
0.0
 11
10.90668928470803
 21
14.19974834610153
 31
0.0
  0
LINE
  5
338
330
2
100
AcDbEntity
  8
ADP1DETAIL
100
AcDbLine
 10
10.63168928470803
 20
14.32474834610153
 30
0.0
 11
10.84468928470803
 21
14.32474834610153
 31
0.0
  0
LINE
  5
339
330
2
100
AcDbEntity
  8
ADP1DETAIL
100
AcDbLine
 10
10.53168928470803
 20
14.20974834610153
 30
0.0
 11
10.53168928470803
 21
14.22474834610153
 31
0.0
  0
ARC
  5
33A
330
2
100
AcDbEntity
  8
ADP1DETAIL
100
AcDbCircle
 10
10.52168928470803
 20
14.20974834610153
 30
0.0
 40
0.0099999999999998
100
AcDbArc
 50
270.0
 51
0.0
  0
ARC
  5
33B
330
2
100
AcDbEntity
  8
ADP1DETAIL
100
AcDbCircle
 10
10.84468928470803
 20
14.26274834610153
 30
0.0
 40
0.0620000000000003
100
AcDbArc
 50
0.0
 51
90.0
  0
ARC
  5
33C
330
2
100
AcDbEntity
  8
ADP1DETAIL
100
AcDbCircle
 10
11.02168928470803
 20
14.18974834610154
 30
0.0
 40
0.0099999999999998
100
AcDbArc
 50
0.0
 51
90.0
  0
ARC
  5
33D
330
2
100
AcDbEntity
  8
ADP1DETAIL
100
AcDbCircle
 10
11.14668928470803
 20
14.03374834610153
 30
0.0
 40
0.0100000000000007
100
AcDbArc
 50
0.0000000000050889
 51
90.0
  0
ARC
  5
33E
330
2
100
AcDbEntity
  8
ADP1DETAIL
100
AcDbCircle
 10
11.04168928470803
 20
14.05374834610154
 30
0.0
 40
0.0100000000000016
100
AcDbArc
 50
180.000000000005
 51
270.0
  0
LINE
  5
33F
330
2
100
AcDbEntity
  8
ADP1DETAIL
100
AcDbLine
 10
11.04168928470803
 20
14.04374834610154
 30
0.0
 11
11.14668928470803
 21
14.04374834610154
 31
0.0
  0
LINE
  5
340
330
2
100
AcDbEntity
  8
ADP1DETAIL
100
AcDbLine
 10
11.03168928470803
 20
14.18974834610154
 30
0.0
 11
11.03168928470803
 21
14.05374834610153
 31
0.0
  0
DIMENSION
  5
341
330
2
100
AcDbEntity
  8
ADPDIM
 62
     3
100
AcDbDimension
  2
*D10
 10
11.02222758083599
 20
13.77567433116445
 30
0.0
 11
10.36597758083599
 21
13.77567433116445
 31
0.0
 70
    32
 71
     5
 42
1.3125
  3
STANDARD
100
AcDbAlignedDimension
 13
9.709727580835995
 23
14.04720285617109
 33
0.0
 14
11.02222758083599
 24
14.04720285617109
 34
0.0
100
AcDbRotatedDimension
1001
ACAD
1000
DSTYLE
1002
{
1070
   276
1070
     2
1070
    41
1040
0.125
1070
    73
1070
     0
1070
    74
1070
     0
1070
    78
1070
     3
1070
   140
1040
0.125
1070
   141
1040
0.1875
1070
   142
1040
0.125
1070
   147
1040
0.125
1070
   171
1070
     1
1070
   273
1070
     5
1070
   274
1070
     1
1070
   277
1070
     5
1070
   279
1070
     2
1070
   284
1070
     3
1070
   285
1070
     3
1070
   286
1070
     3
1002
}
  0
ENDSEC
  0
SECTION
  2
OBJECTS
  0
DICTIONARY
  5
1A
330
0
100
AcDbDictionary
281
     1
  3
ACAD_COLOR
350
2C8
  3
ACAD_GROUP
350
18
  3
ACAD_LAYOUT
350
81
  3
ACAD_MATERIAL
350
2B3
  3
ACAD_MLINESTYLE
350
19
  3
ACAD_PLOTSETTINGS
350
82
  3
ACAD_PLOTSTYLENAME
350
7F
  3
ACAD_TABLESTYLE
350
2C9
  3
ACAD_VISUALSTYLE
350
2B7
  3
AcDbVariableDictionary
350
132
  3
DWGPROPS
350
3CE
  0
DICTIONARY
  5
103
330
2
100
AcDbDictionary
280
     1
281
     1
  3
ACAD_LAYOUTSELFREF
360
28C
  0
DICTIONARY
  5
105
330
8
100
AcDbDictionary
280
     1
281
     1
  3
ACAD_LAYOUTSELFREF
360
28D
  0
DICTIONARY
  5
2C8
102
{ACAD_REACTORS
330
1A
102
}
330
1A
100
AcDbDictionary
281
     1
  0
DICTIONARY
  5
18
102
{ACAD_REACTORS
330
1A
102
}
330
1A
100
AcDbDictionary
281
     1
  0
DICTIONARY
  5
81
102
{ACAD_REACTORS
330
1A
102
}
330
1A
100
AcDbDictionary
281
     1
  3
Layout1
350
84
  3
Model
350
83
  0
DICTIONARY
  5
2B3
102
{ACAD_REACTORS
330
1A
102
}
330
1A
100
AcDbDictionary
281
     1
  3
ByBlock
350
2B5
  3
ByLayer
350
2B4
  3
Global
350
2B6
  0
DICTIONARY
  5
19
102
{ACAD_REACTORS
330
1A
102
}
330
1A
100
AcDbDictionary
281
     1
  3
STANDARD
350
1C
  0
DICTIONARY
  5
82
102
{ACAD_REACTORS
330
1A
102
}
330
1A
100
AcDbDictionary
281
     1
  0
ACDBDICTIONARYWDFLT
  5
7F
102
{ACAD_REACTORS
330
1A
102
}
330
1A
100
AcDbDictionary
281
     1
  3
Normal
350
80
100
AcDbDictionaryWithDefault
340
80
  0
DICTIONARY
  5
2C9
102
{ACAD_REACTORS
330
1A
102
}
330
1A
100
AcDbDictionary
281
     1
  3
Standard
350
2CA
  0
DICTIONARY
  5
2B7
102
{ACAD_REACTORS
330
1A
102
}
330
1A
100
AcDbDictionary
281
     1
  3
2dWireframe
350
2BD
  3
3D Hidden
350
2BF
  3
3dWireframe
350
2BE
  3
Basic
350
2BC
  3
Brighten
350
2C3
  3
ColorChange
350
2C7
  3
Conceptual
350
2C0
  3
Dim
350
2C2
  3
Facepattern
350
2C6
  3
Flat
350
2B8
  3
FlatWithEdges
350
2B9
  3
Gouraud
350
2BA
  3
GouraudWithEdges
350
2BB
  3
Linepattern
350
2C5
  3
Realistic
350
2C1
  3
Thicken
350
2C4
  0
DICTIONARY
  5
132
102
{ACAD_REACTORS
330
1A
102
}
330
1A
100
AcDbDictionary
281
     1
  3
CTABLESTYLE
350
3CB
  3
DIMASSOC
350
133
  3
INDEXCTL
350
3CD
  3
SORTENTS
350
3CC
  0
XRECORD
  5
3CE
102
{ACAD_REACTORS
330
1A
102
}
330
1A
100
AcDbXrecord
280
     1
  1
DWGPROPS COOKIE
  2

  3

  4

  6

  7

  8
Yu Hu
  9

300
=
301
=
302
=
303
=
304
=
305
=
306
=
307
=
308
=
309
=
 40
0.0288471412037037
 41
2450358.97760301
 42
2453984.974842743
  1

 90
        0
  0
XRECORD
  5
28C
102
{ACAD_REACTORS
330
103
102
}
330
103
100
AcDbXrecord
280
     1
340
2
  0
XRECORD
  5
28D
102
{ACAD_REACTORS
330
105
102
}
330
105
100
AcDbXrecord
280
     1
340
8
  0
LAYOUT
  5
84
102
{ACAD_XDICTIONARY
360
3D1
102
}
102
{ACAD_REACTORS
330
81
102
}
330
81
100
AcDbPlotSettings
  1

  2
Fax
  4

  6

 40
0.0
 41
0.0
 42
0.0
 43
0.0
 44
0.0
 45
0.0
 46
0.0
 47
0.0
 48
0.0
 49
0.0
140
0.0
141
0.0
142
1.0
143
1.0
 70
   688
 72
     0
 73
     0
 74
     5
  7
Default R14 pen assignments.ctb
 75
    16
147
1.0
148
0.0
149
0.0
100
AcDbLayout
  1
Layout1
 70
     1
 71
     1
 10
-21.61579290080726
 20
-19.96805058542324
 11
-9.61579290080726
 21
-10.96805058542324
 12
0.0
 22
0.0
 32
0.0
 14
1.000000000000000E+20
 24
1.000000000000000E+20
 34
1.000000000000000E+20
 15
-1.000000000000000E+20
 25
-1.000000000000000E+20
 35
-1.000000000000000E+20
146
0.0
 13
0.0
 23
0.0
 33
0.0
 16
1.0
 26
0.0
 36
0.0
 17
0.0
 27
1.0
 37
0.0
 76
     0
330
8
  0
LAYOUT
  5
83
102
{ACAD_XDICTIONARY
360
3CF
102
}
102
{ACAD_REACTORS
330
81
102
}
330
81
100
AcDbPlotSettings
  1

  2
Fax
  4

  6

 40
0.0
 41
0.0
 42
0.0
 43
0.0
 44
0.0
 45
0.0
 46
0.0
 47
0.0
 48
0.0
 49
0.0
140
0.0
141
0.0
142
1.0
143
1.0
 70
  1712
 72
     0
 73
     0
 74
     0
  7
Default R14 pen assignments.ctb
 75
     0
147
1.0
148
0.0
149
0.0
100
AcDbLayout
  1
Model
 70
     1
 71
     0
 10
0.0
 20
0.0
 11
12.0
 21
9.0
 12
0.0
 22
0.0
 32
0.0
 14
0.0
 24
0.0
 34
0.0
 15
0.0
 25
0.0
 35
0.0
146
0.0
 13
0.0
 23
0.0
 33
0.0
 16
1.0
 26
0.0
 36
0.0
 17
0.0
 27
1.0
 37
0.0
 76
     0
330
2
331
268
  0
MATERIAL
  5
2B5
102
{ACAD_XDICTIONARY
360
3D5
102
}
102
{ACAD_REACTORS
330
2B3
102
}
330
2B3
100
AcDbMaterial
  1
ByBlock
  0
MATERIAL
  5
2B4
102
{ACAD_XDICTIONARY
360
3D3
102
}
102
{ACAD_REACTORS
330
2B3
102
}
330
2B3
100
AcDbMaterial
  1
ByLayer
  0
MATERIAL
  5
2B6
102
{ACAD_XDICTIONARY
360
3D7
102
}
102
{ACAD_REACTORS
330
2B3
102
}
330
2B3
100
AcDbMaterial
  1
Global
  0
MLINESTYLE
  5
1C
102
{ACAD_REACTORS
330
19
102
}
330
19
100
AcDbMlineStyle
  2
STANDARD
 70
     0
  3

 62
     0
 51
90.0
 52
90.0
 71
     2
 49
0.5
 62
   256
  6
BYLAYER
 49
-0.5
 62
   256
  6
BYLAYER
  0
ACDBPLACEHOLDER
  5
80
102
{ACAD_REACTORS
330
7F
102
}
330
7F
  0
TABLESTYLE
  5
2CA
102
{ACAD_XDICTIONARY
360
3D9
102
}
102
{ACAD_REACTORS
330
2C9
102
}
330
2C9
100
AcDbTableStyle
  3
Standard
 70
     0
 71
     0
 40
0.06
 41
0.06
280
     0
281
     0
  7
STANDARD
140
0.18
170
     2
 62
     0
 63
     7
283
     0
274
    -2
284
     1
 64
     0
275
    -2
285
     1
 65
     0
276
    -2
286
     1
 66
     0
277
    -2
287
     1
 67
     0
278
    -2
288
     1
 68
     0
279
    -2
289
     1
 69
     0
  7
STANDARD
140
0.25
170
     5
 62
     0
 63
     7
283
     0
274
    -2
284
     1
 64
     0
275
    -2
285
     1
 65
     0
276
    -2
286
     1
 66
     0
277
    -2
287
     1
 67
     0
278
    -2
288
     1
 68
     0
279
    -2
289
     1
 69
     0
  7
STANDARD
140
0.18
170
     5
 62
     0
 63
     7
283
     0
274
    -2
284
     1
 64
     0
275
    -2
285
     1
 65
     0
276
    -2
286
     1
 66
     0
277
    -2
287
     1
 67
     0
278
    -2
288
     1
 68
     0
279
    -2
289
     1
 69
     0
  0
VISUALSTYLE
  5
2BD
102
{ACAD_REACTORS
330
2B7
102
}
330
2B7
100
AcDbVisualStyle
  2
2dWireframe
 70
     4
 71
     0
 72
     2
 73
     0
 90
        0
 40
-0.6
 41
-30.0
 62
     5
 63
     7
 74
     1
 91
        4
 64
     7
 65
   257
 75
     1
175
     1
 42
1.0
 92
        0
 66
   257
 43
1.0
 76
     1
 77
     6
 78
     2
 67
     7
 79
     5
170
     0
171
     0
290
     0
174
     0
 93
        1
 44
0.0
173
     0
291
     0
 45
0.0
1001
ACAD
1000
AcDbSavedByObjectVersion
1070
     0
  0
VISUALSTYLE
  5
2BF
102
{ACAD_REACTORS
330
2B7
102
}
330
2B7
100
AcDbVisualStyle
  2
3D Hidden
 70
     6
 71
     1
 72
     2
 73
     2
 90
        0
 40
-0.6
 41
-30.0
 62
     5
 63
     7
 74
     2
 91
        2
 64
     7
 65
   257
 75
     2
175
     1
 42
40.0
 92
        0
 66
   257
 43
1.0
 76
     1
 77
     6
 78
     2
 67
     7
 79
     3
170
     0
171
     0
290
     0
174
     0
 93
        1
 44
0.0
173
     0
291
     0
 45
0.0
1001
ACAD
1000
AcDbSavedByObjectVersion
1070
     0
  0
VISUALSTYLE
  5
2BE
102
{ACAD_REACTORS
330
2B7
102
}
330
2B7
100
AcDbVisualStyle
  2
3dWireframe
 70
     5
 71
     0
 72
     2
 73
     0
 90
        0
 40
-0.6
 41
-30.0
 62
     5
 63
     7
 74
     1
 91
        4
 64
     7
 65
   257
 75
     1
175
     1
 42
1.0
 92
        0
 66
   257
 43
1.0
 76
     1
 77
     6
 78
     2
 67
     7
 79
     5
170
     0
171
     0
290
     0
174
     0
 93
        1
 44
0.0
173
     0
291
     0
 45
0.0
1001
ACAD
1000
AcDbSavedByObjectVersion
1070
     0
  0
VISUALSTYLE
  5
2BC
102
{ACAD_REACTORS
330
2B7
102
}
330
2B7
100
AcDbVisualStyle
  2
Basic
 70
     7
 71
     1
 72
     0
 73
     1
 90
        0
 40
-0.6
 41
-30.0
 62
     5
 63
     7
 74
     0
 91
        4
 64
     7
 65
   257
 75
     1
175
     1
 42
1.0
 92
        8
 66
     7
 43
1.0
 76
     1
 77
     6
 78
     2
 67
     7
 79
     5
170
     0
171
     0
290
     0
174
     0
 93
        1
 44
0.0
173
     0
291
     1
 45
0.0
1001
ACAD
1000
AcDbSavedByObjectVersion
1070
     0
  0
VISUALSTYLE
  5
2C3
102
{ACAD_REACTORS
330
2B7
102
}
330
2B7
100
AcDbVisualStyle
  2
Brighten
 70
    12
 71
     2
 72
     2
 73
     0
 90
        0
 40
-0.6
 41
-30.0
 62
     5
 63
     7
 74
     1
 91
        4
 64
     7
 65
   257
 75
     1
175
     1
 42
1.0
 92
        8
 66
     7
 43
1.0
 76
     1
 77
     6
 78
     2
 67
     7
 79
     5
170
     0
171
     0
290
     0
174
     0
 93
        1
 44
50.0
173
     0
291
     1
 45
0.0
1001
ACAD
1000
AcDbSavedByObjectVersion
1070
     0
  0
VISUALSTYLE
  5
2C7
102
{ACAD_REACTORS
330
2B7
102
}
330
2B7
100
AcDbVisualStyle
  2
ColorChange
 70
    16
 71
     2
 72
     2
 73
     3
 90
        0
 40
-0.6
 41
-30.0
 62
     5
 63
     8
 74
     1
 91
        4
 64
     7
 65
   257
 75
     1
175
     1
 42
1.0
 92
        8
 66
     8
 43
1.0
 76
     1
 77
     6
 78
     2
 67
     7
 79
     5
170
     0
171
     0
290
     0
174
     0
 93
        1
 44
0.0
173
     0
291
     1
 45
0.0
1001
ACAD
1000
AcDbSavedByObjectVersion
1070
     0
  0
VISUALSTYLE
  5
2C0
102
{ACAD_REACTORS
330
2B7
102
}
330
2B7
100
AcDbVisualStyle
  2
Conceptual
 70
     9
 71
     3
 72
     2
 73
     0
 90
        0
 40
-0.6
 41
-30.0
 62
     5
 63
     7
 74
     2
 91
        2
 64
     7
 65
   257
 75
     1
175
     1
 42
40.0
 92
        8
 66
     7
 43
1.0
 76
     1
 77
     6
 78
     2
 67
     7
 79
     3
170
     0
171
     0
290
     0
174
     0
 93
        1
 44
0.0
173
     0
291
     0
 45
0.0
1001
ACAD
1000
AcDbSavedByObjectVersion
1070
     0
  0
VISUALSTYLE
  5
2C2
102
{ACAD_REACTORS
330
2B7
102
}
330
2B7
100
AcDbVisualStyle
  2
Dim
 70
    11
 71
     2
 72
     2
 73
     0
 90
        0
 40
-0.6
 41
-30.0
 62
     5
 63
     7
 74
     1
 91
        4
 64
     7
 65
   257
 75
     1
175
     1
 42
1.0
 92
        8
 66
     7
 43
1.0
 76
     1
 77
     6
 78
     2
 67
     7
 79
     5
170
     0
171
     0
290
     0
174
     0
 93
        1
 44
-50.0
173
     0
291
     1
 45
0.0
1001
ACAD
1000
AcDbSavedByObjectVersion
1070
     0
  0
VISUALSTYLE
  5
2C6
102
{ACAD_REACTORS
330
2B7
102
}
330
2B7
100
AcDbVisualStyle
  2
Facepattern
 70
    15
 71
     2
 72
     2
 73
     0
 90
        0
 40
-0.6
 41
-30.0
 62
     5
 63
     7
 74
     1
 91
        4
 64
     7
 65
   257
 75
     1
175
     1
 42
1.0
 92
        8
 66
     7
 43
1.0
 76
     1
 77
     6
 78
     2
 67
     7
 79
     5
170
     0
171
     0
290
     0
174
     0
 93
        1
 44
0.0
173
     0
291
     1
 45
0.0
1001
ACAD
1000
AcDbSavedByObjectVersion
1070
     0
  0
VISUALSTYLE
  5
2B8
102
{ACAD_REACTORS
330
2B7
102
}
330
2B7
100
AcDbVisualStyle
  2
Flat
 70
     0
 71
     2
 72
     1
 73
     1
 90
        2
 40
-0.6
 41
30.0
 62
     5
 63
     7
 74
     0
 91
        4
 64
     7
 65
   257
 75
     1
175
     1
 42
1.0
 92
        8
 66
     7
 43
1.0
 76
     1
 77
     6
 78
     2
 67
     7
 79
     5
170
     0
171
     0
290
     0
174
     0
 93
       13
 44
0.0
173
     0
291
     1
 45
0.0
1001
ACAD
1000
AcDbSavedByObjectVersion
1070
     0
  0
VISUALSTYLE
  5
2B9
102
{ACAD_REACTORS
330
2B7
102
}
330
2B7
100
AcDbVisualStyle
  2
FlatWithEdges
 70
     1
 71
     2
 72
     1
 73
     1
 90
        2
 40
-0.6
 41
30.0
 62
     5
 63
     7
 74
     1
 91
        4
 64
     7
 65
   257
 75
     1
175
     1
 42
1.0
 92
        0
 66
   257
 43
1.0
 76
     1
 77
     6
 78
     2
 67
     7
 79
     5
170
     0
171
     0
290
     0
174
     0
 93
       13
 44
0.0
173
     0
291
     1
 45
0.0
1001
ACAD
1000
AcDbSavedByObjectVersion
1070
     0
  0
VISUALSTYLE
  5
2BA
102
{ACAD_REACTORS
330
2B7
102
}
330
2B7
100
AcDbVisualStyle
  2
Gouraud
 70
     2
 71
     2
 72
     2
 73
     1
 90
        2
 40
-0.6
 41
30.0
 62
     5
 63
     7
 74
     0
 91
        4
 64
     7
 65
   257
 75
     1
175
     1
 42
1.0
 92
        0
 66
     7
 43
1.0
 76
     1
 77
     6
 78
     2
 67
     7
 79
     5
170
     0
171
     0
290
     0
174
     0
 93
       13
 44
0.0
173
     0
291
     1
 45
0.0
1001
ACAD
1000
AcDbSavedByObjectVersion
1070
     0
  0
VISUALSTYLE
  5
2BB
102
{ACAD_REACTORS
330
2B7
102
}
330
2B7
100
AcDbVisualStyle
  2
GouraudWithEdges
 70
     3
 71
     2
 72
     2
 73
     1
 90
        2
 40
-0.6
 41
30.0
 62
     5
 63
     7
 74
     1
 91
        4
 64
     7
 65
   257
 75
     1
175
     1
 42
1.0
 92
        0
 66
   257
 43
1.0
 76
     1
 77
     6
 78
     2
 67
     7
 79
     5
170
     0
171
     0
290
     0
174
     0
 93
       13
 44
0.0
173
     0
291
     1
 45
0.0
1001
ACAD
1000
AcDbSavedByObjectVersion
1070
     0
  0
VISUALSTYLE
  5
2C5
102
{ACAD_REACTORS
330
2B7
102
}
330
2B7
100
AcDbVisualStyle
  2
Linepattern
 70
    14
 71
     2
 72
     2
 73
     0
 90
        0
 40
-0.6
 41
-30.0
 62
     5
 63
     7
 74
     1
 91
        4
 64
     7
 65
   257
 75
     7
175
     7
 42
1.0
 92
        8
 66
     7
 43
1.0
 76
     1
 77
     6
 78
     2
 67
     7
 79
     5
170
     0
171
     0
290
     0
174
     0
 93
        1
 44
0.0
173
     0
291
     1
 45
0.0
1001
ACAD
1000
AcDbSavedByObjectVersion
1070
     0
  0
VISUALSTYLE
  5
2C1
102
{ACAD_REACTORS
330
2B7
102
}
330
2B7
100
AcDbVisualStyle
  2
Realistic
 70
     8
 71
     2
 72
     2
 73
     0
 90
        0
 40
-0.6
 41
-30.0
 62
     5
 63
     7
 74
     1
 91
        0
 64
     7
 65
   257
 75
     1
175
     1
 42
1.0
 92
        8
 66
     8
 43
1.0
 76
     1
 77
     6
 78
     2
 67
     7
 79
     5
170
     0
171
     0
290
     0
174
     0
 93
       13
 44
0.0
173
     0
291
     0
 45
0.0
1001
ACAD
1000
AcDbSavedByObjectVersion
1070
     0
  0
VISUALSTYLE
  5
2C4
102
{ACAD_REACTORS
330
2B7
102
}
330
2B7
100
AcDbVisualStyle
  2
Thicken
 70
    13
 71
     2
 72
     2
 73
     0
 90
        0
 40
-0.6
 41
-30.0
 62
     5
 63
     7
 74
     1
 91
        4
 64
     7
 65
   257
 75
     1
175
     1
 42
1.0
 92
       12
 66
     7
 43
1.0
 76
     1
 77
     6
 78
     2
 67
     7
 79
     5
170
     0
171
     0
290
     0
174
     0
 93
        1
 44
0.0
173
     0
291
     1
 45
0.0
1001
ACAD
1000
AcDbSavedByObjectVersion
1070
     0
  0
DICTIONARYVAR
  5
3CB
102
{ACAD_REACTORS
330
132
102
}
330
132
100
DictionaryVariables
280
     0
  1
STANDARD
  0
DICTIONARYVAR
  5
133
102
{ACAD_REACTORS
330
132
102
}
330
132
100
DictionaryVariables
280
     0
  1
1
  0
DICTIONARYVAR
  5
3CD
102
{ACAD_REACTORS
330
132
102
}
330
132
100
DictionaryVariables
280
     0
  1
0
  0
DICTIONARYVAR
  5
3CC
102
{ACAD_REACTORS
330
132
102
}
330
132
100
DictionaryVariables
280
     0
  1
127
  0
DICTIONARY
  5
3D1
330
84
100
AcDbDictionary
280
     1
281
     1
  3
ACAD_XREC_ROUNDTRIP
360
3D2
  0
DICTIONARY
  5
3CF
330
83
100
AcDbDictionary
280
     1
281
     1
  3
ACAD_XREC_ROUNDTRIP
360
3D0
  0
DICTIONARY
  5
3D5
330
2B5
100
AcDbDictionary
280
     1
281
     1
  3
ACAD_XREC_ROUNDTRIP
360
3D6
  0
DICTIONARY
  5
3D3
330
2B4
100
AcDbDictionary
280
     1
281
     1
  3
ACAD_XREC_ROUNDTRIP
360
3D4
  0
DICTIONARY
  5
3D7
330
2B6
100
AcDbDictionary
280
     1
281
     1
  3
ACAD_XREC_ROUNDTRIP
360
3D8
  0
DICTIONARY
  5
3D9
330
2CA
100
AcDbDictionary
280
     1
281
     1
  3
ACAD_XREC_ROUNDTRIP
360
3DA
  0
XRECORD
  5
3D2
102
{ACAD_REACTORS
330
3D1
102
}
330
3D1
100
AcDbXrecord
280
     1
102
SHADEPLOT
 70
     0
102
SHADEPLOTRESLEVEL
 70
     2
102
SHADEPLOTCUSTOMDPI
 70
   300
  0
XRECORD
  5
3D0
102
{ACAD_REACTORS
330
3CF
102
}
330
3CF
100
AcDbXrecord
280
     1
102
SHADEPLOT
 70
     0
102
SHADEPLOTRESLEVEL
 70
     2
102
SHADEPLOTCUSTOMDPI
 70
   300
  0
XRECORD
  5
3D6
102
{ACAD_REACTORS
330
3D5
102
}
330
3D5
100
AcDbXrecord
280
     1
102
MATERIAL
148
0.0
149
0.0
149
0.0
 93
        0
 94
       63
282
     0
 72
     1
 77
     1
171
     1
175
     1
179
     1
273
     0
  0
XRECORD
  5
3D4
102
{ACAD_REACTORS
330
3D3
102
}
330
3D3
100
AcDbXrecord
280
     1
102
MATERIAL
148
0.0
149
0.0
149
0.0
 93
        0
 94
       63
282
     0
 72
     1
 77
     1
171
     1
175
     1
179
     1
273
     0
  0
XRECORD
  5
3D8
102
{ACAD_REACTORS
330
3D7
102
}
330
3D7
100
AcDbXrecord
280
     1
102
MATERIAL
148
0.0
149
0.0
149
0.0
 93
        0
 94
       63
282
     0
 72
     1
 77
     1
171
     1
175
     1
179
     1
273
     0
  0
XRECORD
  5
3DA
102
{ACAD_REACTORS
330
3D9
102
}
330
3D9
100
AcDbXrecord
280
     1
102
ACAD_ROUNDTRIP_PRE2007_TABLESTYLE
 90
      512
 91
        0
  1

 92
      512
 93
        0
  2

 94
      512
 95
        0
  3

  0
ENDSEC
  0
EOF
