  0
SECTION
  2
HEADER
  9
$ACADVER
  1
AC1015
  9
$ACADMAINTVER
 70
    20
  9
$DWGCODEPAGE
  3
ANSI_1252
  9
$INSBASE
 10
21.18004342598172
 20
7.580418202089679
 30
0.0
  9
$EXTMIN
 10
6.832397552710489
 20
-2.812331581285192
 30
-0.0015258207003583
  9
$EXTMAX
 10
33.59234627242241
 20
13.89394378217834
 30
0.0000000349246037
  9
$LIMMIN
 10
0.0
 20
0.0
  9
$LIMMAX
 10
36.0
 20
36.0
  9
$ORTHOMODE
 70
     1
  9
$REGENMODE
 70
     1
  9
$FILLMODE
 70
     1
  9
$QTEXTMODE
 70
     0
  9
$MIRRTEXT
 70
     1
  9
$LTSCALE
 40
1.0
  9
$ATTMODE
 70
     1
  9
$TEXTSIZE
 40
0.2
  9
$TRACEWID
 40
0.05
  9
$TEXTSTYLE
  7
STANDARD
  9
$CLAYER
  8
0
  9
$CELTYPE
  6
ByLayer
  9
$CECOLOR
 62
   256
  9
$CELTSCALE
 40
1.0
  9
$DISPSILH
 70
     0
  9
$DIMSCALE
 40
1.0
  9
$DIMASZ
 40
0.125
  9
$DIMEXO
 40
0.0625
  9
$DIMDLI
 40
0.38
  9
$DIMRND
 40
0.0
  9
$DIMDLE
 40
0.0
  9
$DIMEXE
 40
0.18
  9
$DIMTP
 40
0.0
  9
$DIMTM
 40
0.0
  9
$DIMTXT
 40
0.125
  9
$DIMCEN
 40
0.1875
  9
$DIMTSZ
 40
0.125
  9
$DIMTOL
 70
     0
  9
$DIMLIM
 70
     0
  9
$DIMTIH
 70
     0
  9
$DIMTOH
 70
     0
  9
$DIMSE1
 70
     0
  9
$DIMSE2
 70
     0
  9
$DIMTAD
 70
     0
  9
$DIMZIN
 70
     3
  9
$DIMBLK
  1

  9
$DIMASO
 70
     1
  9
$DIMSHO
 70
     1
  9
$DIMPOST
  1

  9
$DIMAPOST
  1

  9
$DIMALT
 70
     0
  9
$DIMALTD
 70
     1
  9
$DIMALTF
 40
25.4
  9
$DIMLFAC
 40
1.0
  9
$DIMTOFL
 70
     0
  9
$DIMTVP
 40
0.0
  9
$DIMTIX
 70
     0
  9
$DIMSOXD
 70
     0
  9
$DIMSAH
 70
     0
  9
$DIMBLK1
  1

  9
$DIMBLK2
  1

  9
$DIMSTYLE
  2
Standard
  9
$DIMCLRD
 70
     0
  9
$DIMCLRE
 70
     0
  9
$DIMCLRT
 70
     0
  9
$DIMTFAC
 40
1.0
  9
$DIMGAP
 40
0.125
  9
$DIMJUST
 70
     0
  9
$DIMSD1
 70
     0
  9
$DIMSD2
 70
     0
  9
$DIMTOLJ
 70
     1
  9
$DIMTZIN
 70
     3
  9
$DIMALTZ
 70
     3
  9
$DIMALTTZ
 70
     3
  9
$DIMUPT
 70
     0
  9
$DIMDEC
 70
     4
  9
$DIMTDEC
 70
     4
  9
$DIMALTU
 70
     5
  9
$DIMALTTD
 70
     1
  9
$DIMTXSTY
  7
STANDARD
  9
$DIMAUNIT
 70
     0
  9
$DIMADEC
 70
     0
  9
$DIMALTRND
 40
0.0
  9
$DIMAZIN
 70
     0
  9
$DIMDSEP
 70
    46
  9
$DIMATFIT
 70
     3
  9
$DIMFRAC
 70
     0
  9
$DIMLDRBLK
  1

  9
$DIMLUNIT
 70
     5
  9
$DIMLWD
 70
    -2
  9
$DIMLWE
 70
    -2
  9
$DIMTMOVE
 70
     2
  9
$LUNITS
 70
     5
  9
$LUPREC
 70
     4
  9
$SKETCHINC
 40
0.1
  9
$FILLETRAD
 40
0.187
  9
$AUNITS
 70
     0
  9
$AUPREC
 70
     0
  9
$MENU
  1
acad
  9
$ELEVATION
 40
0.0
  9
$PELEVATION
 40
0.0
  9
$THICKNESS
 40
0.0
  9
$LIMCHECK
 70
     0
  9
$CHAMFERA
 40
0.0
  9
$CHAMFERB
 40
0.0
  9
$CHAMFERC
 40
0.0
  9
$CHAMFERD
 40
0.0
  9
$SKPOLY
 70
     0
  9
$TDCREATE
 40
2450399.684098762
  9
$TDUCREATE
 40
2450399.850765428
  9
$TDUPDATE
 40
2453984.943541829
  9
$TDUUPDATE
 40
2453985.110208495
  9
$TDINDWG
 40
0.0326885301
  9
$TDUSRTIMER
 40
0.0326885301
  9
$USRTIMER
 70
     1
  9
$ANGBASE
 50
0.0
  9
$ANGDIR
 70
     0
  9
$PDMODE
 70
     0
  9
$PDSIZE
 40
0.0
  9
$PLINEWID
 40
0.0
  9
$SPLFRAME
 70
     0
  9
$SPLINETYPE
 70
     6
  9
$SPLINESEGS
 70
     8
  9
$HANDSEED
  5
480
  9
$SURFTAB1
 70
     6
  9
$SURFTAB2
 70
     6
  9
$SURFTYPE
 70
     6
  9
$SURFU
 70
     6
  9
$SURFV
 70
     6
  9
$UCSBASE
  2

  9
$UCSNAME
  2

  9
$UCSORG
 10
0.0
 20
0.0
 30
0.0
  9
$UCSXDIR
 10
1.0
 20
0.0
 30
0.0
  9
$UCSYDIR
 10
0.0
 20
1.0
 30
0.0
  9
$UCSORTHOREF
  2

  9
$UCSORTHOVIEW
 70
     0
  9
$UCSORGTOP
 10
0.0
 20
0.0
 30
0.0
  9
$UCSORGBOTTOM
 10
0.0
 20
0.0
 30
0.0
  9
$UCSORGLEFT
 10
0.0
 20
0.0
 30
0.0
  9
$UCSORGRIGHT
 10
0.0
 20
0.0
 30
0.0
  9
$UCSORGFRONT
 10
0.0
 20
0.0
 30
0.0
  9
$UCSORGBACK
 10
0.0
 20
0.0
 30
0.0
  9
$PUCSBASE
  2

  9
$PUCSNAME
  2

  9
$PUCSORG
 10
0.0
 20
0.0
 30
0.0
  9
$PUCSXDIR
 10
1.0
 20
0.0
 30
0.0
  9
$PUCSYDIR
 10
0.0
 20
1.0
 30
0.0
  9
$PUCSORTHOREF
  2

  9
$PUCSORTHOVIEW
 70
     0
  9
$PUCSORGTOP
 10
0.0
 20
0.0
 30
0.0
  9
$PUCSORGBOTTOM
 10
0.0
 20
0.0
 30
0.0
  9
$PUCSORGLEFT
 10
0.0
 20
0.0
 30
0.0
  9
$PUCSORGRIGHT
 10
0.0
 20
0.0
 30
0.0
  9
$PUCSORGFRONT
 10
0.0
 20
0.0
 30
0.0
  9
$PUCSORGBACK
 10
0.0
 20
0.0
 30
0.0
  9
$USERI1
 70
     0
  9
$USERI2
 70
     0
  9
$USERI3
 70
     0
  9
$USERI4
 70
     0
  9
$USERI5
 70
     0
  9
$USERR1
 40
0.0
  9
$USERR2
 40
0.0
  9
$USERR3
 40
0.0
  9
$USERR4
 40
0.0
  9
$USERR5
 40
0.0
  9
$WORLDVIEW
 70
     1
  9
$SHADEDGE
 70
     3
  9
$SHADEDIF
 70
    70
  9
$TILEMODE
 70
     1
  9
$MAXACTVP
 70
    15
  9
$PINSBASE
 10
0.0004882914945483
 20
0.7501408034022604
 30
0.0
  9
$PLIMCHECK
 70
     0
  9
$PEXTMIN
 10
1.000000000000000E+20
 20
1.000000000000000E+20
 30
1.000000000000000E+20
  9
$PEXTMAX
 10
-1.000000000000000E+20
 20
-1.000000000000000E+20
 30
-1.000000000000000E+20
  9
$PLIMMIN
 10
0.0
 20
0.0
  9
$PLIMMAX
 10
12.0
 20
9.0
  9
$UNITMODE
 70
     0
  9
$VISRETAIN
 70
     0
  9
$PLINEGEN
 70
     0
  9
$PSLTSCALE
 70
     1
  9
$TREEDEPTH
 70
  3020
  9
$CMLSTYLE
  2
Standard
  9
$CMLJUST
 70
     0
  9
$CMLSCALE
 40
1.0
  9
$PROXYGRAPHICS
 70
     1
  9
$MEASUREMENT
 70
     0
  9
$CELWEIGHT
370
    -1
  9
$ENDCAPS
280
     0
  9
$JOINSTYLE
280
     0
  9
$LWDISPLAY
290
     0
  9
$INSUNITS
 70
     0
  9
$HYPERLINKBASE
  1

  9
$STYLESHEET
  1

  9
$XEDIT
290
     1
  9
$CEPSNTYPE
380
     0
  9
$PSTYLEMODE
290
     1
  9
$FINGERPRINTGUID
  2
{8BC10F30-80CE-435F-BB96-83E2DB41BD91}
  9
$VERSIONGUID
  2
{80792FC7-DCA3-42A3-BDE6-5270F938D449}
  9
$EXTNAMES
290
     1
  9
$PSVPSCALE
 40
0.0
  9
$OLESTARTUP
290
     0
  0
ENDSEC
  0
SECTION
  2
CLASSES
  0
CLASS
  1
ACDBDICTIONARYWDFLT
  2
AcDbDictionaryWithDefault
  3
ObjectDBX Classes
 90
        0
280
     0
281
     0
  0
CLASS
  1
ACDBPLACEHOLDER
  2
AcDbPlaceHolder
  3
ObjectDBX Classes
 90
        0
280
     0
281
     0
  0
CLASS
  1
LAYOUT
  2
AcDbLayout
  3
ObjectDBX Classes
 90
        0
280
     0
281
     0
  0
CLASS
  1
DICTIONARYVAR
  2
AcDbDictionaryVar
  3
ObjectDBX Classes
 90
        0
280
     0
281
     0
  0
CLASS
  1
MATERIAL
  2
AcDbMaterial
  3
ObjectDBX Classes
 90
     1024
280
     0
281
     0
  0
CLASS
  1
VISUALSTYLE
  2
AcDbVisualStyle
  3
ObjectDBX Classes
 90
     4095
280
     0
281
     0
  0
CLASS
  1
TABLESTYLE
  2
AcDbTableStyle
  3
ObjectDBX Classes
 90
     4095
280
     0
281
     0
  0
ENDSEC
  0
SECTION
  2
TABLES
  0
TABLE
  2
VPORT
  5
8
330
0
100
AcDbSymbolTable
 70
     1
  0
VPORT
  5
34D
330
8
100
AcDbSymbolTableRecord
100
AcDbViewportTableRecord
  2
*Active
 70
     0
 10
0.0
 20
0.0
 11
1.0
 21
1.0
 12
20.21237191256645
 22
5.540806100446573
 13
0.0
 23
0.0
 14
0.5740882589684922
 24
0.5740882589684922
 15
0.5
 25
0.5
 16
0.0
 26
0.0
 36
1.0
 17
0.0
 27
0.0
 37
0.0
 40
16.89469200290109
 41
1.726930320150659
 42
50.0
 43
0.0
 44
0.0
 50
0.0
 51
0.0
 71
     0
 72
   100
 73
     1
 74
     0
 75
     0
 76
     0
 77
     0
 78
     0
281
     0
 65
     1
110
0.0
120
0.0
130
0.0
111
1.0
121
0.0
131
0.0
112
0.0
122
1.0
132
0.0
 79
     0
146
0.0
  0
ENDTAB
  0
TABLE
  2
LTYPE
  5
5
330
0
100
AcDbSymbolTable
 70
     1
  0
LTYPE
  5
13
330
5
100
AcDbSymbolTableRecord
100
AcDbLinetypeTableRecord
  2
ByBlock
 70
     0
  3

 72
    65
 73
     0
 40
0.0
  0
LTYPE
  5
14
330
5
100
AcDbSymbolTableRecord
100
AcDbLinetypeTableRecord
  2
ByLayer
 70
     0
  3

 72
    65
 73
     0
 40
0.0
  0
LTYPE
  5
15
330
5
100
AcDbSymbolTableRecord
100
AcDbLinetypeTableRecord
  2
CONTINUOUS
 70
     0
  3
Solid line
 72
    65
 73
     0
 40
0.0
  0
ENDTAB
  0
TABLE
  2
LAYER
  5
2
330
0
100
AcDbSymbolTable
 70
     4
  0
LAYER
  5
10
330
2
100
AcDbSymbolTableRecord
100
AcDbLayerTableRecord
  2
0
 70
     0
 62
     7
  6
CONTINUOUS
370
    -3
390
F
  0
LAYER
  5
FC
330
2
100
AcDbSymbolTableRecord
100
AcDbLayerTableRecord
  2
ADP1DETAIL
 70
     0
 62
     7
  6
CONTINUOUS
370
    -3
390
F
  0
LAYER
  5
FE
330
2
100
AcDbSymbolTableRecord
100
AcDbLayerTableRecord
  2
DEFPOINTS
 70
     0
 62
     7
  6
CONTINUOUS
290
     0
370
    -3
390
F
  0
LAYER
  5
101
330
2
100
AcDbSymbolTableRecord
100
AcDbLayerTableRecord
  2
ADPDIM
 70
     0
 62
     3
  6
CONTINUOUS
370
    -3
390
F
  0
ENDTAB
  0
TABLE
  2
STYLE
  5
3
330
0
100
AcDbSymbolTable
 70
     2
  0
STYLE
  5
11
330
3
100
AcDbSymbolTableRecord
100
AcDbTextStyleTableRecord
  2
STANDARD
 70
     0
 40
0.0
 41
1.0
 50
0.0
 71
     0
 42
0.2
  3
txt
  4

  0
STYLE
  5
1F4
330
3
100
AcDbSymbolTableRecord
100
AcDbTextStyleTableRecord
  2
ARIAL_WIDE
 70
     0
 40
0.0
 41
1.25
 50
0.0
 71
     0
 42
0.2
  3
ARIAL.TTF
  4

1001
ACAD
1000
Arial
1071
       34
  0
ENDTAB
  0
TABLE
  2
VIEW
  5
6
330
0
100
AcDbSymbolTable
 70
     0
  0
ENDTAB
  0
TABLE
  2
UCS
  5
7
330
0
100
AcDbSymbolTable
 70
     0
  0
ENDTAB
  0
TABLE
  2
APPID
  5
9
330
0
100
AcDbSymbolTable
 70
     1
  0
APPID
  5
12
330
9
100
AcDbSymbolTableRecord
100
AcDbRegAppTableRecord
  2
ACAD
 70
     0
  0
ENDTAB
  0
TABLE
  2
DIMSTYLE
  5
A
330
0
100
AcDbSymbolTable
 70
     1
100
AcDbDimStyleTable
 71
     0
  0
DIMSTYLE
105
1F2
102
{ACAD_REACTORS
330
3EE
330
3F1
330
410
102
}
330
A
100
AcDbSymbolTableRecord
100
AcDbDimStyleTableRecord
  2
Standard
 70
     0
340
11
  0
ENDTAB
  0
TABLE
  2
BLOCK_RECORD
  5
1
330
0
100
AcDbSymbolTable
 70
    13
  0
BLOCK_RECORD
  5
1E
102
{ACAD_XDICTIONARY
360
231
102
}
330
1
100
AcDbSymbolTableRecord
100
AcDbBlockTableRecord
  2
*Model_Space
340
21
  0
BLOCK_RECORD
  5
1A
102
{ACAD_XDICTIONARY
360
233
102
}
330
1
100
AcDbSymbolTableRecord
100
AcDbBlockTableRecord
  2
*Paper_Space
340
1D
  0
BLOCK_RECORD
  5
F3
330
1
100
AcDbSymbolTableRecord
100
AcDbBlockTableRecord
  2
*D0
340
0
  0
BLOCK_RECORD
  5
F4
330
1
100
AcDbSymbolTableRecord
100
AcDbBlockTableRecord
  2
*D1
340
0
  0
BLOCK_RECORD
  5
F5
330
1
100
AcDbSymbolTableRecord
100
AcDbBlockTableRecord
  2
*D2
340
0
  0
BLOCK_RECORD
  5
F6
330
1
100
AcDbSymbolTableRecord
100
AcDbBlockTableRecord
  2
*D3
340
0
  0
BLOCK_RECORD
  5
F7
330
1
100
AcDbSymbolTableRecord
100
AcDbBlockTableRecord
  2
*D4
340
0
  0
BLOCK_RECORD
  5
F8
330
1
100
AcDbSymbolTableRecord
100
AcDbBlockTableRecord
  2
*D5
340
0
  0
BLOCK_RECORD
  5
39F
330
1
100
AcDbSymbolTableRecord
100
AcDbBlockTableRecord
  2
*D6
340
0
  0
BLOCK_RECORD
  5
3AC
330
1
100
AcDbSymbolTableRecord
100
AcDbBlockTableRecord
  2
*D7
340
0
  0
BLOCK_RECORD
  5
3B9
330
1
100
AcDbSymbolTableRecord
100
AcDbBlockTableRecord
  2
*D8
340
0
  0
BLOCK_RECORD
  5
411
330
1
100
AcDbSymbolTableRecord
100
AcDbBlockTableRecord
  2
*D10
340
0
  0
BLOCK_RECORD
  5
41E
330
1
100
AcDbSymbolTableRecord
100
AcDbBlockTableRecord
  2
*D11
340
0
  0
BLOCK_RECORD
  5
42B
330
1
100
AcDbSymbolTableRecord
100
AcDbBlockTableRecord
  2
*D12
340
0
  0
ENDTAB
  0
ENDSEC
  0
SECTION
  2
BLOCKS
  0
BLOCK
  5
104
330
1E
100
AcDbEntity
  8
0
100
AcDbBlockBegin
  2
*Model_Space
 70
     0
 10
0.0
 20
0.0
 30
0.0
  3
*Model_Space
  1

  0
ENDBLK
  5
105
330
1E
100
AcDbEntity
  8
0
100
AcDbBlockEnd
  0
BLOCK
  5
102
330
1A
100
AcDbEntity
 67
     1
  8
0
100
AcDbBlockBegin
  2
*Paper_Space
 70
     0
 10
0.0
 20
0.0
 30
0.0
  3
*Paper_Space
  1

  0
ENDBLK
  5
103
330
1A
100
AcDbEntity
 67
     1
  8
0
100
AcDbBlockEnd
  0
BLOCK
  5
107
330
F3
100
AcDbEntity
  8
0
100
AcDbBlockBegin
  2
*D0
 70
     1
 10
0.0
 20
0.0
 30
0.0
  3
*D0
  1

  0
LINE
  5
108
330
F3
100
AcDbEntity
  8
0
  6
ByBlock
 62
     0
100
AcDbLine
 10
18.55504342598172
 20
12.26791820208968
 30
0.0
 11
17.71412555532922
 21
12.26791820208968
 31
0.0
  0
LINE
  5
109
330
F3
100
AcDbEntity
  8
0
  6
ByBlock
 62
     0
100
AcDbLine
 10
18.55504342598172
 20
9.080418202089678
 30
0.0
 11
17.71412555532922
 21
9.080418202089678
 31
0.0
  0
LINE
  5
10A
330
F3
100
AcDbEntity
  8
0
  6
ByBlock
 62
     0
100
AcDbLine
 10
17.89412555532922
 20
12.26791820208968
 30
0.0
 11
17.89412555532922
 21
11.13250153542301
 31
0.0
  0
LINE
  5
10B
330
F3
100
AcDbEntity
  8
0
  6
ByBlock
 62
     0
100
AcDbLine
 10
17.89412555532922
 20
9.080418202089678
 30
0.0
 11
17.89412555532922
 21
10.21583486875634
 31
0.0
  0
LINE
  5
10C
330
F3
100
AcDbEntity
  8
0
  6
ByBlock
 62
     0
100
AcDbLine
 10
18.01912555532922
 20
12.14291820208968
 30
0.0
 11
17.76912555532922
 21
12.39291820208968
 31
0.0
  0
LINE
  5
10D
330
F3
100
AcDbEntity
  8
0
  6
ByBlock
 62
     0
100
AcDbLine
 10
18.01912555532922
 20
8.955418202089678
 30
0.0
 11
17.76912555532922
 21
9.205418202089678
 31
0.0
  0
TEXT
  5
10E
330
F3
100
AcDbEntity
  8
0
  6
ByBlock
 62
     0
100
AcDbText
 10
17.95662555532922
 20
10.34083486875634
 30
0.0
 40
0.125
  1
3 3/16
 50
90.0
 72
     1
 11
17.89412555532922
 21
10.67416820208967
 31
0.0
100
AcDbText
 73
     2
  0
POINT
  5
110
330
F3
100
AcDbEntity
  8
DEFPOINTS
  6
ByBlock
 62
     0
100
AcDbPoint
 10
18.61754342598172
 20
12.26791820208968
 30
0.0
  0
POINT
  5
111
330
F3
100
AcDbEntity
  8
DEFPOINTS
  6
ByBlock
 62
     0
100
AcDbPoint
 10
18.61754342598172
 20
9.080418202089678
 30
0.0
  0
POINT
  5
112
330
F3
100
AcDbEntity
  8
DEFPOINTS
  6
ByBlock
 62
     0
100
AcDbPoint
 10
17.89412555532922
 20
9.080418202089678
 30
0.0
  0
ENDBLK
  5
113
330
F3
100
AcDbEntity
  8
0
100
AcDbBlockEnd
  0
BLOCK
  5
114
330
F4
100
AcDbEntity
  8
0
100
AcDbBlockBegin
  2
*D1
 70
     1
 10
0.0
 20
0.0
 30
0.0
  3
*D1
  1

  0
LINE
  5
115
330
F4
100
AcDbEntity
  8
0
  6
ByBlock
 62
     0
100
AcDbLine
 10
21.55504342598172
 20
2.494202841373773
 30
0.0
 11
22.60824729539162
 21
2.494202841373773
 31
0.0
  0
LINE
  5
116
330
F4
100
AcDbEntity
  8
0
  6
ByBlock
 62
     0
100
AcDbLine
 10
21.55504342598172
 20
-0.0682971586262262
 30
0.0
 11
22.60824729539162
 21
-0.0682971586262263
 31
0.0
  0
LINE
  5
117
330
F4
100
AcDbEntity
  8
0
  6
ByBlock
 62
     0
100
AcDbLine
 10
22.42824729539163
 20
2.494202841373773
 30
0.0
 11
22.42824729539163
 21
1.671286174707107
 31
0.0
  0
LINE
  5
118
330
F4
100
AcDbEntity
  8
0
  6
ByBlock
 62
     0
100
AcDbLine
 10
22.42824729539163
 20
-0.0682971586262263
 30
0.0
 11
22.42824729539163
 21
0.7546195080404406
 31
0.0
  0
LINE
  5
119
330
F4
100
AcDbEntity
  8
0
  6
ByBlock
 62
     0
100
AcDbLine
 10
22.55324729539163
 20
2.369202841373773
 30
0.0
 11
22.30324729539162
 21
2.619202841373773
 31
0.0
  0
LINE
  5
11A
330
F4
100
AcDbEntity
  8
0
  6
ByBlock
 62
     0
100
AcDbLine
 10
22.55324729539163
 20
-0.1932971586262262
 30
0.0
 11
22.30324729539162
 21
0.0567028413737738
 31
0.0
  0
TEXT
  5
11B
330
F4
100
AcDbEntity
  8
0
  6
ByBlock
 62
     0
100
AcDbText
 10
22.49074729539163
 20
0.8796195080404405
 30
0.0
 40
0.125
  1
2 9/16
 50
90.0
 72
     1
 11
22.42824729539163
 21
1.212952841373773
 31
0.0
100
AcDbText
 73
     2
  0
POINT
  5
11C
330
F4
100
AcDbEntity
  8
DEFPOINTS
  6
ByBlock
 62
     0
100
AcDbPoint
 10
21.49254342598172
 20
2.494202841373773
 30
0.0
  0
POINT
  5
11D
330
F4
100
AcDbEntity
  8
DEFPOINTS
  6
ByBlock
 62
     0
100
AcDbPoint
 10
21.49254342598172
 20
-0.0682971586262262
 30
0.0
  0
POINT
  5
11E
330
F4
100
AcDbEntity
  8
DEFPOINTS
  6
ByBlock
 62
     0
100
AcDbPoint
 10
22.42824729539163
 20
-0.0682971586262263
 30
0.0
  0
ENDBLK
  5
11F
330
F4
100
AcDbEntity
  8
0
100
AcDbBlockEnd
  0
BLOCK
  5
120
330
F5
100
AcDbEntity
  8
0
100
AcDbBlockBegin
  2
*D2
 70
     1
 10
0.0
 20
0.0
 30
0.0
  3
*D2
  1

  0
LINE
  5
121
330
F5
100
AcDbEntity
  8
0
  6
ByBlock
 62
     0
100
AcDbLine
 10
19.55479342598172
 20
5.780776721766072
 30
0.0
 11
19.55479342598172
 21
5.458633576765423
 31
0.0
  0
LINE
  5
122
330
F5
100
AcDbEntity
  8
0
  6
ByBlock
 62
     0
100
AcDbLine
 10
20.86779342598171
 20
5.780776721766072
 30
0.0
 11
20.86779342598171
 21
5.458633576765423
 31
0.0
  0
LINE
  5
123
330
F5
100
AcDbEntity
  8
0
  6
ByBlock
 62
     0
100
AcDbLine
 10
19.55479342598172
 20
5.638633576765423
 30
0.0
 11
19.30479342598172
 21
5.638633576765423
 31
0.0
  0
LINE
  5
124
330
F5
100
AcDbEntity
  8
0
  6
ByBlock
 62
     0
100
AcDbLine
 10
20.86779342598171
 20
5.638633576765423
 30
0.0
 11
21.11779342598172
 21
5.638633576765423
 31
0.0
  0
LINE
  5
125
330
F5
100
AcDbEntity
  8
0
  6
ByBlock
 62
     0
100
AcDbLine
 10
19.42979342598172
 20
5.513633576765423
 30
0.0
 11
19.67979342598172
 21
5.763633576765423
 31
0.0
  0
LINE
  5
126
330
F5
100
AcDbEntity
  8
0
  6
ByBlock
 62
     0
100
AcDbLine
 10
20.74279342598172
 20
5.513633576765423
 30
0.0
 11
20.99279342598172
 21
5.763633576765423
 31
0.0
  0
TEXT
  5
127
330
F5
100
AcDbEntity
  8
0
  6
ByBlock
 62
     0
100
AcDbText
 10
21.24279342598172
 20
5.576133576765423
 30
0.0
 40
0.125
  1
1 5/16
 72
     1
 11
21.55529342598172
 21
5.638633576765423
 31
0.0
100
AcDbText
 73
     2
  0
POINT
  5
128
330
F5
100
AcDbEntity
  8
DEFPOINTS
  6
ByBlock
 62
     0
100
AcDbPoint
 10
19.55479342598172
 20
5.843276721766072
 30
0.0
  0
POINT
  5
129
330
F5
100
AcDbEntity
  8
DEFPOINTS
  6
ByBlock
 62
     0
100
AcDbPoint
 10
20.86779342598171
 20
5.843276721766072
 30
0.0
  0
POINT
  5
12A
330
F5
100
AcDbEntity
  8
DEFPOINTS
  6
ByBlock
 62
     0
100
AcDbPoint
 10
20.86779342598171
 20
5.638633576765423
 30
0.0
  0
ENDBLK
  5
12B
330
F5
100
AcDbEntity
  8
0
100
AcDbBlockEnd
  0
BLOCK
  5
12C
330
F6
100
AcDbEntity
  8
0
100
AcDbBlockBegin
  2
*D3
 70
     1
 10
0.0
 20
0.0
 30
0.0
  3
*D3
  1

  0
LINE
  5
12D
330
F6
100
AcDbEntity
  8
0
  6
ByBlock
 62
     0
100
AcDbLine
 10
19.2498658951201
 20
6.284461411288262
 30
0.0
 11
19.2498658951201
 21
7.145176955641733
 31
0.0
  0
LINE
  5
12E
330
F6
100
AcDbEntity
  8
0
  6
ByBlock
 62
     0
100
AcDbLine
 10
21.1873658951201
 20
6.284461411288262
 30
0.0
 11
21.1873658951201
 21
7.145176955641733
 31
0.0
  0
LINE
  5
12F
330
F6
100
AcDbEntity
  8
0
  6
ByBlock
 62
     0
100
AcDbLine
 10
19.2498658951201
 20
6.965176955641734
 30
0.0
 11
19.73944922845343
 21
6.965176955641734
 31
0.0
  0
LINE
  5
130
330
F6
100
AcDbEntity
  8
0
  6
ByBlock
 62
     0
100
AcDbLine
 10
21.1873658951201
 20
6.965176955641734
 30
0.0
 11
20.69778256178677
 21
6.965176955641734
 31
0.0
  0
LINE
  5
131
330
F6
100
AcDbEntity
  8
0
  6
ByBlock
 62
     0
100
AcDbLine
 10
19.1248658951201
 20
6.840176955641734
 30
0.0
 11
19.3748658951201
 21
7.090176955641734
 31
0.0
  0
LINE
  5
132
330
F6
100
AcDbEntity
  8
0
  6
ByBlock
 62
     0
100
AcDbLine
 10
21.0623658951201
 20
6.840176955641734
 30
0.0
 11
21.3123658951201
 21
7.090176955641734
 31
0.0
  0
TEXT
  5
133
330
F6
100
AcDbEntity
  8
0
  6
ByBlock
 62
     0
100
AcDbText
 10
19.86444922845343
 20
6.902676955641734
 30
0.0
 40
0.125
  1
1 15/16
 72
     1
 11
20.2186158951201
 21
6.965176955641734
 31
0.0
100
AcDbText
 73
     2
  0
POINT
  5
134
330
F6
100
AcDbEntity
  8
DEFPOINTS
  6
ByBlock
 62
     0
100
AcDbPoint
 10
19.2498658951201
 20
6.221961411288262
 30
0.0
  0
POINT
  5
135
330
F6
100
AcDbEntity
  8
DEFPOINTS
  6
ByBlock
 62
     0
100
AcDbPoint
 10
21.1873658951201
 20
6.221961411288262
 30
0.0
  0
POINT
  5
136
330
F6
100
AcDbEntity
  8
DEFPOINTS
  6
ByBlock
 62
     0
100
AcDbPoint
 10
21.1873658951201
 20
6.965176955641734
 30
0.0
  0
ENDBLK
  5
137
330
F6
100
AcDbEntity
  8
0
100
AcDbBlockEnd
  0
BLOCK
  5
138
330
F7
100
AcDbEntity
  8
0
100
AcDbBlockBegin
  2
*D4
 70
     1
 10
0.0
 20
0.0
 30
0.0
  3
*D4
  1

  0
LINE
  5
139
330
F7
100
AcDbEntity
  8
0
  6
ByBlock
 62
     0
100
AcDbLine
 10
19.18004342598172
 20
7.580418202089679
 30
0.0
 11
17.71412555532922
 21
7.580418202089679
 31
0.0
  0
LINE
  5
13A
330
F7
100
AcDbEntity
  8
0
  6
ByBlock
 62
     0
100
AcDbLine
 10
18.86754342598172
 20
9.080418202089678
 30
0.0
 11
17.71412555532922
 21
9.080418202089678
 31
0.0
  0
LINE
  5
13B
330
F7
100
AcDbEntity
  8
0
  6
ByBlock
 62
     0
100
AcDbLine
 10
17.89412555532922
 20
7.580418202089679
 30
0.0
 11
17.89412555532922
 21
7.955418202089679
 31
0.0
  0
LINE
  5
13C
330
F7
100
AcDbEntity
  8
0
  6
ByBlock
 62
     0
100
AcDbLine
 10
17.89412555532922
 20
9.080418202089678
 30
0.0
 11
17.89412555532922
 21
8.705418202089678
 31
0.0
  0
LINE
  5
13D
330
F7
100
AcDbEntity
  8
0
  6
ByBlock
 62
     0
100
AcDbLine
 10
18.01912555532922
 20
7.455418202089679
 30
0.0
 11
17.76912555532922
 21
7.705418202089679
 31
0.0
  0
LINE
  5
13E
330
F7
100
AcDbEntity
  8
0
  6
ByBlock
 62
     0
100
AcDbLine
 10
18.01912555532922
 20
8.955418202089678
 30
0.0
 11
17.76912555532922
 21
9.205418202089678
 31
0.0
  0
TEXT
  5
13F
330
F7
100
AcDbEntity
  8
0
  6
ByBlock
 62
     0
100
AcDbText
 10
17.95662555532922
 20
8.080418202089678
 30
0.0
 40
0.125
  1
1 1/2
 50
90.0
 72
     1
 11
17.89412555532922
 21
8.330418202089678
 31
0.0
100
AcDbText
 73
     2
  0
POINT
  5
140
330
F7
100
AcDbEntity
  8
DEFPOINTS
  6
ByBlock
 62
     0
100
AcDbPoint
 10
19.24254342598172
 20
7.580418202089679
 30
0.0
  0
POINT
  5
141
330
F7
100
AcDbEntity
  8
DEFPOINTS
  6
ByBlock
 62
     0
100
AcDbPoint
 10
18.93004342598172
 20
9.080418202089678
 30
0.0
  0
POINT
  5
142
330
F7
100
AcDbEntity
  8
DEFPOINTS
  6
ByBlock
 62
     0
100
AcDbPoint
 10
17.89412555532922
 20
9.080418202089678
 30
0.0
  0
ENDBLK
  5
143
330
F7
100
AcDbEntity
  8
0
100
AcDbBlockEnd
  0
BLOCK
  5
144
330
F8
100
AcDbEntity
  8
0
100
AcDbBlockBegin
  2
*D5
 70
     1
 10
0.0
 20
0.0
 30
0.0
  3
*D5
  1

  0
LINE
  5
145
330
F8
100
AcDbEntity
  8
0
  6
ByBlock
 62
     0
100
AcDbLine
 10
18.49254342598172
 20
12.26791820208968
 30
0.0
 11
17.71412555532922
 21
12.26791820208968
 31
0.0
  0
LINE
  5
146
330
F8
100
AcDbEntity
  8
0
  6
ByBlock
 62
     0
100
AcDbLine
 10
19.18004342598172
 20
13.76791820208968
 30
0.0
 11
17.71412555532922
 21
13.76791820208968
 31
0.0
  0
LINE
  5
147
330
F8
100
AcDbEntity
  8
0
  6
ByBlock
 62
     0
100
AcDbLine
 10
17.89412555532922
 20
12.26791820208968
 30
0.0
 11
17.89412555532922
 21
12.64291820208968
 31
0.0
  0
LINE
  5
148
330
F8
100
AcDbEntity
  8
0
  6
ByBlock
 62
     0
100
AcDbLine
 10
17.89412555532922
 20
13.76791820208968
 30
0.0
 11
17.89412555532922
 21
13.39291820208968
 31
0.0
  0
LINE
  5
149
330
F8
100
AcDbEntity
  8
0
  6
ByBlock
 62
     0
100
AcDbLine
 10
18.01912555532922
 20
12.14291820208968
 30
0.0
 11
17.76912555532922
 21
12.39291820208968
 31
0.0
  0
LINE
  5
14A
330
F8
100
AcDbEntity
  8
0
  6
ByBlock
 62
     0
100
AcDbLine
 10
18.01912555532922
 20
13.64291820208968
 30
0.0
 11
17.76912555532922
 21
13.89291820208968
 31
0.0
  0
TEXT
  5
14B
330
F8
100
AcDbEntity
  8
0
  6
ByBlock
 62
     0
100
AcDbText
 10
17.95662555532922
 20
12.76791820208968
 30
0.0
 40
0.125
  1
1 1/2
 50
90.0
 72
     1
 11
17.89412555532922
 21
13.01791820208968
 31
0.0
100
AcDbText
 73
     2
  0
POINT
  5
14C
330
F8
100
AcDbEntity
  8
DEFPOINTS
  6
ByBlock
 62
     0
100
AcDbPoint
 10
18.55504342598172
 20
12.26791820208968
 30
0.0
  0
POINT
  5
14D
330
F8
100
AcDbEntity
  8
DEFPOINTS
  6
ByBlock
 62
     0
100
AcDbPoint
 10
19.24254342598172
 20
13.76791820208968
 30
0.0
  0
POINT
  5
14E
330
F8
100
AcDbEntity
  8
DEFPOINTS
  6
ByBlock
 62
     0
100
AcDbPoint
 10
17.89412555532922
 20
13.76791820208968
 30
0.0
  0
ENDBLK
  5
14F
330
F8
100
AcDbEntity
  8
0
100
AcDbBlockEnd
  0
BLOCK
  5
3A0
330
39F
100
AcDbEntity
  8
0
 62
     3
100
AcDbBlockBegin
  2
*D6
 70
     1
 10
0.0
 20
0.0
 30
0.0
  3
*D6
  1

  0
LINE
  5
3A1
330
39F
100
AcDbEntity
  8
ADPDIM
 62
     0
370
    -2
100
AcDbLine
 10
8.856792694658739
 20
4.818128313001169
 30
0.0
 11
8.856792694658739
 21
4.507341758440906
 31
0.0
  0
LINE
  5
3A2
330
39F
100
AcDbEntity
  8
ADPDIM
 62
     0
370
    -2
100
AcDbLine
 10
9.919292694658739
 20
4.818128313001169
 30
0.0
 11
9.919292694658739
 21
4.507341758440906
 31
0.0
  0
LINE
  5
3A3
330
39F
100
AcDbEntity
  8
ADPDIM
 62
     0
370
    -2
100
AcDbLine
 10
8.856792694658739
 20
4.687341758440906
 30
0.0
 11
8.606792694658739
 21
4.687341758440906
 31
0.0
  0
LINE
  5
3A4
330
39F
100
AcDbEntity
  8
ADPDIM
 62
     0
370
    -2
100
AcDbLine
 10
9.919292694658739
 20
4.687341758440906
 30
0.0
 11
10.16929269465874
 21
4.687341758440906
 31
0.0
  0
LINE
  5
3A5
330
39F
100
AcDbEntity
  8
ADPDIM
 62
     0
370
    -2
100
AcDbLine
 10
9.794292694658739
 20
4.562341758440906
 30
0.0
 11
10.04429269465874
 21
4.812341758440906
 31
0.0
  0
LINE
  5
3A6
330
39F
100
AcDbEntity
  8
ADPDIM
 62
     0
370
    -2
100
AcDbLine
 10
8.731792694658739
 20
4.562341758440906
 30
0.0
 11
8.981792694658739
 21
4.812341758440906
 31
0.0
  0
MTEXT
  5
3A7
330
39F
100
AcDbEntity
  8
ADPDIM
 62
     0
100
AcDbMText
 10
9.388042694658739
 20
4.687341758440906
 30
0.0
 40
0.125
 41
0.0
 71
     5
 72
     1
  1
\A1;1 1/16
 73
     1
 44
1.0
1001
ACAD
1000
MTEXTBEGIN
1070
    73
1070
     1
1070
    44
1040
1.0
1070
    74
1070
     0
1000
MTEXTEND
  0
POINT
  5
3A8
330
39F
100
AcDbEntity
  8
DEFPOINTS
 62
     0
100
AcDbPoint
 10
8.856792694658739
 20
4.880628313001169
 30
0.0
  0
POINT
  5
3A9
330
39F
100
AcDbEntity
  8
DEFPOINTS
 62
     0
100
AcDbPoint
 10
9.919292694658739
 20
4.880628313001169
 30
0.0
  0
POINT
  5
3AA
330
39F
100
AcDbEntity
  8
DEFPOINTS
 62
     0
100
AcDbPoint
 10
9.919292694658739
 20
4.687341758440906
 30
0.0
  0
ENDBLK
  5
3AB
330
39F
100
AcDbEntity
  8
0
 62
     3
100
AcDbBlockEnd
  0
BLOCK
  5
3AD
330
3AC
100
AcDbEntity
  8
0
100
AcDbBlockBegin
  2
*D7
 70
     1
 10
0.0
 20
0.0
 30
0.0
  3
*D7
  1

  0
LINE
  5
3AE
330
3AC
100
AcDbEntity
  8
ADPDIM
 62
     0
370
    -2
100
AcDbLine
 10
8.727959494558838
 20
4.647717422344203
 30
0.0
 11
8.727959494558838
 21
4.024125386649526
 31
0.0
  0
LINE
  5
3AF
330
3AC
100
AcDbEntity
  8
ADPDIM
 62
     0
370
    -2
100
AcDbLine
 10
10.04095949455883
 20
4.647717422344203
 30
0.0
 11
10.04095949455883
 21
4.024125386649526
 31
0.0
  0
LINE
  5
3B0
330
3AC
100
AcDbEntity
  8
ADPDIM
 62
     0
370
    -2
100
AcDbLine
 10
8.727959494558838
 20
4.204125386649526
 30
0.0
 11
8.946959494558836
 21
4.204125386649526
 31
0.0
  0
LINE
  5
3B1
330
3AC
100
AcDbEntity
  8
ADPDIM
 62
     0
370
    -2
100
AcDbLine
 10
10.04095949455883
 20
4.204125386649526
 30
0.0
 11
9.821959494558836
 21
4.204125386649526
 31
0.0
  0
LINE
  5
3B2
330
3AC
100
AcDbEntity
  8
ADPDIM
 62
     0
370
    -2
100
AcDbLine
 10
9.915959494558833
 20
4.079125386649526
 30
0.0
 11
10.16595949455883
 21
4.329125386649526
 31
0.0
  0
LINE
  5
3B3
330
3AC
100
AcDbEntity
  8
ADPDIM
 62
     0
370
    -2
100
AcDbLine
 10
8.602959494558838
 20
4.079125386649526
 30
0.0
 11
8.852959494558838
 21
4.329125386649526
 31
0.0
  0
MTEXT
  5
3B4
330
3AC
100
AcDbEntity
  8
ADPDIM
 62
     0
100
AcDbMText
 10
9.384459494558836
 20
4.204125386649526
 30
0.0
 40
0.125
 41
0.0
 71
     5
 72
     1
  1
\A1;1 5/16
 73
     1
 44
1.0
1001
ACAD
1000
MTEXTBEGIN
1070
    73
1070
     1
1070
    44
1040
1.0
1070
    74
1070
     0
1000
MTEXTEND
  0
POINT
  5
3B5
330
3AC
100
AcDbEntity
  8
DEFPOINTS
 62
     0
100
AcDbPoint
 10
8.727959494558838
 20
4.710217422344203
 30
0.0
  0
POINT
  5
3B6
330
3AC
100
AcDbEntity
  8
DEFPOINTS
 62
     0
100
AcDbPoint
 10
10.04095949455883
 20
4.710217422344203
 30
0.0
  0
POINT
  5
3B7
330
3AC
100
AcDbEntity
  8
DEFPOINTS
 62
     0
100
AcDbPoint
 10
10.04095949455883
 20
4.204125386649526
 30
0.0
  0
ENDBLK
  5
3B8
330
3AC
100
AcDbEntity
  8
0
100
AcDbBlockEnd
  0
BLOCK
  5
3BA
330
3B9
100
AcDbEntity
  8
0
100
AcDbBlockBegin
  2
*D8
 70
     1
 10
0.0
 20
0.0
 30
0.0
  3
*D8
  1

  0
LINE
  5
3BB
330
3B9
100
AcDbEntity
  8
ADPDIM
 62
     0
370
    -2
100
AcDbLine
 10
8.423031963697219
 20
5.151402111866393
 30
0.0
 11
8.423031963697219
 21
5.79190616544941
 31
0.0
  0
LINE
  5
3BC
330
3B9
100
AcDbEntity
  8
ADPDIM
 62
     0
370
    -2
100
AcDbLine
 10
10.36053196369722
 20
5.151402111866393
 30
0.0
 11
10.36053196369722
 21
5.79190616544941
 31
0.0
  0
LINE
  5
3BD
330
3B9
100
AcDbEntity
  8
ADPDIM
 62
     0
370
    -2
100
AcDbLine
 10
8.423031963697219
 20
5.61190616544941
 30
0.0
 11
8.912615297030553
 21
5.61190616544941
 31
0.0
  0
LINE
  5
3BE
330
3B9
100
AcDbEntity
  8
ADPDIM
 62
     0
370
    -2
100
AcDbLine
 10
10.36053196369722
 20
5.61190616544941
 30
0.0
 11
9.870948630363885
 21
5.61190616544941
 31
0.0
  0
MTEXT
  5
3BF
330
3B9
100
AcDbEntity
  8
ADPDIM
 62
     0
100
AcDbMText
 10
9.391781963697219
 20
5.622442651374126
 30
0.0
 40
0.125
 41
0.0
 71
     5
 72
     1
  1
\A1;1 15/16
 73
     1
 44
1.0
1001
ACAD
1000
MTEXTBEGIN
1070
    73
1070
     1
1070
    44
1040
1.0
1070
    74
1070
     0
1000
MTEXTEND
  0
LINE
  5
3C0
330
3B9
100
AcDbEntity
  8
ADPDIM
 62
     0
370
    -2
100
AcDbLine
 10
10.23553196369722
 20
5.48690616544941
 30
0.0
 11
10.48553196369722
 21
5.73690616544941
 31
0.0
  0
LINE
  5
3C1
330
3B9
100
AcDbEntity
  8
ADPDIM
 62
     0
370
    -2
100
AcDbLine
 10
8.298031963697219
 20
5.48690616544941
 30
0.0
 11
8.548031963697219
 21
5.73690616544941
 31
0.0
  0
POINT
  5
3C2
330
3B9
100
AcDbEntity
  8
DEFPOINTS
 62
     0
100
AcDbPoint
 10
8.423031963697219
 20
5.088902111866393
 30
0.0
  0
POINT
  5
3C3
330
3B9
100
AcDbEntity
  8
DEFPOINTS
 62
     0
100
AcDbPoint
 10
10.36053196369722
 20
5.088902111866393
 30
0.0
  0
POINT
  5
3C4
330
3B9
100
AcDbEntity
  8
DEFPOINTS
 62
     0
100
AcDbPoint
 10
10.36053196369722
 20
5.61190616544941
 30
0.0
  0
ENDBLK
  5
3C5
330
3B9
100
AcDbEntity
  8
0
100
AcDbBlockEnd
  0
BLOCK
  5
41C
330
411
100
AcDbEntity
  8
0
100
AcDbBlockBegin
  2
*D10
 70
     1
 10
0.0
 20
0.0
 30
0.0
  3
*D10
  1

  0
LINE
  5
438
330
411
100
AcDbEntity
  8
ADPDIM
 62
     0
370
    -2
100
AcDbLine
 10
19.55465795580403
 20
5.777501505087143
 30
0.0
 11
19.55465795580403
 21
5.153909469392466
 31
0.0
  0
LINE
  5
439
330
411
100
AcDbEntity
  8
ADPDIM
 62
     0
370
    -2
100
AcDbLine
 10
20.86765795580403
 20
5.777501505087143
 30
0.0
 11
20.86765795580403
 21
5.153909469392466
 31
0.0
  0
LINE
  5
43A
330
411
100
AcDbEntity
  8
ADPDIM
 62
     0
370
    -2
100
AcDbLine
 10
19.55465795580403
 20
5.333909469392466
 30
0.0
 11
19.77365795580403
 21
5.333909469392466
 31
0.0
  0
LINE
  5
43B
330
411
100
AcDbEntity
  8
ADPDIM
 62
     0
370
    -2
100
AcDbLine
 10
20.86765795580403
 20
5.333909469392466
 30
0.0
 11
20.64865795580403
 21
5.333909469392466
 31
0.0
  0
LINE
  5
43C
330
411
100
AcDbEntity
  8
ADPDIM
 62
     0
370
    -2
100
AcDbLine
 10
20.74265795580403
 20
5.208909469392466
 30
0.0
 11
20.99265795580403
 21
5.458909469392466
 31
0.0
  0
LINE
  5
43D
330
411
100
AcDbEntity
  8
ADPDIM
 62
     0
370
    -2
100
AcDbLine
 10
19.42965795580403
 20
5.208909469392466
 30
0.0
 11
19.67965795580403
 21
5.458909469392466
 31
0.0
  0
MTEXT
  5
43E
330
411
100
AcDbEntity
  8
ADPDIM
 62
     0
100
AcDbMText
 10
20.21115795580403
 20
5.333909469392466
 30
0.0
 40
0.125
 41
0.0
 71
     5
 72
     1
  1
\A1;1 5/16
 73
     1
 44
1.0
1001
ACAD
1000
MTEXTBEGIN
1070
    73
1070
     1
1070
    44
1040
1.0
1070
    74
1070
     0
1000
MTEXTEND
  0
POINT
  5
43F
330
411
100
AcDbEntity
  8
DEFPOINTS
 62
     0
100
AcDbPoint
 10
19.55465795580403
 20
5.840001505087143
 30
0.0
  0
POINT
  5
440
330
411
100
AcDbEntity
  8
DEFPOINTS
 62
     0
100
AcDbPoint
 10
20.86765795580403
 20
5.840001505087143
 30
0.0
  0
POINT
  5
441
330
411
100
AcDbEntity
  8
DEFPOINTS
 62
     0
100
AcDbPoint
 10
20.86765795580403
 20
5.333909469392466
 30
0.0
  0
ENDBLK
  5
41D
330
411
100
AcDbEntity
  8
0
100
AcDbBlockEnd
  0
BLOCK
  5
429
330
41E
100
AcDbEntity
  8
0
100
AcDbBlockBegin
  2
*D11
 70
     1
 10
0.0
 20
0.0
 30
0.0
  3
*D11
  1

  0
LINE
  5
442
330
41E
100
AcDbEntity
  8
ADPDIM
 62
     0
370
    -2
100
AcDbLine
 10
19.24973042494242
 20
6.281186194609333
 30
0.0
 11
19.24973042494242
 21
6.921690248192351
 31
0.0
  0
LINE
  5
443
330
41E
100
AcDbEntity
  8
ADPDIM
 62
     0
370
    -2
100
AcDbLine
 10
21.18723042494242
 20
6.281186194609333
 30
0.0
 11
21.18723042494242
 21
6.921690248192351
 31
0.0
  0
LINE
  5
444
330
41E
100
AcDbEntity
  8
ADPDIM
 62
     0
370
    -2
100
AcDbLine
 10
19.24973042494242
 20
6.741690248192351
 30
0.0
 11
19.73931375827575
 21
6.741690248192351
 31
0.0
  0
LINE
  5
445
330
41E
100
AcDbEntity
  8
ADPDIM
 62
     0
370
    -2
100
AcDbLine
 10
21.18723042494242
 20
6.741690248192351
 30
0.0
 11
20.69764709160908
 21
6.741690248192351
 31
0.0
  0
MTEXT
  5
446
330
41E
100
AcDbEntity
  8
ADPDIM
 62
     0
100
AcDbMText
 10
20.21848042494242
 20
6.752226734117066
 30
0.0
 40
0.125
 41
0.0
 71
     5
 72
     1
  1
\A1;1 15/16
 73
     1
 44
1.0
1001
ACAD
1000
MTEXTBEGIN
1070
    73
1070
     1
1070
    44
1040
1.0
1070
    74
1070
     0
1000
MTEXTEND
  0
LINE
  5
447
330
41E
100
AcDbEntity
  8
ADPDIM
 62
     0
370
    -2
100
AcDbLine
 10
21.06223042494242
 20
6.616690248192351
 30
0.0
 11
21.31223042494242
 21
6.866690248192351
 31
0.0
  0
LINE
  5
448
330
41E
100
AcDbEntity
  8
ADPDIM
 62
     0
370
    -2
100
AcDbLine
 10
19.12473042494242
 20
6.616690248192351
 30
0.0
 11
19.37473042494241
 21
6.866690248192351
 31
0.0
  0
POINT
  5
449
330
41E
100
AcDbEntity
  8
DEFPOINTS
 62
     0
100
AcDbPoint
 10
19.24973042494242
 20
6.218686194609333
 30
0.0
  0
POINT
  5
44A
330
41E
100
AcDbEntity
  8
DEFPOINTS
 62
     0
100
AcDbPoint
 10
21.18723042494242
 20
6.218686194609333
 30
0.0
  0
POINT
  5
44B
330
41E
100
AcDbEntity
  8
DEFPOINTS
 62
     0
100
AcDbPoint
 10
21.18723042494242
 20
6.741690248192351
 30
0.0
  0
ENDBLK
  5
42A
330
41E
100
AcDbEntity
  8
0
100
AcDbBlockEnd
  0
BLOCK
  5
436
330
42B
100
AcDbEntity
  8
0
100
AcDbBlockBegin
  2
*D12
 70
     1
 10
0.0
 20
0.0
 30
0.0
  3
*D12
  1

  0
LINE
  5
44C
330
42B
100
AcDbEntity
  8
ADPDIM
 62
     0
370
    -2
100
AcDbLine
 10
19.68349115590394
 20
5.94791239574411
 30
0.0
 11
19.68349115590394
 21
5.637125841183847
 31
0.0
  0
LINE
  5
44D
330
42B
100
AcDbEntity
  8
ADPDIM
 62
     0
370
    -2
100
AcDbLine
 10
20.74599115590394
 20
5.94791239574411
 30
0.0
 11
20.74599115590394
 21
5.637125841183847
 31
0.0
  0
LINE
  5
44E
330
42B
100
AcDbEntity
  8
ADPDIM
 62
     0
370
    -2
100
AcDbLine
 10
19.68349115590394
 20
5.817125841183846
 30
0.0
 11
19.43349115590393
 21
5.817125841183846
 31
0.0
  0
LINE
  5
44F
330
42B
100
AcDbEntity
  8
ADPDIM
 62
     0
370
    -2
100
AcDbLine
 10
20.74599115590394
 20
5.817125841183846
 30
0.0
 11
20.99599115590394
 21
5.817125841183846
 31
0.0
  0
LINE
  5
450
330
42B
100
AcDbEntity
  8
ADPDIM
 62
     0
370
    -2
100
AcDbLine
 10
20.62099115590394
 20
5.692125841183846
 30
0.0
 11
20.87099115590394
 21
5.942125841183846
 31
0.0
  0
LINE
  5
451
330
42B
100
AcDbEntity
  8
ADPDIM
 62
     0
370
    -2
100
AcDbLine
 10
19.55849115590394
 20
5.692125841183846
 30
0.0
 11
19.80849115590394
 21
5.942125841183846
 31
0.0
  0
MTEXT
  5
452
330
42B
100
AcDbEntity
  8
ADPDIM
 62
     0
100
AcDbMText
 10
20.21474115590394
 20
5.817125841183846
 30
0.0
 40
0.125
 41
0.0
 71
     5
 72
     1
  1
\A1;1 1/16
 73
     1
 44
1.0
1001
ACAD
1000
MTEXTBEGIN
1070
    73
1070
     1
1070
    44
1040
1.0
1070
    74
1070
     0
1000
MTEXTEND
  0
POINT
  5
453
330
42B
100
AcDbEntity
  8
DEFPOINTS
 62
     0
100
AcDbPoint
 10
19.68349115590394
 20
6.01041239574411
 30
0.0
  0
POINT
  5
454
330
42B
100
AcDbEntity
  8
DEFPOINTS
 62
     0
100
AcDbPoint
 10
20.74599115590394
 20
6.01041239574411
 30
0.0
  0
POINT
  5
455
330
42B
100
AcDbEntity
  8
DEFPOINTS
 62
     0
100
AcDbPoint
 10
20.74599115590394
 20
5.817125841183846
 30
0.0
  0
ENDBLK
  5
437
330
42B
100
AcDbEntity
  8
0
100
AcDbBlockEnd
  0
ENDSEC
  0
SECTION
  2
ENTITIES
  0
DIMENSION
  5
151
330
1E
100
AcDbEntity
  8
ADPDIM
100
AcDbDimension
  2
*D1
 10
22.42824729539163
 20
-0.0682971586262263
 30
0.0
 11
22.42824729539163
 21
1.212952841373773
 31
0.0
 71
     5
 42
-1.0
100
AcDbAlignedDimension
 13
21.49254342598172
 23
2.494202841373773
 33
0.0
 14
21.49254342598172
 24
-0.0682971586262262
 34
0.0
 50
90.0
100
AcDbRotatedDimension
  0
ARC
  5
153
330
1E
100
AcDbEntity
  8
ADP1DETAIL
100
AcDbCircle
 10
21.51041951811514
 20
6.900624148742121
 30
0.0
 40
0.5410609809819044
100
AcDbArc
 50
218.3829243804009
 51
275.3672628611653
  0
LINE
  5
154
330
1E
100
AcDbEntity
  8
ADP1DETAIL
100
AcDbLine
 10
21.56103007166784
 20
6.361935410220336
 30
0.0
 11
20.92913472091721
 21
6.361935410220336
 31
0.0
  0
LINE
  5
155
330
1E
100
AcDbEntity
  8
ADP1DETAIL
100
AcDbLine
 10
21.57603007166784
 20
6.311222360555905
 30
0.0
 11
20.9441347209172
 21
6.311222360555905
 31
0.0
  0
LINE
  5
156
330
1E
100
AcDbEntity
  8
ADP1DETAIL
100
AcDbLine
 10
21.80504342598172
 20
2.806702841373773
 30
0.0
 11
21.18004342598172
 21
2.806702841373773
 31
0.0
  0
LINE
  5
157
330
1E
100
AcDbEntity
  8
ADP1DETAIL
100
AcDbLine
 10
21.64825168038884
 20
2.64991109578089
 30
0.0
 11
21.02325168038884
 21
2.649911095780889
 31
0.0
  0
LINE
  5
158
330
1E
100
AcDbEntity
  8
ADP1DETAIL
100
AcDbLine
 10
21.02325168038884
 20
-0.2240054130333426
 30
0.0
 11
21.64825168038884
 21
-0.2240054130333426
 31
0.0
  0
LINE
  5
159
330
1E
100
AcDbEntity
  8
ADP1DETAIL
100
AcDbLine
 10
21.18004342598172
 20
-0.3807971586262262
 30
0.0
 11
21.80504342598172
 21
-0.3807971586262262
 31
0.0
  0
LINE
  5
15A
330
1E
100
AcDbEntity
  8
ADP1DETAIL
100
AcDbLine
 10
18.78713510889338
 20
5.828276721766069
 30
0.0
 11
21.62934006541094
 21
5.828276721766071
 31
0.0
  0
LINE
  5
15B
330
1E
100
AcDbEntity
  8
ADP1DETAIL
100
AcDbLine
 10
20.71183517157461
 20
2.494202841373773
 30
0.0
 11
20.71183517157461
 21
4.306702841373772
 31
0.0
  0
LINE
  5
15C
330
1E
100
AcDbEntity
  8
ADP1DETAIL
100
AcDbLine
 10
20.86754342598172
 20
2.494202841373773
 30
0.0
 11
20.86754342598172
 21
4.306702841373772
 31
0.0
  0
LINE
  5
15D
330
1E
100
AcDbEntity
  8
ADP1DETAIL
100
AcDbLine
 10
19.71075168038884
 20
4.306702841373772
 30
0.0
 11
19.71075168038884
 21
2.494202841373773
 31
0.0
  0
LINE
  5
15E
330
1E
100
AcDbEntity
  8
ADP1DETAIL
100
AcDbLine
 10
19.55504342598172
 20
4.306702841373772
 30
0.0
 11
19.55504342598172
 21
2.494202841373773
 31
0.0
  0
LINE
  5
15F
330
1E
100
AcDbEntity
  8
ADP1DETAIL
100
AcDbLine
 10
18.7743351715746
 20
2.64991109578089
 30
0.0
 11
18.7743351715746
 21
-0.2240054130333435
 31
0.0
  0
LINE
  5
160
330
1E
100
AcDbEntity
  8
ADP1DETAIL
100
AcDbLine
 10
18.61754342598172
 20
2.806702841373773
 30
0.0
 11
18.61754342598172
 21
-0.3807971586262262
 31
0.0
  0
LINE
  5
161
330
1E
100
AcDbEntity
  8
ADP1DETAIL
100
AcDbLine
 10
21.18004342598172
 20
-1.88079715862622
 30
0.0
 11
19.24254342598172
 21
-1.88079715862622
 31
0.0
  0
LINE
  5
162
330
1E
100
AcDbEntity
  8
ADP1DETAIL
100
AcDbLine
 10
19.24254342598172
 20
-0.0682971586262262
 30
0.0
 11
21.49254342598172
 21
-0.0682971586262262
 31
0.0
  0
LINE
  5
163
330
1E
100
AcDbEntity
  8
ADP1DETAIL
100
AcDbLine
 10
21.49254342598172
 20
2.494202841373773
 30
0.0
 11
18.93004342598172
 21
2.494202841373775
 31
0.0
  0
LINE
  5
164
330
1E
100
AcDbEntity
  8
ADP1DETAIL
100
AcDbLine
 10
19.05504342598172
 20
2.181702841373774
 30
0.0
 11
19.05504342598172
 21
0.2442028413737747
 31
0.0
  0
LINE
  5
165
330
1E
100
AcDbEntity
  8
ADP1DETAIL
100
AcDbLine
 10
18.93004342598172
 20
2.494202841373775
 30
0.0
 11
18.93004342598172
 21
-0.0682971586262262
 31
0.0
  0
LINE
  5
166
330
1E
100
AcDbEntity
  8
ADP1DETAIL
100
AcDbLine
 10
19.24254342598172
 20
-1.88079715862622
 30
0.0
 11
19.24254342598172
 21
-0.3807971586262244
 31
0.0
  0
LINE
  5
167
330
1E
100
AcDbEntity
  8
ADP1DETAIL
100
AcDbLine
 10
19.3993351715746
 20
-1.88079715862622
 30
0.0
 11
19.3993351715746
 21
-0.2240054130333409
 31
0.0
  0
LINE
  5
168
330
1E
100
AcDbEntity
  8
ADP1DETAIL
100
AcDbLine
 10
18.7743351715746
 20
-0.2240054130333435
 30
0.0
 11
19.3993351715746
 21
-0.2240054130333435
 31
0.0
  0
LINE
  5
169
330
1E
100
AcDbEntity
  8
ADP1DETAIL
100
AcDbLine
 10
18.61754342598172
 20
-0.3807971586262262
 30
0.0
 11
19.24254342598172
 21
-0.3807971586262262
 31
0.0
  0
LWPOLYLINE
  5
16A
330
1E
100
AcDbEntity
  8
ADP1DETAIL
100
AcDbPolyline
 90
        2
 70
     0
 43
0.0
 10
19.24254342598172
 20
-0.0682971586262262
 10
18.93004342598172
 20
-0.0682971586262262
  0
LWPOLYLINE
  5
16E
330
1E
100
AcDbEntity
  8
ADP1DETAIL
100
AcDbPolyline
 90
        4
 70
     0
 43
0.0
 10
19.05504342598172
 20
0.2442028413737711
 10
19.24254342598172
 20
0.2442028413737711
 10
19.24254342598172
 20
-0.0682971586262289
 10
19.05504342598172
 20
-0.0682971586262289
  0
LWPOLYLINE
  5
174
330
1E
100
AcDbEntity
  8
ADP1DETAIL
100
AcDbPolyline
 90
        4
 70
     0
 43
0.0
 10
19.05504342598172
 20
2.494202841373774
 10
19.24254342598172
 20
2.494202841373772
 10
19.24254342598172
 20
2.181702841373772
 10
19.05504342598172
 20
2.181702841373774
  0
LWPOLYLINE
  5
17A
330
1E
100
AcDbEntity
  8
ADP1DETAIL
100
AcDbPolyline
 90
        2
 70
     0
 43
0.0
 10
19.05504342598172
 20
2.494202841373773
 10
19.36754342598172
 20
2.494202841373773
  0
LINE
  5
17E
330
1E
100
AcDbEntity
  8
ADP1DETAIL
100
AcDbLine
 10
21.36754342598172
 20
2.181702841373774
 30
0.0
 11
21.36754342598172
 21
0.2442028413737747
 31
0.0
  0
LINE
  5
17F
330
1E
100
AcDbEntity
  8
ADP1DETAIL
100
AcDbLine
 10
21.49254342598172
 20
-0.0682971586262262
 30
0.0
 11
21.49254342598172
 21
2.494202841373773
 31
0.0
  0
LINE
  5
180
330
1E
100
AcDbEntity
  8
ADP1DETAIL
100
AcDbLine
 10
19.55504342598172
 20
-1.88079715862622
 30
0.0
 11
19.55504342598172
 21
-0.0682971586262244
 31
0.0
  0
LINE
  5
181
330
1E
100
AcDbEntity
  8
ADP1DETAIL
100
AcDbLine
 10
19.71075168038884
 20
-1.88079715862622
 30
0.0
 11
19.71075168038884
 21
-0.0682971586262244
 31
0.0
  0
LINE
  5
182
330
1E
100
AcDbEntity
  8
ADP1DETAIL
100
AcDbLine
 10
21.18004342598172
 20
-0.3807971586262244
 30
0.0
 11
21.18004342598172
 21
-1.88079715862622
 31
0.0
  0
LINE
  5
183
330
1E
100
AcDbEntity
  8
ADP1DETAIL
100
AcDbLine
 10
21.02325168038884
 20
-0.2240054130333391
 30
0.0
 11
21.02325168038884
 21
-1.88079715862622
 31
0.0
  0
LINE
  5
184
330
1E
100
AcDbEntity
  8
ADP1DETAIL
100
AcDbLine
 10
20.86754342598172
 20
-0.0682971586262244
 30
0.0
 11
20.86754342598172
 21
-1.88079715862622
 31
0.0
  0
LINE
  5
185
330
1E
100
AcDbEntity
  8
ADP1DETAIL
100
AcDbLine
 10
20.71183517157461
 20
-0.0682971586262244
 30
0.0
 11
20.71183517157461
 21
-1.88079715862622
 31
0.0
  0
LWPOLYLINE
  5
186
330
1E
100
AcDbEntity
  8
ADP1DETAIL
100
AcDbPolyline
 90
        4
 70
     0
 43
0.0
 10
21.36754342598172
 20
0.2442028413737711
 10
21.18004342598172
 20
0.2442028413737711
 10
21.18004342598172
 20
-0.0682971586262289
 10
21.36754342598172
 20
-0.0682971586262289
  0
LWPOLYLINE
  5
18C
330
1E
100
AcDbEntity
  8
ADP1DETAIL
100
AcDbPolyline
 90
        2
 70
     0
 43
0.0
 10
21.49254342598172
 20
-0.0682971586262262
 10
21.18004342598172
 20
-0.0682971586262262
  0
LWPOLYLINE
  5
190
330
1E
100
AcDbEntity
  8
ADP1DETAIL
100
AcDbPolyline
 90
        4
 70
     0
 43
0.0
 10
21.36754342598172
 20
2.494202841373774
 10
21.18004342598172
 20
2.494202841373772
 10
21.18004342598172
 20
2.181702841373772
 10
21.36754342598172
 20
2.181702841373774
  0
LINE
  5
198
330
1E
100
AcDbEntity
  8
ADP1DETAIL
100
AcDbLine
 10
21.18004342598172
 20
4.306702841373772
 30
0.0
 11
19.24254342598172
 21
4.306702841373772
 31
0.0
  0
LINE
  5
199
330
1E
100
AcDbEntity
  8
ADP1DETAIL
100
AcDbLine
 10
21.08629342598172
 20
6.564671706999641
 30
0.0
 11
19.33629342598172
 21
6.564671706999643
 31
0.0
  0
LINE
  5
19A
330
1E
100
AcDbEntity
  8
ADP1DETAIL
100
AcDbLine
 10
19.3993351715746
 20
4.306702841373772
 30
0.0
 11
19.3993351715746
 21
2.64991109578089
 31
0.0
  0
LINE
  5
19B
330
1E
100
AcDbEntity
  8
ADP1DETAIL
100
AcDbLine
 10
19.24254342598172
 20
4.306702841373772
 30
0.0
 11
19.24254342598172
 21
2.806702841373773
 31
0.0
  0
LINE
  5
19C
330
1E
100
AcDbEntity
  8
ADP1DETAIL
100
AcDbLine
 10
19.24254342598172
 20
2.806702841373773
 30
0.0
 11
18.61754342598172
 21
2.806702841373773
 31
0.0
  0
LINE
  5
19D
330
1E
100
AcDbEntity
  8
ADP1DETAIL
100
AcDbLine
 10
19.3993351715746
 20
2.64991109578089
 30
0.0
 11
18.7743351715746
 21
2.64991109578089
 31
0.0
  0
ARC
  5
19E
330
1E
100
AcDbEntity
  8
ADP1DETAIL
100
AcDbCircle
 10
18.75382315123792
 20
6.157291929161267
 30
0.0
 40
0.1559999999999998
100
AcDbArc
 50
80.65678061822479
 51
230.3615138867189
  0
ARC
  5
1A0
330
1E
100
AcDbEntity
  8
ADP1DETAIL
100
AcDbCircle
 10
18.56755088423371
 20
5.835315616094774
 30
0.0
 40
0.2196970135271751
100
AcDbArc
 50
358.1639806528344
 51
66.74166570965842
  0
LINE
  5
1A2
330
1E
100
AcDbEntity
  8
ADP1DETAIL
100
AcDbLine
 10
19.49345213104624
 20
6.361935410220336
 30
0.0
 11
18.85544510263648
 21
6.361935410220336
 31
0.0
  0
ARC
  5
1A3
330
1E
100
AcDbEntity
  8
ADP1DETAIL
100
AcDbCircle
 10
18.91063015303936
 20
6.902652197640216
 30
0.0
 40
0.5435255596433758
100
AcDbArc
 50
264.1726231069675
 51
321.5501068260153
  0
LINE
  5
1A4
330
1E
100
AcDbEntity
  8
ADP1DETAIL
100
AcDbLine
 10
19.47845213104624
 20
6.311222360555905
 30
0.0
 11
18.84044510263648
 21
6.311222360555905
 31
0.0
  0
LINE
  5
1A5
330
1E
100
AcDbEntity
  8
ADP1DETAIL
100
AcDbLine
 10
18.84044510263648
 20
6.311222360555905
 30
0.0
 11
18.77914946740628
 21
6.311222360555905
 31
0.0
  0
ARC
  5
1A6
330
1E
100
AcDbEntity
  8
ADP1DETAIL
100
AcDbCircle
 10
18.84044510263648
 20
6.326222360555906
 30
0.0
 40
0.015
100
AcDbArc
 50
270.0
 51
0.0
  0
LINE
  5
1A7
330
1E
100
AcDbEntity
  8
ADP1DETAIL
100
AcDbLine
 10
18.85544510263648
 20
6.326222360555906
 30
0.0
 11
18.85544510263648
 21
6.361935410220336
 31
0.0
  0
LINE
  5
1AD
330
1E
100
AcDbEntity
  8
ADP1DETAIL
100
AcDbLine
 10
21.02325168038884
 20
2.649911095780889
 30
0.0
 11
21.02325168038884
 21
4.306702841373772
 31
0.0
  0
LINE
  5
1AE
330
1E
100
AcDbEntity
  8
ADP1DETAIL
100
AcDbLine
 10
21.18004342598172
 20
2.806702841373773
 30
0.0
 11
21.18004342598172
 21
4.306702841373772
 31
0.0
  0
LINE
  5
1C6
330
1E
100
AcDbEntity
  8
ADP1DETAIL
100
AcDbLine
 10
21.64825168038884
 20
-0.2240054130333426
 30
0.0
 11
21.64825168038884
 21
2.64991109578089
 31
0.0
  0
LINE
  5
1C7
330
1E
100
AcDbEntity
  8
ADP1DETAIL
100
AcDbLine
 10
21.80504342598172
 20
-0.3807971586262262
 30
0.0
 11
21.80504342598172
 21
2.806702841373773
 31
0.0
  0
ARC
  5
1C8
330
1E
100
AcDbEntity
  8
ADP1DETAIL
100
AcDbCircle
 10
21.84892429007062
 20
5.835315616094771
 30
0.0
 40
0.2196970135271803
100
AcDbArc
 50
113.2583342903419
 51
181.8360193471644
  0
ARC
  5
1C9
330
1E
100
AcDbEntity
  8
ADP1DETAIL
100
AcDbCircle
 10
21.66265202306641
 20
6.157291929161267
 30
0.0
 40
0.1559999999999996
100
AcDbArc
 50
309.6384861132802
 51
99.34321938177591
  0
LINE
  5
1CA
330
1E
100
AcDbEntity
  8
ADP1DETAIL
100
AcDbLine
 10
21.57603007166784
 20
6.311222360555905
 30
0.0
 11
21.63732570689804
 21
6.311222360555905
 31
0.0
  0
LINE
  5
1CB
330
1E
100
AcDbEntity
  8
ADP1DETAIL
100
AcDbLine
 10
21.56103007166784
 20
6.326222360555906
 30
0.0
 11
21.56103007166784
 21
6.361935410220336
 31
0.0
  0
ARC
  5
1CC
330
1E
100
AcDbEntity
  8
ADP1DETAIL
100
AcDbCircle
 10
21.57603007166784
 20
6.326222360555906
 30
0.0
 40
0.015
100
AcDbArc
 50
180.0
 51
270.0
  0
LINE
  5
1CD
330
1E
100
AcDbEntity
  8
ADP1DETAIL
100
AcDbLine
 10
20.92964794545632
 20
12.01752272156427
 30
0.0
 11
21.55464794545632
 21
12.01752272156427
 31
0.0
  0
LINE
  5
1CE
330
1E
100
AcDbEntity
  8
ADP1DETAIL
100
AcDbLine
 10
21.18004342598172
 20
12.26791820208968
 30
0.0
 11
21.80504342598172
 21
12.26791820208968
 31
0.0
  0
LINE
  5
1CF
330
1E
100
AcDbEntity
  8
ADP1DETAIL
100
AcDbLine
 10
21.55464794545632
 20
9.330813682615083
 30
0.0
 11
20.92964794545631
 21
9.330813682615083
 31
0.0
  0
LINE
  5
1D0
330
1E
100
AcDbEntity
  8
ADP1DETAIL
100
AcDbLine
 10
21.80504342598172
 20
9.080418202089678
 30
0.0
 11
21.18004342598172
 21
9.080418202089678
 31
0.0
  0
LINE
  5
1D1
330
1E
100
AcDbEntity
  8
ADP1DETAIL
100
AcDbLine
 10
21.80504342598172
 20
9.080418202089678
 30
0.0
 11
21.08629342598172
 21
9.799168202089676
 31
0.0
  0
LINE
  5
1D2
330
1E
100
AcDbEntity
  8
ADP1DETAIL
100
AcDbLine
 10
21.08629342598172
 20
11.54916820208968
 30
0.0
 11
21.80504342598172
 21
12.26791820208968
 31
0.0
  0
DIMENSION
  5
1D3
330
1E
100
AcDbEntity
  8
ADPDIM
100
AcDbDimension
  2
*D0
 10
17.89412555532922
 20
9.080418202089678
 30
0.0
 11
17.89412555532922
 21
10.67416820208967
 31
0.0
 71
     5
 42
-1.0
100
AcDbAlignedDimension
 13
18.61754342598172
 23
12.26791820208968
 33
0.0
 14
18.61754342598172
 24
9.080418202089678
 34
0.0
 50
90.0
100
AcDbRotatedDimension
  0
LINE
  5
1D4
330
1E
100
AcDbEntity
  8
ADP1DETAIL
100
AcDbLine
 10
20.46129342598172
 20
11.54916820208968
 30
0.0
 11
21.18004342598172
 21
12.26791820208968
 31
0.0
  0
LINE
  5
1D5
330
1E
100
AcDbEntity
  8
ADP1DETAIL
100
AcDbLine
 10
18.86793890650713
 20
9.330813682615085
 30
0.0
 11
18.86793890650713
 21
12.01752272156427
 31
0.0
  0
LINE
  5
1D6
330
1E
100
AcDbEntity
  8
ADP1DETAIL
100
AcDbLine
 10
18.61754342598172
 20
9.080418202089678
 30
0.0
 11
18.61754342598172
 21
12.26791820208968
 31
0.0
  0
LINE
  5
1D7
330
1E
100
AcDbEntity
  8
ADP1DETAIL
100
AcDbLine
 10
19.33629342598172
 20
11.54916820208968
 30
0.0
 11
18.61754342598172
 21
12.26791820208968
 31
0.0
  0
LINE
  5
1D8
330
1E
100
AcDbEntity
  8
ADP1DETAIL
100
AcDbLine
 10
19.96129342598172
 20
11.54916820208968
 30
0.0
 11
19.24254342598172
 21
12.26791820208968
 31
0.0
  0
LINE
  5
1D9
330
1E
100
AcDbEntity
  8
ADP1DETAIL
100
AcDbLine
 10
19.24254342598172
 20
9.080418202089678
 30
0.0
 11
19.96129342598172
 21
9.799168202089678
 31
0.0
  0
LINE
  5
1DA
330
1E
100
AcDbEntity
  8
ADP1DETAIL
100
AcDbLine
 10
21.18004342598172
 20
7.580418202089679
 30
0.0
 11
19.24254342598172
 21
7.580418202089679
 31
0.0
  0
LINE
  5
1DB
330
1E
100
AcDbEntity
  8
ADP1DETAIL
100
AcDbLine
 10
21.08629342598172
 20
9.799168202089676
 30
0.0
 11
19.33629342598172
 21
9.799168202089678
 31
0.0
  0
LINE
  5
1DC
330
1E
100
AcDbEntity
  8
ADP1DETAIL
100
AcDbLine
 10
19.33629342598172
 20
11.54916820208968
 30
0.0
 11
21.08629342598172
 21
11.54916820208968
 31
0.0
  0
LINE
  5
1DD
330
1E
100
AcDbEntity
  8
ADP1DETAIL
100
AcDbLine
 10
18.61754342598172
 20
9.080418202089678
 30
0.0
 11
19.33629342598172
 21
9.799168202089678
 31
0.0
  0
DIMENSION
  5
1DE
330
1E
100
AcDbEntity
  8
ADPDIM
100
AcDbDimension
  2
*D4
 10
17.89412555532922
 20
9.080418202089678
 30
0.0
 11
17.89412555532922
 21
8.330418202089678
 31
0.0
 71
     5
 42
-1.0
100
AcDbAlignedDimension
 13
19.24254342598172
 23
7.580418202089679
 33
0.0
 14
18.93004342598172
 24
9.080418202089678
 34
0.0
 50
90.0
100
AcDbRotatedDimension
  0
LINE
  5
1DF
330
1E
100
AcDbEntity
  8
ADP1DETAIL
100
AcDbLine
 10
19.49293890650713
 20
7.580418202089679
 30
0.0
 11
19.49293890650713
 21
9.330813682615083
 31
0.0
  0
LINE
  5
1E0
330
1E
100
AcDbEntity
  8
ADP1DETAIL
100
AcDbLine
 10
19.24254342598172
 20
7.580418202089679
 30
0.0
 11
19.24254342598172
 21
9.080418202089678
 31
0.0
  0
LINE
  5
1E1
330
1E
100
AcDbEntity
  8
ADP1DETAIL
100
AcDbLine
 10
19.24254342598172
 20
9.080418202089678
 30
0.0
 11
18.61754342598172
 21
9.080418202089678
 31
0.0
  0
LINE
  5
1E2
330
1E
100
AcDbEntity
  8
ADP1DETAIL
100
AcDbLine
 10
19.49293890650713
 20
9.330813682615085
 30
0.0
 11
18.86793890650713
 21
9.330813682615085
 31
0.0
  0
LINE
  5
1E3
330
1E
100
AcDbEntity
  8
ADP1DETAIL
100
AcDbLine
 10
19.33629342598172
 20
9.799168202089678
 30
0.0
 11
19.33629342598172
 21
11.54916820208968
 31
0.0
  0
LINE
  5
1E4
330
1E
100
AcDbEntity
  8
ADP1DETAIL
100
AcDbLine
 10
21.18004342598172
 20
9.080418202089678
 30
0.0
 11
20.46129342598172
 21
9.799168202089676
 31
0.0
  0
LINE
  5
1E5
330
1E
100
AcDbEntity
  8
ADP1DETAIL
100
AcDbLine
 10
20.92964794545631
 20
9.330813682615081
 30
0.0
 11
20.92964794545631
 21
7.580418202089679
 31
0.0
  0
LINE
  5
1E6
330
1E
100
AcDbEntity
  8
ADP1DETAIL
100
AcDbLine
 10
21.18004342598172
 20
9.080418202089678
 30
0.0
 11
21.18004342598172
 21
7.580418202089679
 31
0.0
  0
LINE
  5
1E7
330
1E
100
AcDbEntity
  8
ADP1DETAIL
100
AcDbLine
 10
21.08629342598172
 20
11.54916820208968
 30
0.0
 11
21.08629342598172
 21
9.799168202089676
 31
0.0
  0
LINE
  5
1E8
330
1E
100
AcDbEntity
  8
ADP1DETAIL
100
AcDbLine
 10
21.18004342598172
 20
13.76791820208968
 30
0.0
 11
19.24254342598172
 21
13.76791820208968
 31
0.0
  0
DIMENSION
  5
1E9
330
1E
100
AcDbEntity
  8
ADPDIM
100
AcDbDimension
  2
*D5
 10
17.89412555532922
 20
13.76791820208968
 30
0.0
 11
17.89412555532922
 21
13.01791820208968
 31
0.0
 71
     5
 42
-1.0
100
AcDbAlignedDimension
 13
18.55504342598172
 23
12.26791820208968
 33
0.0
 14
19.24254342598172
 24
13.76791820208968
 34
0.0
 50
90.0
100
AcDbRotatedDimension
  0
LINE
  5
1EA
330
1E
100
AcDbEntity
  8
ADP1DETAIL
100
AcDbLine
 10
19.49293890650713
 20
13.76791820208968
 30
0.0
 11
19.49293890650713
 21
12.01752272156427
 31
0.0
  0
LINE
  5
1EB
330
1E
100
AcDbEntity
  8
ADP1DETAIL
100
AcDbLine
 10
19.24254342598172
 20
13.76791820208968
 30
0.0
 11
19.24254342598172
 21
12.26791820208968
 31
0.0
  0
LINE
  5
1EC
330
1E
100
AcDbEntity
  8
ADP1DETAIL
100
AcDbLine
 10
18.61754342598172
 20
12.26791820208968
 30
0.0
 11
19.24254342598172
 21
12.26791820208968
 31
0.0
  0
LINE
  5
1ED
330
1E
100
AcDbEntity
  8
ADP1DETAIL
100
AcDbLine
 10
18.86793890650713
 20
12.01752272156427
 30
0.0
 11
19.49293890650713
 21
12.01752272156427
 31
0.0
  0
LINE
  5
1EE
330
1E
100
AcDbEntity
  8
ADP1DETAIL
100
AcDbLine
 10
20.92964794545631
 20
12.01752272156427
 30
0.0
 11
20.92964794545631
 21
13.76791820208968
 31
0.0
  0
LINE
  5
1EF
330
1E
100
AcDbEntity
  8
ADP1DETAIL
100
AcDbLine
 10
21.18004342598172
 20
12.26791820208968
 30
0.0
 11
21.18004342598172
 21
13.76791820208968
 31
0.0
  0
LINE
  5
1F0
330
1E
100
AcDbEntity
  8
ADP1DETAIL
100
AcDbLine
 10
21.55464794545632
 20
12.01752272156427
 30
0.0
 11
21.55464794545632
 21
9.330813682615083
 31
0.0
  0
LINE
  5
1F1
330
1E
100
AcDbEntity
  8
ADP1DETAIL
100
AcDbLine
 10
21.80504342598172
 20
12.26791820208968
 30
0.0
 11
21.80504342598172
 21
9.080418202089678
 31
0.0
  0
TEXT
  5
1F5
330
1E
100
AcDbEntity
  8
ADPDIM
100
AcDbText
 10
6.832520404153619
 20
-2.737136335377916
 30
0.0
 40
0.25
  1
J U L I U S  B L U M  &  C O . ,  I N C .      ( 8 0 0 )  5 2 6 - 6 2 9 3        W W W . J U L I U S B L U M . C O M        P A R T  N o .  6 9 3 4 - T
 41
1.25
  7
ARIAL_WIDE
 72
     1
 11
20.21129342598172
 21
-2.487136335377916
 31
0.0
100
AcDbText
 73
     3
  0
DIMENSION
  5
3EE
330
1E
100
AcDbEntity
  8
ADPDIM
100
AcDbDimension
  2
*D10
 10
20.86765795580403
 20
5.333909469392466
 30
0.0
 11
20.21115795580403
 21
5.333909469392466
 31
0.0
 70
    32
 71
     5
 42
1.312999999999995
  3
Standard
100
AcDbAlignedDimension
 13
19.55465795580403
 23
5.840001505087143
 33
0.0
 14
20.86765795580403
 24
5.840001505087143
 34
0.0
100
AcDbRotatedDimension
1001
ACAD
1000
DSTYLE
1002
{
1070
   276
1070
     2
1070
    41
1040
0.125
1070
    73
1070
     0
1070
    74
1070
     0
1070
    78
1070
     3
1070
   140
1040
0.125
1070
   141
1040
0.1875
1070
   142
1040
0.125
1070
   147
1040
0.125
1070
   171
1070
     1
1070
   273
1070
     5
1070
   274
1070
     1
1070
   277
1070
     5
1070
   279
1070
     2
1070
   284
1070
     3
1070
   285
1070
     3
1070
   286
1070
     3
1002
}
  0
LINE
  5
3EF
330
1E
100
AcDbEntity
  8
ADP1DETAIL
100
AcDbLine
 10
20.74215795580403
 20
6.196716171215414
 30
0.0
 11
20.20999925073951
 21
6.196716171215414
 31
0.0
  0
ARC
  5
3F0
330
1E
100
AcDbEntity
  8
ADP1DETAIL
100
AcDbCircle
 10
20.20999925073951
 20
5.811397385386197
 30
0.0
 40
0.7500000000000019
100
AcDbArc
 50
65.35881699432436
 51
89.91148141825673
  0
DIMENSION
  5
3F1
330
1E
100
AcDbEntity
  8
ADPDIM
100
AcDbDimension
  2
*D11
 10
21.18723042494242
 20
6.741690248192351
 30
0.0
 11
20.21848042494242
 21
6.752226734117066
 31
0.0
 70
   160
 71
     5
 42
1.9375
  3
Standard
100
AcDbAlignedDimension
 13
19.24973042494242
 23
6.218686194609333
 33
0.0
 14
21.18723042494242
 24
6.218686194609333
 34
0.0
100
AcDbRotatedDimension
1001
ACAD
1000
DSTYLE
1002
{
1070
   276
1070
     2
1070
    41
1040
0.125
1070
    73
1070
     0
1070
    74
1070
     0
1070
    78
1070
     3
1070
   140
1040
0.125
1070
   141
1040
0.1875
1070
   142
1040
0.125
1070
   147
1040
0.125
1070
   171
1070
     1
1070
   273
1070
     5
1070
   274
1070
     1
1070
   277
1070
     5
1070
   279
1070
     2
1070
   284
1070
     3
1070
   285
1070
     3
1070
   286
1070
     3
1002
}
  0
ARC
  5
3F2
330
1E
100
AcDbEntity
  8
ADP1DETAIL
100
AcDbCircle
 10
19.49331666086855
 20
7.123513120580324
 30
0.0
 40
0.7499999999999969
100
AcDbArc
 50
271.1235186577002
 51
302.8016517379419
  0
ARC
  5
3F3
330
1E
100
AcDbEntity
  8
ADP1DETAIL
100
AcDbCircle
 10
19.66515795580403
 20
6.023716171215416
 30
0.0
 40
0.015
100
AcDbArc
 50
270.0
 51
0.0
  0
ARC
  5
3F4
330
1E
100
AcDbEntity
  8
ADP1DETAIL
100
AcDbCircle
 10
19.39169470946999
 20
6.154016712482339
 30
0.0
 40
0.1559999999999998
100
AcDbArc
 50
80.65678061822477
 51
230.3615138867189
  0
ARC
  5
3F5
330
1E
100
AcDbEntity
  8
ADP1DETAIL
100
AcDbCircle
 10
19.20542244246578
 20
5.832040399415846
 30
0.0
 40
0.2196970135271751
100
AcDbArc
 50
358.1639806528343
 51
66.74166570965843
  0
LINE
  5
3F6
330
1E
100
AcDbEntity
  8
ADP1DETAIL
100
AcDbLine
 10
19.47831666086855
 20
6.307947143876977
 30
0.0
 11
19.41702102563835
 21
6.307947143876977
 31
0.0
  0
LINE
  5
3F7
330
1E
100
AcDbEntity
  8
ADP1DETAIL
100
AcDbLine
 10
19.56965795580403
 20
6.008716171215415
 30
0.0
 11
19.66515795580403
 21
6.008716171215415
 31
0.0
  0
ARC
  5
3F8
330
1E
100
AcDbEntity
  8
ADP1DETAIL
100
AcDbCircle
 10
19.56965795580403
 20
5.993716171215415
 30
0.0
 40
0.015
100
AcDbArc
 50
90.0
 51
180.0
  0
LINE
  5
3F9
330
1E
100
AcDbEntity
  8
ADP1DETAIL
100
AcDbLine
 10
19.55465795580403
 20
5.840001505087141
 30
0.0
 11
19.55465795580403
 21
5.993716171215415
 31
0.0
  0
LINE
  5
3FA
330
1E
100
AcDbEntity
  8
ADP1DETAIL
100
AcDbLine
 10
19.49331666086855
 20
6.322947143876977
 30
0.0
 11
19.49331666086855
 21
6.358660193541408
 31
0.0
  0
ARC
  5
3FB
330
1E
100
AcDbEntity
  8
ADP1DETAIL
100
AcDbCircle
 10
19.50831666086855
 20
6.358660193541408
 30
0.0
 40
0.015
100
AcDbArc
 50
91.12351865770264
 51
180.0
  0
ARC
  5
3FC
330
1E
100
AcDbEntity
  8
ADP1DETAIL
100
AcDbCircle
 10
19.47831666086855
 20
6.322947143876977
 30
0.0
 40
0.015
100
AcDbArc
 50
270.0
 51
0.0
  0
LINE
  5
3FD
330
1E
100
AcDbEntity
  8
ADP1DETAIL
100
AcDbLine
 10
19.42500666712545
 20
5.825001505087141
 30
0.0
 11
19.53965795580403
 21
5.825001505087141
 31
0.0
  0
ARC
  5
3FE
330
1E
100
AcDbEntity
  8
ADP1DETAIL
100
AcDbCircle
 10
19.53965795580403
 20
5.840001505087141
 30
0.0
 40
0.015
100
AcDbArc
 50
270.0
 51
0.0000000000003053
  0
LINE
  5
3FF
330
1E
100
AcDbEntity
  8
ADP1DETAIL
100
AcDbLine
 10
19.68015795580403
 20
6.196716171215414
 30
0.0
 11
20.21231666086855
 21
6.196716171215414
 31
0.0
  0
LINE
  5
400
330
1E
100
AcDbEntity
  8
ADP1DETAIL
100
AcDbLine
 10
19.68015795580403
 20
6.023716171215416
 30
0.0
 11
19.68015795580403
 21
6.196716171215414
 31
0.0
  0
ARC
  5
401
330
1E
100
AcDbEntity
  8
ADP1DETAIL
100
AcDbCircle
 10
20.21231666086856
 20
5.811397385386201
 30
0.0
 40
0.7499999999999986
100
AcDbArc
 50
90.08851858174326
 51
114.6411830056756
  0
ARC
  5
402
330
1E
100
AcDbEntity
  8
ADP1DETAIL
100
AcDbCircle
 10
21.03062120213808
 20
6.154016712482339
 30
0.0
 40
0.1559999999999996
100
AcDbArc
 50
309.6384861132801
 51
99.34321938177587
  0
ARC
  5
403
330
1E
100
AcDbEntity
  8
ADP1DETAIL
100
AcDbCircle
 10
21.21689346914229
 20
5.832040399415842
 30
0.0
 40
0.2196970135271803
100
AcDbArc
 50
113.258334290342
 51
181.8360193471644
  0
ARC
  5
404
330
1E
100
AcDbEntity
  8
ADP1DETAIL
100
AcDbCircle
 10
20.92899925073952
 20
7.123513120580324
 30
0.0
 40
0.75
100
AcDbArc
 50
237.1983482620581
 51
268.8764813422998
  0
ARC
  5
405
330
1E
100
AcDbEntity
  8
ADP1DETAIL
100
AcDbCircle
 10
20.94399925073951
 20
6.322947143876977
 30
0.0
 40
0.015
100
AcDbArc
 50
180.0
 51
270.0
  0
ARC
  5
406
330
1E
100
AcDbEntity
  8
ADP1DETAIL
100
AcDbCircle
 10
20.91399925073952
 20
6.358660193541408
 30
0.0
 40
0.015
100
AcDbArc
 50
0.0
 51
88.87648134229735
  0
LINE
  5
407
330
1E
100
AcDbEntity
  8
ADP1DETAIL
100
AcDbLine
 10
20.74215795580403
 20
6.023716171215416
 30
0.0
 11
20.74215795580403
 21
6.196716171215414
 31
0.0
  0
ARC
  5
408
330
1E
100
AcDbEntity
  8
ADP1DETAIL
100
AcDbCircle
 10
20.75715795580403
 20
6.023716171215416
 30
0.0
 40
0.015
100
AcDbArc
 50
180.0
 51
270.0
  0
LINE
  5
409
330
1E
100
AcDbEntity
  8
ADP1DETAIL
100
AcDbLine
 10
20.86765795580403
 20
5.840001505087141
 30
0.0
 11
20.86765795580403
 21
5.993716171215415
 31
0.0
  0
LINE
  5
40A
330
1E
100
AcDbEntity
  8
ADP1DETAIL
100
AcDbLine
 10
20.85265795580403
 20
6.008716171215415
 30
0.0
 11
20.75715795580403
 21
6.008716171215415
 31
0.0
  0
ARC
  5
40B
330
1E
100
AcDbEntity
  8
ADP1DETAIL
100
AcDbCircle
 10
20.85265795580403
 20
5.993716171215415
 30
0.0
 40
0.015
100
AcDbArc
 50
0.0
 51
90.0
  0
LINE
  5
40C
330
1E
100
AcDbEntity
  8
ADP1DETAIL
100
AcDbLine
 10
20.94399925073951
 20
6.307947143876977
 30
0.0
 11
21.00529488596971
 21
6.307947143876977
 31
0.0
  0
LINE
  5
40D
330
1E
100
AcDbEntity
  8
ADP1DETAIL
100
AcDbLine
 10
20.92899925073952
 20
6.322947143876977
 30
0.0
 11
20.92899925073952
 21
6.358660193541408
 31
0.0
  0
LINE
  5
40E
330
1E
100
AcDbEntity
  8
ADP1DETAIL
100
AcDbLine
 10
20.99730924448261
 20
5.825001505087141
 30
0.0
 11
20.88265795580403
 21
5.825001505087141
 31
0.0
  0
ARC
  5
40F
330
1E
100
AcDbEntity
  8
ADP1DETAIL
100
AcDbCircle
 10
20.88265795580403
 20
5.840001505087141
 30
0.0
 40
0.015
100
AcDbArc
 50
179.9999999999997
 51
270.0
  0
DIMENSION
  5
410
330
1E
100
AcDbEntity
  8
ADPDIM
 62
     3
100
AcDbDimension
  2
*D12
 10
20.74599115590394
 20
5.817125841183846
 30
0.0
 11
20.21474115590394
 21
5.817125841183846
 31
0.0
 70
    32
 71
     5
 42
1.0625
  3
Standard
100
AcDbAlignedDimension
 13
19.68349115590394
 23
6.01041239574411
 33
0.0
 14
20.74599115590394
 24
6.01041239574411
 34
0.0
100
AcDbRotatedDimension
1001
ACAD
1000
DSTYLE
1002
{
1070
   276
1070
     2
1070
    41
1040
0.125
1070
    73
1070
     0
1070
    74
1070
     0
1070
    78
1070
     3
1070
   140
1040
0.125
1070
   141
1040
0.1875
1070
   142
1040
0.125
1070
   147
1040
0.125
1070
   171
1070
     1
1070
   273
1070
     5
1070
   274
1070
     1
1070
   277
1070
     5
1070
   279
1070
     2
1070
   284
1070
     3
1070
   285
1070
     3
1070
   286
1070
     3
1002
}
  0
ENDSEC
  0
SECTION
  2
OBJECTS
  0
DICTIONARY
  5
C
330
0
100
AcDbDictionary
281
     1
  3
ACAD_COLOR
350
399
  3
ACAD_GROUP
350
D
  3
ACAD_LAYOUT
350
19
  3
ACAD_MATERIAL
350
384
  3
ACAD_MLINESTYLE
350
16
  3
ACAD_PLOTSETTINGS
350
18
  3
ACAD_PLOTSTYLENAME
350
E
  3
ACAD_TABLESTYLE
350
39A
  3
ACAD_VISUALSTYLE
350
388
  3
AcDbVariableDictionary
350
266
  3
DWGPROPS
350
473
  0
DICTIONARY
  5
231
330
1E
100
AcDbDictionary
280
     1
281
     1
  3
ACAD_LAYOUTSELFREF
360
380
  0
DICTIONARY
  5
233
330
1A
100
AcDbDictionary
280
     1
281
     1
  3
ACAD_LAYOUTSELFREF
360
37F
  0
DICTIONARY
  5
399
102
{ACAD_REACTORS
330
C
102
}
330
C
100
AcDbDictionary
281
     1
  0
DICTIONARY
  5
D
102
{ACAD_REACTORS
330
C
102
}
330
C
100
AcDbDictionary
281
     1
  0
DICTIONARY
  5
19
102
{ACAD_REACTORS
330
C
102
}
330
C
100
AcDbDictionary
281
     1
  3
Layout1
350
1D
  3
Model
350
21
  0
DICTIONARY
  5
384
102
{ACAD_REACTORS
330
C
102
}
330
C
100
AcDbDictionary
281
     1
  3
ByBlock
350
386
  3
ByLayer
350
385
  3
Global
350
387
  0
DICTIONARY
  5
16
102
{ACAD_REACTORS
330
C
102
}
330
C
100
AcDbDictionary
281
     1
  3
Standard
350
17
  0
DICTIONARY
  5
18
102
{ACAD_REACTORS
330
C
102
}
330
C
100
AcDbDictionary
281
     1
  0
ACDBDICTIONARYWDFLT
  5
E
102
{ACAD_REACTORS
330
C
102
}
330
C
100
AcDbDictionary
281
     1
  3
Normal
350
F
100
AcDbDictionaryWithDefault
340
F
  0
DICTIONARY
  5
39A
102
{ACAD_REACTORS
330
C
102
}
330
C
100
AcDbDictionary
281
     1
  3
Standard
350
39B
  0
DICTIONARY
  5
388
102
{ACAD_REACTORS
330
C
102
}
330
C
100
AcDbDictionary
281
     1
  3
2dWireframe
350
38E
  3
3D Hidden
350
390
  3
3dWireframe
350
38F
  3
Basic
350
38D
  3
Brighten
350
394
  3
ColorChange
350
398
  3
Conceptual
350
391
  3
Dim
350
393
  3
Facepattern
350
397
  3
Flat
350
389
  3
FlatWithEdges
350
38A
  3
Gouraud
350
38B
  3
GouraudWithEdges
350
38C
  3
Linepattern
350
396
  3
Realistic
350
392
  3
Thicken
350
395
  0
DICTIONARY
  5
266
102
{ACAD_REACTORS
330
C
102
}
330
C
100
AcDbDictionary
281
     1
  3
CTABLESTYLE
350
470
  3
DIMASSOC
350
268
  3
HIDETEXT
350
267
  3
INDEXCTL
350
472
  3
SORTENTS
350
471
  0
XRECORD
  5
473
102
{ACAD_REACTORS
330
C
102
}
330
C
100
AcDbXrecord
280
     1
  1
DWGPROPS COOKIE
  2

  3

  4

  6

  7

  8
Yu Hu
  9

300
=
301
=
302
=
303
=
304
=
305
=
306
=
307
=
308
=
309
=
 40
0.0326884143518519
 41
2450399.684098762
 42
2453984.943541829
  1

 90
        0
  0
XRECORD
  5
380
102
{ACAD_REACTORS
330
231
102
}
330
231
100
AcDbXrecord
280
     1
340
1E
  0
XRECORD
  5
37F
102
{ACAD_REACTORS
330
233
102
}
330
233
100
AcDbXrecord
280
     1
340
1A
  0
LAYOUT
  5
1D
102
{ACAD_XDICTIONARY
360
474
102
}
102
{ACAD_REACTORS
330
19
102
}
330
19
100
AcDbPlotSettings
  1

  2
Fax
  4

  6

 40
0.0
 41
0.0
 42
0.0
 43
0.0
 44
0.0
 45
0.0
 46
0.0
 47
0.0
 48
0.0
 49
0.0
140
0.0
141
0.0
142
1.0
143
1.0
 70
   688
 72
     0
 73
     0
 74
     5
  7
Default R14 pen assignments.ctb
 75
    16
147
1.0
148
0.0
149
0.0
100
AcDbLayout
  1
Layout1
 70
     1
 71
     1
 10
0.0
 20
0.0
 11
12.0
 21
9.0
 12
0.0004882914945483
 22
0.7501408034022604
 32
0.0
 14
1.000000000000000E+20
 24
1.000000000000000E+20
 34
1.000000000000000E+20
 15
-1.000000000000000E+20
 25
-1.000000000000000E+20
 35
-1.000000000000000E+20
146
0.0
 13
0.0
 23
0.0
 33
0.0
 16
1.0
 26
0.0
 36
0.0
 17
0.0
 27
1.0
 37
0.0
 76
     0
330
1A
  0
LAYOUT
  5
21
102
{ACAD_XDICTIONARY
360
476
102
}
102
{ACAD_REACTORS
330
19
102
}
330
19
100
AcDbPlotSettings
  1

  2
Fax
  4

  6

 40
0.0
 41
0.0
 42
0.0
 43
0.0
 44
0.0
 45
0.0
 46
0.0
 47
0.0
 48
0.0
 49
0.0
140
0.0
141
0.0
142
1.0
143
1.0
 70
  1712
 72
     0
 73
     0
 74
     0
  7
Default R14 pen assignments.ctb
 75
     0
147
1.0
148
0.0
149
0.0
100
AcDbLayout
  1
Model
 70
     1
 71
     0
 10
0.0
 20
0.0
 11
12.0
 21
9.0
 12
0.0
 22
0.0
 32
0.0
 14
0.0
 24
0.0
 34
0.0
 15
0.0
 25
0.0
 35
0.0
146
0.0
 13
0.0
 23
0.0
 33
0.0
 16
1.0
 26
0.0
 36
0.0
 17
0.0
 27
1.0
 37
0.0
 76
     0
330
1E
331
34D
  0
MATERIAL
  5
386
102
{ACAD_XDICTIONARY
360
47A
102
}
102
{ACAD_REACTORS
330
384
102
}
330
384
100
AcDbMaterial
  1
ByBlock
  0
MATERIAL
  5
385
102
{ACAD_XDICTIONARY
360
478
102
}
102
{ACAD_REACTORS
330
384
102
}
330
384
100
AcDbMaterial
  1
ByLayer
  0
MATERIAL
  5
387
102
{ACAD_XDICTIONARY
360
47C
102
}
102
{ACAD_REACTORS
330
384
102
}
330
384
100
AcDbMaterial
  1
Global
  0
MLINESTYLE
  5
17
102
{ACAD_REACTORS
330
16
102
}
330
16
100
AcDbMlineStyle
  2
STANDARD
 70
     0
  3

 62
   256
 51
90.0
 52
90.0
 71
     2
 49
0.5
 62
   256
  6
BYLAYER
 49
-0.5
 62
   256
  6
BYLAYER
  0
ACDBPLACEHOLDER
  5
F
102
{ACAD_REACTORS
330
E
102
}
330
E
  0
TABLESTYLE
  5
39B
102
{ACAD_XDICTIONARY
360
47E
102
}
102
{ACAD_REACTORS
330
39A
102
}
330
39A
100
AcDbTableStyle
  3
Standard
 70
     0
 71
     0
 40
0.06
 41
0.06
280
     0
281
     0
  7
STANDARD
140
0.18
170
     2
 62
     0
 63
     7
283
     0
274
    -2
284
     1
 64
     0
275
    -2
285
     1
 65
     0
276
    -2
286
     1
 66
     0
277
    -2
287
     1
 67
     0
278
    -2
288
     1
 68
     0
279
    -2
289
     1
 69
     0
  7
STANDARD
140
0.25
170
     5
 62
     0
 63
     7
283
     0
274
    -2
284
     1
 64
     0
275
    -2
285
     1
 65
     0
276
    -2
286
     1
 66
     0
277
    -2
287
     1
 67
     0
278
    -2
288
     1
 68
     0
279
    -2
289
     1
 69
     0
  7
STANDARD
140
0.18
170
     5
 62
     0
 63
     7
283
     0
274
    -2
284
     1
 64
     0
275
    -2
285
     1
 65
     0
276
    -2
286
     1
 66
     0
277
    -2
287
     1
 67
     0
278
    -2
288
     1
 68
     0
279
    -2
289
     1
 69
     0
  0
VISUALSTYLE
  5
38E
102
{ACAD_REACTORS
330
388
102
}
330
388
100
AcDbVisualStyle
  2
2dWireframe
 70
     4
 71
     0
 72
     2
 73
     0
 90
        0
 40
-0.6
 41
-30.0
 62
     5
 63
     7
 74
     1
 91
        4
 64
     7
 65
   257
 75
     1
175
     1
 42
1.0
 92
        0
 66
   257
 43
1.0
 76
     1
 77
     6
 78
     2
 67
     7
 79
     5
170
     0
171
     0
290
     0
174
     0
 93
        1
 44
0.0
173
     0
291
     0
 45
0.0
1001
ACAD
1000
AcDbSavedByObjectVersion
1070
     0
  0
VISUALSTYLE
  5
390
102
{ACAD_REACTORS
330
388
102
}
330
388
100
AcDbVisualStyle
  2
3D Hidden
 70
     6
 71
     1
 72
     2
 73
     2
 90
        0
 40
-0.6
 41
-30.0
 62
     5
 63
     7
 74
     2
 91
        2
 64
     7
 65
   257
 75
     2
175
     1
 42
40.0
 92
        0
 66
   257
 43
1.0
 76
     1
 77
     6
 78
     2
 67
     7
 79
     3
170
     0
171
     0
290
     0
174
     0
 93
        1
 44
0.0
173
     0
291
     0
 45
0.0
1001
ACAD
1000
AcDbSavedByObjectVersion
1070
     0
  0
VISUALSTYLE
  5
38F
102
{ACAD_REACTORS
330
388
102
}
330
388
100
AcDbVisualStyle
  2
3dWireframe
 70
     5
 71
     0
 72
     2
 73
     0
 90
        0
 40
-0.6
 41
-30.0
 62
     5
 63
     7
 74
     1
 91
        4
 64
     7
 65
   257
 75
     1
175
     1
 42
1.0
 92
        0
 66
   257
 43
1.0
 76
     1
 77
     6
 78
     2
 67
     7
 79
     5
170
     0
171
     0
290
     0
174
     0
 93
        1
 44
0.0
173
     0
291
     0
 45
0.0
1001
ACAD
1000
AcDbSavedByObjectVersion
1070
     0
  0
VISUALSTYLE
  5
38D
102
{ACAD_REACTORS
330
388
102
}
330
388
100
AcDbVisualStyle
  2
Basic
 70
     7
 71
     1
 72
     0
 73
     1
 90
        0
 40
-0.6
 41
-30.0
 62
     5
 63
     7
 74
     0
 91
        4
 64
     7
 65
   257
 75
     1
175
     1
 42
1.0
 92
        8
 66
     7
 43
1.0
 76
     1
 77
     6
 78
     2
 67
     7
 79
     5
170
     0
171
     0
290
     0
174
     0
 93
        1
 44
0.0
173
     0
291
     1
 45
0.0
1001
ACAD
1000
AcDbSavedByObjectVersion
1070
     0
  0
VISUALSTYLE
  5
394
102
{ACAD_REACTORS
330
388
102
}
330
388
100
AcDbVisualStyle
  2
Brighten
 70
    12
 71
     2
 72
     2
 73
     0
 90
        0
 40
-0.6
 41
-30.0
 62
     5
 63
     7
 74
     1
 91
        4
 64
     7
 65
   257
 75
     1
175
     1
 42
1.0
 92
        8
 66
     7
 43
1.0
 76
     1
 77
     6
 78
     2
 67
     7
 79
     5
170
     0
171
     0
290
     0
174
     0
 93
        1
 44
50.0
173
     0
291
     1
 45
0.0
1001
ACAD
1000
AcDbSavedByObjectVersion
1070
     0
  0
VISUALSTYLE
  5
398
102
{ACAD_REACTORS
330
388
102
}
330
388
100
AcDbVisualStyle
  2
ColorChange
 70
    16
 71
     2
 72
     2
 73
     3
 90
        0
 40
-0.6
 41
-30.0
 62
     5
 63
     8
 74
     1
 91
        4
 64
     7
 65
   257
 75
     1
175
     1
 42
1.0
 92
        8
 66
     8
 43
1.0
 76
     1
 77
     6
 78
     2
 67
     7
 79
     5
170
     0
171
     0
290
     0
174
     0
 93
        1
 44
0.0
173
     0
291
     1
 45
0.0
1001
ACAD
1000
AcDbSavedByObjectVersion
1070
     0
  0
VISUALSTYLE
  5
391
102
{ACAD_REACTORS
330
388
102
}
330
388
100
AcDbVisualStyle
  2
Conceptual
 70
     9
 71
     3
 72
     2
 73
     0
 90
        0
 40
-0.6
 41
-30.0
 62
     5
 63
     7
 74
     2
 91
        2
 64
     7
 65
   257
 75
     1
175
     1
 42
40.0
 92
        8
 66
     7
 43
1.0
 76
     1
 77
     6
 78
     2
 67
     7
 79
     3
170
     0
171
     0
290
     0
174
     0
 93
        1
 44
0.0
173
     0
291
     0
 45
0.0
1001
ACAD
1000
AcDbSavedByObjectVersion
1070
     0
  0
VISUALSTYLE
  5
393
102
{ACAD_REACTORS
330
388
102
}
330
388
100
AcDbVisualStyle
  2
Dim
 70
    11
 71
     2
 72
     2
 73
     0
 90
        0
 40
-0.6
 41
-30.0
 62
     5
 63
     7
 74
     1
 91
        4
 64
     7
 65
   257
 75
     1
175
     1
 42
1.0
 92
        8
 66
     7
 43
1.0
 76
     1
 77
     6
 78
     2
 67
     7
 79
     5
170
     0
171
     0
290
     0
174
     0
 93
        1
 44
-50.0
173
     0
291
     1
 45
0.0
1001
ACAD
1000
AcDbSavedByObjectVersion
1070
     0
  0
VISUALSTYLE
  5
397
102
{ACAD_REACTORS
330
388
102
}
330
388
100
AcDbVisualStyle
  2
Facepattern
 70
    15
 71
     2
 72
     2
 73
     0
 90
        0
 40
-0.6
 41
-30.0
 62
     5
 63
     7
 74
     1
 91
        4
 64
     7
 65
   257
 75
     1
175
     1
 42
1.0
 92
        8
 66
     7
 43
1.0
 76
     1
 77
     6
 78
     2
 67
     7
 79
     5
170
     0
171
     0
290
     0
174
     0
 93
        1
 44
0.0
173
     0
291
     1
 45
0.0
1001
ACAD
1000
AcDbSavedByObjectVersion
1070
     0
  0
VISUALSTYLE
  5
389
102
{ACAD_REACTORS
330
388
102
}
330
388
100
AcDbVisualStyle
  2
Flat
 70
     0
 71
     2
 72
     1
 73
     1
 90
        2
 40
-0.6
 41
30.0
 62
     5
 63
     7
 74
     0
 91
        4
 64
     7
 65
   257
 75
     1
175
     1
 42
1.0
 92
        8
 66
     7
 43
1.0
 76
     1
 77
     6
 78
     2
 67
     7
 79
     5
170
     0
171
     0
290
     0
174
     0
 93
       13
 44
0.0
173
     0
291
     1
 45
0.0
1001
ACAD
1000
AcDbSavedByObjectVersion
1070
     0
  0
VISUALSTYLE
  5
38A
102
{ACAD_REACTORS
330
388
102
}
330
388
100
AcDbVisualStyle
  2
FlatWithEdges
 70
     1
 71
     2
 72
     1
 73
     1
 90
        2
 40
-0.6
 41
30.0
 62
     5
 63
     7
 74
     1
 91
        4
 64
     7
 65
   257
 75
     1
175
     1
 42
1.0
 92
        0
 66
   257
 43
1.0
 76
     1
 77
     6
 78
     2
 67
     7
 79
     5
170
     0
171
     0
290
     0
174
     0
 93
       13
 44
0.0
173
     0
291
     1
 45
0.0
1001
ACAD
1000
AcDbSavedByObjectVersion
1070
     0
  0
VISUALSTYLE
  5
38B
102
{ACAD_REACTORS
330
388
102
}
330
388
100
AcDbVisualStyle
  2
Gouraud
 70
     2
 71
     2
 72
     2
 73
     1
 90
        2
 40
-0.6
 41
30.0
 62
     5
 63
     7
 74
     0
 91
        4
 64
     7
 65
   257
 75
     1
175
     1
 42
1.0
 92
        0
 66
     7
 43
1.0
 76
     1
 77
     6
 78
     2
 67
     7
 79
     5
170
     0
171
     0
290
     0
174
     0
 93
       13
 44
0.0
173
     0
291
     1
 45
0.0
1001
ACAD
1000
AcDbSavedByObjectVersion
1070
     0
  0
VISUALSTYLE
  5
38C
102
{ACAD_REACTORS
330
388
102
}
330
388
100
AcDbVisualStyle
  2
GouraudWithEdges
 70
     3
 71
     2
 72
     2
 73
     1
 90
        2
 40
-0.6
 41
30.0
 62
     5
 63
     7
 74
     1
 91
        4
 64
     7
 65
   257
 75
     1
175
     1
 42
1.0
 92
        0
 66
   257
 43
1.0
 76
     1
 77
     6
 78
     2
 67
     7
 79
     5
170
     0
171
     0
290
     0
174
     0
 93
       13
 44
0.0
173
     0
291
     1
 45
0.0
1001
ACAD
1000
AcDbSavedByObjectVersion
1070
     0
  0
VISUALSTYLE
  5
396
102
{ACAD_REACTORS
330
388
102
}
330
388
100
AcDbVisualStyle
  2
Linepattern
 70
    14
 71
     2
 72
     2
 73
     0
 90
        0
 40
-0.6
 41
-30.0
 62
     5
 63
     7
 74
     1
 91
        4
 64
     7
 65
   257
 75
     7
175
     7
 42
1.0
 92
        8
 66
     7
 43
1.0
 76
     1
 77
     6
 78
     2
 67
     7
 79
     5
170
     0
171
     0
290
     0
174
     0
 93
        1
 44
0.0
173
     0
291
     1
 45
0.0
1001
ACAD
1000
AcDbSavedByObjectVersion
1070
     0
  0
VISUALSTYLE
  5
392
102
{ACAD_REACTORS
330
388
102
}
330
388
100
AcDbVisualStyle
  2
Realistic
 70
     8
 71
     2
 72
     2
 73
     0
 90
        0
 40
-0.6
 41
-30.0
 62
     5
 63
     7
 74
     1
 91
        0
 64
     7
 65
   257
 75
     1
175
     1
 42
1.0
 92
        8
 66
     8
 43
1.0
 76
     1
 77
     6
 78
     2
 67
     7
 79
     5
170
     0
171
     0
290
     0
174
     0
 93
       13
 44
0.0
173
     0
291
     0
 45
0.0
1001
ACAD
1000
AcDbSavedByObjectVersion
1070
     0
  0
VISUALSTYLE
  5
395
102
{ACAD_REACTORS
330
388
102
}
330
388
100
AcDbVisualStyle
  2
Thicken
 70
    13
 71
     2
 72
     2
 73
     0
 90
        0
 40
-0.6
 41
-30.0
 62
     5
 63
     7
 74
     1
 91
        4
 64
     7
 65
   257
 75
     1
175
     1
 42
1.0
 92
       12
 66
     7
 43
1.0
 76
     1
 77
     6
 78
     2
 67
     7
 79
     5
170
     0
171
     0
290
     0
174
     0
 93
        1
 44
0.0
173
     0
291
     1
 45
0.0
1001
ACAD
1000
AcDbSavedByObjectVersion
1070
     0
  0
DICTIONARYVAR
  5
470
102
{ACAD_REACTORS
330
266
102
}
330
266
100
DictionaryVariables
280
     0
  1
STANDARD
  0
DICTIONARYVAR
  5
268
102
{ACAD_REACTORS
330
266
102
}
330
266
100
DictionaryVariables
280
     0
  1
2
  0
DICTIONARYVAR
  5
267
102
{ACAD_REACTORS
330
266
102
}
330
266
100
DictionaryVariables
280
     0
  1
1
  0
DICTIONARYVAR
  5
472
102
{ACAD_REACTORS
330
266
102
}
330
266
100
DictionaryVariables
280
     0
  1
0
  0
DICTIONARYVAR
  5
471
102
{ACAD_REACTORS
330
266
102
}
330
266
100
DictionaryVariables
280
     0
  1
127
  0
DICTIONARY
  5
474
330
1D
100
AcDbDictionary
280
     1
281
     1
  3
ACAD_XREC_ROUNDTRIP
360
475
  0
DICTIONARY
  5
476
330
21
100
AcDbDictionary
280
     1
281
     1
  3
ACAD_XREC_ROUNDTRIP
360
477
  0
DICTIONARY
  5
47A
330
386
100
AcDbDictionary
280
     1
281
     1
  3
ACAD_XREC_ROUNDTRIP
360
47B
  0
DICTIONARY
  5
478
330
385
100
AcDbDictionary
280
     1
281
     1
  3
ACAD_XREC_ROUNDTRIP
360
479
  0
DICTIONARY
  5
47C
330
387
100
AcDbDictionary
280
     1
281
     1
  3
ACAD_XREC_ROUNDTRIP
360
47D
  0
DICTIONARY
  5
47E
330
39B
100
AcDbDictionary
280
     1
281
     1
  3
ACAD_XREC_ROUNDTRIP
360
47F
  0
XRECORD
  5
475
102
{ACAD_REACTORS
330
474
102
}
330
474
100
AcDbXrecord
280
     1
102
SHADEPLOT
 70
     0
102
SHADEPLOTRESLEVEL
 70
     2
102
SHADEPLOTCUSTOMDPI
 70
   300
  0
XRECORD
  5
477
102
{ACAD_REACTORS
330
476
102
}
330
476
100
AcDbXrecord
280
     1
102
SHADEPLOT
 70
     0
102
SHADEPLOTRESLEVEL
 70
     2
102
SHADEPLOTCUSTOMDPI
 70
   300
  0
XRECORD
  5
47B
102
{ACAD_REACTORS
330
47A
102
}
330
47A
100
AcDbXrecord
280
     1
102
MATERIAL
148
0.0
149
0.0
149
0.0
 93
        0
 94
       63
282
     0
 72
     1
 77
     1
171
     1
175
     1
179
     1
273
     0
  0
XRECORD
  5
479
102
{ACAD_REACTORS
330
478
102
}
330
478
100
AcDbXrecord
280
     1
102
MATERIAL
148
0.0
149
0.0
149
0.0
 93
        0
 94
       63
282
     0
 72
     1
 77
     1
171
     1
175
     1
179
     1
273
     0
  0
XRECORD
  5
47D
102
{ACAD_REACTORS
330
47C
102
}
330
47C
100
AcDbXrecord
280
     1
102
MATERIAL
148
0.0
149
0.0
149
0.0
 93
        0
 94
       63
282
     0
 72
     1
 77
     1
171
     1
175
     1
179
     1
273
     0
  0
XRECORD
  5
47F
102
{ACAD_REACTORS
330
47E
102
}
330
47E
100
AcDbXrecord
280
     1
102
ACAD_ROUNDTRIP_PRE2007_TABLESTYLE
 90
      512
 91
        0
  1

 92
      512
 93
        0
  2

 94
      512
 95
        0
  3

  0
ENDSEC
  0
EOF
