  0
SECTION
  2
HEADER
  9
$ACADVER
  1
AC1015
  9
$ACADMAINTVER
 70
    20
  9
$DWGCODEPAGE
  3
ANSI_1252
  9
$INSBASE
 10
11.19012837504105
 20
1.001100878305089
 30
0.0
  9
$EXTMIN
 10
3.495300380856846
 20
-3.382925494963515
 30
-0.0015258207003583
  9
$EXTMAX
 10
16.88763433891306
 20
2.097441296268215
 30
0.0000000349246037
  9
$LIMMIN
 10
0.0
 20
0.0
  9
$LIMMAX
 10
36.0
 20
36.0
  9
$ORTHOMODE
 70
     1
  9
$REGENMODE
 70
     1
  9
$FILLMODE
 70
     1
  9
$QTEXTMODE
 70
     0
  9
$MIRRTEXT
 70
     1
  9
$LTSCALE
 40
1.0
  9
$ATTMODE
 70
     1
  9
$TEXTSIZE
 40
0.2
  9
$TRACEWID
 40
0.05
  9
$TEXTSTYLE
  7
STANDARD
  9
$CLAYER
  8
ADP1DETAIL
  9
$CELTYPE
  6
ByLayer
  9
$CECOLOR
 62
   256
  9
$CELTSCALE
 40
1.0
  9
$DISPSILH
 70
     0
  9
$DIMSCALE
 40
1.0
  9
$DIMASZ
 40
0.125
  9
$DIMEXO
 40
0.0625
  9
$DIMDLI
 40
0.38
  9
$DIMRND
 40
0.0
  9
$DIMDLE
 40
0.0
  9
$DIMEXE
 40
0.18
  9
$DIMTP
 40
0.0
  9
$DIMTM
 40
0.0
  9
$DIMTXT
 40
0.125
  9
$DIMCEN
 40
0.1875
  9
$DIMTSZ
 40
0.125
  9
$DIMTOL
 70
     0
  9
$DIMLIM
 70
     0
  9
$DIMTIH
 70
     0
  9
$DIMTOH
 70
     0
  9
$DIMSE1
 70
     0
  9
$DIMSE2
 70
     0
  9
$DIMTAD
 70
     0
  9
$DIMZIN
 70
     3
  9
$DIMBLK
  1

  9
$DIMASO
 70
     1
  9
$DIMSHO
 70
     1
  9
$DIMPOST
  1

  9
$DIMAPOST
  1

  9
$DIMALT
 70
     0
  9
$DIMALTD
 70
     1
  9
$DIMALTF
 40
25.4
  9
$DIMLFAC
 40
1.0
  9
$DIMTOFL
 70
     0
  9
$DIMTVP
 40
0.0
  9
$DIMTIX
 70
     0
  9
$DIMSOXD
 70
     0
  9
$DIMSAH
 70
     0
  9
$DIMBLK1
  1

  9
$DIMBLK2
  1

  9
$DIMSTYLE
  2
Standard
  9
$DIMCLRD
 70
     0
  9
$DIMCLRE
 70
     0
  9
$DIMCLRT
 70
     0
  9
$DIMTFAC
 40
1.0
  9
$DIMGAP
 40
0.125
  9
$DIMJUST
 70
     0
  9
$DIMSD1
 70
     0
  9
$DIMSD2
 70
     0
  9
$DIMTOLJ
 70
     1
  9
$DIMTZIN
 70
     3
  9
$DIMALTZ
 70
     3
  9
$DIMALTTZ
 70
     3
  9
$DIMUPT
 70
     0
  9
$DIMDEC
 70
     4
  9
$DIMTDEC
 70
     4
  9
$DIMALTU
 70
     5
  9
$DIMALTTD
 70
     1
  9
$DIMTXSTY
  7
STANDARD
  9
$DIMAUNIT
 70
     0
  9
$DIMADEC
 70
     0
  9
$DIMALTRND
 40
0.0
  9
$DIMAZIN
 70
     0
  9
$DIMDSEP
 70
    46
  9
$DIMATFIT
 70
     3
  9
$DIMFRAC
 70
     0
  9
$DIMLDRBLK
  1

  9
$DIMLUNIT
 70
     5
  9
$DIMLWD
 70
    -2
  9
$DIMLWE
 70
    -2
  9
$DIMTMOVE
 70
     2
  9
$LUNITS
 70
     5
  9
$LUPREC
 70
     4
  9
$SKETCHINC
 40
0.1
  9
$FILLETRAD
 40
0.062
  9
$AUNITS
 70
     0
  9
$AUPREC
 70
     0
  9
$MENU
  1
acad
  9
$ELEVATION
 40
0.0
  9
$PELEVATION
 40
0.0
  9
$THICKNESS
 40
0.0
  9
$LIMCHECK
 70
     0
  9
$CHAMFERA
 40
0.0
  9
$CHAMFERB
 40
0.0
  9
$CHAMFERC
 40
0.0
  9
$CHAMFERD
 40
0.0
  9
$SKPOLY
 70
     0
  9
$TDCREATE
 40
2450364.615409144
  9
$TDUCREATE
 40
2450364.782075810
  9
$TDUPDATE
 40
2453984.940231748
  9
$TDUUPDATE
 40
2453985.106898414
  9
$TDINDWG
 40
0.0364413889
  9
$TDUSRTIMER
 40
0.0364413889
  9
$USRTIMER
 70
     1
  9
$ANGBASE
 50
0.0
  9
$ANGDIR
 70
     0
  9
$PDMODE
 70
     0
  9
$PDSIZE
 40
0.0
  9
$PLINEWID
 40
0.0
  9
$SPLFRAME
 70
     0
  9
$SPLINETYPE
 70
     6
  9
$SPLINESEGS
 70
     8
  9
$HANDSEED
  5
360
  9
$SURFTAB1
 70
     6
  9
$SURFTAB2
 70
     6
  9
$SURFTYPE
 70
     6
  9
$SURFU
 70
     6
  9
$SURFV
 70
     6
  9
$UCSBASE
  2

  9
$UCSNAME
  2

  9
$UCSORG
 10
0.0
 20
0.0
 30
0.0
  9
$UCSXDIR
 10
1.0
 20
0.0
 30
0.0
  9
$UCSYDIR
 10
0.0
 20
1.0
 30
0.0
  9
$UCSORTHOREF
  2

  9
$UCSORTHOVIEW
 70
     0
  9
$UCSORGTOP
 10
0.0
 20
0.0
 30
0.0
  9
$UCSORGBOTTOM
 10
0.0
 20
0.0
 30
0.0
  9
$UCSORGLEFT
 10
0.0
 20
0.0
 30
0.0
  9
$UCSORGRIGHT
 10
0.0
 20
0.0
 30
0.0
  9
$UCSORGFRONT
 10
0.0
 20
0.0
 30
0.0
  9
$UCSORGBACK
 10
0.0
 20
0.0
 30
0.0
  9
$PUCSBASE
  2

  9
$PUCSNAME
  2

  9
$PUCSORG
 10
0.0
 20
0.0
 30
0.0
  9
$PUCSXDIR
 10
1.0
 20
0.0
 30
0.0
  9
$PUCSYDIR
 10
0.0
 20
1.0
 30
0.0
  9
$PUCSORTHOREF
  2

  9
$PUCSORTHOVIEW
 70
     0
  9
$PUCSORGTOP
 10
0.0
 20
0.0
 30
0.0
  9
$PUCSORGBOTTOM
 10
0.0
 20
0.0
 30
0.0
  9
$PUCSORGLEFT
 10
0.0
 20
0.0
 30
0.0
  9
$PUCSORGRIGHT
 10
0.0
 20
0.0
 30
0.0
  9
$PUCSORGFRONT
 10
0.0
 20
0.0
 30
0.0
  9
$PUCSORGBACK
 10
0.0
 20
0.0
 30
0.0
  9
$USERI1
 70
     0
  9
$USERI2
 70
     0
  9
$USERI3
 70
     0
  9
$USERI4
 70
     0
  9
$USERI5
 70
     0
  9
$USERR1
 40
0.0
  9
$USERR2
 40
0.0
  9
$USERR3
 40
0.0
  9
$USERR4
 40
0.0
  9
$USERR5
 40
0.0
  9
$WORLDVIEW
 70
     1
  9
$SHADEDGE
 70
     3
  9
$SHADEDIF
 70
    70
  9
$TILEMODE
 70
     1
  9
$MAXACTVP
 70
    15
  9
$PINSBASE
 10
-1.038494034028074E+34
 20
0.0
 30
0.0
  9
$PLIMCHECK
 70
     0
  9
$PEXTMIN
 10
1.000000000000000E+20
 20
1.000000000000000E+20
 30
1.000000000000000E+20
  9
$PEXTMAX
 10
-1.000000000000000E+20
 20
-1.000000000000000E+20
 30
-1.000000000000000E+20
  9
$PLIMMIN
 10
0.0
 20
0.0
  9
$PLIMMAX
 10
12.0
 20
9.0
  9
$UNITMODE
 70
     0
  9
$VISRETAIN
 70
     0
  9
$PLINEGEN
 70
     0
  9
$PSLTSCALE
 70
     1
  9
$TREEDEPTH
 70
  3020
  9
$CMLSTYLE
  2
Standard
  9
$CMLJUST
 70
     0
  9
$CMLSCALE
 40
1.0
  9
$PROXYGRAPHICS
 70
     1
  9
$MEASUREMENT
 70
     0
  9
$CELWEIGHT
370
    -1
  9
$ENDCAPS
280
     0
  9
$JOINSTYLE
280
     0
  9
$LWDISPLAY
290
     0
  9
$INSUNITS
 70
     0
  9
$HYPERLINKBASE
  1

  9
$STYLESHEET
  1

  9
$XEDIT
290
     1
  9
$CEPSNTYPE
380
     0
  9
$PSTYLEMODE
290
     1
  9
$FINGERPRINTGUID
  2
{61B749FC-14CA-4039-B55E-D0D150B0749E}
  9
$VERSIONGUID
  2
{A54A247B-DCF2-4A02-9367-E57458CAD03F}
  9
$EXTNAMES
290
     1
  9
$PSVPSCALE
 40
0.0
  9
$OLESTARTUP
290
     0
  0
ENDSEC
  0
SECTION
  2
CLASSES
  0
CLASS
  1
ACDBDICTIONARYWDFLT
  2
AcDbDictionaryWithDefault
  3
ObjectDBX Classes
 90
        0
280
     0
281
     0
  0
CLASS
  1
ACDBPLACEHOLDER
  2
AcDbPlaceHolder
  3
ObjectDBX Classes
 90
        0
280
     0
281
     0
  0
CLASS
  1
LAYOUT
  2
AcDbLayout
  3
ObjectDBX Classes
 90
        0
280
     0
281
     0
  0
CLASS
  1
DICTIONARYVAR
  2
AcDbDictionaryVar
  3
ObjectDBX Classes
 90
        0
280
     0
281
     0
  0
CLASS
  1
MATERIAL
  2
AcDbMaterial
  3
ObjectDBX Classes
 90
     1024
280
     0
281
     0
  0
CLASS
  1
VISUALSTYLE
  2
AcDbVisualStyle
  3
ObjectDBX Classes
 90
     4095
280
     0
281
     0
  0
CLASS
  1
TABLESTYLE
  2
AcDbTableStyle
  3
ObjectDBX Classes
 90
     4095
280
     0
281
     0
  0
ENDSEC
  0
SECTION
  2
TABLES
  0
TABLE
  2
VPORT
  5
8
330
0
100
AcDbSymbolTable
 70
     1
  0
VPORT
  5
1F0
330
8
100
AcDbSymbolTableRecord
100
AcDbViewportTableRecord
  2
*Active
 70
     0
 10
0.0
 20
0.0
 11
1.0
 21
1.0
 12
10.19146735988495
 22
-0.6427420993476503
 13
0.0
 23
0.0
 14
0.5740882589684922
 24
0.5740882589684922
 15
0.5
 25
0.5
 16
0.0
 26
0.0
 36
1.0
 17
0.0
 27
0.0
 37
0.0
 40
7.805639947986495
 41
1.726930320150659
 42
50.0
 43
0.0
 44
0.0
 50
0.0
 51
0.0
 71
     0
 72
   100
 73
     1
 74
     0
 75
     0
 76
     0
 77
     0
 78
     0
281
     0
 65
     1
110
0.0
120
0.0
130
0.0
111
1.0
121
0.0
131
0.0
112
0.0
122
1.0
132
0.0
 79
     0
146
0.0
  0
ENDTAB
  0
TABLE
  2
LTYPE
  5
5
330
0
100
AcDbSymbolTable
 70
     2
  0
LTYPE
  5
13
330
5
100
AcDbSymbolTableRecord
100
AcDbLinetypeTableRecord
  2
ByBlock
 70
     0
  3

 72
    65
 73
     0
 40
0.0
  0
LTYPE
  5
14
330
5
100
AcDbSymbolTableRecord
100
AcDbLinetypeTableRecord
  2
ByLayer
 70
     0
  3

 72
    65
 73
     0
 40
0.0
  0
LTYPE
  5
15
330
5
100
AcDbSymbolTableRecord
100
AcDbLinetypeTableRecord
  2
CONTINUOUS
 70
     0
  3
Solid line
 72
    65
 73
     0
 40
0.0
  0
ENDTAB
  0
TABLE
  2
LAYER
  5
2
330
0
100
AcDbSymbolTable
 70
     4
  0
LAYER
  5
10
330
2
100
AcDbSymbolTableRecord
100
AcDbLayerTableRecord
  2
0
 70
     0
 62
     7
  6
CONTINUOUS
370
    -3
390
F
  0
LAYER
  5
2D
330
2
100
AcDbSymbolTableRecord
100
AcDbLayerTableRecord
  2
ADPDIM
 70
     0
 62
     3
  6
CONTINUOUS
370
    -3
390
F
  0
LAYER
  5
2F
330
2
100
AcDbSymbolTableRecord
100
AcDbLayerTableRecord
  2
ADP1DETAIL
 70
     0
 62
     7
  6
CONTINUOUS
370
    -3
390
F
  0
LAYER
  5
31
330
2
100
AcDbSymbolTableRecord
100
AcDbLayerTableRecord
  2
DEFPOINTS
 70
     0
 62
     7
  6
CONTINUOUS
290
     0
370
    -3
390
F
  0
ENDTAB
  0
TABLE
  2
STYLE
  5
3
330
0
100
AcDbSymbolTable
 70
     2
  0
STYLE
  5
11
330
3
100
AcDbSymbolTableRecord
100
AcDbTextStyleTableRecord
  2
STANDARD
 70
     0
 40
0.0
 41
1.0
 50
0.0
 71
     0
 42
0.2
  3
txt
  4

  0
STYLE
  5
97
330
3
100
AcDbSymbolTableRecord
100
AcDbTextStyleTableRecord
  2
ARIAL_WIDE
 70
     0
 40
0.0
 41
1.25
 50
0.0
 71
     0
 42
0.2
  3
ARIAL.TTF
  4

1001
ACAD
1000
Arial
1071
       34
  0
ENDTAB
  0
TABLE
  2
VIEW
  5
6
330
0
100
AcDbSymbolTable
 70
     0
  0
ENDTAB
  0
TABLE
  2
UCS
  5
7
330
0
100
AcDbSymbolTable
 70
     0
  0
ENDTAB
  0
TABLE
  2
APPID
  5
9
330
0
100
AcDbSymbolTable
 70
     2
  0
APPID
  5
12
330
9
100
AcDbSymbolTableRecord
100
AcDbRegAppTableRecord
  2
ACAD
 70
     0
  0
APPID
  5
326
330
9
100
AcDbSymbolTableRecord
100
AcDbRegAppTableRecord
  2
ACAD_EXEMPT_FROM_CAD_STANDARDS
 70
     0
  0
ENDTAB
  0
TABLE
  2
DIMSTYLE
  5
A
330
0
100
AcDbSymbolTable
 70
     2
100
AcDbDimStyleTable
 71
     1
340
95
  0
DIMSTYLE
105
95
102
{ACAD_REACTORS
330
291
330
294
330
2B3
330
2F9
102
}
330
A
100
AcDbSymbolTableRecord
100
AcDbDimStyleTableRecord
  2
Standard
 70
     0
340
11
  0
ENDTAB
  0
TABLE
  2
BLOCK_RECORD
  5
1
330
0
100
AcDbSymbolTable
 70
    11
  0
BLOCK_RECORD
  5
1E
102
{ACAD_XDICTIONARY
360
D4
102
}
330
1
100
AcDbSymbolTableRecord
100
AcDbBlockTableRecord
  2
*Model_Space
340
21
  0
BLOCK_RECORD
  5
1A
102
{ACAD_XDICTIONARY
360
D6
102
}
330
1
100
AcDbSymbolTableRecord
100
AcDbBlockTableRecord
  2
*Paper_Space
340
1D
  0
BLOCK_RECORD
  5
2A
330
1
100
AcDbSymbolTableRecord
100
AcDbBlockTableRecord
  2
*D0
340
0
  0
BLOCK_RECORD
  5
2B
330
1
100
AcDbSymbolTableRecord
100
AcDbBlockTableRecord
  2
*D1
340
0
  0
BLOCK_RECORD
  5
242
330
1
100
AcDbSymbolTableRecord
100
AcDbBlockTableRecord
  2
*D2
340
0
  0
BLOCK_RECORD
  5
24F
330
1
100
AcDbSymbolTableRecord
100
AcDbBlockTableRecord
  2
*D3
340
0
  0
BLOCK_RECORD
  5
25C
330
1
100
AcDbSymbolTableRecord
100
AcDbBlockTableRecord
  2
*D4
340
0
  0
BLOCK_RECORD
  5
2B4
330
1
100
AcDbSymbolTableRecord
100
AcDbBlockTableRecord
  2
*D6
340
0
  0
BLOCK_RECORD
  5
2C1
330
1
100
AcDbSymbolTableRecord
100
AcDbBlockTableRecord
  2
*D7
340
0
  0
BLOCK_RECORD
  5
2CE
330
1
100
AcDbSymbolTableRecord
100
AcDbBlockTableRecord
  2
*D8
340
0
  0
BLOCK_RECORD
  5
2FA
330
1
100
AcDbSymbolTableRecord
100
AcDbBlockTableRecord
  2
*D9
340
0
  0
ENDTAB
  0
ENDSEC
  0
SECTION
  2
BLOCKS
  0
BLOCK
  5
34
330
1E
100
AcDbEntity
  8
0
100
AcDbBlockBegin
  2
*Model_Space
 70
     0
 10
0.0
 20
0.0
 30
0.0
  3
*Model_Space
  1

  0
ENDBLK
  5
35
330
1E
100
AcDbEntity
  8
0
100
AcDbBlockEnd
  0
BLOCK
  5
32
330
1A
100
AcDbEntity
 67
     1
  8
0
100
AcDbBlockBegin
  2
*Paper_Space
 70
     0
 10
0.0
 20
0.0
 30
0.0
  3
*Paper_Space
  1

  0
ENDBLK
  5
33
330
1A
100
AcDbEntity
 67
     1
  8
0
100
AcDbBlockEnd
  0
BLOCK
  5
37
330
2A
100
AcDbEntity
  8
0
100
AcDbBlockBegin
  2
*D0
 70
     1
 10
0.0
 20
0.0
 30
0.0
  3
*D0
  1

  0
LINE
  5
38
330
2A
100
AcDbEntity
  8
0
  6
ByBlock
 62
     0
100
AcDbLine
 10
8.73869535346974
 20
4.336311309910285
 30
0.0
 11
8.73869535346974
 21
4.014168164909636
 31
0.0
  0
LINE
  5
39
330
2A
100
AcDbEntity
  8
0
  6
ByBlock
 62
     0
100
AcDbLine
 10
10.05169535346973
 20
4.336311309910285
 30
0.0
 11
10.05169535346973
 21
4.014168164909636
 31
0.0
  0
LINE
  5
3A
330
2A
100
AcDbEntity
  8
0
  6
ByBlock
 62
     0
100
AcDbLine
 10
8.73869535346974
 20
4.194168164909636
 30
0.0
 11
8.48869535346974
 21
4.194168164909636
 31
0.0
  0
LINE
  5
3B
330
2A
100
AcDbEntity
  8
0
  6
ByBlock
 62
     0
100
AcDbLine
 10
10.05169535346973
 20
4.194168164909636
 30
0.0
 11
10.30169535346973
 21
4.194168164909636
 31
0.0
  0
LINE
  5
3C
330
2A
100
AcDbEntity
  8
0
  6
ByBlock
 62
     0
100
AcDbLine
 10
8.61369535346974
 20
4.069168164909636
 30
0.0
 11
8.86369535346974
 21
4.319168164909636
 31
0.0
  0
LINE
  5
3D
330
2A
100
AcDbEntity
  8
0
  6
ByBlock
 62
     0
100
AcDbLine
 10
9.926695353469735
 20
4.069168164909636
 30
0.0
 11
10.17669535346973
 21
4.319168164909636
 31
0.0
  0
TEXT
  5
3E
330
2A
100
AcDbEntity
  8
0
  6
ByBlock
 62
     0
100
AcDbText
 10
10.42669535346973
 20
4.131668164909636
 30
0.0
 40
0.125
  1
1 5/16
 72
     1
 11
10.73919535346973
 21
4.194168164909636
 31
0.0
100
AcDbText
 73
     2
  0
POINT
  5
40
330
2A
100
AcDbEntity
  8
DEFPOINTS
  6
ByBlock
 62
     0
100
AcDbPoint
 10
8.73869535346974
 20
4.398811309910285
 30
0.0
  0
POINT
  5
41
330
2A
100
AcDbEntity
  8
DEFPOINTS
  6
ByBlock
 62
     0
100
AcDbPoint
 10
10.05169535346973
 20
4.398811309910285
 30
0.0
  0
POINT
  5
42
330
2A
100
AcDbEntity
  8
DEFPOINTS
  6
ByBlock
 62
     0
100
AcDbPoint
 10
10.05169535346973
 20
4.194168164909636
 30
0.0
  0
ENDBLK
  5
43
330
2A
100
AcDbEntity
  8
0
100
AcDbBlockEnd
  0
BLOCK
  5
44
330
2B
100
AcDbEntity
  8
0
100
AcDbBlockBegin
  2
*D1
 70
     1
 10
0.0
 20
0.0
 30
0.0
  3
*D1
  1

  0
LINE
  5
45
330
2B
100
AcDbEntity
  8
0
  6
ByBlock
 62
     0
100
AcDbLine
 10
8.433767822608121
 20
4.839995999432475
 30
0.0
 11
8.433767822608121
 21
5.480500053015492
 31
0.0
  0
LINE
  5
46
330
2B
100
AcDbEntity
  8
0
  6
ByBlock
 62
     0
100
AcDbLine
 10
10.37126782260812
 20
4.839995999432475
 30
0.0
 11
10.37126782260812
 21
5.480500053015492
 31
0.0
  0
LINE
  5
47
330
2B
100
AcDbEntity
  8
0
  6
ByBlock
 62
     0
100
AcDbLine
 10
8.433767822608121
 20
5.300500053015492
 30
0.0
 11
8.923351155941455
 21
5.300500053015492
 31
0.0
  0
LINE
  5
48
330
2B
100
AcDbEntity
  8
0
  6
ByBlock
 62
     0
100
AcDbLine
 10
10.37126782260812
 20
5.300500053015492
 30
0.0
 11
9.881684489274787
 21
5.300500053015492
 31
0.0
  0
LINE
  5
49
330
2B
100
AcDbEntity
  8
0
  6
ByBlock
 62
     0
100
AcDbLine
 10
8.308767822608121
 20
5.175500053015492
 30
0.0
 11
8.558767822608121
 21
5.425500053015492
 31
0.0
  0
LINE
  5
4A
330
2B
100
AcDbEntity
  8
0
  6
ByBlock
 62
     0
100
AcDbLine
 10
10.24626782260812
 20
5.175500053015492
 30
0.0
 11
10.49626782260812
 21
5.425500053015492
 31
0.0
  0
TEXT
  5
4B
330
2B
100
AcDbEntity
  8
0
  6
ByBlock
 62
     0
100
AcDbText
 10
9.048351155941455
 20
5.248536538940208
 30
0.0
 40
0.125
  1
1 15/16
 72
     1
 11
9.402517822608121
 21
5.311036538940208
 31
0.0
100
AcDbText
 73
     2
  0
POINT
  5
4C
330
2B
100
AcDbEntity
  8
DEFPOINTS
  6
ByBlock
 62
     0
100
AcDbPoint
 10
8.433767822608121
 20
4.777495999432475
 30
0.0
  0
POINT
  5
4D
330
2B
100
AcDbEntity
  8
DEFPOINTS
  6
ByBlock
 62
     0
100
AcDbPoint
 10
10.37126782260812
 20
4.777495999432475
 30
0.0
  0
POINT
  5
4E
330
2B
100
AcDbEntity
  8
DEFPOINTS
  6
ByBlock
 62
     0
100
AcDbPoint
 10
10.37126782260812
 20
5.300500053015492
 30
0.0
  0
ENDBLK
  5
4F
330
2B
100
AcDbEntity
  8
0
100
AcDbBlockEnd
  0
BLOCK
  5
243
330
242
100
AcDbEntity
  8
0
 62
     3
100
AcDbBlockBegin
  2
*D2
 70
     1
 10
0.0
 20
0.0
 30
0.0
  3
*D2
  1

  0
LINE
  5
244
330
242
100
AcDbEntity
  8
ADPDIM
 62
     0
370
    -2
100
AcDbLine
 10
8.856792694658739
 20
4.818128313001169
 30
0.0
 11
8.856792694658739
 21
4.507341758440906
 31
0.0
  0
LINE
  5
245
330
242
100
AcDbEntity
  8
ADPDIM
 62
     0
370
    -2
100
AcDbLine
 10
9.919292694658739
 20
4.818128313001169
 30
0.0
 11
9.919292694658739
 21
4.507341758440906
 31
0.0
  0
LINE
  5
246
330
242
100
AcDbEntity
  8
ADPDIM
 62
     0
370
    -2
100
AcDbLine
 10
8.856792694658739
 20
4.687341758440906
 30
0.0
 11
8.606792694658739
 21
4.687341758440906
 31
0.0
  0
LINE
  5
247
330
242
100
AcDbEntity
  8
ADPDIM
 62
     0
370
    -2
100
AcDbLine
 10
9.919292694658739
 20
4.687341758440906
 30
0.0
 11
10.16929269465874
 21
4.687341758440906
 31
0.0
  0
LINE
  5
248
330
242
100
AcDbEntity
  8
ADPDIM
 62
     0
370
    -2
100
AcDbLine
 10
9.794292694658739
 20
4.562341758440906
 30
0.0
 11
10.04429269465874
 21
4.812341758440906
 31
0.0
  0
LINE
  5
249
330
242
100
AcDbEntity
  8
ADPDIM
 62
     0
370
    -2
100
AcDbLine
 10
8.731792694658739
 20
4.562341758440906
 30
0.0
 11
8.981792694658739
 21
4.812341758440906
 31
0.0
  0
MTEXT
  5
24A
330
242
100
AcDbEntity
  8
ADPDIM
 62
     0
100
AcDbMText
 10
9.388042694658739
 20
4.687341758440906
 30
0.0
 40
0.125
 41
0.0
 71
     5
 72
     1
  1
\A1;1 1/16
 73
     1
 44
1.0
1001
ACAD
1000
MTEXTBEGIN
1070
    73
1070
     1
1070
    44
1040
1.0
1070
    74
1070
     0
1000
MTEXTEND
  0
POINT
  5
24B
330
242
100
AcDbEntity
  8
DEFPOINTS
 62
     0
100
AcDbPoint
 10
8.856792694658739
 20
4.880628313001169
 30
0.0
  0
POINT
  5
24C
330
242
100
AcDbEntity
  8
DEFPOINTS
 62
     0
100
AcDbPoint
 10
9.919292694658739
 20
4.880628313001169
 30
0.0
  0
POINT
  5
24D
330
242
100
AcDbEntity
  8
DEFPOINTS
 62
     0
100
AcDbPoint
 10
9.919292694658739
 20
4.687341758440906
 30
0.0
  0
ENDBLK
  5
24E
330
242
100
AcDbEntity
  8
0
 62
     3
100
AcDbBlockEnd
  0
BLOCK
  5
250
330
24F
100
AcDbEntity
  8
0
100
AcDbBlockBegin
  2
*D3
 70
     1
 10
0.0
 20
0.0
 30
0.0
  3
*D3
  1

  0
LINE
  5
251
330
24F
100
AcDbEntity
  8
ADPDIM
 62
     0
370
    -2
100
AcDbLine
 10
8.727959494558838
 20
4.647717422344203
 30
0.0
 11
8.727959494558838
 21
4.024125386649526
 31
0.0
  0
LINE
  5
252
330
24F
100
AcDbEntity
  8
ADPDIM
 62
     0
370
    -2
100
AcDbLine
 10
10.04095949455883
 20
4.647717422344203
 30
0.0
 11
10.04095949455883
 21
4.024125386649526
 31
0.0
  0
LINE
  5
253
330
24F
100
AcDbEntity
  8
ADPDIM
 62
     0
370
    -2
100
AcDbLine
 10
8.727959494558838
 20
4.204125386649526
 30
0.0
 11
8.946959494558836
 21
4.204125386649526
 31
0.0
  0
LINE
  5
254
330
24F
100
AcDbEntity
  8
ADPDIM
 62
     0
370
    -2
100
AcDbLine
 10
10.04095949455883
 20
4.204125386649526
 30
0.0
 11
9.821959494558836
 21
4.204125386649526
 31
0.0
  0
LINE
  5
255
330
24F
100
AcDbEntity
  8
ADPDIM
 62
     0
370
    -2
100
AcDbLine
 10
9.915959494558833
 20
4.079125386649526
 30
0.0
 11
10.16595949455883
 21
4.329125386649526
 31
0.0
  0
LINE
  5
256
330
24F
100
AcDbEntity
  8
ADPDIM
 62
     0
370
    -2
100
AcDbLine
 10
8.602959494558838
 20
4.079125386649526
 30
0.0
 11
8.852959494558838
 21
4.329125386649526
 31
0.0
  0
MTEXT
  5
257
330
24F
100
AcDbEntity
  8
ADPDIM
 62
     0
100
AcDbMText
 10
9.384459494558836
 20
4.204125386649526
 30
0.0
 40
0.125
 41
0.0
 71
     5
 72
     1
  1
\A1;1 5/16
 73
     1
 44
1.0
1001
ACAD
1000
MTEXTBEGIN
1070
    73
1070
     1
1070
    44
1040
1.0
1070
    74
1070
     0
1000
MTEXTEND
  0
POINT
  5
258
330
24F
100
AcDbEntity
  8
DEFPOINTS
 62
     0
100
AcDbPoint
 10
8.727959494558838
 20
4.710217422344203
 30
0.0
  0
POINT
  5
259
330
24F
100
AcDbEntity
  8
DEFPOINTS
 62
     0
100
AcDbPoint
 10
10.04095949455883
 20
4.710217422344203
 30
0.0
  0
POINT
  5
25A
330
24F
100
AcDbEntity
  8
DEFPOINTS
 62
     0
100
AcDbPoint
 10
10.04095949455883
 20
4.204125386649526
 30
0.0
  0
ENDBLK
  5
25B
330
24F
100
AcDbEntity
  8
0
100
AcDbBlockEnd
  0
BLOCK
  5
25D
330
25C
100
AcDbEntity
  8
0
100
AcDbBlockBegin
  2
*D4
 70
     1
 10
0.0
 20
0.0
 30
0.0
  3
*D4
  1

  0
LINE
  5
25E
330
25C
100
AcDbEntity
  8
ADPDIM
 62
     0
370
    -2
100
AcDbLine
 10
8.423031963697219
 20
5.151402111866393
 30
0.0
 11
8.423031963697219
 21
5.79190616544941
 31
0.0
  0
LINE
  5
25F
330
25C
100
AcDbEntity
  8
ADPDIM
 62
     0
370
    -2
100
AcDbLine
 10
10.36053196369722
 20
5.151402111866393
 30
0.0
 11
10.36053196369722
 21
5.79190616544941
 31
0.0
  0
LINE
  5
260
330
25C
100
AcDbEntity
  8
ADPDIM
 62
     0
370
    -2
100
AcDbLine
 10
8.423031963697219
 20
5.61190616544941
 30
0.0
 11
8.912615297030553
 21
5.61190616544941
 31
0.0
  0
LINE
  5
261
330
25C
100
AcDbEntity
  8
ADPDIM
 62
     0
370
    -2
100
AcDbLine
 10
10.36053196369722
 20
5.61190616544941
 30
0.0
 11
9.870948630363885
 21
5.61190616544941
 31
0.0
  0
MTEXT
  5
262
330
25C
100
AcDbEntity
  8
ADPDIM
 62
     0
100
AcDbMText
 10
9.391781963697219
 20
5.622442651374126
 30
0.0
 40
0.125
 41
0.0
 71
     5
 72
     1
  1
\A1;1 15/16
 73
     1
 44
1.0
1001
ACAD
1000
MTEXTBEGIN
1070
    73
1070
     1
1070
    44
1040
1.0
1070
    74
1070
     0
1000
MTEXTEND
  0
LINE
  5
263
330
25C
100
AcDbEntity
  8
ADPDIM
 62
     0
370
    -2
100
AcDbLine
 10
10.23553196369722
 20
5.48690616544941
 30
0.0
 11
10.48553196369722
 21
5.73690616544941
 31
0.0
  0
LINE
  5
264
330
25C
100
AcDbEntity
  8
ADPDIM
 62
     0
370
    -2
100
AcDbLine
 10
8.298031963697219
 20
5.48690616544941
 30
0.0
 11
8.548031963697219
 21
5.73690616544941
 31
0.0
  0
POINT
  5
265
330
25C
100
AcDbEntity
  8
DEFPOINTS
 62
     0
100
AcDbPoint
 10
8.423031963697219
 20
5.088902111866393
 30
0.0
  0
POINT
  5
266
330
25C
100
AcDbEntity
  8
DEFPOINTS
 62
     0
100
AcDbPoint
 10
10.36053196369722
 20
5.088902111866393
 30
0.0
  0
POINT
  5
267
330
25C
100
AcDbEntity
  8
DEFPOINTS
 62
     0
100
AcDbPoint
 10
10.36053196369722
 20
5.61190616544941
 30
0.0
  0
ENDBLK
  5
268
330
25C
100
AcDbEntity
  8
0
100
AcDbBlockEnd
  0
BLOCK
  5
2BF
330
2B4
100
AcDbEntity
  8
0
100
AcDbBlockBegin
  2
*D6
 70
     1
 10
0.0
 20
0.0
 30
0.0
  3
*D6
  1

  0
LINE
  5
2DB
330
2B4
100
AcDbEntity
  8
ADPDIM
 62
     0
370
    -2
100
AcDbLine
 10
12.33206618922116
 20
0.9513466879106635
 30
0.0
 11
12.33206618922116
 21
0.3277546522159864
 31
0.0
  0
LINE
  5
2DC
330
2B4
100
AcDbEntity
  8
ADPDIM
 62
     0
370
    -2
100
AcDbLine
 10
13.64506618922115
 20
0.9513466879106635
 30
0.0
 11
13.64506618922115
 21
0.3277546522159864
 31
0.0
  0
LINE
  5
2DD
330
2B4
100
AcDbEntity
  8
ADPDIM
 62
     0
370
    -2
100
AcDbLine
 10
12.33206618922116
 20
0.5077546522159864
 30
0.0
 11
12.55106618922116
 21
0.5077546522159864
 31
0.0
  0
LINE
  5
2DE
330
2B4
100
AcDbEntity
  8
ADPDIM
 62
     0
370
    -2
100
AcDbLine
 10
13.64506618922115
 20
0.5077546522159864
 30
0.0
 11
13.42606618922115
 21
0.5077546522159864
 31
0.0
  0
LINE
  5
2DF
330
2B4
100
AcDbEntity
  8
ADPDIM
 62
     0
370
    -2
100
AcDbLine
 10
13.52006618922115
 20
0.3827546522159864
 30
0.0
 11
13.77006618922115
 21
0.6327546522159864
 31
0.0
  0
LINE
  5
2E0
330
2B4
100
AcDbEntity
  8
ADPDIM
 62
     0
370
    -2
100
AcDbLine
 10
12.20706618922116
 20
0.3827546522159864
 30
0.0
 11
12.45706618922116
 21
0.6327546522159864
 31
0.0
  0
MTEXT
  5
2E1
330
2B4
100
AcDbEntity
  8
ADPDIM
 62
     0
100
AcDbMText
 10
12.98856618922116
 20
0.5077546522159864
 30
0.0
 40
0.125
 41
0.0
 71
     5
 72
     1
  1
\A1;1 5/16
 73
     1
 44
1.0
1001
ACAD
1000
MTEXTBEGIN
1070
    73
1070
     1
1070
    44
1040
1.0
1070
    74
1070
     0
1000
MTEXTEND
  0
POINT
  5
2E2
330
2B4
100
AcDbEntity
  8
DEFPOINTS
 62
     0
100
AcDbPoint
 10
12.33206618922116
 20
1.013846687910663
 30
0.0
  0
POINT
  5
2E3
330
2B4
100
AcDbEntity
  8
DEFPOINTS
 62
     0
100
AcDbPoint
 10
13.64506618922115
 20
1.013846687910663
 30
0.0
  0
POINT
  5
2E4
330
2B4
100
AcDbEntity
  8
DEFPOINTS
 62
     0
100
AcDbPoint
 10
13.64506618922115
 20
0.5077546522159864
 30
0.0
  0
ENDBLK
  5
2C0
330
2B4
100
AcDbEntity
  8
0
100
AcDbBlockEnd
  0
BLOCK
  5
2CC
330
2C1
100
AcDbEntity
  8
0
100
AcDbBlockBegin
  2
*D7
 70
     1
 10
0.0
 20
0.0
 30
0.0
  3
*D7
  1

  0
LINE
  5
2E5
330
2C1
100
AcDbEntity
  8
ADPDIM
 62
     0
370
    -2
100
AcDbLine
 10
12.02713865835954
 20
1.455031377432853
 30
0.0
 11
12.02713865835954
 21
2.09553543101587
 31
0.0
  0
LINE
  5
2E6
330
2C1
100
AcDbEntity
  8
ADPDIM
 62
     0
370
    -2
100
AcDbLine
 10
13.96463865835954
 20
1.455031377432853
 30
0.0
 11
13.96463865835954
 21
2.09553543101587
 31
0.0
  0
LINE
  5
2E7
330
2C1
100
AcDbEntity
  8
ADPDIM
 62
     0
370
    -2
100
AcDbLine
 10
12.02713865835954
 20
1.915535431015871
 30
0.0
 11
12.51672199169287
 21
1.915535431015871
 31
0.0
  0
LINE
  5
2E8
330
2C1
100
AcDbEntity
  8
ADPDIM
 62
     0
370
    -2
100
AcDbLine
 10
13.96463865835954
 20
1.915535431015871
 30
0.0
 11
13.4750553250262
 21
1.915535431015871
 31
0.0
  0
MTEXT
  5
2E9
330
2C1
100
AcDbEntity
  8
ADPDIM
 62
     0
100
AcDbMText
 10
12.99588865835954
 20
1.926071916940586
 30
0.0
 40
0.125
 41
0.0
 71
     5
 72
     1
  1
\A1;1 15/16
 73
     1
 44
1.0
1001
ACAD
1000
MTEXTBEGIN
1070
    73
1070
     1
1070
    44
1040
1.0
1070
    74
1070
     0
1000
MTEXTEND
  0
LINE
  5
2EA
330
2C1
100
AcDbEntity
  8
ADPDIM
 62
     0
370
    -2
100
AcDbLine
 10
13.83963865835954
 20
1.790535431015871
 30
0.0
 11
14.08963865835954
 21
2.040535431015871
 31
0.0
  0
LINE
  5
2EB
330
2C1
100
AcDbEntity
  8
ADPDIM
 62
     0
370
    -2
100
AcDbLine
 10
11.90213865835954
 20
1.790535431015871
 30
0.0
 11
12.15213865835954
 21
2.040535431015871
 31
0.0
  0
POINT
  5
2EC
330
2C1
100
AcDbEntity
  8
DEFPOINTS
 62
     0
100
AcDbPoint
 10
12.02713865835954
 20
1.392531377432853
 30
0.0
  0
POINT
  5
2ED
330
2C1
100
AcDbEntity
  8
DEFPOINTS
 62
     0
100
AcDbPoint
 10
13.96463865835954
 20
1.392531377432853
 30
0.0
  0
POINT
  5
2EE
330
2C1
100
AcDbEntity
  8
DEFPOINTS
 62
     0
100
AcDbPoint
 10
13.96463865835954
 20
1.915535431015871
 30
0.0
  0
ENDBLK
  5
2CD
330
2C1
100
AcDbEntity
  8
0
100
AcDbBlockEnd
  0
BLOCK
  5
2D9
330
2CE
100
AcDbEntity
  8
0
100
AcDbBlockBegin
  2
*D8
 70
     1
 10
0.0
 20
0.0
 30
0.0
  3
*D8
  1

  0
LINE
  5
2EF
330
2CE
100
AcDbEntity
  8
ADPDIM
 62
     0
370
    -2
100
AcDbLine
 10
12.46089938932106
 20
1.121757578567629
 30
0.0
 11
12.46089938932106
 21
0.8109710240073669
 31
0.0
  0
LINE
  5
2F0
330
2CE
100
AcDbEntity
  8
ADPDIM
 62
     0
370
    -2
100
AcDbLine
 10
13.52339938932106
 20
1.121757578567629
 30
0.0
 11
13.52339938932106
 21
0.8109710240073669
 31
0.0
  0
LINE
  5
2F1
330
2CE
100
AcDbEntity
  8
ADPDIM
 62
     0
370
    -2
100
AcDbLine
 10
12.46089938932106
 20
0.9909710240073668
 30
0.0
 11
12.21089938932106
 21
0.9909710240073668
 31
0.0
  0
LINE
  5
2F2
330
2CE
100
AcDbEntity
  8
ADPDIM
 62
     0
370
    -2
100
AcDbLine
 10
13.52339938932106
 20
0.9909710240073668
 30
0.0
 11
13.77339938932106
 21
0.9909710240073668
 31
0.0
  0
LINE
  5
2F3
330
2CE
100
AcDbEntity
  8
ADPDIM
 62
     0
370
    -2
100
AcDbLine
 10
13.39839938932106
 20
0.8659710240073668
 30
0.0
 11
13.64839938932106
 21
1.115971024007366
 31
0.0
  0
LINE
  5
2F4
330
2CE
100
AcDbEntity
  8
ADPDIM
 62
     0
370
    -2
100
AcDbLine
 10
12.33589938932106
 20
0.8659710240073668
 30
0.0
 11
12.58589938932106
 21
1.115971024007366
 31
0.0
  0
MTEXT
  5
2F5
330
2CE
100
AcDbEntity
  8
ADPDIM
 62
     0
100
AcDbMText
 10
12.99214938932106
 20
0.9909710240073668
 30
0.0
 40
0.125
 41
0.0
 71
     5
 72
     1
  1
\A1;1 1/16
 73
     1
 44
1.0
1001
ACAD
1000
MTEXTBEGIN
1070
    73
1070
     1
1070
    44
1040
1.0
1070
    74
1070
     0
1000
MTEXTEND
  0
POINT
  5
2F6
330
2CE
100
AcDbEntity
  8
DEFPOINTS
 62
     0
100
AcDbPoint
 10
12.46089938932106
 20
1.184257578567629
 30
0.0
  0
POINT
  5
2F7
330
2CE
100
AcDbEntity
  8
DEFPOINTS
 62
     0
100
AcDbPoint
 10
13.52339938932106
 20
1.184257578567629
 30
0.0
  0
POINT
  5
2F8
330
2CE
100
AcDbEntity
  8
DEFPOINTS
 62
     0
100
AcDbPoint
 10
13.52339938932106
 20
0.9909710240073668
 30
0.0
  0
ENDBLK
  5
2DA
330
2CE
100
AcDbEntity
  8
0
100
AcDbBlockEnd
  0
BLOCK
  5
305
330
2FA
100
AcDbEntity
  8
0
 62
     3
100
AcDbBlockBegin
  2
*D9
 70
     1
 10
0.0
 20
0.0
 30
0.0
  3
*D9
  1

  0
LINE
  5
32C
330
2FA
100
AcDbEntity
  8
ADPDIM
 62
     0
370
    -2
100
AcDbLine
 10
7.898848566008322
 20
0.7678066130387755
 30
0.0
 11
7.898848566008322
 21
0.2665981569446385
 31
0.0
  0
LINE
  5
32D
330
2FA
100
AcDbEntity
  8
ADPDIM
 62
     0
370
    -2
100
AcDbLine
 10
11.14884856600832
 20
0.8426779032390818
 30
0.0
 11
11.14884856600832
 21
0.2665981569446385
 31
0.0
  0
LINE
  5
32E
330
2FA
100
AcDbEntity
  8
ADPDIM
 62
     0
370
    -2
100
AcDbLine
 10
7.898848566008322
 20
0.4465981569446385
 30
0.0
 11
9.128015232674988
 21
0.4465981569446385
 31
0.0
  0
LINE
  5
32F
330
2FA
100
AcDbEntity
  8
ADPDIM
 62
     0
370
    -2
100
AcDbLine
 10
11.14884856600832
 20
0.4465981569446385
 30
0.0
 11
9.919681899341656
 21
0.4465981569446385
 31
0.0
  0
LINE
  5
330
330
2FA
100
AcDbEntity
  8
ADPDIM
 62
     0
370
    -2
100
AcDbLine
 10
11.02384856600832
 20
0.3215981569446384
 30
0.0
 11
11.27384856600832
 21
0.5715981569446385
 31
0.0
  0
LINE
  5
331
330
2FA
100
AcDbEntity
  8
ADPDIM
 62
     0
370
    -2
100
AcDbLine
 10
7.773848566008322
 20
0.3215981569446384
 30
0.0
 11
8.023848566008322
 21
0.5715981569446385
 31
0.0
  0
MTEXT
  5
332
330
2FA
100
AcDbEntity
  8
ADPDIM
 62
     0
100
AcDbMText
 10
9.523848566008322
 20
0.4465981569446385
 30
0.0
 40
0.125
 41
0.0
 71
     5
 72
     1
  1
\A1;3 1/4
 73
     1
 44
1.0
1001
ACAD
1000
MTEXTBEGIN
1070
    73
1070
     1
1070
    44
1040
1.0
1070
    74
1070
     0
1000
MTEXTEND
  0
POINT
  5
333
330
2FA
100
AcDbEntity
  8
DEFPOINTS
 62
     0
100
AcDbPoint
 10
7.898848566008322
 20
0.8303066130387755
 30
0.0
  0
POINT
  5
334
330
2FA
100
AcDbEntity
  8
DEFPOINTS
 62
     0
100
AcDbPoint
 10
11.14884856600832
 20
0.9051779032390818
 30
0.0
  0
POINT
  5
335
330
2FA
100
AcDbEntity
  8
DEFPOINTS
 62
     0
100
AcDbPoint
 10
11.14884856600832
 20
0.4465981569446385
 30
0.0
  0
ENDBLK
  5
306
330
2FA
100
AcDbEntity
  8
0
 62
     3
100
AcDbBlockEnd
  0
ENDSEC
  0
SECTION
  2
ENTITIES
  0
LWPOLYLINE
  5
50
330
1E
100
AcDbEntity
  8
ADP1DETAIL
100
AcDbPolyline
 90
       17
 70
     0
 43
0.0
 10
7.898302058598718
 20
0.816
 10
7.898302058598718
 20
1.001100878305089
 10
11.14965406397345
 20
1.001100878305089
 10
11.14965406397345
 20
1.66721058717237
 10
7.30232349304559
 20
1.66721058717237
 42
0.3073978397186454
 10
5.844043075753198
 20
0.6172007435955948
 42
0.1902010668795458
 10
5.935159401605217
 20
-0.1779962820220247
 42
0.101760654761277
 10
6.735326408632946
 20
-1.307838722587058
 42
-0.0708937954956575
 10
7.192564698363075
 20
-1.922459756970676
 42
-0.24317018684438
 10
7.169371451782563
 20
-2.510574223833708
 42
-0.5063111638377788
 10
6.61273353385023
 20
-2.586780605455396
 42
0.3222607226047521
 10
6.867859246235887
 20
-2.984379118264206
 42
0.367557514666921
 10
7.409587219937892
 20
-2.74582001057892
 42
0.2597113565951055
 10
7.321784215025944
 20
-1.370791820448453
 42
-0.0172605361595157
 10
6.728699766752802
 20
-0.3552589523159522
 42
-0.4864259594789679
 10
7.045121916529814
 20
0.6834671623970627
 42
-0.1367645051426214
 10
7.898302058598718
 20
0.816
 42
0.05893527801703
  0
LWPOLYLINE
  5
63
330
1E
100
AcDbEntity
  8
ADP1DETAIL
100
AcDbPolyline
 90
        9
 70
     0
 43
0.0
 10
11.14648258276752
 20
1.4389043367338
 10
7.700143327200567
 20
1.4389043367338
 42
0.1881372650086953
 10
6.377487747105018
 20
0.9650994423033026
 42
0.1414277415866307
 10
6.092542146258707
 20
0.5128311339832824
 42
0.138642872957182
 10
6.263178174672485
 20
-0.3867355012466489
 42
-0.001555642466044
 10
6.914245739396913
 20
-1.220035717675112
 42
-0.0724698467396343
 10
7.296934307975392
 20
-1.864476640519391
 42
-0.2895216912953621
 10
7.146178205202049
 20
-2.722626763998405
 42
-0.5300496456673135
 10
6.61273353385023
 20
-2.586780605455396
 42
5.71172713325519
  0
LWPOLYLINE
  5
72
330
1E
100
AcDbEntity
  8
ADP1DETAIL
100
AcDbPolyline
 90
        3
 70
     0
 43
0.0
 10
6.629300138550599
 20
-0.0769399933497854
 42
-0.4518914729065897
 10
7.282432458625264
 20
0.9513911721365715
 42
-0.0447202560633675
 10
7.898302058598718
 20
1.004859293584185
 42
-719.2111889656017
  0
TEXT
  5
98
330
1E
100
AcDbEntity
  8
ADPDIM
100
AcDbText
 10
3.495761067366693
 20
-3.344718294797618
 30
0.0
 40
0.125
  1
J U L I U S  B L U M  &  C O . ,  I N C .      ( 8 0 0 )  5 2 6 - 6 2 9 3        W W W . J U L I U S B L U M . C O M        P A R T  N o .  6 9 3 4 - S
 41
1.25
  7
ARIAL_WIDE
 72
     1
 11
10.19127607418797
 21
-3.219718294797618
 31
0.0
100
AcDbText
 73
     3
  0
DIMENSION
  5
291
330
1E
100
AcDbEntity
  8
ADPDIM
100
AcDbDimension
  2
*D6
 10
13.64506618922115
 20
0.5077546522159864
 30
0.0
 11
12.98856618922116
 21
0.5077546522159864
 31
0.0
 70
    32
 71
     5
 42
1.312999999999995
  3
Standard
100
AcDbAlignedDimension
 13
12.33206618922116
 23
1.013846687910663
 33
0.0
 14
13.64506618922115
 24
1.013846687910663
 34
0.0
100
AcDbRotatedDimension
1001
ACAD
1000
DSTYLE
1002
{
1070
   276
1070
     2
1070
    41
1040
0.125
1070
    73
1070
     0
1070
    74
1070
     0
1070
    78
1070
     3
1070
   140
1040
0.125
1070
   141
1040
0.1875
1070
   142
1040
0.125
1070
   147
1040
0.125
1070
   171
1070
     1
1070
   273
1070
     5
1070
   274
1070
     1
1070
   277
1070
     5
1070
   279
1070
     2
1070
   284
1070
     3
1070
   285
1070
     3
1070
   286
1070
     3
1002
}
  0
LINE
  5
292
330
1E
100
AcDbEntity
  8
ADP1DETAIL
100
AcDbLine
 10
13.51956618922115
 20
1.370561354038934
 30
0.0
 11
12.98740748415664
 21
1.370561354038934
 31
0.0
  0
ARC
  5
293
330
1E
100
AcDbEntity
  8
ADP1DETAIL
100
AcDbCircle
 10
12.98740748415663
 20
0.9852425682097178
 30
0.0
 40
0.7500000000000019
100
AcDbArc
 50
65.35881699432437
 51
89.91148141825664
  0
DIMENSION
  5
294
330
1E
100
AcDbEntity
  8
ADPDIM
100
AcDbDimension
  2
*D7
 10
13.96463865835954
 20
1.915535431015871
 30
0.0
 11
12.99588865835954
 21
1.926071916940586
 31
0.0
 70
   160
 71
     5
 42
1.9375
  3
Standard
100
AcDbAlignedDimension
 13
12.02713865835954
 23
1.392531377432853
 33
0.0
 14
13.96463865835954
 24
1.392531377432853
 34
0.0
100
AcDbRotatedDimension
1001
ACAD
1000
DSTYLE
1002
{
1070
   276
1070
     2
1070
    41
1040
0.125
1070
    73
1070
     0
1070
    74
1070
     0
1070
    78
1070
     3
1070
   140
1040
0.125
1070
   141
1040
0.1875
1070
   142
1040
0.125
1070
   147
1040
0.125
1070
   171
1070
     1
1070
   273
1070
     5
1070
   274
1070
     1
1070
   277
1070
     5
1070
   279
1070
     2
1070
   284
1070
     3
1070
   285
1070
     3
1070
   286
1070
     3
1002
}
  0
ARC
  5
295
330
1E
100
AcDbEntity
  8
ADP1DETAIL
100
AcDbCircle
 10
12.27072489428568
 20
2.297358303403844
 30
0.0
 40
0.7499999999999969
100
AcDbArc
 50
271.1235186577002
 51
302.8016517379419
  0
ARC
  5
296
330
1E
100
AcDbEntity
  8
ADP1DETAIL
100
AcDbCircle
 10
12.44256618922116
 20
1.197561354038936
 30
0.0
 40
0.015
100
AcDbArc
 50
270.0
 51
0.0
  0
ARC
  5
297
330
1E
100
AcDbEntity
  8
ADP1DETAIL
100
AcDbCircle
 10
12.16910294288711
 20
1.327861895305859
 30
0.0
 40
0.1559999999999998
100
AcDbArc
 50
80.65678061822477
 51
230.3615138867189
  0
ARC
  5
298
330
1E
100
AcDbEntity
  8
ADP1DETAIL
100
AcDbCircle
 10
11.9828306758829
 20
1.005885582239366
 30
0.0
 40
0.2196970135271751
100
AcDbArc
 50
358.1639806528343
 51
66.74166570965843
  0
LINE
  5
299
330
1E
100
AcDbEntity
  8
ADP1DETAIL
100
AcDbLine
 10
12.25572489428568
 20
1.481792326700497
 30
0.0
 11
12.19442925905548
 21
1.481792326700497
 31
0.0
  0
LINE
  5
29A
330
1E
100
AcDbEntity
  8
ADP1DETAIL
100
AcDbLine
 10
12.34706618922115
 20
1.182561354038935
 30
0.0
 11
12.44256618922116
 21
1.182561354038935
 31
0.0
  0
ARC
  5
29B
330
1E
100
AcDbEntity
  8
ADP1DETAIL
100
AcDbCircle
 10
12.34706618922115
 20
1.167561354038935
 30
0.0
 40
0.015
100
AcDbArc
 50
90.0
 51
180.0
  0
LINE
  5
29C
330
1E
100
AcDbEntity
  8
ADP1DETAIL
100
AcDbLine
 10
12.33206618922116
 20
1.013846687910661
 30
0.0
 11
12.33206618922115
 21
1.167561354038935
 31
0.0
  0
LINE
  5
29D
330
1E
100
AcDbEntity
  8
ADP1DETAIL
100
AcDbLine
 10
12.27072489428567
 20
1.496792326700497
 30
0.0
 11
12.27072489428567
 21
1.532505376364928
 31
0.0
  0
ARC
  5
29E
330
1E
100
AcDbEntity
  8
ADP1DETAIL
100
AcDbCircle
 10
12.28572489428567
 20
1.532505376364928
 30
0.0
 40
0.015
100
AcDbArc
 50
91.12351865770264
 51
180.0
  0
ARC
  5
29F
330
1E
100
AcDbEntity
  8
ADP1DETAIL
100
AcDbCircle
 10
12.25572489428568
 20
1.496792326700497
 30
0.0
 40
0.015
100
AcDbArc
 50
270.0
 51
0.0
  0
LINE
  5
2A0
330
1E
100
AcDbEntity
  8
ADP1DETAIL
100
AcDbLine
 10
12.20241490054258
 20
0.9988466879106612
 30
0.0
 11
12.31706618922116
 21
0.9988466879106612
 31
0.0
  0
ARC
  5
2A1
330
1E
100
AcDbEntity
  8
ADP1DETAIL
100
AcDbCircle
 10
12.31706618922116
 20
1.013846687910661
 30
0.0
 40
0.015
100
AcDbArc
 50
270.0
 51
0.0000000000003053
  0
LINE
  5
2A2
330
1E
100
AcDbEntity
  8
ADP1DETAIL
100
AcDbLine
 10
12.45756618922116
 20
1.370561354038934
 30
0.0
 11
12.98972489428567
 21
1.370561354038934
 31
0.0
  0
LINE
  5
2A3
330
1E
100
AcDbEntity
  8
ADP1DETAIL
100
AcDbLine
 10
12.45756618922115
 20
1.197561354038936
 30
0.0
 11
12.45756618922116
 21
1.370561354038934
 31
0.0
  0
ARC
  5
2A4
330
1E
100
AcDbEntity
  8
ADP1DETAIL
100
AcDbCircle
 10
12.98972489428568
 20
0.9852425682097214
 30
0.0
 40
0.7499999999999986
100
AcDbArc
 50
90.08851858174336
 51
114.6411830056756
  0
ARC
  5
2A5
330
1E
100
AcDbEntity
  8
ADP1DETAIL
100
AcDbCircle
 10
13.8080294355552
 20
1.327861895305859
 30
0.0
 40
0.1559999999999996
100
AcDbArc
 50
309.6384861132802
 51
99.34321938177587
  0
ARC
  5
2A6
330
1E
100
AcDbEntity
  8
ADP1DETAIL
100
AcDbCircle
 10
13.99430170255941
 20
1.005885582239362
 30
0.0
 40
0.2196970135271803
100
AcDbArc
 50
113.258334290342
 51
181.8360193471644
  0
ARC
  5
2A7
330
1E
100
AcDbEntity
  8
ADP1DETAIL
100
AcDbCircle
 10
13.70640748415663
 20
2.297358303403844
 30
0.0
 40
0.75
100
AcDbArc
 50
237.1983482620581
 51
268.8764813422997
  0
ARC
  5
2A8
330
1E
100
AcDbEntity
  8
ADP1DETAIL
100
AcDbCircle
 10
13.72140748415663
 20
1.496792326700497
 30
0.0
 40
0.015
100
AcDbArc
 50
180.0
 51
270.0
  0
ARC
  5
2A9
330
1E
100
AcDbEntity
  8
ADP1DETAIL
100
AcDbCircle
 10
13.69140748415664
 20
1.532505376364928
 30
0.0
 40
0.015
100
AcDbArc
 50
0.0
 51
88.87648134229735
  0
LINE
  5
2AA
330
1E
100
AcDbEntity
  8
ADP1DETAIL
100
AcDbLine
 10
13.51956618922115
 20
1.197561354038936
 30
0.0
 11
13.51956618922115
 21
1.370561354038934
 31
0.0
  0
ARC
  5
2AB
330
1E
100
AcDbEntity
  8
ADP1DETAIL
100
AcDbCircle
 10
13.53456618922115
 20
1.197561354038936
 30
0.0
 40
0.015
100
AcDbArc
 50
180.0
 51
270.0
  0
LINE
  5
2AC
330
1E
100
AcDbEntity
  8
ADP1DETAIL
100
AcDbLine
 10
13.64506618922115
 20
1.013846687910661
 30
0.0
 11
13.64506618922115
 21
1.167561354038935
 31
0.0
  0
LINE
  5
2AD
330
1E
100
AcDbEntity
  8
ADP1DETAIL
100
AcDbLine
 10
13.63006618922115
 20
1.182561354038935
 30
0.0
 11
13.53456618922115
 21
1.182561354038935
 31
0.0
  0
ARC
  5
2AE
330
1E
100
AcDbEntity
  8
ADP1DETAIL
100
AcDbCircle
 10
13.63006618922115
 20
1.167561354038935
 30
0.0
 40
0.015
100
AcDbArc
 50
0.0
 51
90.0
  0
LINE
  5
2AF
330
1E
100
AcDbEntity
  8
ADP1DETAIL
100
AcDbLine
 10
13.72140748415663
 20
1.481792326700497
 30
0.0
 11
13.78270311938683
 21
1.481792326700497
 31
0.0
  0
LINE
  5
2B0
330
1E
100
AcDbEntity
  8
ADP1DETAIL
100
AcDbLine
 10
13.70640748415663
 20
1.496792326700497
 30
0.0
 11
13.70640748415663
 21
1.532505376364928
 31
0.0
  0
LINE
  5
2B1
330
1E
100
AcDbEntity
  8
ADP1DETAIL
100
AcDbLine
 10
13.77471747789973
 20
0.9988466879106612
 30
0.0
 11
13.66006618922115
 21
0.9988466879106612
 31
0.0
  0
ARC
  5
2B2
330
1E
100
AcDbEntity
  8
ADP1DETAIL
100
AcDbCircle
 10
13.66006618922115
 20
1.013846687910661
 30
0.0
 40
0.015
100
AcDbArc
 50
179.9999999999997
 51
270.0
  0
DIMENSION
  5
2B3
330
1E
100
AcDbEntity
  8
ADPDIM
 62
     3
100
AcDbDimension
  2
*D8
 10
13.52339938932106
 20
0.9909710240073668
 30
0.0
 11
12.99214938932106
 21
0.9909710240073668
 31
0.0
 70
    32
 71
     5
 42
1.0625
  3
Standard
100
AcDbAlignedDimension
 13
12.46089938932106
 23
1.184257578567629
 33
0.0
 14
13.52339938932106
 24
1.184257578567629
 34
0.0
100
AcDbRotatedDimension
1001
ACAD
1000
DSTYLE
1002
{
1070
   276
1070
     2
1070
    41
1040
0.125
1070
    73
1070
     0
1070
    74
1070
     0
1070
    78
1070
     3
1070
   140
1040
0.125
1070
   141
1040
0.1875
1070
   142
1040
0.125
1070
   147
1040
0.125
1070
   171
1070
     1
1070
   273
1070
     5
1070
   274
1070
     1
1070
   277
1070
     5
1070
   279
1070
     2
1070
   284
1070
     3
1070
   285
1070
     3
1070
   286
1070
     3
1002
}
  0
DIMENSION
  5
2F9
330
1E
100
AcDbEntity
  8
ADPDIM
 62
     3
100
AcDbDimension
  2
*D9
 10
11.14884856600832
 20
0.4465981569446385
 30
0.0
 11
9.523848566008322
 21
0.4465981569446385
 31
0.0
 70
    32
 71
     5
 42
3.25
  3
Standard
100
AcDbAlignedDimension
 13
7.898848566008322
 23
0.8303066130387755
 33
0.0
 14
11.14884856600832
 24
0.9051779032390818
 34
0.0
100
AcDbRotatedDimension
1001
ACAD
1000
DSTYLE
1002
{
1070
   276
1070
     2
1070
    41
1040
0.125
1070
    73
1070
     0
1070
    74
1070
     0
1070
    78
1070
     3
1070
   140
1040
0.125
1070
   141
1040
0.1875
1070
   142
1040
0.125
1070
   147
1040
0.125
1070
   171
1070
     1
1070
   273
1070
     5
1070
   274
1070
     1
1070
   277
1070
     5
1070
   279
1070
     2
1070
   284
1070
     3
1070
   285
1070
     3
1070
   286
1070
     3
1002
}
  0
ENDSEC
  0
SECTION
  2
OBJECTS
  0
DICTIONARY
  5
C
330
0
100
AcDbDictionary
281
     1
  3
ACAD_COLOR
350
23C
  3
ACAD_GROUP
350
D
  3
ACAD_LAYOUT
350
19
  3
ACAD_MATERIAL
350
227
  3
ACAD_MLINESTYLE
350
16
  3
ACAD_PLOTSETTINGS
350
18
  3
ACAD_PLOTSTYLENAME
350
E
  3
ACAD_TABLESTYLE
350
23D
  3
ACAD_VISUALSTYLE
350
22B
  3
AcDbVariableDictionary
350
109
  3
DWGPROPS
350
353
  0
DICTIONARY
  5
D4
330
1E
100
AcDbDictionary
280
     1
281
     1
  3
ACAD_LAYOUTSELFREF
360
223
  0
DICTIONARY
  5
D6
330
1A
100
AcDbDictionary
280
     1
281
     1
  3
ACAD_LAYOUTSELFREF
360
222
  0
DICTIONARY
  5
23C
102
{ACAD_REACTORS
330
C
102
}
330
C
100
AcDbDictionary
281
     1
  0
DICTIONARY
  5
D
102
{ACAD_REACTORS
330
C
102
}
330
C
100
AcDbDictionary
281
     1
  0
DICTIONARY
  5
19
102
{ACAD_REACTORS
330
C
102
}
330
C
100
AcDbDictionary
281
     1
  3
Layout1
350
1D
  3
Model
350
21
  0
DICTIONARY
  5
227
102
{ACAD_REACTORS
330
C
102
}
330
C
100
AcDbDictionary
281
     1
  3
ByBlock
350
229
  3
ByLayer
350
228
  3
Global
350
22A
  0
DICTIONARY
  5
16
102
{ACAD_REACTORS
330
C
102
}
330
C
100
AcDbDictionary
281
     1
  3
Standard
350
17
  0
DICTIONARY
  5
18
102
{ACAD_REACTORS
330
C
102
}
330
C
100
AcDbDictionary
281
     1
  0
ACDBDICTIONARYWDFLT
  5
E
102
{ACAD_REACTORS
330
C
102
}
330
C
100
AcDbDictionary
281
     1
  3
Normal
350
F
100
AcDbDictionaryWithDefault
340
F
  0
DICTIONARY
  5
23D
102
{ACAD_REACTORS
330
C
102
}
330
C
100
AcDbDictionary
281
     1
  3
Standard
350
23E
  0
DICTIONARY
  5
22B
102
{ACAD_REACTORS
330
C
102
}
330
C
100
AcDbDictionary
281
     1
  3
2dWireframe
350
231
  3
3D Hidden
350
233
  3
3dWireframe
350
232
  3
Basic
350
230
  3
Brighten
350
237
  3
ColorChange
350
23B
  3
Conceptual
350
234
  3
Dim
350
236
  3
Facepattern
350
23A
  3
Flat
350
22C
  3
FlatWithEdges
350
22D
  3
Gouraud
350
22E
  3
GouraudWithEdges
350
22F
  3
Linepattern
350
239
  3
Realistic
350
235
  3
Thicken
350
238
  0
DICTIONARY
  5
109
102
{ACAD_REACTORS
330
C
102
}
330
C
100
AcDbDictionary
281
     1
  3
CTABLESTYLE
350
350
  3
DIMASSOC
350
10B
  3
HIDETEXT
350
10A
  3
INDEXCTL
350
352
  3
SORTENTS
350
351
  0
XRECORD
  5
353
102
{ACAD_REACTORS
330
C
102
}
330
C
100
AcDbXrecord
280
     1
  1
DWGPROPS COOKIE
  2

  3

  4

  6

  7

  8
Yu Hu
  9

300
=
301
=
302
=
303
=
304
=
305
=
306
=
307
=
308
=
309
=
 40
0.0364412731481482
 41
2450364.615409144
 42
2453984.940231748
  1

 90
        0
  0
XRECORD
  5
223
102
{ACAD_REACTORS
330
D4
102
}
330
D4
100
AcDbXrecord
280
     1
340
1E
  0
XRECORD
  5
222
102
{ACAD_REACTORS
330
D6
102
}
330
D6
100
AcDbXrecord
280
     1
340
1A
  0
LAYOUT
  5
1D
102
{ACAD_XDICTIONARY
360
354
102
}
102
{ACAD_REACTORS
330
19
102
}
330
19
100
AcDbPlotSettings
  1

  2
Fax
  4

  6

 40
0.0
 41
0.0
 42
0.0
 43
0.0
 44
0.0
 45
0.0
 46
0.0
 47
0.0
 48
0.0
 49
0.0
140
0.0
141
0.0
142
1.0
143
1.0
 70
   688
 72
     0
 73
     0
 74
     5
  7
Default R14 pen assignments.ctb
 75
    16
147
1.0
148
0.0
149
0.0
100
AcDbLayout
  1
Layout1
 70
     1
 71
     1
 10
0.0
 20
0.0
 11
12.0
 21
9.0
 12
-1.038494034028074E+34
 22
0.0
 32
0.0
 14
1.000000000000000E+20
 24
1.000000000000000E+20
 34
1.000000000000000E+20
 15
-1.000000000000000E+20
 25
-1.000000000000000E+20
 35
-1.000000000000000E+20
146
0.0
 13
0.0
 23
0.0
 33
0.0
 16
1.0
 26
0.0
 36
0.0
 17
0.0
 27
1.0
 37
0.0
 76
     0
330
1A
  0
LAYOUT
  5
21
102
{ACAD_XDICTIONARY
360
356
102
}
102
{ACAD_REACTORS
330
19
102
}
330
19
100
AcDbPlotSettings
  1

  2
Fax
  4

  6

 40
0.0
 41
0.0
 42
0.0
 43
0.0
 44
0.0
 45
0.0
 46
0.0
 47
0.0
 48
0.0
 49
0.0
140
0.0
141
0.0
142
1.0
143
1.0
 70
  1712
 72
     0
 73
     0
 74
     0
  7
Default R14 pen assignments.ctb
 75
     0
147
1.0
148
0.0
149
0.0
100
AcDbLayout
  1
Model
 70
     1
 71
     0
 10
0.0
 20
0.0
 11
12.0
 21
9.0
 12
0.0
 22
0.0
 32
0.0
 14
0.0
 24
0.0
 34
0.0
 15
0.0
 25
0.0
 35
0.0
146
0.0
 13
0.0
 23
0.0
 33
0.0
 16
1.0
 26
0.0
 36
0.0
 17
0.0
 27
1.0
 37
0.0
 76
     0
330
1E
331
1F0
  0
MATERIAL
  5
229
102
{ACAD_XDICTIONARY
360
35A
102
}
102
{ACAD_REACTORS
330
227
102
}
330
227
100
AcDbMaterial
  1
ByBlock
  0
MATERIAL
  5
228
102
{ACAD_XDICTIONARY
360
358
102
}
102
{ACAD_REACTORS
330
227
102
}
330
227
100
AcDbMaterial
  1
ByLayer
  0
MATERIAL
  5
22A
102
{ACAD_XDICTIONARY
360
35C
102
}
102
{ACAD_REACTORS
330
227
102
}
330
227
100
AcDbMaterial
  1
Global
  0
MLINESTYLE
  5
17
102
{ACAD_REACTORS
330
16
102
}
330
16
100
AcDbMlineStyle
  2
STANDARD
 70
     0
  3

 62
   256
 51
90.0
 52
90.0
 71
     2
 49
0.5
 62
   256
  6
BYLAYER
 49
-0.5
 62
   256
  6
BYLAYER
  0
ACDBPLACEHOLDER
  5
F
102
{ACAD_REACTORS
330
E
102
}
330
E
  0
TABLESTYLE
  5
23E
102
{ACAD_XDICTIONARY
360
35E
102
}
102
{ACAD_REACTORS
330
23D
102
}
330
23D
100
AcDbTableStyle
  3
Standard
 70
     0
 71
     0
 40
0.06
 41
0.06
280
     0
281
     0
  7
STANDARD
140
0.18
170
     2
 62
     0
 63
     7
283
     0
274
    -2
284
     1
 64
     0
275
    -2
285
     1
 65
     0
276
    -2
286
     1
 66
     0
277
    -2
287
     1
 67
     0
278
    -2
288
     1
 68
     0
279
    -2
289
     1
 69
     0
  7
STANDARD
140
0.25
170
     5
 62
     0
 63
     7
283
     0
274
    -2
284
     1
 64
     0
275
    -2
285
     1
 65
     0
276
    -2
286
     1
 66
     0
277
    -2
287
     1
 67
     0
278
    -2
288
     1
 68
     0
279
    -2
289
     1
 69
     0
  7
STANDARD
140
0.18
170
     5
 62
     0
 63
     7
283
     0
274
    -2
284
     1
 64
     0
275
    -2
285
     1
 65
     0
276
    -2
286
     1
 66
     0
277
    -2
287
     1
 67
     0
278
    -2
288
     1
 68
     0
279
    -2
289
     1
 69
     0
  0
VISUALSTYLE
  5
231
102
{ACAD_REACTORS
330
22B
102
}
330
22B
100
AcDbVisualStyle
  2
2dWireframe
 70
     4
 71
     0
 72
     2
 73
     0
 90
        0
 40
-0.6
 41
-30.0
 62
     5
 63
     7
 74
     1
 91
        4
 64
     7
 65
   257
 75
     1
175
     1
 42
1.0
 92
        0
 66
   257
 43
1.0
 76
     1
 77
     6
 78
     2
 67
     7
 79
     5
170
     0
171
     0
290
     0
174
     0
 93
        1
 44
0.0
173
     0
291
     0
 45
0.0
1001
ACAD
1000
AcDbSavedByObjectVersion
1070
     0
  0
VISUALSTYLE
  5
233
102
{ACAD_REACTORS
330
22B
102
}
330
22B
100
AcDbVisualStyle
  2
3D Hidden
 70
     6
 71
     1
 72
     2
 73
     2
 90
        0
 40
-0.6
 41
-30.0
 62
     5
 63
     7
 74
     2
 91
        2
 64
     7
 65
   257
 75
     2
175
     1
 42
40.0
 92
        0
 66
   257
 43
1.0
 76
     1
 77
     6
 78
     2
 67
     7
 79
     3
170
     0
171
     0
290
     0
174
     0
 93
        1
 44
0.0
173
     0
291
     0
 45
0.0
1001
ACAD
1000
AcDbSavedByObjectVersion
1070
     0
  0
VISUALSTYLE
  5
232
102
{ACAD_REACTORS
330
22B
102
}
330
22B
100
AcDbVisualStyle
  2
3dWireframe
 70
     5
 71
     0
 72
     2
 73
     0
 90
        0
 40
-0.6
 41
-30.0
 62
     5
 63
     7
 74
     1
 91
        4
 64
     7
 65
   257
 75
     1
175
     1
 42
1.0
 92
        0
 66
   257
 43
1.0
 76
     1
 77
     6
 78
     2
 67
     7
 79
     5
170
     0
171
     0
290
     0
174
     0
 93
        1
 44
0.0
173
     0
291
     0
 45
0.0
1001
ACAD
1000
AcDbSavedByObjectVersion
1070
     0
  0
VISUALSTYLE
  5
230
102
{ACAD_REACTORS
330
22B
102
}
330
22B
100
AcDbVisualStyle
  2
Basic
 70
     7
 71
     1
 72
     0
 73
     1
 90
        0
 40
-0.6
 41
-30.0
 62
     5
 63
     7
 74
     0
 91
        4
 64
     7
 65
   257
 75
     1
175
     1
 42
1.0
 92
        8
 66
     7
 43
1.0
 76
     1
 77
     6
 78
     2
 67
     7
 79
     5
170
     0
171
     0
290
     0
174
     0
 93
        1
 44
0.0
173
     0
291
     1
 45
0.0
1001
ACAD
1000
AcDbSavedByObjectVersion
1070
     0
  0
VISUALSTYLE
  5
237
102
{ACAD_REACTORS
330
22B
102
}
330
22B
100
AcDbVisualStyle
  2
Brighten
 70
    12
 71
     2
 72
     2
 73
     0
 90
        0
 40
-0.6
 41
-30.0
 62
     5
 63
     7
 74
     1
 91
        4
 64
     7
 65
   257
 75
     1
175
     1
 42
1.0
 92
        8
 66
     7
 43
1.0
 76
     1
 77
     6
 78
     2
 67
     7
 79
     5
170
     0
171
     0
290
     0
174
     0
 93
        1
 44
50.0
173
     0
291
     1
 45
0.0
1001
ACAD
1000
AcDbSavedByObjectVersion
1070
     0
  0
VISUALSTYLE
  5
23B
102
{ACAD_REACTORS
330
22B
102
}
330
22B
100
AcDbVisualStyle
  2
ColorChange
 70
    16
 71
     2
 72
     2
 73
     3
 90
        0
 40
-0.6
 41
-30.0
 62
     5
 63
     8
 74
     1
 91
        4
 64
     7
 65
   257
 75
     1
175
     1
 42
1.0
 92
        8
 66
     8
 43
1.0
 76
     1
 77
     6
 78
     2
 67
     7
 79
     5
170
     0
171
     0
290
     0
174
     0
 93
        1
 44
0.0
173
     0
291
     1
 45
0.0
1001
ACAD
1000
AcDbSavedByObjectVersion
1070
     0
  0
VISUALSTYLE
  5
234
102
{ACAD_REACTORS
330
22B
102
}
330
22B
100
AcDbVisualStyle
  2
Conceptual
 70
     9
 71
     3
 72
     2
 73
     0
 90
        0
 40
-0.6
 41
-30.0
 62
     5
 63
     7
 74
     2
 91
        2
 64
     7
 65
   257
 75
     1
175
     1
 42
40.0
 92
        8
 66
     7
 43
1.0
 76
     1
 77
     6
 78
     2
 67
     7
 79
     3
170
     0
171
     0
290
     0
174
     0
 93
        1
 44
0.0
173
     0
291
     0
 45
0.0
1001
ACAD
1000
AcDbSavedByObjectVersion
1070
     0
  0
VISUALSTYLE
  5
236
102
{ACAD_REACTORS
330
22B
102
}
330
22B
100
AcDbVisualStyle
  2
Dim
 70
    11
 71
     2
 72
     2
 73
     0
 90
        0
 40
-0.6
 41
-30.0
 62
     5
 63
     7
 74
     1
 91
        4
 64
     7
 65
   257
 75
     1
175
     1
 42
1.0
 92
        8
 66
     7
 43
1.0
 76
     1
 77
     6
 78
     2
 67
     7
 79
     5
170
     0
171
     0
290
     0
174
     0
 93
        1
 44
-50.0
173
     0
291
     1
 45
0.0
1001
ACAD
1000
AcDbSavedByObjectVersion
1070
     0
  0
VISUALSTYLE
  5
23A
102
{ACAD_REACTORS
330
22B
102
}
330
22B
100
AcDbVisualStyle
  2
Facepattern
 70
    15
 71
     2
 72
     2
 73
     0
 90
        0
 40
-0.6
 41
-30.0
 62
     5
 63
     7
 74
     1
 91
        4
 64
     7
 65
   257
 75
     1
175
     1
 42
1.0
 92
        8
 66
     7
 43
1.0
 76
     1
 77
     6
 78
     2
 67
     7
 79
     5
170
     0
171
     0
290
     0
174
     0
 93
        1
 44
0.0
173
     0
291
     1
 45
0.0
1001
ACAD
1000
AcDbSavedByObjectVersion
1070
     0
  0
VISUALSTYLE
  5
22C
102
{ACAD_REACTORS
330
22B
102
}
330
22B
100
AcDbVisualStyle
  2
Flat
 70
     0
 71
     2
 72
     1
 73
     1
 90
        2
 40
-0.6
 41
30.0
 62
     5
 63
     7
 74
     0
 91
        4
 64
     7
 65
   257
 75
     1
175
     1
 42
1.0
 92
        8
 66
     7
 43
1.0
 76
     1
 77
     6
 78
     2
 67
     7
 79
     5
170
     0
171
     0
290
     0
174
     0
 93
       13
 44
0.0
173
     0
291
     1
 45
0.0
1001
ACAD
1000
AcDbSavedByObjectVersion
1070
     0
  0
VISUALSTYLE
  5
22D
102
{ACAD_REACTORS
330
22B
102
}
330
22B
100
AcDbVisualStyle
  2
FlatWithEdges
 70
     1
 71
     2
 72
     1
 73
     1
 90
        2
 40
-0.6
 41
30.0
 62
     5
 63
     7
 74
     1
 91
        4
 64
     7
 65
   257
 75
     1
175
     1
 42
1.0
 92
        0
 66
   257
 43
1.0
 76
     1
 77
     6
 78
     2
 67
     7
 79
     5
170
     0
171
     0
290
     0
174
     0
 93
       13
 44
0.0
173
     0
291
     1
 45
0.0
1001
ACAD
1000
AcDbSavedByObjectVersion
1070
     0
  0
VISUALSTYLE
  5
22E
102
{ACAD_REACTORS
330
22B
102
}
330
22B
100
AcDbVisualStyle
  2
Gouraud
 70
     2
 71
     2
 72
     2
 73
     1
 90
        2
 40
-0.6
 41
30.0
 62
     5
 63
     7
 74
     0
 91
        4
 64
     7
 65
   257
 75
     1
175
     1
 42
1.0
 92
        0
 66
     7
 43
1.0
 76
     1
 77
     6
 78
     2
 67
     7
 79
     5
170
     0
171
     0
290
     0
174
     0
 93
       13
 44
0.0
173
     0
291
     1
 45
0.0
1001
ACAD
1000
AcDbSavedByObjectVersion
1070
     0
  0
VISUALSTYLE
  5
22F
102
{ACAD_REACTORS
330
22B
102
}
330
22B
100
AcDbVisualStyle
  2
GouraudWithEdges
 70
     3
 71
     2
 72
     2
 73
     1
 90
        2
 40
-0.6
 41
30.0
 62
     5
 63
     7
 74
     1
 91
        4
 64
     7
 65
   257
 75
     1
175
     1
 42
1.0
 92
        0
 66
   257
 43
1.0
 76
     1
 77
     6
 78
     2
 67
     7
 79
     5
170
     0
171
     0
290
     0
174
     0
 93
       13
 44
0.0
173
     0
291
     1
 45
0.0
1001
ACAD
1000
AcDbSavedByObjectVersion
1070
     0
  0
VISUALSTYLE
  5
239
102
{ACAD_REACTORS
330
22B
102
}
330
22B
100
AcDbVisualStyle
  2
Linepattern
 70
    14
 71
     2
 72
     2
 73
     0
 90
        0
 40
-0.6
 41
-30.0
 62
     5
 63
     7
 74
     1
 91
        4
 64
     7
 65
   257
 75
     7
175
     7
 42
1.0
 92
        8
 66
     7
 43
1.0
 76
     1
 77
     6
 78
     2
 67
     7
 79
     5
170
     0
171
     0
290
     0
174
     0
 93
        1
 44
0.0
173
     0
291
     1
 45
0.0
1001
ACAD
1000
AcDbSavedByObjectVersion
1070
     0
  0
VISUALSTYLE
  5
235
102
{ACAD_REACTORS
330
22B
102
}
330
22B
100
AcDbVisualStyle
  2
Realistic
 70
     8
 71
     2
 72
     2
 73
     0
 90
        0
 40
-0.6
 41
-30.0
 62
     5
 63
     7
 74
     1
 91
        0
 64
     7
 65
   257
 75
     1
175
     1
 42
1.0
 92
        8
 66
     8
 43
1.0
 76
     1
 77
     6
 78
     2
 67
     7
 79
     5
170
     0
171
     0
290
     0
174
     0
 93
       13
 44
0.0
173
     0
291
     0
 45
0.0
1001
ACAD
1000
AcDbSavedByObjectVersion
1070
     0
  0
VISUALSTYLE
  5
238
102
{ACAD_REACTORS
330
22B
102
}
330
22B
100
AcDbVisualStyle
  2
Thicken
 70
    13
 71
     2
 72
     2
 73
     0
 90
        0
 40
-0.6
 41
-30.0
 62
     5
 63
     7
 74
     1
 91
        4
 64
     7
 65
   257
 75
     1
175
     1
 42
1.0
 92
       12
 66
     7
 43
1.0
 76
     1
 77
     6
 78
     2
 67
     7
 79
     5
170
     0
171
     0
290
     0
174
     0
 93
        1
 44
0.0
173
     0
291
     1
 45
0.0
1001
ACAD
1000
AcDbSavedByObjectVersion
1070
     0
  0
DICTIONARYVAR
  5
350
102
{ACAD_REACTORS
330
109
102
}
330
109
100
DictionaryVariables
280
     0
  1
STANDARD
  0
DICTIONARYVAR
  5
10B
102
{ACAD_REACTORS
330
109
102
}
330
109
100
DictionaryVariables
280
     0
  1
2
  0
DICTIONARYVAR
  5
10A
102
{ACAD_REACTORS
330
109
102
}
330
109
100
DictionaryVariables
280
     0
  1
1
  0
DICTIONARYVAR
  5
352
102
{ACAD_REACTORS
330
109
102
}
330
109
100
DictionaryVariables
280
     0
  1
0
  0
DICTIONARYVAR
  5
351
102
{ACAD_REACTORS
330
109
102
}
330
109
100
DictionaryVariables
280
     0
  1
127
  0
DICTIONARY
  5
354
330
1D
100
AcDbDictionary
280
     1
281
     1
  3
ACAD_XREC_ROUNDTRIP
360
355
  0
DICTIONARY
  5
356
330
21
100
AcDbDictionary
280
     1
281
     1
  3
ACAD_XREC_ROUNDTRIP
360
357
  0
DICTIONARY
  5
35A
330
229
100
AcDbDictionary
280
     1
281
     1
  3
ACAD_XREC_ROUNDTRIP
360
35B
  0
DICTIONARY
  5
358
330
228
100
AcDbDictionary
280
     1
281
     1
  3
ACAD_XREC_ROUNDTRIP
360
359
  0
DICTIONARY
  5
35C
330
22A
100
AcDbDictionary
280
     1
281
     1
  3
ACAD_XREC_ROUNDTRIP
360
35D
  0
DICTIONARY
  5
35E
330
23E
100
AcDbDictionary
280
     1
281
     1
  3
ACAD_XREC_ROUNDTRIP
360
35F
  0
XRECORD
  5
355
102
{ACAD_REACTORS
330
354
102
}
330
354
100
AcDbXrecord
280
     1
102
SHADEPLOT
 70
     0
102
SHADEPLOTRESLEVEL
 70
     2
102
SHADEPLOTCUSTOMDPI
 70
   300
  0
XRECORD
  5
357
102
{ACAD_REACTORS
330
356
102
}
330
356
100
AcDbXrecord
280
     1
102
SHADEPLOT
 70
     0
102
SHADEPLOTRESLEVEL
 70
     2
102
SHADEPLOTCUSTOMDPI
 70
   300
  0
XRECORD
  5
35B
102
{ACAD_REACTORS
330
35A
102
}
330
35A
100
AcDbXrecord
280
     1
102
MATERIAL
148
0.0
149
0.0
149
0.0
 93
        0
 94
       63
282
     0
 72
     1
 77
     1
171
     1
175
     1
179
     1
273
     0
  0
XRECORD
  5
359
102
{ACAD_REACTORS
330
358
102
}
330
358
100
AcDbXrecord
280
     1
102
MATERIAL
148
0.0
149
0.0
149
0.0
 93
        0
 94
       63
282
     0
 72
     1
 77
     1
171
     1
175
     1
179
     1
273
     0
  0
XRECORD
  5
35D
102
{ACAD_REACTORS
330
35C
102
}
330
35C
100
AcDbXrecord
280
     1
102
MATERIAL
148
0.0
149
0.0
149
0.0
 93
        0
 94
       63
282
     0
 72
     1
 77
     1
171
     1
175
     1
179
     1
273
     0
  0
XRECORD
  5
35F
102
{ACAD_REACTORS
330
35E
102
}
330
35E
100
AcDbXrecord
280
     1
102
ACAD_ROUNDTRIP_PRE2007_TABLESTYLE
 90
      512
 91
        0
  1

 92
      512
 93
        0
  2

 94
      512
 95
        0
  3

  0
ENDSEC
  0
EOF
