  0
SECTION
  2
HEADER
  9
$ACADVER
  1
AC1015
  9
$ACADMAINTVER
 70
    20
  9
$DWGCODEPAGE
  3
ANSI_1252
  9
$INSBASE
 10
27.26752652784997
 20
-3.979900805551555
 30
0.0
  9
$EXTMIN
 10
24.73652767420437
 20
-9.678469403391559
 30
-0.0015258207003583
  9
$EXTMAX
 10
38.37300101174014
 20
-1.717270859313728
 30
0.0000000349246037
  9
$LIMMIN
 10
0.0
 20
0.0
  9
$LIMMAX
 10
36.0
 20
36.0
  9
$ORTHOMODE
 70
     1
  9
$REGENMODE
 70
     1
  9
$FILLMODE
 70
     1
  9
$QTEXTMODE
 70
     0
  9
$MIRRTEXT
 70
     1
  9
$LTSCALE
 40
1.0
  9
$ATTMODE
 70
     1
  9
$TEXTSIZE
 40
0.2
  9
$TRACEWID
 40
0.05
  9
$TEXTSTYLE
  7
STANDARD
  9
$CLAYER
  8
0
  9
$CELTYPE
  6
ByLayer
  9
$CECOLOR
 62
   256
  9
$CELTSCALE
 40
1.0
  9
$DISPSILH
 70
     0
  9
$DIMSCALE
 40
1.0
  9
$DIMASZ
 40
0.125
  9
$DIMEXO
 40
0.0625
  9
$DIMDLI
 40
0.38
  9
$DIMRND
 40
0.0
  9
$DIMDLE
 40
0.0
  9
$DIMEXE
 40
0.18
  9
$DIMTP
 40
0.0
  9
$DIMTM
 40
0.0
  9
$DIMTXT
 40
0.125
  9
$DIMCEN
 40
0.1875
  9
$DIMTSZ
 40
0.125
  9
$DIMTOL
 70
     0
  9
$DIMLIM
 70
     0
  9
$DIMTIH
 70
     0
  9
$DIMTOH
 70
     0
  9
$DIMSE1
 70
     0
  9
$DIMSE2
 70
     0
  9
$DIMTAD
 70
     0
  9
$DIMZIN
 70
     3
  9
$DIMBLK
  1

  9
$DIMASO
 70
     1
  9
$DIMSHO
 70
     1
  9
$DIMPOST
  1

  9
$DIMAPOST
  1

  9
$DIMALT
 70
     0
  9
$DIMALTD
 70
     1
  9
$DIMALTF
 40
25.4
  9
$DIMLFAC
 40
1.0
  9
$DIMTOFL
 70
     0
  9
$DIMTVP
 40
0.0
  9
$DIMTIX
 70
     0
  9
$DIMSOXD
 70
     0
  9
$DIMSAH
 70
     0
  9
$DIMBLK1
  1

  9
$DIMBLK2
  1

  9
$DIMSTYLE
  2
Standard
  9
$DIMCLRD
 70
     0
  9
$DIMCLRE
 70
     0
  9
$DIMCLRT
 70
     0
  9
$DIMTFAC
 40
1.0
  9
$DIMGAP
 40
0.125
  9
$DIMJUST
 70
     0
  9
$DIMSD1
 70
     0
  9
$DIMSD2
 70
     0
  9
$DIMTOLJ
 70
     1
  9
$DIMTZIN
 70
     3
  9
$DIMALTZ
 70
     3
  9
$DIMALTTZ
 70
     3
  9
$DIMUPT
 70
     0
  9
$DIMDEC
 70
     4
  9
$DIMTDEC
 70
     4
  9
$DIMALTU
 70
     5
  9
$DIMALTTD
 70
     1
  9
$DIMTXSTY
  7
STANDARD
  9
$DIMAUNIT
 70
     0
  9
$DIMADEC
 70
     0
  9
$DIMALTRND
 40
0.0
  9
$DIMAZIN
 70
     0
  9
$DIMDSEP
 70
    46
  9
$DIMATFIT
 70
     3
  9
$DIMFRAC
 70
     0
  9
$DIMLDRBLK
  1

  9
$DIMLUNIT
 70
     5
  9
$DIMLWD
 70
    -2
  9
$DIMLWE
 70
    -2
  9
$DIMTMOVE
 70
     2
  9
$LUNITS
 70
     5
  9
$LUPREC
 70
     4
  9
$SKETCHINC
 40
0.1
  9
$FILLETRAD
 40
0.187
  9
$AUNITS
 70
     0
  9
$AUPREC
 70
     0
  9
$MENU
  1
acad
  9
$ELEVATION
 40
0.0
  9
$PELEVATION
 40
0.0
  9
$THICKNESS
 40
0.0
  9
$LIMCHECK
 70
     0
  9
$CHAMFERA
 40
0.0
  9
$CHAMFERB
 40
0.0
  9
$CHAMFERC
 40
0.0
  9
$CHAMFERD
 40
0.0
  9
$SKPOLY
 70
     0
  9
$TDCREATE
 40
2450399.670869213
  9
$TDUCREATE
 40
2450399.837535880
  9
$TDUPDATE
 40
2453984.925628692
  9
$TDUUPDATE
 40
2453985.092295359
  9
$TDINDWG
 40
0.0332358681
  9
$TDUSRTIMER
 40
0.0332358681
  9
$USRTIMER
 70
     1
  9
$ANGBASE
 50
0.0
  9
$ANGDIR
 70
     0
  9
$PDMODE
 70
     0
  9
$PDSIZE
 40
0.0
  9
$PLINEWID
 40
0.0
  9
$SPLFRAME
 70
     0
  9
$SPLINETYPE
 70
     6
  9
$SPLINESEGS
 70
     8
  9
$HANDSEED
  5
380
  9
$SURFTAB1
 70
     6
  9
$SURFTAB2
 70
     6
  9
$SURFTYPE
 70
     6
  9
$SURFU
 70
     6
  9
$SURFV
 70
     6
  9
$UCSBASE
  2

  9
$UCSNAME
  2

  9
$UCSORG
 10
0.0
 20
0.0
 30
0.0
  9
$UCSXDIR
 10
1.0
 20
0.0
 30
0.0
  9
$UCSYDIR
 10
0.0
 20
1.0
 30
0.0
  9
$UCSORTHOREF
  2

  9
$UCSORTHOVIEW
 70
     0
  9
$UCSORGTOP
 10
0.0
 20
0.0
 30
0.0
  9
$UCSORGBOTTOM
 10
0.0
 20
0.0
 30
0.0
  9
$UCSORGLEFT
 10
0.0
 20
0.0
 30
0.0
  9
$UCSORGRIGHT
 10
0.0
 20
0.0
 30
0.0
  9
$UCSORGFRONT
 10
0.0
 20
0.0
 30
0.0
  9
$UCSORGBACK
 10
0.0
 20
0.0
 30
0.0
  9
$PUCSBASE
  2

  9
$PUCSNAME
  2

  9
$PUCSORG
 10
0.0
 20
0.0
 30
0.0
  9
$PUCSXDIR
 10
1.0
 20
0.0
 30
0.0
  9
$PUCSYDIR
 10
0.0
 20
1.0
 30
0.0
  9
$PUCSORTHOREF
  2

  9
$PUCSORTHOVIEW
 70
     0
  9
$PUCSORGTOP
 10
0.0
 20
0.0
 30
0.0
  9
$PUCSORGBOTTOM
 10
0.0
 20
0.0
 30
0.0
  9
$PUCSORGLEFT
 10
0.0
 20
0.0
 30
0.0
  9
$PUCSORGRIGHT
 10
0.0
 20
0.0
 30
0.0
  9
$PUCSORGFRONT
 10
0.0
 20
0.0
 30
0.0
  9
$PUCSORGBACK
 10
0.0
 20
0.0
 30
0.0
  9
$USERI1
 70
     0
  9
$USERI2
 70
     0
  9
$USERI3
 70
     0
  9
$USERI4
 70
     0
  9
$USERI5
 70
     0
  9
$USERR1
 40
0.0
  9
$USERR2
 40
0.0
  9
$USERR3
 40
0.0
  9
$USERR4
 40
0.0
  9
$USERR5
 40
0.0
  9
$WORLDVIEW
 70
     1
  9
$SHADEDGE
 70
     3
  9
$SHADEDIF
 70
    70
  9
$TILEMODE
 70
     1
  9
$MAXACTVP
 70
    15
  9
$PINSBASE
 10
0.0004882914945483
 20
0.7501408034022604
 30
0.0
  9
$PLIMCHECK
 70
     0
  9
$PEXTMIN
 10
1.000000000000000E+20
 20
1.000000000000000E+20
 30
1.000000000000000E+20
  9
$PEXTMAX
 10
-1.000000000000000E+20
 20
-1.000000000000000E+20
 30
-1.000000000000000E+20
  9
$PLIMMIN
 10
0.0
 20
0.0
  9
$PLIMMAX
 10
12.0
 20
9.0
  9
$UNITMODE
 70
     0
  9
$VISRETAIN
 70
     0
  9
$PLINEGEN
 70
     0
  9
$PSLTSCALE
 70
     1
  9
$TREEDEPTH
 70
  3020
  9
$CMLSTYLE
  2
Standard
  9
$CMLJUST
 70
     0
  9
$CMLSCALE
 40
1.0
  9
$PROXYGRAPHICS
 70
     1
  9
$MEASUREMENT
 70
     0
  9
$CELWEIGHT
370
    -1
  9
$ENDCAPS
280
     0
  9
$JOINSTYLE
280
     0
  9
$LWDISPLAY
290
     0
  9
$INSUNITS
 70
     0
  9
$HYPERLINKBASE
  1

  9
$STYLESHEET
  1

  9
$XEDIT
290
     1
  9
$CEPSNTYPE
380
     0
  9
$PSTYLEMODE
290
     1
  9
$FINGERPRINTGUID
  2
{242D62D6-0B9F-42EE-8F20-90A774E65C4A}
  9
$VERSIONGUID
  2
{5882185E-FAED-4CF3-A42D-3EE582FC8243}
  9
$EXTNAMES
290
     1
  9
$PSVPSCALE
 40
0.0
  9
$OLESTARTUP
290
     0
  0
ENDSEC
  0
SECTION
  2
CLASSES
  0
CLASS
  1
ACDBDICTIONARYWDFLT
  2
AcDbDictionaryWithDefault
  3
ObjectDBX Classes
 90
        0
280
     0
281
     0
  0
CLASS
  1
ACDBPLACEHOLDER
  2
AcDbPlaceHolder
  3
ObjectDBX Classes
 90
        0
280
     0
281
     0
  0
CLASS
  1
LAYOUT
  2
AcDbLayout
  3
ObjectDBX Classes
 90
        0
280
     0
281
     0
  0
CLASS
  1
DICTIONARYVAR
  2
AcDbDictionaryVar
  3
ObjectDBX Classes
 90
        0
280
     0
281
     0
  0
CLASS
  1
MATERIAL
  2
AcDbMaterial
  3
ObjectDBX Classes
 90
     1024
280
     0
281
     0
  0
CLASS
  1
VISUALSTYLE
  2
AcDbVisualStyle
  3
ObjectDBX Classes
 90
     4095
280
     0
281
     0
  0
CLASS
  1
TABLESTYLE
  2
AcDbTableStyle
  3
ObjectDBX Classes
 90
     4095
280
     0
281
     0
  0
ENDSEC
  0
SECTION
  2
TABLES
  0
TABLE
  2
VPORT
  5
8
330
0
100
AcDbSymbolTable
 70
     1
  0
VPORT
  5
24B
330
8
100
AcDbSymbolTableRecord
100
AcDbViewportTableRecord
  2
*Active
 70
     0
 10
0.0
 20
0.0
 11
1.0
 21
1.0
 12
31.55476434297226
 22
-5.697870131352644
 13
0.0
 23
0.0
 14
0.5740882589684922
 24
0.5740882589684922
 15
0.5
 25
0.5
 16
0.0
 26
0.0
 36
1.0
 17
0.0
 27
0.0
 37
0.0
 40
8.050986497582467
 41
1.726930320150659
 42
50.0
 43
0.0
 44
0.0
 50
0.0
 51
0.0
 71
     0
 72
   100
 73
     1
 74
     0
 75
     0
 76
     0
 77
     0
 78
     0
281
     0
 65
     1
110
0.0
120
0.0
130
0.0
111
1.0
121
0.0
131
0.0
112
0.0
122
1.0
132
0.0
 79
     0
146
0.0
  0
ENDTAB
  0
TABLE
  2
LTYPE
  5
5
330
0
100
AcDbSymbolTable
 70
     2
  0
LTYPE
  5
13
330
5
100
AcDbSymbolTableRecord
100
AcDbLinetypeTableRecord
  2
ByBlock
 70
     0
  3

 72
    65
 73
     0
 40
0.0
  0
LTYPE
  5
14
330
5
100
AcDbSymbolTableRecord
100
AcDbLinetypeTableRecord
  2
ByLayer
 70
     0
  3

 72
    65
 73
     0
 40
0.0
  0
LTYPE
  5
15
330
5
100
AcDbSymbolTableRecord
100
AcDbLinetypeTableRecord
  2
CONTINUOUS
 70
     0
  3
Solid line
 72
    65
 73
     0
 40
0.0
  0
LTYPE
  5
94
330
5
100
AcDbSymbolTableRecord
100
AcDbLinetypeTableRecord
  2
CENTER2
 70
     0
  3
___ _ ___ _ ___ _ ___ _ ___ _ ___ _ ___ _ ___ _
 72
    65
 73
     4
 40
1.125
 49
0.75
 74
     0
 49
-0.125
 74
     0
 49
0.125
 74
     0
 49
-0.125
 74
     0
  0
ENDTAB
  0
TABLE
  2
LAYER
  5
2
330
0
100
AcDbSymbolTable
 70
     5
  0
LAYER
  5
10
330
2
100
AcDbSymbolTableRecord
100
AcDbLayerTableRecord
  2
0
 70
     0
 62
     7
  6
CONTINUOUS
370
    -3
390
F
  0
LAYER
  5
98
330
2
100
AcDbSymbolTableRecord
100
AcDbLayerTableRecord
  2
ADP1DETAIL
 70
     0
 62
     7
  6
CONTINUOUS
370
    -3
390
F
  0
LAYER
  5
99
330
2
100
AcDbSymbolTableRecord
100
AcDbLayerTableRecord
  2
ADP3DETAIL
 70
     0
 62
     1
  6
CONTINUOUS
370
    -3
390
F
  0
LAYER
  5
9A
330
2
100
AcDbSymbolTableRecord
100
AcDbLayerTableRecord
  2
DEFPOINTS
 70
     0
 62
     7
  6
CONTINUOUS
290
     0
370
    -3
390
F
  0
LAYER
  5
9B
330
2
100
AcDbSymbolTableRecord
100
AcDbLayerTableRecord
  2
ADPDIM
 70
     0
 62
     3
  6
CONTINUOUS
370
    -3
390
F
  0
ENDTAB
  0
TABLE
  2
STYLE
  5
3
330
0
100
AcDbSymbolTable
 70
     2
  0
STYLE
  5
11
330
3
100
AcDbSymbolTableRecord
100
AcDbTextStyleTableRecord
  2
STANDARD
 70
     0
 40
0.0
 41
1.0
 50
0.0
 71
     0
 42
0.2
  3
txt
  4

  0
STYLE
  5
F2
330
3
100
AcDbSymbolTableRecord
100
AcDbTextStyleTableRecord
  2
ARIAL_WIDE
 70
     0
 40
0.0
 41
1.25
 50
0.0
 71
     0
 42
0.2
  3
ARIAL.TTF
  4

1001
ACAD
1000
Arial
1071
       34
  0
ENDTAB
  0
TABLE
  2
VIEW
  5
6
330
0
100
AcDbSymbolTable
 70
     0
  0
ENDTAB
  0
TABLE
  2
UCS
  5
7
330
0
100
AcDbSymbolTable
 70
     0
  0
ENDTAB
  0
TABLE
  2
APPID
  5
9
330
0
100
AcDbSymbolTable
 70
     1
  0
APPID
  5
12
330
9
100
AcDbSymbolTableRecord
100
AcDbRegAppTableRecord
  2
ACAD
 70
     0
  0
ENDTAB
  0
TABLE
  2
DIMSTYLE
  5
A
330
0
100
AcDbSymbolTable
 70
     1
100
AcDbDimStyleTable
 71
     0
  0
DIMSTYLE
105
F0
102
{ACAD_REACTORS
330
2EC
330
2EF
330
30E
102
}
330
A
100
AcDbSymbolTableRecord
100
AcDbDimStyleTableRecord
  2
Standard
 70
     0
340
11
  0
ENDTAB
  0
TABLE
  2
BLOCK_RECORD
  5
1
330
0
100
AcDbSymbolTable
 70
     9
  0
BLOCK_RECORD
  5
1E
102
{ACAD_XDICTIONARY
360
12F
102
}
330
1
100
AcDbSymbolTableRecord
100
AcDbBlockTableRecord
  2
*Model_Space
340
21
  0
BLOCK_RECORD
  5
1A
102
{ACAD_XDICTIONARY
360
131
102
}
330
1
100
AcDbSymbolTableRecord
100
AcDbBlockTableRecord
  2
*Paper_Space
340
1D
  0
BLOCK_RECORD
  5
86
330
1
100
AcDbSymbolTableRecord
100
AcDbBlockTableRecord
  2
4534
340
0
  0
BLOCK_RECORD
  5
8F
330
1
100
AcDbSymbolTableRecord
100
AcDbBlockTableRecord
  2
*D1
340
0
  0
BLOCK_RECORD
  5
29D
330
1
100
AcDbSymbolTableRecord
100
AcDbBlockTableRecord
  2
*D2
340
0
  0
BLOCK_RECORD
  5
2AA
330
1
100
AcDbSymbolTableRecord
100
AcDbBlockTableRecord
  2
*D3
340
0
  0
BLOCK_RECORD
  5
2B7
330
1
100
AcDbSymbolTableRecord
100
AcDbBlockTableRecord
  2
*D4
340
0
  0
BLOCK_RECORD
  5
30F
330
1
100
AcDbSymbolTableRecord
100
AcDbBlockTableRecord
  2
*D6
340
0
  0
BLOCK_RECORD
  5
31C
330
1
100
AcDbSymbolTableRecord
100
AcDbBlockTableRecord
  2
*D7
340
0
  0
BLOCK_RECORD
  5
329
330
1
100
AcDbSymbolTableRecord
100
AcDbBlockTableRecord
  2
*D8
340
0
  0
ENDTAB
  0
ENDSEC
  0
SECTION
  2
BLOCKS
  0
BLOCK
  5
9E
330
1E
100
AcDbEntity
  8
0
100
AcDbBlockBegin
  2
*Model_Space
 70
     0
 10
0.0
 20
0.0
 30
0.0
  3
*Model_Space
  1

  0
ENDBLK
  5
9F
330
1E
100
AcDbEntity
  8
0
100
AcDbBlockEnd
  0
BLOCK
  5
9C
330
1A
100
AcDbEntity
 67
     1
  8
0
100
AcDbBlockBegin
  2
*Paper_Space
 70
     0
 10
0.0
 20
0.0
 30
0.0
  3
*Paper_Space
  1

  0
ENDBLK
  5
9D
330
1A
100
AcDbEntity
 67
     1
  8
0
100
AcDbBlockEnd
  0
BLOCK
  5
A1
330
86
100
AcDbEntity
  8
0
100
AcDbBlockBegin
  2
4534
 70
     0
 10
0.0
 20
0.0
 30
0.0
  3
4534
  1

  0
ARC
  5
A2
330
86
100
AcDbEntity
  8
0
100
AcDbCircle
 10
0.9568465071617815
 20
-0.3474590559073043
 30
0.0
 40
0.7541535398112679
100
AcDbArc
 50
90.33969080341311
 51
122.9566245269621
  0
LINE
  5
A3
330
86
100
AcDbEntity
  8
0
100
AcDbLine
 10
0.9501837493723073
 20
0.0225040703052883
 30
0.0
 11
0.4401837493723058
 21
0.0225040703052883
 31
0.0
  0
ARC
  5
A4
330
86
100
AcDbEntity
  8
0
100
AcDbCircle
 10
0.1564877412167185
 20
-0.011317945294028
 30
0.0
 40
0.172
100
AcDbArc
 50
90.0
 51
253.1047022829751
  0
LINE
  5
A5
330
86
100
AcDbEntity
  8
0
100
AcDbLine
 10
0.2958675537051043
 20
-0.3352694000813798
 30
0.0
 11
0.2958675537051043
 21
-0.2162122567308238
 31
0.0
  0
ARC
  5
A6
330
86
100
AcDbEntity
  8
0
100
AcDbCircle
 10
-0.1097587313102224
 20
-0.3553179452940256
 30
0.0
 40
0.281
100
AcDbArc
 50
3.857940632984877
 51
39.68150569509935
  0
LINE
  5
A7
330
86
100
AcDbEntity
  8
0
100
AcDbLine
 10
0.2951837493723062
 20
-0.1854959296947101
 30
0.0
 11
0.2951837493723026
 21
-0.3352677680330416
 31
0.0
  0
ARC
  5
A8
330
86
100
AcDbEntity
  8
0
100
AcDbCircle
 10
0.275183749372303
 20
-0.3352677680330416
 30
0.0
 40
0.02
100
AcDbArc
 50
269.8632513722728
 51
0.000000000000007
  0
ARC
  5
A9
330
86
100
AcDbEntity
  8
0
100
AcDbCircle
 10
0.1905591841206515
 20
-0.3350657930317027
 30
0.0
 40
0.02
100
AcDbArc
 50
183.8579406329851
 51
269.863251372273
  0
LINE
  5
AA
330
86
100
AcDbEntity
  8
0
100
AcDbLine
 10
0.2751360151415945
 20
-0.3552677110690396
 30
0.0
 11
0.1905114498899429
 21
-0.3550657360677043
 31
0.0
  0
ARC
  5
AB
330
86
100
AcDbEntity
  8
0
100
AcDbCircle
 10
0.4401837493723058
 20
0.0025040703052888
 30
0.0
 40
0.02
100
AcDbArc
 50
90.0
 51
180.0
  0
LINE
  5
AC
330
86
100
AcDbEntity
  8
0
100
AcDbLine
 10
0.4201837493723062
 20
0.0025040703052888
 30
0.0
 11
0.4201837493723062
 21
-0.1454959296947109
 31
0.0
  0
LINE
  5
AD
330
86
100
AcDbEntity
  8
0
100
AcDbLine
 10
0.4001837493723066
 20
-0.1654959296947105
 30
0.0
 11
0.3151837493723057
 21
-0.1654959296947105
 31
0.0
  0
ARC
  5
AE
330
86
100
AcDbEntity
  8
0
100
AcDbCircle
 10
0.3151837493723057
 20
-0.1854959296947101
 30
0.0
 40
0.02
100
AcDbArc
 50
90.0
 51
179.9999999999988
  0
ARC
  5
AF
330
86
100
AcDbEntity
  8
0
100
AcDbCircle
 10
0.4001837493723066
 20
-0.1454959296947109
 30
0.0
 40
0.02
100
AcDbArc
 50
270.0
 51
0.0
  0
ARC
  5
B0
330
86
100
AcDbEntity
  8
0
100
AcDbCircle
 10
0.2304491183831949
 20
0.8805167640974893
 30
0.0
 40
0.6739279713431704
100
AcDbArc
 50
270.7283063874851
 51
297.9754350771305
  0
ARC
  5
B1
330
86
100
AcDbEntity
  8
0
100
AcDbCircle
 10
0.239269638294477
 20
0.186644853842477
 30
0.0
 40
0.02
100
AcDbArc
 50
90.72830638748687
 51
180.0911363201224
  0
LINE
  5
B2
330
86
100
AcDbEntity
  8
0
100
AcDbLine
 10
0.1564877412167185
 20
0.1606820547059726
 30
0.0
 11
0.2193109102057242
 21
0.1606820547059726
 31
0.0
  0
LINE
  5
B3
330
86
100
AcDbEntity
  8
0
100
AcDbLine
 10
0.220328715458681
 20
0.2072426747402503
 30
0.0
 11
0.2188095789136106
 21
0.2072426747402503
 31
0.0
  0
LINE
  5
B4
330
86
100
AcDbEntity
  8
0
100
AcDbLine
 10
0.2192696635954761
 20
0.1866130412788038
 30
0.0
 11
0.2193109102057242
 21
0.1606820547059726
 31
0.0
  0
LINE
  5
B5
330
86
100
AcDbEntity
  8
0
100
AcDbLine
 10
0.220328715458681
 20
0.2072426747402503
 30
0.0
 11
0.2192377412167197
 21
0.206682054705972
 31
0.0
  0
ARC
  5
B6
330
86
100
AcDbEntity
  8
0
100
AcDbCircle
 10
1.748262990682441
 20
-0.011317945294028
 30
0.0
 40
0.172
100
AcDbArc
 50
286.8952977170249
 51
90.0
  0
ARC
  5
B7
330
86
100
AcDbEntity
  8
0
100
AcDbCircle
 10
1.504566982526853
 20
-0.1454959296947109
 30
0.0
 40
0.02
100
AcDbArc
 50
180.0
 51
270.0
  0
LINE
  5
B8
330
86
100
AcDbEntity
  8
0
100
AcDbLine
 10
0.9545669825268525
 20
0.0225040703052883
 30
0.0
 11
1.464566982526854
 21
0.0225040703052883
 31
0.0
  0
ARC
  5
B9
330
86
100
AcDbEntity
  8
0
100
AcDbCircle
 10
1.464566982526854
 20
0.0025040703052888
 30
0.0
 40
0.02
100
AcDbArc
 50
0.0
 51
90.0
  0
LINE
  5
BA
330
86
100
AcDbEntity
  8
0
100
AcDbLine
 10
1.484566982526853
 20
0.0025040703052888
 30
0.0
 11
1.484566982526853
 21
-0.1454959296947109
 31
0.0
  0
ARC
  5
BB
330
86
100
AcDbEntity
  8
0
100
AcDbCircle
 10
2.014509463209382
 20
-0.3553179452940256
 30
0.0
 40
0.281
100
AcDbArc
 50
140.3184943049006
 51
176.1420593670151
  0
LINE
  5
BC
330
86
100
AcDbEntity
  8
0
100
AcDbLine
 10
1.609566982526853
 20
-0.1854959296947101
 30
0.0
 11
1.609566982526857
 21
-0.3352677680330416
 31
0.0
  0
LINE
  5
BD
330
86
100
AcDbEntity
  8
0
100
AcDbLine
 10
1.608883178194055
 20
-0.3352694000813798
 30
0.0
 11
1.608883178194055
 21
-0.2162122567308238
 31
0.0
  0
ARC
  5
BE
330
86
100
AcDbEntity
  8
0
100
AcDbCircle
 10
1.714191547778508
 20
-0.3350657930317027
 30
0.0
 40
0.02
100
AcDbArc
 50
270.136748627727
 51
356.1420593670149
  0
ARC
  5
BF
330
86
100
AcDbEntity
  8
0
100
AcDbCircle
 10
1.629566982526856
 20
-0.3352677680330416
 30
0.0
 40
0.02
100
AcDbArc
 50
180.0
 51
270.1367486277272
  0
LINE
  5
C0
330
86
100
AcDbEntity
  8
0
100
AcDbLine
 10
1.629614716757565
 20
-0.3552677110690396
 30
0.0
 11
1.714239282009216
 21
-0.3550657360677043
 31
0.0
  0
ARC
  5
C1
330
86
100
AcDbEntity
  8
0
100
AcDbCircle
 10
1.589566982526854
 20
-0.1854959296947101
 30
0.0
 40
0.02
100
AcDbArc
 50
0.0000000000012213
 51
90.0
  0
LINE
  5
C2
330
86
100
AcDbEntity
  8
0
100
AcDbLine
 10
1.504566982526853
 20
-0.1654959296947105
 30
0.0
 11
1.589566982526854
 21
-0.1654959296947105
 31
0.0
  0
ARC
  5
C3
330
86
100
AcDbEntity
  8
0
100
AcDbCircle
 10
1.674301613515964
 20
0.8805167640974893
 30
0.0
 40
0.6739279713431704
100
AcDbArc
 50
242.0245649228695
 51
269.2716936125149
  0
ARC
  5
C4
330
86
100
AcDbEntity
  8
0
100
AcDbCircle
 10
0.9479042247373818
 20
-0.3474590559073007
 30
0.0
 40
0.7541535398112624
100
AcDbArc
 50
57.04337547303806
 51
89.66030919658718
  0
LINE
  5
C5
330
86
100
AcDbEntity
  8
0
100
AcDbLine
 10
1.684422016440478
 20
0.2072426747402503
 30
0.0
 11
1.68551299068244
 21
0.206682054705972
 31
0.0
  0
LINE
  5
C6
330
86
100
AcDbEntity
  8
0
100
AcDbLine
 10
1.685481068303683
 20
0.1866130412788038
 30
0.0
 11
1.685439821693435
 21
0.1606820547059726
 31
0.0
  0
LINE
  5
C7
330
86
100
AcDbEntity
  8
0
100
AcDbLine
 10
1.684422016440478
 20
0.2072426747402503
 30
0.0
 11
1.685941152985549
 21
0.2072426747402503
 31
0.0
  0
LINE
  5
C8
330
86
100
AcDbEntity
  8
0
100
AcDbLine
 10
1.748262990682441
 20
0.1606820547059726
 30
0.0
 11
1.685439821693435
 21
0.1606820547059726
 31
0.0
  0
ARC
  5
C9
330
86
100
AcDbEntity
  8
0
100
AcDbCircle
 10
1.665481093604682
 20
0.186644853842477
 30
0.0
 40
0.02
100
AcDbArc
 50
359.9088636798776
 51
89.27169361251312
  0
ENDBLK
  5
CA
330
86
100
AcDbEntity
  8
0
100
AcDbBlockEnd
  0
BLOCK
  5
CB
330
8F
100
AcDbEntity
  8
0
100
AcDbBlockBegin
  2
*D1
 70
     1
 10
0.0
 20
0.0
 30
0.0
  3
*D1
  1

  0
LINE
  5
CC
330
8F
100
AcDbEntity
  8
0
  6
ByBlock
 62
     0
100
AcDbLine
 10
27.26957505453696
 20
-3.349844879417118
 30
0.0
 11
27.26957505453696
 21
-2.338526126734254
 31
0.0
  0
LINE
  5
CD
330
8F
100
AcDbEntity
  8
0
  6
ByBlock
 62
     0
100
AcDbLine
 10
29.20161807735525
 20
-3.349844879417118
 30
0.0
 11
29.20161807735525
 21
-2.338526126734254
 31
0.0
  0
LINE
  5
CE
330
8F
100
AcDbEntity
  8
0
  6
ByBlock
 62
     0
100
AcDbLine
 10
27.26957505453696
 20
-2.518526126734253
 30
0.0
 11
27.75642989927944
 21
-2.518526126734253
 31
0.0
  0
LINE
  5
CF
330
8F
100
AcDbEntity
  8
0
  6
ByBlock
 62
     0
100
AcDbLine
 10
29.20161807735525
 20
-2.518526126734253
 30
0.0
 11
28.71476323261277
 21
-2.518526126734253
 31
0.0
  0
LINE
  5
D0
330
8F
100
AcDbEntity
  8
0
  6
ByBlock
 62
     0
100
AcDbLine
 10
27.14457505453696
 20
-2.643526126734253
 30
0.0
 11
27.39457505453696
 21
-2.393526126734253
 31
0.0
  0
LINE
  5
D1
330
8F
100
AcDbEntity
  8
0
  6
ByBlock
 62
     0
100
AcDbLine
 10
29.07661807735525
 20
-2.643526126734253
 30
0.0
 11
29.32661807735525
 21
-2.393526126734253
 31
0.0
  0
TEXT
  5
D2
330
8F
100
AcDbEntity
  8
0
  6
ByBlock
 62
     0
100
AcDbText
 10
27.88142989927944
 20
-2.581026126734253
 30
0.0
 40
0.125
  1
1 15/16
 72
     1
 11
28.23559656594611
 21
-2.518526126734253
 31
0.0
100
AcDbText
 73
     2
  0
POINT
  5
D4
330
8F
100
AcDbEntity
  8
DEFPOINTS
  6
ByBlock
 62
     0
100
AcDbPoint
 10
27.26957505453696
 20
-3.412344879417118
 30
0.0
  0
POINT
  5
D5
330
8F
100
AcDbEntity
  8
DEFPOINTS
  6
ByBlock
 62
     0
100
AcDbPoint
 10
29.20161807735525
 20
-3.412344879417118
 30
0.0
  0
POINT
  5
D6
330
8F
100
AcDbEntity
  8
DEFPOINTS
  6
ByBlock
 62
     0
100
AcDbPoint
 10
29.20161807735525
 20
-2.518526126734253
 30
0.0
  0
ENDBLK
  5
D7
330
8F
100
AcDbEntity
  8
0
100
AcDbBlockEnd
  0
BLOCK
  5
29E
330
29D
100
AcDbEntity
  8
0
 62
     3
100
AcDbBlockBegin
  2
*D2
 70
     1
 10
0.0
 20
0.0
 30
0.0
  3
*D2
  1

  0
LINE
  5
29F
330
29D
100
AcDbEntity
  8
ADPDIM
 62
     0
370
    -2
100
AcDbLine
 10
8.856792694658739
 20
4.818128313001169
 30
0.0
 11
8.856792694658739
 21
4.507341758440906
 31
0.0
  0
LINE
  5
2A0
330
29D
100
AcDbEntity
  8
ADPDIM
 62
     0
370
    -2
100
AcDbLine
 10
9.919292694658739
 20
4.818128313001169
 30
0.0
 11
9.919292694658739
 21
4.507341758440906
 31
0.0
  0
LINE
  5
2A1
330
29D
100
AcDbEntity
  8
ADPDIM
 62
     0
370
    -2
100
AcDbLine
 10
8.856792694658739
 20
4.687341758440906
 30
0.0
 11
8.606792694658739
 21
4.687341758440906
 31
0.0
  0
LINE
  5
2A2
330
29D
100
AcDbEntity
  8
ADPDIM
 62
     0
370
    -2
100
AcDbLine
 10
9.919292694658739
 20
4.687341758440906
 30
0.0
 11
10.16929269465874
 21
4.687341758440906
 31
0.0
  0
LINE
  5
2A3
330
29D
100
AcDbEntity
  8
ADPDIM
 62
     0
370
    -2
100
AcDbLine
 10
9.794292694658739
 20
4.562341758440906
 30
0.0
 11
10.04429269465874
 21
4.812341758440906
 31
0.0
  0
LINE
  5
2A4
330
29D
100
AcDbEntity
  8
ADPDIM
 62
     0
370
    -2
100
AcDbLine
 10
8.731792694658739
 20
4.562341758440906
 30
0.0
 11
8.981792694658739
 21
4.812341758440906
 31
0.0
  0
MTEXT
  5
2A5
330
29D
100
AcDbEntity
  8
ADPDIM
 62
     0
100
AcDbMText
 10
9.388042694658739
 20
4.687341758440906
 30
0.0
 40
0.125
 41
0.0
 71
     5
 72
     1
  1
\A1;1 1/16
 73
     1
 44
1.0
1001
ACAD
1000
MTEXTBEGIN
1070
    73
1070
     1
1070
    44
1040
1.0
1070
    74
1070
     0
1000
MTEXTEND
  0
POINT
  5
2A6
330
29D
100
AcDbEntity
  8
DEFPOINTS
 62
     0
100
AcDbPoint
 10
8.856792694658739
 20
4.880628313001169
 30
0.0
  0
POINT
  5
2A7
330
29D
100
AcDbEntity
  8
DEFPOINTS
 62
     0
100
AcDbPoint
 10
9.919292694658739
 20
4.880628313001169
 30
0.0
  0
POINT
  5
2A8
330
29D
100
AcDbEntity
  8
DEFPOINTS
 62
     0
100
AcDbPoint
 10
9.919292694658739
 20
4.687341758440906
 30
0.0
  0
ENDBLK
  5
2A9
330
29D
100
AcDbEntity
  8
0
 62
     3
100
AcDbBlockEnd
  0
BLOCK
  5
2AB
330
2AA
100
AcDbEntity
  8
0
100
AcDbBlockBegin
  2
*D3
 70
     1
 10
0.0
 20
0.0
 30
0.0
  3
*D3
  1

  0
LINE
  5
2AC
330
2AA
100
AcDbEntity
  8
ADPDIM
 62
     0
370
    -2
100
AcDbLine
 10
8.727959494558838
 20
4.647717422344203
 30
0.0
 11
8.727959494558838
 21
4.024125386649526
 31
0.0
  0
LINE
  5
2AD
330
2AA
100
AcDbEntity
  8
ADPDIM
 62
     0
370
    -2
100
AcDbLine
 10
10.04095949455883
 20
4.647717422344203
 30
0.0
 11
10.04095949455883
 21
4.024125386649526
 31
0.0
  0
LINE
  5
2AE
330
2AA
100
AcDbEntity
  8
ADPDIM
 62
     0
370
    -2
100
AcDbLine
 10
8.727959494558838
 20
4.204125386649526
 30
0.0
 11
8.946959494558836
 21
4.204125386649526
 31
0.0
  0
LINE
  5
2AF
330
2AA
100
AcDbEntity
  8
ADPDIM
 62
     0
370
    -2
100
AcDbLine
 10
10.04095949455883
 20
4.204125386649526
 30
0.0
 11
9.821959494558836
 21
4.204125386649526
 31
0.0
  0
LINE
  5
2B0
330
2AA
100
AcDbEntity
  8
ADPDIM
 62
     0
370
    -2
100
AcDbLine
 10
9.915959494558833
 20
4.079125386649526
 30
0.0
 11
10.16595949455883
 21
4.329125386649526
 31
0.0
  0
LINE
  5
2B1
330
2AA
100
AcDbEntity
  8
ADPDIM
 62
     0
370
    -2
100
AcDbLine
 10
8.602959494558838
 20
4.079125386649526
 30
0.0
 11
8.852959494558838
 21
4.329125386649526
 31
0.0
  0
MTEXT
  5
2B2
330
2AA
100
AcDbEntity
  8
ADPDIM
 62
     0
100
AcDbMText
 10
9.384459494558836
 20
4.204125386649526
 30
0.0
 40
0.125
 41
0.0
 71
     5
 72
     1
  1
\A1;1 5/16
 73
     1
 44
1.0
1001
ACAD
1000
MTEXTBEGIN
1070
    73
1070
     1
1070
    44
1040
1.0
1070
    74
1070
     0
1000
MTEXTEND
  0
POINT
  5
2B3
330
2AA
100
AcDbEntity
  8
DEFPOINTS
 62
     0
100
AcDbPoint
 10
8.727959494558838
 20
4.710217422344203
 30
0.0
  0
POINT
  5
2B4
330
2AA
100
AcDbEntity
  8
DEFPOINTS
 62
     0
100
AcDbPoint
 10
10.04095949455883
 20
4.710217422344203
 30
0.0
  0
POINT
  5
2B5
330
2AA
100
AcDbEntity
  8
DEFPOINTS
 62
     0
100
AcDbPoint
 10
10.04095949455883
 20
4.204125386649526
 30
0.0
  0
ENDBLK
  5
2B6
330
2AA
100
AcDbEntity
  8
0
100
AcDbBlockEnd
  0
BLOCK
  5
2B8
330
2B7
100
AcDbEntity
  8
0
100
AcDbBlockBegin
  2
*D4
 70
     1
 10
0.0
 20
0.0
 30
0.0
  3
*D4
  1

  0
LINE
  5
2B9
330
2B7
100
AcDbEntity
  8
ADPDIM
 62
     0
370
    -2
100
AcDbLine
 10
8.423031963697219
 20
5.151402111866393
 30
0.0
 11
8.423031963697219
 21
5.79190616544941
 31
0.0
  0
LINE
  5
2BA
330
2B7
100
AcDbEntity
  8
ADPDIM
 62
     0
370
    -2
100
AcDbLine
 10
10.36053196369722
 20
5.151402111866393
 30
0.0
 11
10.36053196369722
 21
5.79190616544941
 31
0.0
  0
LINE
  5
2BB
330
2B7
100
AcDbEntity
  8
ADPDIM
 62
     0
370
    -2
100
AcDbLine
 10
8.423031963697219
 20
5.61190616544941
 30
0.0
 11
8.912615297030553
 21
5.61190616544941
 31
0.0
  0
LINE
  5
2BC
330
2B7
100
AcDbEntity
  8
ADPDIM
 62
     0
370
    -2
100
AcDbLine
 10
10.36053196369722
 20
5.61190616544941
 30
0.0
 11
9.870948630363885
 21
5.61190616544941
 31
0.0
  0
MTEXT
  5
2BD
330
2B7
100
AcDbEntity
  8
ADPDIM
 62
     0
100
AcDbMText
 10
9.391781963697219
 20
5.622442651374126
 30
0.0
 40
0.125
 41
0.0
 71
     5
 72
     1
  1
\A1;1 15/16
 73
     1
 44
1.0
1001
ACAD
1000
MTEXTBEGIN
1070
    73
1070
     1
1070
    44
1040
1.0
1070
    74
1070
     0
1000
MTEXTEND
  0
LINE
  5
2BE
330
2B7
100
AcDbEntity
  8
ADPDIM
 62
     0
370
    -2
100
AcDbLine
 10
10.23553196369722
 20
5.48690616544941
 30
0.0
 11
10.48553196369722
 21
5.73690616544941
 31
0.0
  0
LINE
  5
2BF
330
2B7
100
AcDbEntity
  8
ADPDIM
 62
     0
370
    -2
100
AcDbLine
 10
8.298031963697219
 20
5.48690616544941
 30
0.0
 11
8.548031963697219
 21
5.73690616544941
 31
0.0
  0
POINT
  5
2C0
330
2B7
100
AcDbEntity
  8
DEFPOINTS
 62
     0
100
AcDbPoint
 10
8.423031963697219
 20
5.088902111866393
 30
0.0
  0
POINT
  5
2C1
330
2B7
100
AcDbEntity
  8
DEFPOINTS
 62
     0
100
AcDbPoint
 10
10.36053196369722
 20
5.088902111866393
 30
0.0
  0
POINT
  5
2C2
330
2B7
100
AcDbEntity
  8
DEFPOINTS
 62
     0
100
AcDbPoint
 10
10.36053196369722
 20
5.61190616544941
 30
0.0
  0
ENDBLK
  5
2C3
330
2B7
100
AcDbEntity
  8
0
100
AcDbBlockEnd
  0
BLOCK
  5
31A
330
30F
100
AcDbEntity
  8
0
100
AcDbBlockBegin
  2
*D6
 70
     1
 10
0.0
 20
0.0
 30
0.0
  3
*D6
  1

  0
LINE
  5
336
330
30F
100
AcDbEntity
  8
ADPDIM
 62
     0
370
    -2
100
AcDbLine
 10
27.56729878313902
 20
-3.111139723617562
 30
0.0
 11
27.56729878313902
 21
-3.734731759312239
 31
0.0
  0
LINE
  5
337
330
30F
100
AcDbEntity
  8
ADPDIM
 62
     0
370
    -2
100
AcDbLine
 10
28.88029878313901
 20
-3.111139723617562
 30
0.0
 11
28.88029878313901
 21
-3.734731759312239
 31
0.0
  0
LINE
  5
338
330
30F
100
AcDbEntity
  8
ADPDIM
 62
     0
370
    -2
100
AcDbLine
 10
27.56729878313902
 20
-3.55473175931224
 30
0.0
 11
27.78629878313901
 21
-3.55473175931224
 31
0.0
  0
LINE
  5
339
330
30F
100
AcDbEntity
  8
ADPDIM
 62
     0
370
    -2
100
AcDbLine
 10
28.88029878313901
 20
-3.55473175931224
 30
0.0
 11
28.66129878313901
 21
-3.55473175931224
 31
0.0
  0
LINE
  5
33A
330
30F
100
AcDbEntity
  8
ADPDIM
 62
     0
370
    -2
100
AcDbLine
 10
28.75529878313901
 20
-3.67973175931224
 30
0.0
 11
29.00529878313901
 21
-3.42973175931224
 31
0.0
  0
LINE
  5
33B
330
30F
100
AcDbEntity
  8
ADPDIM
 62
     0
370
    -2
100
AcDbLine
 10
27.44229878313901
 20
-3.67973175931224
 30
0.0
 11
27.69229878313901
 21
-3.42973175931224
 31
0.0
  0
MTEXT
  5
33C
330
30F
100
AcDbEntity
  8
ADPDIM
 62
     0
100
AcDbMText
 10
28.22379878313901
 20
-3.55473175931224
 30
0.0
 40
0.125
 41
0.0
 71
     5
 72
     1
  1
\A1;1 5/16
 73
     1
 44
1.0
1001
ACAD
1000
MTEXTBEGIN
1070
    73
1070
     1
1070
    44
1040
1.0
1070
    74
1070
     0
1000
MTEXTEND
  0
POINT
  5
33D
330
30F
100
AcDbEntity
  8
DEFPOINTS
 62
     0
100
AcDbPoint
 10
27.56729878313902
 20
-3.048639723617562
 30
0.0
  0
POINT
  5
33E
330
30F
100
AcDbEntity
  8
DEFPOINTS
 62
     0
100
AcDbPoint
 10
28.88029878313901
 20
-3.048639723617562
 30
0.0
  0
POINT
  5
33F
330
30F
100
AcDbEntity
  8
DEFPOINTS
 62
     0
100
AcDbPoint
 10
28.88029878313901
 20
-3.55473175931224
 30
0.0
  0
ENDBLK
  5
31B
330
30F
100
AcDbEntity
  8
0
100
AcDbBlockEnd
  0
BLOCK
  5
327
330
31C
100
AcDbEntity
  8
0
100
AcDbBlockBegin
  2
*D7
 70
     1
 10
0.0
 20
0.0
 30
0.0
  3
*D7
  1

  0
LINE
  5
340
330
31C
100
AcDbEntity
  8
ADPDIM
 62
     0
370
    -2
100
AcDbLine
 10
27.26237125227739
 20
-2.607455034095372
 30
0.0
 11
27.26237125227739
 21
-1.966950980512355
 31
0.0
  0
LINE
  5
341
330
31C
100
AcDbEntity
  8
ADPDIM
 62
     0
370
    -2
100
AcDbLine
 10
29.1998712522774
 20
-2.607455034095372
 30
0.0
 11
29.1998712522774
 21
-1.966950980512355
 31
0.0
  0
LINE
  5
342
330
31C
100
AcDbEntity
  8
ADPDIM
 62
     0
370
    -2
100
AcDbLine
 10
27.26237125227739
 20
-2.146950980512355
 30
0.0
 11
27.75195458561073
 21
-2.146950980512355
 31
0.0
  0
LINE
  5
343
330
31C
100
AcDbEntity
  8
ADPDIM
 62
     0
370
    -2
100
AcDbLine
 10
29.1998712522774
 20
-2.146950980512355
 30
0.0
 11
28.71028791894406
 21
-2.146950980512355
 31
0.0
  0
MTEXT
  5
344
330
31C
100
AcDbEntity
  8
ADPDIM
 62
     0
100
AcDbMText
 10
28.23112125227739
 20
-2.136414494587639
 30
0.0
 40
0.125
 41
0.0
 71
     5
 72
     1
  1
\A1;1 15/16
 73
     1
 44
1.0
1001
ACAD
1000
MTEXTBEGIN
1070
    73
1070
     1
1070
    44
1040
1.0
1070
    74
1070
     0
1000
MTEXTEND
  0
LINE
  5
345
330
31C
100
AcDbEntity
  8
ADPDIM
 62
     0
370
    -2
100
AcDbLine
 10
29.07487125227739
 20
-2.271950980512355
 30
0.0
 11
29.32487125227739
 21
-2.021950980512355
 31
0.0
  0
LINE
  5
346
330
31C
100
AcDbEntity
  8
ADPDIM
 62
     0
370
    -2
100
AcDbLine
 10
27.13737125227739
 20
-2.271950980512355
 30
0.0
 11
27.3873712522774
 21
-2.021950980512355
 31
0.0
  0
POINT
  5
347
330
31C
100
AcDbEntity
  8
DEFPOINTS
 62
     0
100
AcDbPoint
 10
27.26237125227739
 20
-2.669955034095372
 30
0.0
  0
POINT
  5
348
330
31C
100
AcDbEntity
  8
DEFPOINTS
 62
     0
100
AcDbPoint
 10
29.1998712522774
 20
-2.669955034095372
 30
0.0
  0
POINT
  5
349
330
31C
100
AcDbEntity
  8
DEFPOINTS
 62
     0
100
AcDbPoint
 10
29.1998712522774
 20
-2.146950980512355
 30
0.0
  0
ENDBLK
  5
328
330
31C
100
AcDbEntity
  8
0
100
AcDbBlockEnd
  0
BLOCK
  5
334
330
329
100
AcDbEntity
  8
0
100
AcDbBlockBegin
  2
*D8
 70
     1
 10
0.0
 20
0.0
 30
0.0
  3
*D8
  1

  0
LINE
  5
34A
330
329
100
AcDbEntity
  8
ADPDIM
 62
     0
370
    -2
100
AcDbLine
 10
27.69613198323892
 20
-2.940728832960596
 30
0.0
 11
27.69613198323892
 21
-3.251515387520859
 31
0.0
  0
LINE
  5
34B
330
329
100
AcDbEntity
  8
ADPDIM
 62
     0
370
    -2
100
AcDbLine
 10
28.75863198323891
 20
-2.940728832960596
 30
0.0
 11
28.75863198323891
 21
-3.251515387520859
 31
0.0
  0
LINE
  5
34C
330
329
100
AcDbEntity
  8
ADPDIM
 62
     0
370
    -2
100
AcDbLine
 10
27.69613198323892
 20
-3.071515387520859
 30
0.0
 11
27.44613198323892
 21
-3.071515387520859
 31
0.0
  0
LINE
  5
34D
330
329
100
AcDbEntity
  8
ADPDIM
 62
     0
370
    -2
100
AcDbLine
 10
28.75863198323891
 20
-3.071515387520859
 30
0.0
 11
29.00863198323892
 21
-3.071515387520859
 31
0.0
  0
LINE
  5
34E
330
329
100
AcDbEntity
  8
ADPDIM
 62
     0
370
    -2
100
AcDbLine
 10
28.63363198323892
 20
-3.196515387520859
 30
0.0
 11
28.88363198323892
 21
-2.946515387520859
 31
0.0
  0
LINE
  5
34F
330
329
100
AcDbEntity
  8
ADPDIM
 62
     0
370
    -2
100
AcDbLine
 10
27.57113198323891
 20
-3.196515387520859
 30
0.0
 11
27.82113198323891
 21
-2.946515387520859
 31
0.0
  0
MTEXT
  5
350
330
329
100
AcDbEntity
  8
ADPDIM
 62
     0
100
AcDbMText
 10
28.22738198323892
 20
-3.071515387520859
 30
0.0
 40
0.125
 41
0.0
 71
     5
 72
     1
  1
\A1;1 1/16
 73
     1
 44
1.0
1001
ACAD
1000
MTEXTBEGIN
1070
    73
1070
     1
1070
    44
1040
1.0
1070
    74
1070
     0
1000
MTEXTEND
  0
POINT
  5
351
330
329
100
AcDbEntity
  8
DEFPOINTS
 62
     0
100
AcDbPoint
 10
27.69613198323892
 20
-2.878228832960596
 30
0.0
  0
POINT
  5
352
330
329
100
AcDbEntity
  8
DEFPOINTS
 62
     0
100
AcDbPoint
 10
28.75863198323891
 20
-2.878228832960596
 30
0.0
  0
POINT
  5
353
330
329
100
AcDbEntity
  8
DEFPOINTS
 62
     0
100
AcDbPoint
 10
28.75863198323891
 20
-3.071515387520859
 30
0.0
  0
ENDBLK
  5
335
330
329
100
AcDbEntity
  8
0
100
AcDbBlockEnd
  0
ENDSEC
  0
SECTION
  2
ENTITIES
  0
ARC
  5
D8
330
1E
100
AcDbEntity
  8
ADP1DETAIL
 62
     7
100
AcDbCircle
 10
32.61126923073083
 20
-3.988731881787393
 30
0.0
 40
5.343749999999996
100
AcDbArc
 50
179.9053130054389
 51
231.9131952546504
  0
ARC
  5
D9
330
1E
100
AcDbEntity
  8
ADP1DETAIL
 62
     7
100
AcDbCircle
 10
32.64587504339166
 20
-3.980801462581528
 30
0.0
 40
5.180441814593351
100
AcDbArc
 50
179.9936560167902
 51
231.6163448633772
  0
ARC
  5
DA
330
1E
100
AcDbEntity
  8
ADP3DETAIL
  6
CENTER2
100
AcDbCircle
 10
32.7759729202741
 20
-5.023361576194275
 30
0.0
 40
2.616141278644822
100
AcDbArc
 50
337.5991485264454
 51
41.43558677842771
  0
CIRCLE
  5
DB
330
1E
100
AcDbEntity
  8
ADP1DETAIL
100
AcDbCircle
 10
32.61126923073083
 20
-3.988731881787392
 30
0.0
 40
0.9375
  0
ARC
  5
DC
330
1E
100
AcDbEntity
  8
ADP1DETAIL
 62
     7
100
AcDbCircle
 10
32.82636278871029
 20
-4.999320568601719
 30
0.0
 40
3.53125
100
AcDbArc
 50
336.2651980356835
 51
43.03115183437234
  0
ARC
  5
DD
330
1E
100
AcDbEntity
  8
ADP1DETAIL
 62
     7
100
AcDbCircle
 10
32.61126923073083
 20
-3.988731881787392
 30
0.0
 40
1.908842742289585
100
AcDbArc
 50
153.2321519767738
 51
338.6188577730451
  0
ARC
  5
DE
330
1E
100
AcDbEntity
  8
ADP1DETAIL
 62
     7
100
AcDbCircle
 10
32.7653197351494
 20
-5.033627286831666
 30
0.0
 40
3.406796090711349
100
AcDbArc
 50
337.2156623131686
 51
42.68739787587059
  0
ARC
  5
DF
330
1E
100
AcDbEntity
  8
ADP1DETAIL
 62
     7
100
AcDbCircle
 10
32.60074125835359
 20
-3.99247634120347
 30
0.0
 40
1.705891285932345
100
AcDbArc
 50
152.9606084022235
 51
357.2423107178191
  0
ARC
  5
E0
330
1E
100
AcDbEntity
  8
ADP3DETAIL
  6
CENTER2
100
AcDbCircle
 10
32.61126923073083
 20
-3.988731881787392
 30
0.0
 40
4.375
100
AcDbArc
 50
179.9053130054389
 51
225.0986898046568
  0
ARC
  5
E1
330
1E
100
AcDbEntity
  8
ADP1DETAIL
 62
     7
100
AcDbCircle
 10
32.5499638137338
 20
-4.000874747845747
 30
0.0
 40
3.344987143663372
100
AcDbArc
 50
179.6955841228318
 51
225.6956851670299
  0
ARC
  5
E2
330
1E
100
AcDbEntity
  8
ADP1DETAIL
 62
     7
100
AcDbCircle
 10
32.3613315380216
 20
-4.096977896684922
 30
0.0
 40
3.326058997557624
100
AcDbArc
 50
178.8471909387974
 51
233.4304746336945
  0
ARC
  5
E3
330
1E
100
AcDbEntity
  8
ADP1DETAIL
 62
     7
100
AcDbCircle
 10
32.8518187118042
 20
-5.024776491695625
 30
0.0
 40
1.735992110458608
100
AcDbArc
 50
336.2651980356835
 51
33.18661288293645
  0
ARC
  5
E4
330
1E
100
AcDbEntity
  8
ADP3DETAIL
  6
CENTER2
100
AcDbCircle
 10
31.99254948410809
 20
-4.6074486582485
 30
0.0
 40
3.500001870270732
100
AcDbArc
 50
225.1233966053673
 51
336.1915277648293
  0
ARC
  5
E5
330
1E
100
AcDbEntity
  8
ADP1DETAIL
 62
     7
100
AcDbCircle
 10
31.98978432628275
 20
-4.616498508362033
 30
0.0
 40
2.513322519031729
100
AcDbArc
 50
225.0321162522221
 51
336.8160591539193
  0
ARC
  5
E6
330
1E
100
AcDbEntity
  8
ADP1DETAIL
 62
     7
100
AcDbCircle
 10
31.99095438122059
 20
-4.615615124011075
 30
0.0
 40
2.6888784305599
100
AcDbArc
 50
233.1845693627054
 51
335.6674312085702
  0
ARC
  5
E7
330
1E
100
AcDbEntity
  8
ADP1DETAIL
 62
     7
100
AcDbCircle
 10
31.98575144873864
 20
-4.642060919158955
 30
0.0
 40
4.444573764985929
100
AcDbArc
 50
233.0647342783122
 51
336.4109627893818
  0
ARC
  5
E8
330
1E
100
AcDbEntity
  8
ADP1DETAIL
 62
     7
100
AcDbCircle
 10
31.9925507971926
 20
-4.607450315325621
 30
0.0
 40
4.285331513962377
100
AcDbArc
 50
233.2613773858744
 51
335.9633526900324
  0
ARC
  5
E9
330
1E
100
AcDbEntity
  8
ADP1DETAIL
 62
     7
100
AcDbCircle
 10
32.82636278871029
 20
-4.999320568601719
 30
0.0
 40
1.59375
100
AcDbArc
 50
337.6271160549884
 51
11.38771012666099
  0
ARC
  5
EA
330
1E
100
AcDbEntity
  8
ADP3DETAIL
  6
CENTER2
100
AcDbCircle
 10
33.36257018574154
 20
-4.563256141501462
 30
0.0
 40
1.875
100
AcDbArc
 50
42.76435997148872
 51
147.9510012183967
  0
ARC
  5
EB
330
1E
100
AcDbEntity
  8
ADP1DETAIL
 62
     7
100
AcDbCircle
 10
33.36257018574154
 20
-4.563256141501462
 30
0.0
 40
2.84375
100
AcDbArc
 50
43.98307854056023
 51
149.7123225654701
  0
ARC
  5
EC
330
1E
100
AcDbEntity
  8
ADP1DETAIL
 62
     7
100
AcDbCircle
 10
33.36257018574154
 20
-4.563256141501462
 30
0.0
 40
2.646059182017187
100
AcDbArc
 50
43.98307854056023
 51
149.7123225654701
  0
LINE
  5
ED
330
1E
100
AcDbEntity
  8
ADP1DETAIL
100
AcDbLine
 10
29.20502388211086
 20
-3.983102716233555
 30
0.0
 11
27.26752652784997
 21
-3.979900805551555
 31
0.0
  0
TEXT
  5
F3
330
1E
100
AcDbEntity
  8
ADPDIM
100
AcDbText
 10
24.73832462058656
 20
-9.638462623060593
 30
0.0
 40
0.125
  1
J U L I U S  B L U M  &  C O . ,  I N C .      ( 8 0 0 )  5 2 6 - 6 2 9 3        W W W . J U L I U S B L U M . C O M        P A R T  N o .  6 9 3 4 - G R
 41
1.25
  7
ARIAL_WIDE
 72
     1
 11
31.55507726383348
 21
-9.513462623060593
 31
0.0
100
AcDbText
 73
     3
  0
DIMENSION
  5
2EC
330
1E
100
AcDbEntity
  8
ADPDIM
100
AcDbDimension
  2
*D6
 10
28.88029878313901
 20
-3.55473175931224
 30
0.0
 11
28.22379878313901
 21
-3.55473175931224
 31
0.0
 70
    32
 71
     5
 42
1.312999999999995
  3
Standard
100
AcDbAlignedDimension
 13
27.56729878313902
 23
-3.048639723617562
 33
0.0
 14
28.88029878313901
 24
-3.048639723617562
 34
0.0
100
AcDbRotatedDimension
1001
ACAD
1000
DSTYLE
1002
{
1070
   276
1070
     2
1070
    41
1040
0.125
1070
    73
1070
     0
1070
    74
1070
     0
1070
    78
1070
     3
1070
   140
1040
0.125
1070
   141
1040
0.1875
1070
   142
1040
0.125
1070
   147
1040
0.125
1070
   171
1070
     1
1070
   273
1070
     5
1070
   274
1070
     1
1070
   277
1070
     5
1070
   279
1070
     2
1070
   284
1070
     3
1070
   285
1070
     3
1070
   286
1070
     3
1002
}
  0
LINE
  5
2ED
330
1E
100
AcDbEntity
  8
ADP1DETAIL
100
AcDbLine
 10
28.75479878313901
 20
-2.691925057489291
 30
0.0
 11
28.22264007807449
 21
-2.691925057489291
 31
0.0
  0
ARC
  5
2EE
330
1E
100
AcDbEntity
  8
ADP1DETAIL
100
AcDbCircle
 10
28.22264007807449
 20
-3.077243843318508
 30
0.0
 40
0.7500000000000019
100
AcDbArc
 50
65.35881699432437
 51
89.91148141825673
  0
DIMENSION
  5
2EF
330
1E
100
AcDbEntity
  8
ADPDIM
100
AcDbDimension
  2
*D7
 10
29.1998712522774
 20
-2.146950980512355
 30
0.0
 11
28.23112125227739
 21
-2.136414494587639
 31
0.0
 70
   160
 71
     5
 42
1.9375
  3
Standard
100
AcDbAlignedDimension
 13
27.26237125227739
 23
-2.669955034095372
 33
0.0
 14
29.1998712522774
 24
-2.669955034095372
 34
0.0
100
AcDbRotatedDimension
1001
ACAD
1000
DSTYLE
1002
{
1070
   276
1070
     2
1070
    41
1040
0.125
1070
    73
1070
     0
1070
    74
1070
     0
1070
    78
1070
     3
1070
   140
1040
0.125
1070
   141
1040
0.1875
1070
   142
1040
0.125
1070
   147
1040
0.125
1070
   171
1070
     1
1070
   273
1070
     5
1070
   274
1070
     1
1070
   277
1070
     5
1070
   279
1070
     2
1070
   284
1070
     3
1070
   285
1070
     3
1070
   286
1070
     3
1002
}
  0
ARC
  5
2F0
330
1E
100
AcDbEntity
  8
ADP1DETAIL
100
AcDbCircle
 10
27.50595748820353
 20
-1.765128108124382
 30
0.0
 40
0.7499999999999969
100
AcDbArc
 50
271.1235186577002
 51
302.8016517379419
  0
ARC
  5
2F1
330
1E
100
AcDbEntity
  8
ADP1DETAIL
100
AcDbCircle
 10
27.67779878313901
 20
-2.86492505748929
 30
0.0
 40
0.015
100
AcDbArc
 50
270.0
 51
0.0
  0
ARC
  5
2F2
330
1E
100
AcDbEntity
  8
ADP1DETAIL
100
AcDbCircle
 10
27.40433553680497
 20
-2.734624516222367
 30
0.0
 40
0.1559999999999998
100
AcDbArc
 50
80.65678061822477
 51
230.3615138867189
  0
ARC
  5
2F3
330
1E
100
AcDbEntity
  8
ADP1DETAIL
100
AcDbCircle
 10
27.21806326980076
 20
-3.05660082928886
 30
0.0
 40
0.2196970135271751
100
AcDbArc
 50
358.1639806528343
 51
66.74166570965843
  0
LINE
  5
2F4
330
1E
100
AcDbEntity
  8
ADP1DETAIL
100
AcDbLine
 10
27.49095748820353
 20
-2.580694084827729
 30
0.0
 11
27.42966185297333
 21
-2.580694084827729
 31
0.0
  0
LINE
  5
2F5
330
1E
100
AcDbEntity
  8
ADP1DETAIL
100
AcDbLine
 10
27.58229878313901
 20
-2.87992505748929
 30
0.0
 11
27.67779878313901
 21
-2.87992505748929
 31
0.0
  0
ARC
  5
2F6
330
1E
100
AcDbEntity
  8
ADP1DETAIL
100
AcDbCircle
 10
27.58229878313901
 20
-2.894925057489291
 30
0.0
 40
0.015
100
AcDbArc
 50
90.0
 51
180.0
  0
LINE
  5
2F7
330
1E
100
AcDbEntity
  8
ADP1DETAIL
100
AcDbLine
 10
27.56729878313901
 20
-3.048639723617564
 30
0.0
 11
27.56729878313901
 21
-2.894925057489291
 31
0.0
  0
LINE
  5
2F8
330
1E
100
AcDbEntity
  8
ADP1DETAIL
100
AcDbLine
 10
27.50595748820353
 20
-2.565694084827728
 30
0.0
 11
27.50595748820353
 21
-2.529981035163298
 31
0.0
  0
ARC
  5
2F9
330
1E
100
AcDbEntity
  8
ADP1DETAIL
100
AcDbCircle
 10
27.52095748820353
 20
-2.529981035163298
 30
0.0
 40
0.015
100
AcDbArc
 50
91.12351865770264
 51
180.0
  0
ARC
  5
2FA
330
1E
100
AcDbEntity
  8
ADP1DETAIL
100
AcDbCircle
 10
27.49095748820353
 20
-2.565694084827728
 30
0.0
 40
0.015
100
AcDbArc
 50
270.0
 51
0.0
  0
LINE
  5
2FB
330
1E
100
AcDbEntity
  8
ADP1DETAIL
100
AcDbLine
 10
27.43764749446043
 20
-3.063639723617565
 30
0.0
 11
27.55229878313901
 21
-3.063639723617565
 31
0.0
  0
ARC
  5
2FC
330
1E
100
AcDbEntity
  8
ADP1DETAIL
100
AcDbCircle
 10
27.55229878313901
 20
-3.048639723617564
 30
0.0
 40
0.015
100
AcDbArc
 50
270.0
 51
0.0000000000003053
  0
LINE
  5
2FD
330
1E
100
AcDbEntity
  8
ADP1DETAIL
100
AcDbLine
 10
27.69279878313901
 20
-2.691925057489291
 30
0.0
 11
28.22495748820353
 21
-2.691925057489291
 31
0.0
  0
LINE
  5
2FE
330
1E
100
AcDbEntity
  8
ADP1DETAIL
100
AcDbLine
 10
27.69279878313901
 20
-2.86492505748929
 30
0.0
 11
27.69279878313901
 21
-2.691925057489291
 31
0.0
  0
ARC
  5
2FF
330
1E
100
AcDbEntity
  8
ADP1DETAIL
100
AcDbCircle
 10
28.22495748820353
 20
-3.077243843318504
 30
0.0
 40
0.7499999999999986
100
AcDbArc
 50
90.08851858174326
 51
114.6411830056756
  0
ARC
  5
300
330
1E
100
AcDbEntity
  8
ADP1DETAIL
100
AcDbCircle
 10
29.04326202947306
 20
-2.734624516222367
 30
0.0
 40
0.1559999999999996
100
AcDbArc
 50
309.6384861132801
 51
99.34321938177587
  0
ARC
  5
301
330
1E
100
AcDbEntity
  8
ADP1DETAIL
100
AcDbCircle
 10
29.22953429647727
 20
-3.056600829288863
 30
0.0
 40
0.2196970135271803
100
AcDbArc
 50
113.258334290342
 51
181.8360193471644
  0
ARC
  5
302
330
1E
100
AcDbEntity
  8
ADP1DETAIL
100
AcDbCircle
 10
28.94164007807449
 20
-1.765128108124382
 30
0.0
 40
0.75
100
AcDbArc
 50
237.1983482620581
 51
268.8764813422998
  0
ARC
  5
303
330
1E
100
AcDbEntity
  8
ADP1DETAIL
100
AcDbCircle
 10
28.95664007807449
 20
-2.565694084827728
 30
0.0
 40
0.015
100
AcDbArc
 50
180.0
 51
270.0
  0
ARC
  5
304
330
1E
100
AcDbEntity
  8
ADP1DETAIL
100
AcDbCircle
 10
28.92664007807449
 20
-2.529981035163298
 30
0.0
 40
0.015
100
AcDbArc
 50
0.0
 51
88.87648134229735
  0
LINE
  5
305
330
1E
100
AcDbEntity
  8
ADP1DETAIL
100
AcDbLine
 10
28.75479878313901
 20
-2.86492505748929
 30
0.0
 11
28.75479878313901
 21
-2.691925057489291
 31
0.0
  0
ARC
  5
306
330
1E
100
AcDbEntity
  8
ADP1DETAIL
100
AcDbCircle
 10
28.76979878313901
 20
-2.86492505748929
 30
0.0
 40
0.015
100
AcDbArc
 50
180.0
 51
270.0
  0
LINE
  5
307
330
1E
100
AcDbEntity
  8
ADP1DETAIL
100
AcDbLine
 10
28.88029878313901
 20
-3.048639723617564
 30
0.0
 11
28.88029878313901
 21
-2.894925057489291
 31
0.0
  0
LINE
  5
308
330
1E
100
AcDbEntity
  8
ADP1DETAIL
100
AcDbLine
 10
28.86529878313901
 20
-2.87992505748929
 30
0.0
 11
28.76979878313901
 21
-2.87992505748929
 31
0.0
  0
ARC
  5
309
330
1E
100
AcDbEntity
  8
ADP1DETAIL
100
AcDbCircle
 10
28.86529878313901
 20
-2.894925057489291
 30
0.0
 40
0.015
100
AcDbArc
 50
0.0
 51
90.0
  0
LINE
  5
30A
330
1E
100
AcDbEntity
  8
ADP1DETAIL
100
AcDbLine
 10
28.95664007807449
 20
-2.580694084827729
 30
0.0
 11
29.01793571330469
 21
-2.580694084827729
 31
0.0
  0
LINE
  5
30B
330
1E
100
AcDbEntity
  8
ADP1DETAIL
100
AcDbLine
 10
28.94164007807449
 20
-2.565694084827728
 30
0.0
 11
28.94164007807449
 21
-2.529981035163298
 31
0.0
  0
LINE
  5
30C
330
1E
100
AcDbEntity
  8
ADP1DETAIL
100
AcDbLine
 10
29.00995007181759
 20
-3.063639723617565
 30
0.0
 11
28.89529878313901
 21
-3.063639723617565
 31
0.0
  0
ARC
  5
30D
330
1E
100
AcDbEntity
  8
ADP1DETAIL
100
AcDbCircle
 10
28.89529878313901
 20
-3.048639723617564
 30
0.0
 40
0.015
100
AcDbArc
 50
179.9999999999997
 51
270.0
  0
DIMENSION
  5
30E
330
1E
100
AcDbEntity
  8
ADPDIM
 62
     3
100
AcDbDimension
  2
*D8
 10
28.75863198323891
 20
-3.071515387520859
 30
0.0
 11
28.22738198323892
 21
-3.071515387520859
 31
0.0
 70
    32
 71
     5
 42
1.0625
  3
Standard
100
AcDbAlignedDimension
 13
27.69613198323892
 23
-2.878228832960596
 33
0.0
 14
28.75863198323891
 24
-2.878228832960596
 34
0.0
100
AcDbRotatedDimension
1001
ACAD
1000
DSTYLE
1002
{
1070
   276
1070
     2
1070
    41
1040
0.125
1070
    73
1070
     0
1070
    74
1070
     0
1070
    78
1070
     3
1070
   140
1040
0.125
1070
   141
1040
0.1875
1070
   142
1040
0.125
1070
   147
1040
0.125
1070
   171
1070
     1
1070
   273
1070
     5
1070
   274
1070
     1
1070
   277
1070
     5
1070
   279
1070
     2
1070
   284
1070
     3
1070
   285
1070
     3
1070
   286
1070
     3
1002
}
  0
ENDSEC
  0
SECTION
  2
OBJECTS
  0
DICTIONARY
  5
C
330
0
100
AcDbDictionary
281
     1
  3
ACAD_COLOR
350
297
  3
ACAD_GROUP
350
D
  3
ACAD_LAYOUT
350
19
  3
ACAD_MATERIAL
350
282
  3
ACAD_MLINESTYLE
350
16
  3
ACAD_PLOTSETTINGS
350
18
  3
ACAD_PLOTSTYLENAME
350
E
  3
ACAD_TABLESTYLE
350
298
  3
ACAD_VISUALSTYLE
350
286
  3
AcDbVariableDictionary
350
164
  3
DWGPROPS
350
373
  0
DICTIONARY
  5
12F
330
1E
100
AcDbDictionary
280
     1
281
     1
  3
ACAD_LAYOUTSELFREF
360
27E
  0
DICTIONARY
  5
131
330
1A
100
AcDbDictionary
280
     1
281
     1
  3
ACAD_LAYOUTSELFREF
360
27D
  0
DICTIONARY
  5
297
102
{ACAD_REACTORS
330
C
102
}
330
C
100
AcDbDictionary
281
     1
  0
DICTIONARY
  5
D
102
{ACAD_REACTORS
330
C
102
}
330
C
100
AcDbDictionary
281
     1
  0
DICTIONARY
  5
19
102
{ACAD_REACTORS
330
C
102
}
330
C
100
AcDbDictionary
281
     1
  3
Layout1
350
1D
  3
Model
350
21
  0
DICTIONARY
  5
282
102
{ACAD_REACTORS
330
C
102
}
330
C
100
AcDbDictionary
281
     1
  3
ByBlock
350
284
  3
ByLayer
350
283
  3
Global
350
285
  0
DICTIONARY
  5
16
102
{ACAD_REACTORS
330
C
102
}
330
C
100
AcDbDictionary
281
     1
  3
Standard
350
17
  0
DICTIONARY
  5
18
102
{ACAD_REACTORS
330
C
102
}
330
C
100
AcDbDictionary
281
     1
  0
ACDBDICTIONARYWDFLT
  5
E
102
{ACAD_REACTORS
330
C
102
}
330
C
100
AcDbDictionary
281
     1
  3
Normal
350
F
100
AcDbDictionaryWithDefault
340
F
  0
DICTIONARY
  5
298
102
{ACAD_REACTORS
330
C
102
}
330
C
100
AcDbDictionary
281
     1
  3
Standard
350
299
  0
DICTIONARY
  5
286
102
{ACAD_REACTORS
330
C
102
}
330
C
100
AcDbDictionary
281
     1
  3
2dWireframe
350
28C
  3
3D Hidden
350
28E
  3
3dWireframe
350
28D
  3
Basic
350
28B
  3
Brighten
350
292
  3
ColorChange
350
296
  3
Conceptual
350
28F
  3
Dim
350
291
  3
Facepattern
350
295
  3
Flat
350
287
  3
FlatWithEdges
350
288
  3
Gouraud
350
289
  3
GouraudWithEdges
350
28A
  3
Linepattern
350
294
  3
Realistic
350
290
  3
Thicken
350
293
  0
DICTIONARY
  5
164
102
{ACAD_REACTORS
330
C
102
}
330
C
100
AcDbDictionary
281
     1
  3
CTABLESTYLE
350
370
  3
DIMASSOC
350
166
  3
HIDETEXT
350
165
  3
INDEXCTL
350
372
  3
SORTENTS
350
371
  0
XRECORD
  5
373
102
{ACAD_REACTORS
330
C
102
}
330
C
100
AcDbXrecord
280
     1
  1
DWGPROPS COOKIE
  2

  3

  4

  6

  7

  8
Yu Hu
  9

300
=
301
=
302
=
303
=
304
=
305
=
306
=
307
=
308
=
309
=
 40
0.0332357523148148
 41
2450399.670869213
 42
2453984.925628692
  1

 90
        0
  0
XRECORD
  5
27E
102
{ACAD_REACTORS
330
12F
102
}
330
12F
100
AcDbXrecord
280
     1
340
1E
  0
XRECORD
  5
27D
102
{ACAD_REACTORS
330
131
102
}
330
131
100
AcDbXrecord
280
     1
340
1A
  0
LAYOUT
  5
1D
102
{ACAD_XDICTIONARY
360
374
102
}
102
{ACAD_REACTORS
330
19
102
}
330
19
100
AcDbPlotSettings
  1

  2
Fax
  4

  6

 40
0.0
 41
0.0
 42
0.0
 43
0.0
 44
0.0
 45
0.0
 46
0.0
 47
0.0
 48
0.0
 49
0.0
140
0.0
141
0.0
142
1.0
143
1.0
 70
   688
 72
     0
 73
     0
 74
     5
  7
Default R14 pen assignments.ctb
 75
    16
147
1.0
148
0.0
149
0.0
100
AcDbLayout
  1
Layout1
 70
     1
 71
     1
 10
0.0
 20
0.0
 11
12.0
 21
9.0
 12
0.0004882914945483
 22
0.7501408034022604
 32
0.0
 14
1.000000000000000E+20
 24
1.000000000000000E+20
 34
1.000000000000000E+20
 15
-1.000000000000000E+20
 25
-1.000000000000000E+20
 35
-1.000000000000000E+20
146
0.0
 13
0.0
 23
0.0
 33
0.0
 16
1.0
 26
0.0
 36
0.0
 17
0.0
 27
1.0
 37
0.0
 76
     0
330
1A
  0
LAYOUT
  5
21
102
{ACAD_XDICTIONARY
360
376
102
}
102
{ACAD_REACTORS
330
19
102
}
330
19
100
AcDbPlotSettings
  1

  2
Fax
  4

  6

 40
0.0
 41
0.0
 42
0.0
 43
0.0
 44
0.0
 45
0.0
 46
0.0
 47
0.0
 48
0.0
 49
0.0
140
0.0
141
0.0
142
1.0
143
1.0
 70
  1712
 72
     0
 73
     0
 74
     0
  7
Default R14 pen assignments.ctb
 75
     0
147
1.0
148
0.0
149
0.0
100
AcDbLayout
  1
Model
 70
     1
 71
     0
 10
0.0
 20
0.0
 11
12.0
 21
9.0
 12
0.0
 22
0.0
 32
0.0
 14
0.0
 24
0.0
 34
0.0
 15
0.0
 25
0.0
 35
0.0
146
0.0
 13
0.0
 23
0.0
 33
0.0
 16
1.0
 26
0.0
 36
0.0
 17
0.0
 27
1.0
 37
0.0
 76
     0
330
1E
331
24B
  0
MATERIAL
  5
284
102
{ACAD_XDICTIONARY
360
37A
102
}
102
{ACAD_REACTORS
330
282
102
}
330
282
100
AcDbMaterial
  1
ByBlock
  0
MATERIAL
  5
283
102
{ACAD_XDICTIONARY
360
378
102
}
102
{ACAD_REACTORS
330
282
102
}
330
282
100
AcDbMaterial
  1
ByLayer
  0
MATERIAL
  5
285
102
{ACAD_XDICTIONARY
360
37C
102
}
102
{ACAD_REACTORS
330
282
102
}
330
282
100
AcDbMaterial
  1
Global
  0
MLINESTYLE
  5
17
102
{ACAD_REACTORS
330
16
102
}
330
16
100
AcDbMlineStyle
  2
STANDARD
 70
     0
  3

 62
   256
 51
90.0
 52
90.0
 71
     2
 49
0.5
 62
   256
  6
BYLAYER
 49
-0.5
 62
   256
  6
BYLAYER
  0
ACDBPLACEHOLDER
  5
F
102
{ACAD_REACTORS
330
E
102
}
330
E
  0
TABLESTYLE
  5
299
102
{ACAD_XDICTIONARY
360
37E
102
}
102
{ACAD_REACTORS
330
298
102
}
330
298
100
AcDbTableStyle
  3
Standard
 70
     0
 71
     0
 40
0.06
 41
0.06
280
     0
281
     0
  7
STANDARD
140
0.18
170
     2
 62
     0
 63
     7
283
     0
274
    -2
284
     1
 64
     0
275
    -2
285
     1
 65
     0
276
    -2
286
     1
 66
     0
277
    -2
287
     1
 67
     0
278
    -2
288
     1
 68
     0
279
    -2
289
     1
 69
     0
  7
STANDARD
140
0.25
170
     5
 62
     0
 63
     7
283
     0
274
    -2
284
     1
 64
     0
275
    -2
285
     1
 65
     0
276
    -2
286
     1
 66
     0
277
    -2
287
     1
 67
     0
278
    -2
288
     1
 68
     0
279
    -2
289
     1
 69
     0
  7
STANDARD
140
0.18
170
     5
 62
     0
 63
     7
283
     0
274
    -2
284
     1
 64
     0
275
    -2
285
     1
 65
     0
276
    -2
286
     1
 66
     0
277
    -2
287
     1
 67
     0
278
    -2
288
     1
 68
     0
279
    -2
289
     1
 69
     0
  0
VISUALSTYLE
  5
28C
102
{ACAD_REACTORS
330
286
102
}
330
286
100
AcDbVisualStyle
  2
2dWireframe
 70
     4
 71
     0
 72
     2
 73
     0
 90
        0
 40
-0.6
 41
-30.0
 62
     5
 63
     7
 74
     1
 91
        4
 64
     7
 65
   257
 75
     1
175
     1
 42
1.0
 92
        0
 66
   257
 43
1.0
 76
     1
 77
     6
 78
     2
 67
     7
 79
     5
170
     0
171
     0
290
     0
174
     0
 93
        1
 44
0.0
173
     0
291
     0
 45
0.0
1001
ACAD
1000
AcDbSavedByObjectVersion
1070
     0
  0
VISUALSTYLE
  5
28E
102
{ACAD_REACTORS
330
286
102
}
330
286
100
AcDbVisualStyle
  2
3D Hidden
 70
     6
 71
     1
 72
     2
 73
     2
 90
        0
 40
-0.6
 41
-30.0
 62
     5
 63
     7
 74
     2
 91
        2
 64
     7
 65
   257
 75
     2
175
     1
 42
40.0
 92
        0
 66
   257
 43
1.0
 76
     1
 77
     6
 78
     2
 67
     7
 79
     3
170
     0
171
     0
290
     0
174
     0
 93
        1
 44
0.0
173
     0
291
     0
 45
0.0
1001
ACAD
1000
AcDbSavedByObjectVersion
1070
     0
  0
VISUALSTYLE
  5
28D
102
{ACAD_REACTORS
330
286
102
}
330
286
100
AcDbVisualStyle
  2
3dWireframe
 70
     5
 71
     0
 72
     2
 73
     0
 90
        0
 40
-0.6
 41
-30.0
 62
     5
 63
     7
 74
     1
 91
        4
 64
     7
 65
   257
 75
     1
175
     1
 42
1.0
 92
        0
 66
   257
 43
1.0
 76
     1
 77
     6
 78
     2
 67
     7
 79
     5
170
     0
171
     0
290
     0
174
     0
 93
        1
 44
0.0
173
     0
291
     0
 45
0.0
1001
ACAD
1000
AcDbSavedByObjectVersion
1070
     0
  0
VISUALSTYLE
  5
28B
102
{ACAD_REACTORS
330
286
102
}
330
286
100
AcDbVisualStyle
  2
Basic
 70
     7
 71
     1
 72
     0
 73
     1
 90
        0
 40
-0.6
 41
-30.0
 62
     5
 63
     7
 74
     0
 91
        4
 64
     7
 65
   257
 75
     1
175
     1
 42
1.0
 92
        8
 66
     7
 43
1.0
 76
     1
 77
     6
 78
     2
 67
     7
 79
     5
170
     0
171
     0
290
     0
174
     0
 93
        1
 44
0.0
173
     0
291
     1
 45
0.0
1001
ACAD
1000
AcDbSavedByObjectVersion
1070
     0
  0
VISUALSTYLE
  5
292
102
{ACAD_REACTORS
330
286
102
}
330
286
100
AcDbVisualStyle
  2
Brighten
 70
    12
 71
     2
 72
     2
 73
     0
 90
        0
 40
-0.6
 41
-30.0
 62
     5
 63
     7
 74
     1
 91
        4
 64
     7
 65
   257
 75
     1
175
     1
 42
1.0
 92
        8
 66
     7
 43
1.0
 76
     1
 77
     6
 78
     2
 67
     7
 79
     5
170
     0
171
     0
290
     0
174
     0
 93
        1
 44
50.0
173
     0
291
     1
 45
0.0
1001
ACAD
1000
AcDbSavedByObjectVersion
1070
     0
  0
VISUALSTYLE
  5
296
102
{ACAD_REACTORS
330
286
102
}
330
286
100
AcDbVisualStyle
  2
ColorChange
 70
    16
 71
     2
 72
     2
 73
     3
 90
        0
 40
-0.6
 41
-30.0
 62
     5
 63
     8
 74
     1
 91
        4
 64
     7
 65
   257
 75
     1
175
     1
 42
1.0
 92
        8
 66
     8
 43
1.0
 76
     1
 77
     6
 78
     2
 67
     7
 79
     5
170
     0
171
     0
290
     0
174
     0
 93
        1
 44
0.0
173
     0
291
     1
 45
0.0
1001
ACAD
1000
AcDbSavedByObjectVersion
1070
     0
  0
VISUALSTYLE
  5
28F
102
{ACAD_REACTORS
330
286
102
}
330
286
100
AcDbVisualStyle
  2
Conceptual
 70
     9
 71
     3
 72
     2
 73
     0
 90
        0
 40
-0.6
 41
-30.0
 62
     5
 63
     7
 74
     2
 91
        2
 64
     7
 65
   257
 75
     1
175
     1
 42
40.0
 92
        8
 66
     7
 43
1.0
 76
     1
 77
     6
 78
     2
 67
     7
 79
     3
170
     0
171
     0
290
     0
174
     0
 93
        1
 44
0.0
173
     0
291
     0
 45
0.0
1001
ACAD
1000
AcDbSavedByObjectVersion
1070
     0
  0
VISUALSTYLE
  5
291
102
{ACAD_REACTORS
330
286
102
}
330
286
100
AcDbVisualStyle
  2
Dim
 70
    11
 71
     2
 72
     2
 73
     0
 90
        0
 40
-0.6
 41
-30.0
 62
     5
 63
     7
 74
     1
 91
        4
 64
     7
 65
   257
 75
     1
175
     1
 42
1.0
 92
        8
 66
     7
 43
1.0
 76
     1
 77
     6
 78
     2
 67
     7
 79
     5
170
     0
171
     0
290
     0
174
     0
 93
        1
 44
-50.0
173
     0
291
     1
 45
0.0
1001
ACAD
1000
AcDbSavedByObjectVersion
1070
     0
  0
VISUALSTYLE
  5
295
102
{ACAD_REACTORS
330
286
102
}
330
286
100
AcDbVisualStyle
  2
Facepattern
 70
    15
 71
     2
 72
     2
 73
     0
 90
        0
 40
-0.6
 41
-30.0
 62
     5
 63
     7
 74
     1
 91
        4
 64
     7
 65
   257
 75
     1
175
     1
 42
1.0
 92
        8
 66
     7
 43
1.0
 76
     1
 77
     6
 78
     2
 67
     7
 79
     5
170
     0
171
     0
290
     0
174
     0
 93
        1
 44
0.0
173
     0
291
     1
 45
0.0
1001
ACAD
1000
AcDbSavedByObjectVersion
1070
     0
  0
VISUALSTYLE
  5
287
102
{ACAD_REACTORS
330
286
102
}
330
286
100
AcDbVisualStyle
  2
Flat
 70
     0
 71
     2
 72
     1
 73
     1
 90
        2
 40
-0.6
 41
30.0
 62
     5
 63
     7
 74
     0
 91
        4
 64
     7
 65
   257
 75
     1
175
     1
 42
1.0
 92
        8
 66
     7
 43
1.0
 76
     1
 77
     6
 78
     2
 67
     7
 79
     5
170
     0
171
     0
290
     0
174
     0
 93
       13
 44
0.0
173
     0
291
     1
 45
0.0
1001
ACAD
1000
AcDbSavedByObjectVersion
1070
     0
  0
VISUALSTYLE
  5
288
102
{ACAD_REACTORS
330
286
102
}
330
286
100
AcDbVisualStyle
  2
FlatWithEdges
 70
     1
 71
     2
 72
     1
 73
     1
 90
        2
 40
-0.6
 41
30.0
 62
     5
 63
     7
 74
     1
 91
        4
 64
     7
 65
   257
 75
     1
175
     1
 42
1.0
 92
        0
 66
   257
 43
1.0
 76
     1
 77
     6
 78
     2
 67
     7
 79
     5
170
     0
171
     0
290
     0
174
     0
 93
       13
 44
0.0
173
     0
291
     1
 45
0.0
1001
ACAD
1000
AcDbSavedByObjectVersion
1070
     0
  0
VISUALSTYLE
  5
289
102
{ACAD_REACTORS
330
286
102
}
330
286
100
AcDbVisualStyle
  2
Gouraud
 70
     2
 71
     2
 72
     2
 73
     1
 90
        2
 40
-0.6
 41
30.0
 62
     5
 63
     7
 74
     0
 91
        4
 64
     7
 65
   257
 75
     1
175
     1
 42
1.0
 92
        0
 66
     7
 43
1.0
 76
     1
 77
     6
 78
     2
 67
     7
 79
     5
170
     0
171
     0
290
     0
174
     0
 93
       13
 44
0.0
173
     0
291
     1
 45
0.0
1001
ACAD
1000
AcDbSavedByObjectVersion
1070
     0
  0
VISUALSTYLE
  5
28A
102
{ACAD_REACTORS
330
286
102
}
330
286
100
AcDbVisualStyle
  2
GouraudWithEdges
 70
     3
 71
     2
 72
     2
 73
     1
 90
        2
 40
-0.6
 41
30.0
 62
     5
 63
     7
 74
     1
 91
        4
 64
     7
 65
   257
 75
     1
175
     1
 42
1.0
 92
        0
 66
   257
 43
1.0
 76
     1
 77
     6
 78
     2
 67
     7
 79
     5
170
     0
171
     0
290
     0
174
     0
 93
       13
 44
0.0
173
     0
291
     1
 45
0.0
1001
ACAD
1000
AcDbSavedByObjectVersion
1070
     0
  0
VISUALSTYLE
  5
294
102
{ACAD_REACTORS
330
286
102
}
330
286
100
AcDbVisualStyle
  2
Linepattern
 70
    14
 71
     2
 72
     2
 73
     0
 90
        0
 40
-0.6
 41
-30.0
 62
     5
 63
     7
 74
     1
 91
        4
 64
     7
 65
   257
 75
     7
175
     7
 42
1.0
 92
        8
 66
     7
 43
1.0
 76
     1
 77
     6
 78
     2
 67
     7
 79
     5
170
     0
171
     0
290
     0
174
     0
 93
        1
 44
0.0
173
     0
291
     1
 45
0.0
1001
ACAD
1000
AcDbSavedByObjectVersion
1070
     0
  0
VISUALSTYLE
  5
290
102
{ACAD_REACTORS
330
286
102
}
330
286
100
AcDbVisualStyle
  2
Realistic
 70
     8
 71
     2
 72
     2
 73
     0
 90
        0
 40
-0.6
 41
-30.0
 62
     5
 63
     7
 74
     1
 91
        0
 64
     7
 65
   257
 75
     1
175
     1
 42
1.0
 92
        8
 66
     8
 43
1.0
 76
     1
 77
     6
 78
     2
 67
     7
 79
     5
170
     0
171
     0
290
     0
174
     0
 93
       13
 44
0.0
173
     0
291
     0
 45
0.0
1001
ACAD
1000
AcDbSavedByObjectVersion
1070
     0
  0
VISUALSTYLE
  5
293
102
{ACAD_REACTORS
330
286
102
}
330
286
100
AcDbVisualStyle
  2
Thicken
 70
    13
 71
     2
 72
     2
 73
     0
 90
        0
 40
-0.6
 41
-30.0
 62
     5
 63
     7
 74
     1
 91
        4
 64
     7
 65
   257
 75
     1
175
     1
 42
1.0
 92
       12
 66
     7
 43
1.0
 76
     1
 77
     6
 78
     2
 67
     7
 79
     5
170
     0
171
     0
290
     0
174
     0
 93
        1
 44
0.0
173
     0
291
     1
 45
0.0
1001
ACAD
1000
AcDbSavedByObjectVersion
1070
     0
  0
DICTIONARYVAR
  5
370
102
{ACAD_REACTORS
330
164
102
}
330
164
100
DictionaryVariables
280
     0
  1
STANDARD
  0
DICTIONARYVAR
  5
166
102
{ACAD_REACTORS
330
164
102
}
330
164
100
DictionaryVariables
280
     0
  1
2
  0
DICTIONARYVAR
  5
165
102
{ACAD_REACTORS
330
164
102
}
330
164
100
DictionaryVariables
280
     0
  1
1
  0
DICTIONARYVAR
  5
372
102
{ACAD_REACTORS
330
164
102
}
330
164
100
DictionaryVariables
280
     0
  1
0
  0
DICTIONARYVAR
  5
371
102
{ACAD_REACTORS
330
164
102
}
330
164
100
DictionaryVariables
280
     0
  1
127
  0
DICTIONARY
  5
374
330
1D
100
AcDbDictionary
280
     1
281
     1
  3
ACAD_XREC_ROUNDTRIP
360
375
  0
DICTIONARY
  5
376
330
21
100
AcDbDictionary
280
     1
281
     1
  3
ACAD_XREC_ROUNDTRIP
360
377
  0
DICTIONARY
  5
37A
330
284
100
AcDbDictionary
280
     1
281
     1
  3
ACAD_XREC_ROUNDTRIP
360
37B
  0
DICTIONARY
  5
378
330
283
100
AcDbDictionary
280
     1
281
     1
  3
ACAD_XREC_ROUNDTRIP
360
379
  0
DICTIONARY
  5
37C
330
285
100
AcDbDictionary
280
     1
281
     1
  3
ACAD_XREC_ROUNDTRIP
360
37D
  0
DICTIONARY
  5
37E
330
299
100
AcDbDictionary
280
     1
281
     1
  3
ACAD_XREC_ROUNDTRIP
360
37F
  0
XRECORD
  5
375
102
{ACAD_REACTORS
330
374
102
}
330
374
100
AcDbXrecord
280
     1
102
SHADEPLOT
 70
     0
102
SHADEPLOTRESLEVEL
 70
     2
102
SHADEPLOTCUSTOMDPI
 70
   300
  0
XRECORD
  5
377
102
{ACAD_REACTORS
330
376
102
}
330
376
100
AcDbXrecord
280
     1
102
SHADEPLOT
 70
     0
102
SHADEPLOTRESLEVEL
 70
     2
102
SHADEPLOTCUSTOMDPI
 70
   300
  0
XRECORD
  5
37B
102
{ACAD_REACTORS
330
37A
102
}
330
37A
100
AcDbXrecord
280
     1
102
MATERIAL
148
0.0
149
0.0
149
0.0
 93
        0
 94
       63
282
     0
 72
     1
 77
     1
171
     1
175
     1
179
     1
273
     0
  0
XRECORD
  5
379
102
{ACAD_REACTORS
330
378
102
}
330
378
100
AcDbXrecord
280
     1
102
MATERIAL
148
0.0
149
0.0
149
0.0
 93
        0
 94
       63
282
     0
 72
     1
 77
     1
171
     1
175
     1
179
     1
273
     0
  0
XRECORD
  5
37D
102
{ACAD_REACTORS
330
37C
102
}
330
37C
100
AcDbXrecord
280
     1
102
MATERIAL
148
0.0
149
0.0
149
0.0
 93
        0
 94
       63
282
     0
 72
     1
 77
     1
171
     1
175
     1
179
     1
273
     0
  0
XRECORD
  5
37F
102
{ACAD_REACTORS
330
37E
102
}
330
37E
100
AcDbXrecord
280
     1
102
ACAD_ROUNDTRIP_PRE2007_TABLESTYLE
 90
      512
 91
        0
  1

 92
      512
 93
        0
  2

 94
      512
 95
        0
  3

  0
ENDSEC
  0
EOF
