  0
SECTION
  2
HEADER
  9
$ACADVER
  1
AC1014
  9
$ACADMAINTVER
 70
     9
  9
$DWGCODEPAGE
  3
ANSI_1252
  9
$INSBASE
 10
8.412916305991597
 20
-5.357028791137909
 30
0.0
  9
$EXTMIN
 10
-0.4064152115790414
 20
-8.31731353295077
 30
0.0
  9
$EXTMAX
 10
19.69819554899394
 20
1.330122856102924
 30
0.0
  9
$LIMMIN
 10
0.0
 20
0.0
  9
$LIMMAX
 10
36.0
 20
36.0
  9
$ORTHOMODE
 70
     1
  9
$REGENMODE
 70
     1
  9
$FILLMODE
 70
     1
  9
$QTEXTMODE
 70
     0
  9
$MIRRTEXT
 70
     1
  9
$DRAGMODE
 70
     0
  9
$LTSCALE
 40
1.0
  9
$OSMODE
 70
    37
  9
$ATTMODE
 70
     1
  9
$TEXTSIZE
 40
0.2
  9
$TRACEWID
 40
0.05
  9
$TEXTSTYLE
  7
STANDARD
  9
$CLAYER
  8
0
  9
$CELTYPE
  6
BYLAYER
  9
$CECOLOR
 62
   256
  9
$CELTSCALE
 40
1.0
  9
$DELOBJ
 70
     1
  9
$DISPSILH
 70
     0
  9
$DIMSCALE
 40
1.0
  9
$DIMASZ
 40
0.125
  9
$DIMEXO
 40
0.0625
  9
$DIMDLI
 40
0.38
  9
$DIMRND
 40
0.0
  9
$DIMDLE
 40
0.0
  9
$DIMEXE
 40
0.18
  9
$DIMTP
 40
0.0
  9
$DIMTM
 40
0.0
  9
$DIMTXT
 40
0.125
  9
$DIMCEN
 40
0.1875
  9
$DIMTSZ
 40
0.125
  9
$DIMTOL
 70
     0
  9
$DIMLIM
 70
     0
  9
$DIMTIH
 70
     0
  9
$DIMTOH
 70
     0
  9
$DIMSE1
 70
     0
  9
$DIMSE2
 70
     0
  9
$DIMTAD
 70
     0
  9
$DIMZIN
 70
     3
  9
$DIMBLK
  1

  9
$DIMASO
 70
     1
  9
$DIMSHO
 70
     1
  9
$DIMPOST
  1

  9
$DIMAPOST
  1

  9
$DIMALT
 70
     0
  9
$DIMALTD
 70
     1
  9
$DIMALTF
 40
25.4
  9
$DIMLFAC
 40
1.0
  9
$DIMTOFL
 70
     0
  9
$DIMTVP
 40
0.0
  9
$DIMTIX
 70
     0
  9
$DIMSOXD
 70
     0
  9
$DIMSAH
 70
     0
  9
$DIMBLK1
  1

  9
$DIMBLK2
  1

  9
$DIMSTYLE
  2
STANDARD
  9
$DIMCLRD
 70
     0
  9
$DIMCLRE
 70
     0
  9
$DIMCLRT
 70
     0
  9
$DIMTFAC
 40
1.0
  9
$DIMGAP
 40
0.125
  9
$DIMJUST
 70
     0
  9
$DIMSD1
 70
     0
  9
$DIMSD2
 70
     0
  9
$DIMTOLJ
 70
     1
  9
$DIMTZIN
 70
     3
  9
$DIMALTZ
 70
     3
  9
$DIMALTTZ
 70
     3
  9
$DIMFIT
 70
     5
  9
$DIMUPT
 70
     0
  9
$DIMUNIT
 70
     5
  9
$DIMDEC
 70
     4
  9
$DIMTDEC
 70
     4
  9
$DIMALTU
 70
     5
  9
$DIMALTTD
 70
     1
  9
$DIMTXSTY
  7
STANDARD
  9
$DIMAUNIT
 70
     0
  9
$LUNITS
 70
     5
  9
$LUPREC
 70
     4
  9
$SKETCHINC
 40
0.1
  9
$FILLETRAD
 40
0.187
  9
$AUNITS
 70
     0
  9
$AUPREC
 70
     0
  9
$MENU
  1
acad
  9
$ELEVATION
 40
0.0
  9
$PELEVATION
 40
0.0
  9
$THICKNESS
 40
0.0
  9
$LIMCHECK
 70
     0
  9
$BLIPMODE
 70
     0
  9
$CHAMFERA
 40
0.0
  9
$CHAMFERB
 40
0.0
  9
$CHAMFERC
 40
0.0
  9
$CHAMFERD
 40
0.0
  9
$SKPOLY
 70
     0
  9
$TDCREATE
 40
2450399.667098958
  9
$TDUPDATE
 40
2452297.096934317
  9
$TDINDWG
 40
0.0338892593
  9
$TDUSRTIMER
 40
0.0338892593
  9
$USRTIMER
 70
     1
  9
$ANGBASE
 50
0.0
  9
$ANGDIR
 70
     0
  9
$PDMODE
 70
     0
  9
$PDSIZE
 40
0.0
  9
$PLINEWID
 40
0.0
  9
$COORDS
 70
     2
  9
$SPLFRAME
 70
     0
  9
$SPLINETYPE
 70
     6
  9
$SPLINESEGS
 70
     8
  9
$ATTDIA
 70
     0
  9
$ATTREQ
 70
     1
  9
$HANDLING
 70
 22529
  9
$HANDSEED
  5
294
  9
$SURFTAB1
 70
     6
  9
$SURFTAB2
 70
     6
  9
$SURFTYPE
 70
     6
  9
$SURFU
 70
     6
  9
$SURFV
 70
     6
  9
$UCSNAME
  2

  9
$UCSORG
 10
0.0
 20
0.0
 30
0.0
  9
$UCSXDIR
 10
1.0
 20
0.0
 30
0.0
  9
$UCSYDIR
 10
0.0
 20
1.0
 30
0.0
  9
$PUCSNAME
  2

  9
$PUCSORG
 10
0.0
 20
0.0
 30
0.0
  9
$PUCSXDIR
 10
1.0
 20
0.0
 30
0.0
  9
$PUCSYDIR
 10
0.0
 20
1.0
 30
0.0
  9
$USERI1
 70
     0
  9
$USERI2
 70
     0
  9
$USERI3
 70
     0
  9
$USERI4
 70
     0
  9
$USERI5
 70
     0
  9
$USERR1
 40
0.0
  9
$USERR2
 40
0.0
  9
$USERR3
 40
0.0
  9
$USERR4
 40
0.0
  9
$USERR5
 40
0.0
  9
$WORLDVIEW
 70
     1
  9
$SHADEDGE
 70
     3
  9
$SHADEDIF
 70
    70
  9
$TILEMODE
 70
     1
  9
$MAXACTVP
 70
    15
  9
$PINSBASE
 10
0.0004882914945483
 20
0.7501408034022604
 30
0.0
  9
$PLIMCHECK
 70
     0
  9
$PEXTMIN
 10
1.000000000000000E+20
 20
1.000000000000000E+20
 30
1.000000000000000E+20
  9
$PEXTMAX
 10
-1.000000000000000E+20
 20
-1.000000000000000E+20
 30
-1.000000000000000E+20
  9
$PLIMMIN
 10
0.0
 20
0.0
  9
$PLIMMAX
 10
12.0
 20
9.0
  9
$UNITMODE
 70
     0
  9
$VISRETAIN
 70
     0
  9
$PLINEGEN
 70
     0
  9
$PSLTSCALE
 70
     1
  9
$TREEDEPTH
 70
  3020
  9
$PICKSTYLE
 70
     1
  9
$CMLSTYLE
  2
STANDARD
  9
$CMLJUST
 70
     0
  9
$CMLSCALE
 40
1.0
  9
$PROXYGRAPHICS
 70
     1
  9
$MEASUREMENT
 70
     0
  0
ENDSEC
  0
SECTION
  2
CLASSES
  0
CLASS
  1
ACDBDICTIONARYWDFLT
  2
AcDbDictionaryWithDefault
  3
AutoCAD 2000
 90
        0
280
     0
281
     0
  0
CLASS
  1
ACDBPLACEHOLDER
  2
AcDbPlaceHolder
  3
AutoCAD 2000
 90
        0
280
     0
281
     0
  0
CLASS
  1
LAYOUT
  2
AcDbLayout
  3
AutoCAD 2000
 90
        0
280
     0
281
     0
  0
CLASS
  1
DICTIONARYVAR
  2
AcDbDictionaryVar
  3
AutoCAD 2000
 90
        0
280
     0
281
     0
  0
CLASS
  1
LONG_TRANSACTION
  2
AcDbLongTransaction
  3
AutoCAD 2000
 90
        0
280
     0
281
     0
  0
CLASS
  1
LWPOLYLINE
  2
AcDbPolyline
  3
AutoCAD 2000
 90
        0
280
     0
281
     1
  0
CLASS
  1
HATCH
  2
AcDbHatch
  3
AutoCAD 2000
 90
        0
280
     0
281
     1
  0
CLASS
  1
XRECORD
  2
AcDbXrecord
  3
AutoCAD 2000
 90
        0
280
     0
281
     0
  0
CLASS
  1
LONG_TRANSACTION
  2
AcDbLongTransaction
  3
AutoCAD 2000
 90
        0
280
     0
281
     0
  0
CLASS
  1
LWPOLYLINE
  2
AcDbPolyline
  3
AutoCAD 2000
 90
        0
280
     0
281
     1
  0
CLASS
  1
HATCH
  2
AcDbHatch
  3
AutoCAD 2000
 90
        0
280
     0
281
     1
  0
CLASS
  1
XRECORD
  2
AcDbXrecord
  3
AutoCAD 2000
 90
        0
280
     0
281
     0
  0
CLASS
  1
LONG_TRANSACTION
  2
AcDbLongTransaction
  3
AutoCAD 2000
 90
        0
280
     0
281
     0
  0
CLASS
  1
LWPOLYLINE
  2
AcDbPolyline
  3
AutoCAD 2000
 90
        0
280
     0
281
     1
  0
CLASS
  1
HATCH
  2
AcDbHatch
  3
AutoCAD 2000
 90
        0
280
     0
281
     1
  0
CLASS
  1
XRECORD
  2
AcDbXrecord
  3
AutoCAD 2000
 90
        0
280
     0
281
     0
  0
CLASS
  1
LONG_TRANSACTION
  2
AcDbLongTransaction
  3
AutoCAD 2000
 90
        0
280
     0
281
     0
  0
CLASS
  1
LWPOLYLINE
  2
AcDbPolyline
  3
AutoCAD 2000
 90
        0
280
     0
281
     1
  0
CLASS
  1
HATCH
  2
AcDbHatch
  3
AutoCAD 2000
 90
        0
280
     0
281
     1
  0
CLASS
  1
XRECORD
  2
AcDbXrecord
  3
AutoCAD 2000
 90
        0
280
     0
281
     0
  0
CLASS
  1
LONG_TRANSACTION
  2
AcDbLongTransaction
  3
AutoCAD 2000
 90
        0
280
     0
281
     0
  0
CLASS
  1
LWPOLYLINE
  2
AcDbPolyline
  3
AutoCAD 2000
 90
        0
280
     0
281
     1
  0
CLASS
  1
HATCH
  2
AcDbHatch
  3
AutoCAD 2000
 90
        0
280
     0
281
     1
  0
CLASS
  1
XRECORD
  2
AcDbXrecord
  3
AutoCAD 2000
 90
        0
280
     0
281
     0
  0
ENDSEC
  0
SECTION
  2
TABLES
  0
TABLE
  2
VPORT
  5
8
330
0
100
AcDbSymbolTable
 70
     2
  0
VPORT
  5
270
330
8
100
AcDbSymbolTableRecord
100
AcDbViewportTableRecord
  2
*ACTIVE
 70
     0
 10
0.0
 20
0.0
 11
1.0
 21
1.0
 12
9.662052759967657
 22
-3.494676857207205
 13
0.0
 23
0.0
 14
0.5740882589684922
 24
0.5740882589684922
 15
0.5
 25
0.5
 16
0.0
 26
0.0
 36
1.0
 17
0.0
 27
0.0
 37
0.0
 40
12.88502432019434
 41
1.570528967254408
 42
50.0
 43
0.0
 44
0.0
 50
0.0
 51
0.0
 71
     0
 72
   100
 73
     1
 74
     0
 75
     0
 76
     0
 77
     0
 78
     0
  0
ENDTAB
  0
TABLE
  2
LTYPE
  5
5
330
0
100
AcDbSymbolTable
 70
     2
  0
LTYPE
  5
13
330
5
100
AcDbSymbolTableRecord
100
AcDbLinetypeTableRecord
  2
BYBLOCK
 70
     0
  3

 72
    65
 73
     0
 40
0.0
  0
LTYPE
  5
14
330
5
100
AcDbSymbolTableRecord
100
AcDbLinetypeTableRecord
  2
BYLAYER
 70
     0
  3

 72
    65
 73
     0
 40
0.0
  0
LTYPE
  5
15
330
5
100
AcDbSymbolTableRecord
100
AcDbLinetypeTableRecord
  2
CONTINUOUS
 70
     0
  3
Solid line
 72
    65
 73
     0
 40
0.0
  0
LTYPE
  5
6A
330
5
100
AcDbSymbolTableRecord
100
AcDbLinetypeTableRecord
  2
CENTER2
 70
     0
  3
___ _ ___ _ ___ _ ___ _ ___ _ ___ _ ___ _ ___ _
 72
    65
 73
     4
 40
1.125
 49
0.75
 74
     0
 49
-0.125
 74
     0
 49
0.125
 74
     0
 49
-0.125
 74
     0
  0
ENDTAB
  0
TABLE
  2
LAYER
  5
2
330
0
100
AcDbSymbolTable
 70
     5
  0
LAYER
  5
10
330
2
100
AcDbSymbolTableRecord
100
AcDbLayerTableRecord
  2
0
 70
     0
 62
     7
  6
CONTINUOUS
  0
LAYER
  5
6E
330
2
100
AcDbSymbolTableRecord
100
AcDbLayerTableRecord
  2
ADP1DETAIL
 70
     0
 62
     7
  6
CONTINUOUS
  0
LAYER
  5
6F
330
2
100
AcDbSymbolTableRecord
100
AcDbLayerTableRecord
  2
ADP3DETAIL
 70
     0
 62
     1
  6
CONTINUOUS
  0
LAYER
  5
70
330
2
100
AcDbSymbolTableRecord
100
AcDbLayerTableRecord
  2
DEFPOINTS
 70
     0
 62
     7
  6
CONTINUOUS
  0
LAYER
  5
71
330
2
100
AcDbSymbolTableRecord
100
AcDbLayerTableRecord
  2
ADPDIM
 70
     0
 62
     3
  6
CONTINUOUS
  0
ENDTAB
  0
TABLE
  2
STYLE
  5
3
330
0
100
AcDbSymbolTable
 70
     2
  0
STYLE
  5
11
330
3
100
AcDbSymbolTableRecord
100
AcDbTextStyleTableRecord
  2
STANDARD
 70
     0
 40
0.0
 41
1.0
 50
0.0
 71
     0
 42
0.2
  3
txt
  4

  0
STYLE
  5
DD
330
3
100
AcDbSymbolTableRecord
100
AcDbTextStyleTableRecord
  2
ARIAL_WIDE
 70
     0
 40
0.0
 41
1.25
 50
0.0
 71
     0
 42
0.2
  3
ARIAL.TTF
  4

1001
ACAD
1000
Arial
1071
       34
  0
ENDTAB
  0
TABLE
  2
VIEW
  5
6
330
0
100
AcDbSymbolTable
 70
     0
  0
ENDTAB
  0
TABLE
  2
UCS
  5
7
330
0
100
AcDbSymbolTable
 70
     0
  0
ENDTAB
  0
TABLE
  2
APPID
  5
9
330
0
100
AcDbSymbolTable
 70
     1
  0
APPID
  5
12
330
9
100
AcDbSymbolTableRecord
100
AcDbRegAppTableRecord
  2
ACAD
 70
     0
  0
ENDTAB
  0
TABLE
  2
DIMSTYLE
  5
A
330
0
100
AcDbSymbolTable
 70
     1
  0
DIMSTYLE
105
DB
330
A
100
AcDbSymbolTableRecord
100
AcDbDimStyleTableRecord
  2
STANDARD
 70
     0
  3

  4

  5

  6

  7

 40
1.0
 41
0.18
 42
0.0625
 43
0.38
 44
0.18
 45
0.0
 46
0.0
 47
0.0
 48
0.0
140
0.18
141
0.09
142
0.0
143
25.4
144
1.0
145
0.0
146
1.0
147
0.09
 71
     0
 72
     0
 73
     1
 74
     1
 75
     0
 76
     0
 77
     0
 78
     0
170
     0
171
     2
172
     0
173
     0
174
     0
175
     0
176
     0
177
     0
178
     0
270
     2
271
     4
272
     4
273
     2
274
     2
340
11
275
     0
280
     0
281
     0
282
     0
283
     1
284
     0
285
     0
286
     0
287
     3
288
     0
  0
ENDTAB
  0
TABLE
  2
BLOCK_RECORD
  5
1
330
0
100
AcDbSymbolTable
 70
     5
  0
BLOCK_RECORD
  5
1E
102
{ACAD_XDICTIONARY
360
11A
102
}
330
1
100
AcDbSymbolTableRecord
100
AcDbBlockTableRecord
  2
*MODEL_SPACE
  0
BLOCK_RECORD
  5
1A
102
{ACAD_XDICTIONARY
360
11C
102
}
330
1
100
AcDbSymbolTableRecord
100
AcDbBlockTableRecord
  2
*PAPER_SPACE
  0
BLOCK_RECORD
  5
52
330
1
100
AcDbSymbolTableRecord
100
AcDbBlockTableRecord
  2
6934
  0
BLOCK_RECORD
  5
62
330
1
100
AcDbSymbolTableRecord
100
AcDbBlockTableRecord
  2
*D1
  0
BLOCK_RECORD
  5
63
330
1
100
AcDbSymbolTableRecord
100
AcDbBlockTableRecord
  2
*D2
  0
BLOCK_RECORD
  5
64
330
1
100
AcDbSymbolTableRecord
100
AcDbBlockTableRecord
  2
*D3
  0
BLOCK_RECORD
  5
65
330
1
100
AcDbSymbolTableRecord
100
AcDbBlockTableRecord
  2
*D4
  0
ENDTAB
  0
ENDSEC
  0
SECTION
  2
BLOCKS
  0
BLOCK
  5
74
330
1E
100
AcDbEntity
  8
0
100
AcDbBlockBegin
  2
*MODEL_SPACE
 70
     0
 10
0.0
 20
0.0
 30
0.0
  3
*MODEL_SPACE
  1

  0
ENDBLK
  5
75
330
1E
100
AcDbEntity
  8
0
100
AcDbBlockEnd
  0
BLOCK
  5
72
330
1A
100
AcDbEntity
 67
     1
  8
0
100
AcDbBlockBegin
  2
*PAPER_SPACE
 70
     0
 10
0.0
 20
0.0
 30
0.0
  3
*PAPER_SPACE
  1

  0
ENDBLK
  5
73
330
1A
100
AcDbEntity
 67
     1
  8
0
100
AcDbBlockEnd
  0
BLOCK
  5
77
330
52
100
AcDbEntity
  8
0
100
AcDbBlockBegin
  2
6934
 70
     0
 10
0.0
 20
0.0
 30
0.0
  3
6934
  1

  0
ARC
  5
78
330
52
100
AcDbEntity
  8
0
100
AcDbCircle
 10
1.006135784061228
 20
0.1723390304323393
 30
0.0
 40
0.7499999999999986
100
AcDbArc
 50
90.08851858174335
 51
114.6411830056756
  0
LINE
  5
79
330
52
100
AcDbEntity
  8
0
100
AcDbLine
 10
0.4739770789967075
 20
0.5576578162615525
 30
0.0
 11
1.006135784061225
 21
0.5576578162615525
 31
0.0
  0
LINE
  5
7A
330
52
100
AcDbEntity
  8
0
100
AcDbLine
 10
0.4739770789967058
 20
0.3846578162615524
 30
0.0
 11
0.4739770789967075
 21
0.5576578162615525
 31
0.0
  0
ARC
  5
7B
330
52
100
AcDbEntity
  8
0
100
AcDbCircle
 10
0.1855138326626644
 20
0.5149583575284753
 30
0.0
 40
0.1559999999999998
100
AcDbArc
 50
80.65678061822479
 51
230.3615138867189
  0
LINE
  5
7C
330
52
100
AcDbEntity
  8
0
100
AcDbLine
 10
0.2188257903181281
 20
0.1859431501332791
 30
0.0
 11
0.3334770789967081
 21
0.1859431501332791
 31
0.0
  0
ARC
  5
7D
330
52
100
AcDbEntity
  8
0
100
AcDbCircle
 10
-0.0007584343415434
 20
0.1929820444619832
 30
0.0
 40
0.2196970135271751
100
AcDbArc
 50
358.1639806528343
 51
66.74166570965842
  0
ARC
  5
7E
330
52
100
AcDbEntity
  8
0
100
AcDbCircle
 10
0.458977078996707
 20
0.3846578162615524
 30
0.0
 40
0.015
100
AcDbArc
 50
270.0
 51
0.0
  0
ARC
  5
7F
330
52
100
AcDbEntity
  8
0
100
AcDbCircle
 10
0.3334770789967081
 20
0.2009431501332797
 30
0.0
 40
0.015
100
AcDbArc
 50
270.0
 51
0.0000000000002926
  0
LINE
  5
80
330
52
100
AcDbEntity
  8
0
100
AcDbLine
 10
0.3484770789967069
 20
0.2009431501332797
 30
0.0
 11
0.3484770789967051
 21
0.354657816261553
 31
0.0
  0
ARC
  5
81
330
52
100
AcDbEntity
  8
0
100
AcDbCircle
 10
0.3634770789967057
 20
0.354657816261553
 30
0.0
 40
0.015
100
AcDbArc
 50
90.0
 51
180.0
  0
LINE
  5
82
330
52
100
AcDbEntity
  8
0
100
AcDbLine
 10
0.3634770789967057
 20
0.3696578162615518
 30
0.0
 11
0.458977078996707
 21
0.3696578162615518
 31
0.0
  0
LINE
  5
83
330
52
100
AcDbEntity
  8
0
100
AcDbLine
 10
0.2721357840612271
 20
0.6688887889231152
 30
0.0
 11
0.2108401488310285
 21
0.6688887889231152
 31
0.0
  0
ARC
  5
84
330
52
100
AcDbEntity
  8
0
100
AcDbCircle
 10
0.2871357840612276
 20
1.48445476562646
 30
0.0
 40
0.7499999999999969
100
AcDbArc
 50
271.1235186577001
 51
302.801651737942
  0
ARC
  5
85
330
52
100
AcDbEntity
  8
0
100
AcDbCircle
 10
0.2721357840612271
 20
0.683888788923114
 30
0.0
 40
0.015
100
AcDbArc
 50
270.0
 51
0.0
  0
ARC
  5
86
330
52
100
AcDbEntity
  8
0
100
AcDbCircle
 10
0.3021357840612246
 20
0.7196018385875443
 30
0.0
 40
0.015
100
AcDbArc
 50
91.1235186577027
 51
180.0
  0
LINE
  5
87
330
52
100
AcDbEntity
  8
0
100
AcDbLine
 10
0.2871357840612258
 20
0.683888788923114
 30
0.0
 11
0.2871357840612258
 21
0.7196018385875443
 31
0.0
  0
LINE
  5
88
330
52
100
AcDbEntity
  8
0
100
AcDbLine
 10
1.535977078996706
 20
0.3846578162615524
 30
0.0
 11
1.535977078996705
 21
0.5576578162615525
 31
0.0
  0
ARC
  5
89
330
52
100
AcDbEntity
  8
0
100
AcDbCircle
 10
1.824440325330749
 20
0.5149583575284753
 30
0.0
 40
0.1559999999999996
100
AcDbArc
 50
309.6384861132801
 51
99.34321938177591
  0
ARC
  5
8A
330
52
100
AcDbEntity
  8
0
100
AcDbCircle
 10
1.676477078996704
 20
0.2009431501332797
 30
0.0
 40
0.015
100
AcDbArc
 50
179.9999999999996
 51
270.0
  0
ARC
  5
8B
330
52
100
AcDbEntity
  8
0
100
AcDbCircle
 10
1.646477078996706
 20
0.354657816261553
 30
0.0
 40
0.015
100
AcDbArc
 50
0.000000000000007
 51
90.0
  0
ARC
  5
8C
330
52
100
AcDbEntity
  8
0
100
AcDbCircle
 10
1.550977078996705
 20
0.3846578162615524
 30
0.0
 40
0.015
100
AcDbArc
 50
180.0
 51
270.0
  0
LINE
  5
8D
330
52
100
AcDbEntity
  8
0
100
AcDbLine
 10
1.646477078996706
 20
0.3696578162615518
 30
0.0
 11
1.550977078996705
 21
0.3696578162615518
 31
0.0
  0
LINE
  5
8E
330
52
100
AcDbEntity
  8
0
100
AcDbLine
 10
1.661477078996705
 20
0.2009431501332797
 30
0.0
 11
1.661477078996707
 21
0.354657816261553
 31
0.0
  0
LINE
  5
8F
330
52
100
AcDbEntity
  8
0
100
AcDbLine
 10
1.791128367675284
 20
0.1859431501332791
 30
0.0
 11
1.676477078996704
 21
0.1859431501332791
 31
0.0
  0
ARC
  5
90
330
52
100
AcDbEntity
  8
0
100
AcDbCircle
 10
2.010712592334961
 20
0.1929820444619787
 30
0.0
 40
0.2196970135271803
100
AcDbArc
 50
113.2583342903419
 51
181.8360193471644
  0
LINE
  5
91
330
52
100
AcDbEntity
  8
0
100
AcDbLine
 10
1.535977078996705
 20
0.5576578162615525
 30
0.0
 11
1.003818373932187
 21
0.5576578162615525
 31
0.0
  0
ARC
  5
92
330
52
100
AcDbEntity
  8
0
100
AcDbCircle
 10
1.722818373932186
 20
1.484454765626462
 30
0.0
 40
0.75
100
AcDbArc
 50
237.198348262058
 51
268.8764813422996
  0
ARC
  5
93
330
52
100
AcDbEntity
  8
0
100
AcDbCircle
 10
1.003818373932183
 20
0.1723390304323358
 30
0.0
 40
0.7500000000000019
100
AcDbArc
 50
65.35881699432443
 51
89.91148141825666
  0
ARC
  5
94
330
52
100
AcDbEntity
  8
0
100
AcDbCircle
 10
1.707818373932187
 20
0.7196018385875443
 30
0.0
 40
0.015
100
AcDbArc
 50
0.000000000000007
 51
88.87648134229731
  0
ARC
  5
95
330
52
100
AcDbEntity
  8
0
100
AcDbCircle
 10
1.737818373932185
 20
0.683888788923114
 30
0.0
 40
0.015
100
AcDbArc
 50
180.0
 51
270.0
  0
LINE
  5
96
330
52
100
AcDbEntity
  8
0
100
AcDbLine
 10
1.722818373932186
 20
0.683888788923114
 30
0.0
 11
1.722818373932186
 21
0.7196018385875443
 31
0.0
  0
LINE
  5
97
330
52
100
AcDbEntity
  8
0
100
AcDbLine
 10
1.737818373932185
 20
0.6688887889231152
 30
0.0
 11
1.799114009162384
 21
0.6688887889231152
 31
0.0
  0
ENDBLK
  5
98
330
52
100
AcDbEntity
  8
0
100
AcDbBlockEnd
  0
BLOCK
  5
99
330
62
100
AcDbEntity
  8
0
100
AcDbBlockBegin
  2
*D1
 70
     1
 10
0.0
 20
0.0
 30
0.0
  3
*D1
  1

  0
LINE
  5
9A
330
62
100
AcDbEntity
  8
0
  6
BYBLOCK
 62
     0
100
AcDbLine
 10
6.8189163059916
 20
-7.156670271461517
 30
0.0
 11
6.8189163059916
 21
-7.478813416462165
 31
0.0
  0
LINE
  5
9B
330
62
100
AcDbEntity
  8
0
  6
BYBLOCK
 62
     0
100
AcDbLine
 10
8.131916305991595
 20
-7.156670271461517
 30
0.0
 11
8.131916305991595
 21
-7.478813416462165
 31
0.0
  0
LINE
  5
9C
330
62
100
AcDbEntity
  8
0
  6
BYBLOCK
 62
     0
100
AcDbLine
 10
6.8189163059916
 20
-7.298813416462166
 30
0.0
 11
6.5689163059916
 21
-7.298813416462166
 31
0.0
  0
LINE
  5
9D
330
62
100
AcDbEntity
  8
0
  6
BYBLOCK
 62
     0
100
AcDbLine
 10
8.131916305991595
 20
-7.298813416462166
 30
0.0
 11
8.381916305991595
 21
-7.298813416462166
 31
0.0
  0
LINE
  5
9E
330
62
100
AcDbEntity
  8
0
  6
BYBLOCK
 62
     0
100
AcDbLine
 10
6.6939163059916
 20
-7.423813416462166
 30
0.0
 11
6.9439163059916
 21
-7.173813416462166
 31
0.0
  0
LINE
  5
9F
330
62
100
AcDbEntity
  8
0
  6
BYBLOCK
 62
     0
100
AcDbLine
 10
8.006916305991595
 20
-7.423813416462166
 30
0.0
 11
8.256916305991595
 21
-7.173813416462166
 31
0.0
  0
TEXT
  5
A0
330
62
100
AcDbEntity
  8
0
  6
BYBLOCK
 62
     0
100
AcDbText
 10
8.506916305991595
 20
-7.361313416462166
 30
0.0
 40
0.125
  1
1 5/16
 72
     1
 11
8.819416305991595
 21
-7.298813416462166
 31
0.0
100
AcDbText
 73
     2
  0
POINT
  5
A2
330
62
100
AcDbEntity
  8
DEFPOINTS
  6
BYBLOCK
 62
     0
100
AcDbPoint
 10
6.8189163059916
 20
-7.094170271461517
 30
0.0
  0
POINT
  5
A3
330
62
100
AcDbEntity
  8
DEFPOINTS
  6
BYBLOCK
 62
     0
100
AcDbPoint
 10
8.131916305991595
 20
-7.094170271461517
 30
0.0
  0
POINT
  5
A4
330
62
100
AcDbEntity
  8
DEFPOINTS
  6
BYBLOCK
 62
     0
100
AcDbPoint
 10
8.131916305991595
 20
-7.298813416462166
 30
0.0
  0
ENDBLK
  5
A5
330
62
100
AcDbEntity
  8
0
100
AcDbBlockEnd
  0
BLOCK
  5
A6
330
63
100
AcDbEntity
  8
0
100
AcDbBlockBegin
  2
*D2
 70
     1
 10
0.0
 20
0.0
 30
0.0
  3
*D2
  1

  0
LINE
  5
A7
330
63
100
AcDbEntity
  8
0
  6
BYBLOCK
 62
     0
100
AcDbLine
 10
9.914307905297732
 20
-2.858414092702864
 30
0.0
 11
9.149062360306842
 21
-2.858414092702864
 31
0.0
  0
LINE
  5
A8
330
63
100
AcDbEntity
  8
0
  6
BYBLOCK
 62
     0
100
AcDbLine
 10
8.412916305991597
 20
-5.357028791137909
 30
0.0
 11
9.509062360306842
 21
-5.357028791137909
 31
0.0
  0
LINE
  5
A9
330
63
100
AcDbEntity
  8
0
  6
BYBLOCK
 62
     0
100
AcDbLine
 10
9.329062360306842
 20
-2.858414092702864
 30
0.0
 11
9.329062360306842
 21
-3.711888108587053
 31
0.0
  0
LINE
  5
AA
330
63
100
AcDbEntity
  8
0
  6
BYBLOCK
 62
     0
100
AcDbLine
 10
9.329062360306842
 20
-5.357028791137909
 30
0.0
 11
9.329062360306842
 21
-4.50355477525372
 31
0.0
  0
LINE
  5
AB
330
63
100
AcDbEntity
  8
0
  6
BYBLOCK
 62
     0
100
AcDbLine
 10
9.454062360306842
 20
-2.983414092702864
 30
0.0
 11
9.204062360306842
 21
-2.733414092702864
 31
0.0
  0
LINE
  5
AC
330
63
100
AcDbEntity
  8
0
  6
BYBLOCK
 62
     0
100
AcDbLine
 10
9.454062360306842
 20
-5.482028791137909
 30
0.0
 11
9.204062360306842
 21
-5.232028791137909
 31
0.0
  0
TEXT
  5
AD
330
63
100
AcDbEntity
  8
0
  6
BYBLOCK
 62
     0
100
AcDbText
 10
9.391562360306842
 20
-4.37855477525372
 30
0.0
 40
0.125
  1
2 1/2
 50
90.0
 72
     1
 11
9.329062360306842
 21
-4.107721441920387
 31
0.0
100
AcDbText
 73
     2
  0
POINT
  5
AE
330
63
100
AcDbEntity
  8
DEFPOINTS
  6
BYBLOCK
 62
     0
100
AcDbPoint
 10
9.976807905297732
 20
-2.858414092702864
 30
0.0
  0
POINT
  5
AF
330
63
100
AcDbEntity
  8
DEFPOINTS
  6
BYBLOCK
 62
     0
100
AcDbPoint
 10
8.350416305991597
 20
-5.357028791137909
 30
0.0
  0
POINT
  5
B0
330
63
100
AcDbEntity
  8
DEFPOINTS
  6
BYBLOCK
 62
     0
100
AcDbPoint
 10
9.329062360306842
 20
-5.357028791137909
 30
0.0
  0
ENDBLK
  5
B1
330
63
100
AcDbEntity
  8
0
100
AcDbBlockEnd
  0
BLOCK
  5
B2
330
64
100
AcDbEntity
  8
0
100
AcDbBlockBegin
  2
*D3
 70
     1
 10
0.0
 20
0.0
 30
0.0
  3
*D3
  1

  0
LINE
  5
B3
330
64
100
AcDbEntity
  8
0
  6
BYBLOCK
 62
     0
100
AcDbLine
 10
8.203644785900365
 20
-1.093275497563777
 30
0.0
 11
9.976807905297736
 21
-2.858414092702865
 31
0.0
  0
LINE
  5
B4
330
64
100
AcDbEntity
  8
0
  6
BYBLOCK
 62
     0
100
AcDbLine
 10
8.026868545217098
 20
-1.093676408889633
 30
0.0
 11
8.380421026583634
 21
-1.092874586237922
 31
0.0
  0
TEXT
  5
B5
330
64
100
AcDbEntity
  8
0
  6
BYBLOCK
 62
     0
100
AcDbText
 10
10.02130264896294
 20
-2.990896045383852
 30
0.0
 40
0.125
  1
R2 1/2
 50
315.1299410342689
 72
     1
 11
10.30163268398113
 21
-3.181768863191456
 31
0.0
100
AcDbText
 73
     2
  0
POINT
  5
B6
330
64
100
AcDbEntity
  8
DEFPOINTS
  6
BYBLOCK
 62
     0
100
AcDbPoint
 10
8.203644785900365
 20
-1.093275497563777
 30
0.0
  0
POINT
  5
B7
330
64
100
AcDbEntity
  8
DEFPOINTS
  6
BYBLOCK
 62
     0
100
AcDbPoint
 10
9.975416305991601
 20
-2.857028791137908
 30
0.0
  0
ENDBLK
  5
B8
330
64
100
AcDbEntity
  8
0
100
AcDbBlockEnd
  0
BLOCK
  5
B9
330
65
100
AcDbEntity
  8
0
100
AcDbBlockBegin
  2
*D4
 70
     1
 10
0.0
 20
0.0
 30
0.0
  3
*D4
  1

  0
LINE
  5
BA
330
65
100
AcDbEntity
  8
0
  6
BYBLOCK
 62
     0
100
AcDbLine
 10
6.513988775129981
 20
-6.652985581939327
 30
0.0
 11
6.513988775129981
 21
-6.01248152835631
 31
0.0
  0
LINE
  5
BB
330
65
100
AcDbEntity
  8
0
  6
BYBLOCK
 62
     0
100
AcDbLine
 10
8.45148877512998
 20
-6.652985581939327
 30
0.0
 11
8.45148877512998
 21
-6.01248152835631
 31
0.0
  0
LINE
  5
BC
330
65
100
AcDbEntity
  8
0
  6
BYBLOCK
 62
     0
100
AcDbLine
 10
6.513988775129981
 20
-6.192481528356309
 30
0.0
 11
7.003572108463314
 21
-6.192481528356309
 31
0.0
  0
LINE
  5
BD
330
65
100
AcDbEntity
  8
0
  6
BYBLOCK
 62
     0
100
AcDbLine
 10
8.45148877512998
 20
-6.192481528356309
 30
0.0
 11
7.961905441796648
 21
-6.192481528356309
 31
0.0
  0
LINE
  5
BE
330
65
100
AcDbEntity
  8
0
  6
BYBLOCK
 62
     0
100
AcDbLine
 10
6.388988775129981
 20
-6.317481528356309
 30
0.0
 11
6.638988775129981
 21
-6.067481528356309
 31
0.0
  0
LINE
  5
BF
330
65
100
AcDbEntity
  8
0
  6
BYBLOCK
 62
     0
100
AcDbLine
 10
8.32648877512998
 20
-6.317481528356309
 30
0.0
 11
8.57648877512998
 21
-6.067481528356309
 31
0.0
  0
TEXT
  5
C0
330
65
100
AcDbEntity
  8
0
  6
BYBLOCK
 62
     0
100
AcDbText
 10
7.128572108463314
 20
-6.244445042431594
 30
0.0
 40
0.125
  1
1 15/16
 72
     1
 11
7.482738775129981
 21
-6.181945042431594
 31
0.0
100
AcDbText
 73
     2
  0
POINT
  5
C1
330
65
100
AcDbEntity
  8
DEFPOINTS
  6
BYBLOCK
 62
     0
100
AcDbPoint
 10
6.513988775129981
 20
-6.715485581939327
 30
0.0
  0
POINT
  5
C2
330
65
100
AcDbEntity
  8
DEFPOINTS
  6
BYBLOCK
 62
     0
100
AcDbPoint
 10
8.45148877512998
 20
-6.715485581939327
 30
0.0
  0
POINT
  5
C3
330
65
100
AcDbEntity
  8
DEFPOINTS
  6
BYBLOCK
 62
     0
100
AcDbPoint
 10
8.45148877512998
 20
-6.192481528356309
 30
0.0
  0
ENDBLK
  5
C4
330
65
100
AcDbEntity
  8
0
100
AcDbBlockEnd
  0
ENDSEC
  0
SECTION
  2
ENTITIES
  0
LINE
  5
C5
330
1E
100
AcDbEntity
  8
ADP3DETAIL
  6
CENTER2
100
AcDbLine
 10
13.1860380064858
 20
-0.3570287911379113
 30
0.0
 11
9.975416305991601
 21
-0.3570287911379113
 31
0.0
  0
LINE
  5
C6
330
1E
100
AcDbEntity
  8
ADP1DETAIL
100
AcDbLine
 10
12.4754163059916
 20
-1.325778791137911
 30
0.0
 11
9.975416305991601
 21
-1.325778791137911
 31
0.0
  0
LINE
  5
C7
330
1E
100
AcDbEntity
  8
ADP1DETAIL
100
AcDbLine
 10
12.4754163059916
 20
-1.075383310612505
 30
0.0
 11
9.975416305991601
 21
-1.075383310612505
 31
0.0
  0
LINE
  5
C8
330
1E
100
AcDbEntity
  8
ADP1DETAIL
100
AcDbLine
 10
9.975416305991601
 20
0.6117212088620887
 30
0.0
 11
12.4754163059916
 21
0.6117212088620887
 31
0.0
  0
LINE
  5
C9
330
1E
100
AcDbEntity
  8
ADP1DETAIL
100
AcDbLine
 10
9.975416305991601
 20
0.3613257283366833
 30
0.0
 11
12.4754163059916
 21
0.3613257283366833
 31
0.0
  0
LINE
  5
CA
330
1E
100
AcDbEntity
  8
ADP3DETAIL
  6
CENTER2
100
AcDbLine
 10
7.475416305991598
 20
-5.688334083876752
 30
0.0
 11
7.475416305991601
 21
-2.857028791137911
 31
0.0
  0
DIMENSION
  5
CB
330
1E
100
AcDbEntity
  8
ADPDIM
100
AcDbDimension
  2
*D2
 10
9.329062360306842
 20
-5.357028791137909
 30
0.0
 11
9.329062360306842
 21
-4.107721441920387
 31
0.0
100
AcDbAlignedDimension
 13
9.976807905297732
 23
-2.858414092702864
 33
0.0
 14
8.350416305991597
 24
-5.357028791137909
 34
0.0
 50
90.0
100
AcDbRotatedDimension
  0
LINE
  5
CC
330
1E
100
AcDbEntity
  8
ADP1DETAIL
100
AcDbLine
 10
8.444166305991601
 20
-2.857028791137911
 30
0.0
 11
8.444166305991597
 21
-5.357028791137909
 31
0.0
  0
LINE
  5
CD
330
1E
100
AcDbEntity
  8
ADP1DETAIL
100
AcDbLine
 10
8.193770825466192
 20
-2.857028791137911
 30
0.0
 11
8.193770825466192
 21
-5.357028791137909
 31
0.0
  0
LINE
  5
CE
330
1E
100
AcDbEntity
  8
ADP1DETAIL
100
AcDbLine
 10
6.506666305991598
 20
-5.357028791137909
 30
0.0
 11
6.5066663059916
 21
-2.857028791137911
 31
0.0
  0
LINE
  5
CF
330
1E
100
AcDbEntity
  8
ADP1DETAIL
100
AcDbLine
 10
6.757061786517005
 20
-5.357028791137909
 30
0.0
 11
6.757061786517007
 21
-2.857028791137911
 31
0.0
  0
DIMENSION
  5
D0
330
1E
100
AcDbEntity
  8
ADPDIM
100
AcDbDimension
  2
*D4
 10
8.45148877512998
 20
-6.192481528356309
 30
0.0
 11
7.482738775129981
 21
-6.181945042431594
 31
0.0
 70
   128
100
AcDbAlignedDimension
 13
6.513988775129981
 23
-6.715485581939327
 33
0.0
 14
8.45148877512998
 24
-6.715485581939327
 34
0.0
100
AcDbRotatedDimension
  0
DIMENSION
  5
D1
330
1E
100
AcDbEntity
  8
ADPDIM
100
AcDbDimension
  2
*D1
 10
8.131916305991595
 20
-7.298813416462166
 30
0.0
 11
8.819416305991595
 21
-7.298813416462166
 31
0.0
100
AcDbAlignedDimension
 13
6.8189163059916
 23
-7.094170271461517
 33
0.0
 14
8.131916305991595
 24
-7.094170271461517
 34
0.0
100
AcDbRotatedDimension
  0
LINE
  5
D2
330
1E
100
AcDbEntity
  8
ADP1DETAIL
100
AcDbLine
 10
8.444166305991597
 20
-5.357028791137909
 30
0.0
 11
6.506666305991598
 21
-5.357028791137909
 31
0.0
  0
INSERT
  5
D3
330
1E
100
AcDbEntity
  8
ADP1DETAIL
100
AcDbBlockReference
  2
6934
 10
6.470439226994892
 20
-7.295113421594797
 30
0.0
  0
ARC
  5
D4
330
1E
100
AcDbEntity
  8
ADP3DETAIL
  6
CENTER2
100
AcDbCircle
 10
9.975416305991601
 20
-2.857028791137911
 30
0.0
 40
2.5
100
AcDbArc
 50
90.0
 51
180.0
  0
DIMENSION
  5
D5
330
1E
100
AcDbEntity
  8
ADPDIM
100
AcDbDimension
  2
*D3
 10
9.975416305991601
 20
-2.857028791137908
 30
0.0
 11
10.30163268398113
 21
-3.181768863191456
 31
0.0
 70
     4
100
AcDbRadialDimension
 15
8.203644785900365
 25
-1.093275497563777
 35
0.0
 40
-2.501963570486308
  0
ARC
  5
D6
330
1E
100
AcDbEntity
  8
ADP1DETAIL
100
AcDbCircle
 10
9.975416305991601
 20
-2.857028791137911
 30
0.0
 40
1.53125
100
AcDbArc
 50
90.0
 51
180.0
  0
ARC
  5
D7
330
1E
100
AcDbEntity
  8
ADP1DETAIL
100
AcDbCircle
 10
9.975416305991601
 20
-2.857028791137911
 30
0.0
 40
1.781645480525407
100
AcDbArc
 50
90.0
 51
180.0
  0
ARC
  5
D8
330
1E
100
AcDbEntity
  8
ADP1DETAIL
100
AcDbCircle
 10
9.975416305991601
 20
-2.857028791137911
 30
0.0
 40
3.46875
100
AcDbArc
 50
90.0
 51
180.0
  0
ARC
  5
D9
330
1E
100
AcDbEntity
  8
ADP1DETAIL
100
AcDbCircle
 10
9.975416305991601
 20
-2.857028791137911
 30
0.0
 40
3.218354519474592
100
AcDbArc
 50
90.0
 51
180.0
  0
LINE
  5
DA
330
1E
100
AcDbEntity
  8
ADP1DETAIL
100
AcDbLine
 10
12.4754163059916
 20
0.6030597010011461
 30
0.0
 11
12.4754163059916
 21
-1.325778791137911
 31
0.0
  0
TEXT
  5
DE
330
1E
100
AcDbEntity
  8
ADPDIM
100
AcDbText
 10
-0.4064152115790414
 20
-8.261805347411888
 30
0.0
 40
0.1875
  1
J U L I U S  B L U M  &  C O . ,  I N C .      ( 8 0 0 )  5 2 6 - 6 2 9 3        W W W . J U L I U S B L U M . C O M        P A R T  N o .  6 9 3 4 - C
 41
1.25
  7
ARIAL_WIDE
 72
     1
 11
9.645890168707452
 21
-8.074305347411888
 31
0.0
100
AcDbText
 73
     3
  0
ENDSEC
  0
SECTION
  2
OBJECTS
  0
DICTIONARY
  5
C
330
0
100
AcDbDictionary
  3
ACAD_GROUP
350
D
  3
ACAD_LAYOUT
350
19
  3
ACAD_MLINESTYLE
350
16
  3
ACAD_PLOTSETTINGS
350
18
  3
ACAD_PLOTSTYLENAME
350
E
  3
ACDBHEADERROUNDTRIPXREC
350
271
  3
ACDBVARIABLEDICTIONARY
350
14F
  0
DICTIONARY
  5
11A
330
1E
100
AcDbDictionary
280
     1
  3
ACAD_LAYOUTSELFREF
360
293
  0
DICTIONARY
  5
11C
330
1A
100
AcDbDictionary
280
     1
  3
ACAD_LAYOUTSELFREF
360
292
  0
DICTIONARY
  5
D
102
{ACAD_REACTORS
330
C
102
}
330
C
100
AcDbDictionary
  0
DICTIONARY
  5
19
102
{ACAD_REACTORS
330
C
102
}
330
C
100
AcDbDictionary
  0
DICTIONARY
  5
16
102
{ACAD_REACTORS
330
C
102
}
330
C
100
AcDbDictionary
  3
STANDARD
350
17
  0
DICTIONARY
  5
18
102
{ACAD_REACTORS
330
C
102
}
330
C
100
AcDbDictionary
  0
ACDBDICTIONARYWDFLT
  5
E
102
{ACAD_REACTORS
330
C
102
}
330
C
100
AcDbDictionary
281
     1
  3
Normal
350
F
100
AcDbDictionaryWithDefault
340
F
  0
DICTIONARY
  5
271
102
{ACAD_REACTORS
330
C
102
}
330
C
100
AcDbDictionary
  3
CEPSNTYPE
350
27B
  3
DIMSTYLEDATA
350
27F
  3
FINGERPRINTGUID
350
27C
  3
HYPERLINKBASE
350
274
  3
INSUNITS
350
27A
  3
LAYOUTDICT
350
276
  3
LWETCUNION
350
279
  3
PLOTSETDICT
350
277
  3
PLOTSTYLNAMDICT
350
278
  3
PSVPSCALE
350
27E
  3
PUCSBASE
350
282
  3
PUCSORGBACK
350
288
  3
PUCSORGBOTTOM
350
284
  3
PUCSORGFRONT
350
287
  3
PUCSORGLEFT
350
285
  3
PUCSORGRIGHT
350
286
  3
PUCSORGTOP
350
283
  3
PUCSORTHOREF
350
280
  3
PUCSORTHOVIEW
350
281
  3
STYLESHEET
350
275
  3
TSTACKALIGN
350
272
  3
TSTACKSIZE
350
273
  3
UCSBASE
350
28B
  3
UCSORGBACK
350
291
  3
UCSORGBOTTOM
350
28D
  3
UCSORGFRONT
350
290
  3
UCSORGLEFT
350
28E
  3
UCSORGRIGHT
350
28F
  3
UCSORGTOP
350
28C
  3
UCSORTHOREF
350
289
  3
UCSORTHOVIEW
350
28A
  3
VERSIONGUID
350
27D
  0
DICTIONARY
  5
14F
102
{ACAD_REACTORS
330
C
102
}
330
C
100
AcDbDictionary
  3
DIMASSOC
350
151
  3
HIDETEXT
350
150
  0
XRECORD
  5
293
102
{ACAD_REACTORS
330
11A
102
}
330
11A
100
AcDbXrecord
340
1E
  0
XRECORD
  5
292
102
{ACAD_REACTORS
330
11C
102
}
330
11C
100
AcDbXrecord
340
1A
  0
MLINESTYLE
  5
17
102
{ACAD_REACTORS
330
16
102
}
330
16
100
AcDbMlineStyle
  2
STANDARD
 70
     0
  3

 62
   256
 51
90.0
 52
90.0
 71
     2
 49
0.5
 62
   256
  6
BYLAYER
 49
-0.5
 62
   256
  6
BYLAYER
  0
ACDBPLACEHOLDER
  5
F
102
{ACAD_REACTORS
330
E
102
}
330
E
100
AcDbPlaceHolder
280
     0
  0
XRECORD
  5
27B
102
{ACAD_REACTORS
330
271
102
}
330
271
100
AcDbXrecord
 90
        0
  0
XRECORD
  5
27F
102
{ACAD_REACTORS
330
271
102
}
330
271
100
AcDbXrecord
1000
DSTYLE
1002
{
1070
   277
 70
     5
1070
   279
 70
     2
1002
}
  0
XRECORD
  5
27C
102
{ACAD_REACTORS
330
271
102
}
330
271
100
AcDbXrecord
  1
{EBAEBCD5-5518-43D6-B380-E15DDB50B90F}
  0
XRECORD
  5
274
102
{ACAD_REACTORS
330
271
102
}
330
271
100
AcDbXrecord
  1

  0
XRECORD
  5
27A
102
{ACAD_REACTORS
330
271
102
}
330
271
100
AcDbXrecord
 90
        0
  0
XRECORD
  5
276
102
{ACAD_REACTORS
330
271
102
}
330
271
100
AcDbXrecord
340
19
  0
XRECORD
  5
279
102
{ACAD_REACTORS
330
271
102
}
330
271
100
AcDbXrecord
 90
    14877
  0
XRECORD
  5
277
102
{ACAD_REACTORS
330
271
102
}
330
271
100
AcDbXrecord
340
18
  0
XRECORD
  5
278
102
{ACAD_REACTORS
330
271
102
}
330
271
100
AcDbXrecord
340
E
  0
XRECORD
  5
27E
102
{ACAD_REACTORS
330
271
102
}
330
271
100
AcDbXrecord
 40
0.0
  0
XRECORD
  5
282
102
{ACAD_REACTORS
330
271
102
}
330
271
100
AcDbXrecord
340
0
  0
XRECORD
  5
288
102
{ACAD_REACTORS
330
271
102
}
330
271
100
AcDbXrecord
 10
0.0
 20
0.0
 30
0.0
  0
XRECORD
  5
284
102
{ACAD_REACTORS
330
271
102
}
330
271
100
AcDbXrecord
 10
0.0
 20
0.0
 30
0.0
  0
XRECORD
  5
287
102
{ACAD_REACTORS
330
271
102
}
330
271
100
AcDbXrecord
 10
0.0
 20
0.0
 30
0.0
  0
XRECORD
  5
285
102
{ACAD_REACTORS
330
271
102
}
330
271
100
AcDbXrecord
 10
0.0
 20
0.0
 30
0.0
  0
XRECORD
  5
286
102
{ACAD_REACTORS
330
271
102
}
330
271
100
AcDbXrecord
 10
0.0
 20
0.0
 30
0.0
  0
XRECORD
  5
283
102
{ACAD_REACTORS
330
271
102
}
330
271
100
AcDbXrecord
 10
0.0
 20
0.0
 30
0.0
  0
XRECORD
  5
280
102
{ACAD_REACTORS
330
271
102
}
330
271
100
AcDbXrecord
340
0
  0
XRECORD
  5
281
102
{ACAD_REACTORS
330
271
102
}
330
271
100
AcDbXrecord
 70
     0
  0
XRECORD
  5
275
102
{ACAD_REACTORS
330
271
102
}
330
271
100
AcDbXrecord
  1

  0
XRECORD
  5
272
102
{ACAD_REACTORS
330
271
102
}
330
271
100
AcDbXrecord
 90
        1
  0
XRECORD
  5
273
102
{ACAD_REACTORS
330
271
102
}
330
271
100
AcDbXrecord
 90
       70
  0
XRECORD
  5
28B
102
{ACAD_REACTORS
330
271
102
}
330
271
100
AcDbXrecord
340
0
  0
XRECORD
  5
291
102
{ACAD_REACTORS
330
271
102
}
330
271
100
AcDbXrecord
 10
0.0
 20
0.0
 30
0.0
  0
XRECORD
  5
28D
102
{ACAD_REACTORS
330
271
102
}
330
271
100
AcDbXrecord
 10
0.0
 20
0.0
 30
0.0
  0
XRECORD
  5
290
102
{ACAD_REACTORS
330
271
102
}
330
271
100
AcDbXrecord
 10
0.0
 20
0.0
 30
0.0
  0
XRECORD
  5
28E
102
{ACAD_REACTORS
330
271
102
}
330
271
100
AcDbXrecord
 10
0.0
 20
0.0
 30
0.0
  0
XRECORD
  5
28F
102
{ACAD_REACTORS
330
271
102
}
330
271
100
AcDbXrecord
 10
0.0
 20
0.0
 30
0.0
  0
XRECORD
  5
28C
102
{ACAD_REACTORS
330
271
102
}
330
271
100
AcDbXrecord
 10
0.0
 20
0.0
 30
0.0
  0
XRECORD
  5
289
102
{ACAD_REACTORS
330
271
102
}
330
271
100
AcDbXrecord
340
0
  0
XRECORD
  5
28A
102
{ACAD_REACTORS
330
271
102
}
330
271
100
AcDbXrecord
 70
     0
  0
XRECORD
  5
27D
102
{ACAD_REACTORS
330
271
102
}
330
271
100
AcDbXrecord
  1
{3242A9FE-FF3B-4F18-9C61-43CCE743B2DB}
  0
DICTIONARYVAR
  5
151
102
{ACAD_REACTORS
330
14F
102
}
330
14F
100
DictionaryVariables
280
     0
  1
2
  0
DICTIONARYVAR
  5
150
102
{ACAD_REACTORS
330
14F
102
}
330
14F
100
DictionaryVariables
280
     0
  1
1
  0
ENDSEC
  0
EOF
