  0
SECTION
  2
HEADER
  9
$ACADVER
  1
AC1014
  9
$ACADMAINTVER
 70
     9
  9
$DWGCODEPAGE
  3
ANSI_1252
  9
$INSBASE
 10
15.84613854345614
 20
12.71037409483591
 30
0.0
  9
$EXTMIN
 10
8.588114614967174
 20
11.68378910927032
 30
0.0
  9
$EXTMAX
 10
21.99118845534916
 20
16.11527300459196
 30
0.0
  9
$LIMMIN
 10
0.0
 20
0.0
  9
$LIMMAX
 10
17.0
 20
22.0
  9
$ORTHOMODE
 70
     1
  9
$REGENMODE
 70
     1
  9
$FILLMODE
 70
     1
  9
$QTEXTMODE
 70
     0
  9
$MIRRTEXT
 70
     1
  9
$DRAGMODE
 70
     0
  9
$LTSCALE
 40
1.0
  9
$OSMODE
 70
    37
  9
$ATTMODE
 70
     1
  9
$TEXTSIZE
 40
0.2
  9
$TRACEWID
 40
0.125
  9
$TEXTSTYLE
  7
STANDARD
  9
$CLAYER
  8
ADPDIM
  9
$CELTYPE
  6
BYLAYER
  9
$CECOLOR
 62
   256
  9
$CELTSCALE
 40
1.0
  9
$DELOBJ
 70
     1
  9
$DISPSILH
 70
     0
  9
$DIMSCALE
 40
1.0
  9
$DIMASZ
 40
0.1875
  9
$DIMEXO
 40
0.0625
  9
$DIMDLI
 40
0.375
  9
$DIMRND
 40
0.0
  9
$DIMDLE
 40
0.0
  9
$DIMEXE
 40
0.1875
  9
$DIMTP
 40
0.0
  9
$DIMTM
 40
0.0
  9
$DIMTXT
 40
0.18
  9
$DIMCEN
 40
0.09375
  9
$DIMTSZ
 40
0.0
  9
$DIMTOL
 70
     0
  9
$DIMLIM
 70
     0
  9
$DIMTIH
 70
     1
  9
$DIMTOH
 70
     1
  9
$DIMSE1
 70
     0
  9
$DIMSE2
 70
     0
  9
$DIMTAD
 70
     0
  9
$DIMZIN
 70
     2
  9
$DIMBLK
  1

  9
$DIMASO
 70
     1
  9
$DIMSHO
 70
     1
  9
$DIMPOST
  1

  9
$DIMAPOST
  1

  9
$DIMALT
 70
     0
  9
$DIMALTD
 70
     2
  9
$DIMALTF
 40
25.4
  9
$DIMLFAC
 40
1.0
  9
$DIMTOFL
 70
     0
  9
$DIMTVP
 40
0.0
  9
$DIMTIX
 70
     0
  9
$DIMSOXD
 70
     0
  9
$DIMSAH
 70
     1
  9
$DIMBLK1
  1
OBLIQUE
  9
$DIMBLK2
  1
OBLIQUE
  9
$DIMSTYLE
  2
STANDARD
  9
$DIMCLRD
 70
     0
  9
$DIMCLRE
 70
     0
  9
$DIMCLRT
 70
     0
  9
$DIMTFAC
 40
1.0
  9
$DIMGAP
 40
0.09375
  9
$DIMJUST
 70
     0
  9
$DIMSD1
 70
     0
  9
$DIMSD2
 70
     0
  9
$DIMTOLJ
 70
     1
  9
$DIMTZIN
 70
     0
  9
$DIMALTZ
 70
     0
  9
$DIMALTTZ
 70
     0
  9
$DIMFIT
 70
     3
  9
$DIMUPT
 70
     0
  9
$DIMUNIT
 70
     7
  9
$DIMDEC
 70
     2
  9
$DIMTDEC
 70
     4
  9
$DIMALTU
 70
     2
  9
$DIMALTTD
 70
     2
  9
$DIMTXSTY
  7
STANDARD
  9
$DIMAUNIT
 70
     0
  9
$LUNITS
 70
     5
  9
$LUPREC
 70
     5
  9
$SKETCHINC
 40
0.1
  9
$FILLETRAD
 40
0.06
  9
$AUNITS
 70
     0
  9
$AUPREC
 70
     0
  9
$MENU
  1
acad
  9
$ELEVATION
 40
0.0
  9
$PELEVATION
 40
0.0
  9
$THICKNESS
 40
0.0
  9
$LIMCHECK
 70
     0
  9
$BLIPMODE
 70
     0
  9
$CHAMFERA
 40
0.0
  9
$CHAMFERB
 40
0.0
  9
$CHAMFERC
 40
0.0
  9
$CHAMFERD
 40
0.0
  9
$SKPOLY
 70
     0
  9
$TDCREATE
 40
2450359.985406632
  9
$TDUPDATE
 40
2452297.096801933
  9
$TDINDWG
 40
0.0281933565
  9
$TDUSRTIMER
 40
0.0281933565
  9
$USRTIMER
 70
     1
  9
$ANGBASE
 50
0.0
  9
$ANGDIR
 70
     0
  9
$PDMODE
 70
    34
  9
$PDSIZE
 40
0.0
  9
$PLINEWID
 40
0.0
  9
$COORDS
 70
     2
  9
$SPLFRAME
 70
     0
  9
$SPLINETYPE
 70
     6
  9
$SPLINESEGS
 70
     8
  9
$ATTDIA
 70
     0
  9
$ATTREQ
 70
     1
  9
$HANDLING
 70
 22529
  9
$HANDSEED
  5
2EE
  9
$SURFTAB1
 70
     6
  9
$SURFTAB2
 70
     6
  9
$SURFTYPE
 70
     6
  9
$SURFU
 70
     6
  9
$SURFV
 70
     6
  9
$UCSNAME
  2

  9
$UCSORG
 10
0.0
 20
0.0
 30
0.0
  9
$UCSXDIR
 10
1.0
 20
0.0
 30
0.0
  9
$UCSYDIR
 10
0.0
 20
1.0
 30
0.0
  9
$PUCSNAME
  2

  9
$PUCSORG
 10
0.0
 20
0.0
 30
0.0
  9
$PUCSXDIR
 10
1.0
 20
0.0
 30
0.0
  9
$PUCSYDIR
 10
0.0
 20
1.0
 30
0.0
  9
$USERI1
 70
     0
  9
$USERI2
 70
     0
  9
$USERI3
 70
     0
  9
$USERI4
 70
     0
  9
$USERI5
 70
     0
  9
$USERR1
 40
0.0
  9
$USERR2
 40
0.0
  9
$USERR3
 40
0.0
  9
$USERR4
 40
0.0
  9
$USERR5
 40
0.0
  9
$WORLDVIEW
 70
     1
  9
$SHADEDGE
 70
     3
  9
$SHADEDIF
 70
    70
  9
$TILEMODE
 70
     1
  9
$MAXACTVP
 70
    15
  9
$PINSBASE
 10
-1.038489478408727E+35
 20
-4.476065637202240E+99
 30
0.0
  9
$PLIMCHECK
 70
     0
  9
$PEXTMIN
 10
1.000000000000000E+20
 20
1.000000000000000E+20
 30
1.000000000000000E+20
  9
$PEXTMAX
 10
-1.000000000000000E+20
 20
-1.000000000000000E+20
 30
-1.000000000000000E+20
  9
$PLIMMIN
 10
0.0
 20
0.0
  9
$PLIMMAX
 10
12.0
 20
9.0
  9
$UNITMODE
 70
     0
  9
$VISRETAIN
 70
     0
  9
$PLINEGEN
 70
     0
  9
$PSLTSCALE
 70
     1
  9
$TREEDEPTH
 70
  3020
  9
$PICKSTYLE
 70
     1
  9
$CMLSTYLE
  2
STANDARD
  9
$CMLJUST
 70
     0
  9
$CMLSCALE
 40
1.0
  9
$PROXYGRAPHICS
 70
     1
  9
$MEASUREMENT
 70
     0
  0
ENDSEC
  0
SECTION
  2
CLASSES
  0
CLASS
  1
ACDBDICTIONARYWDFLT
  2
AcDbDictionaryWithDefault
  3
AutoCAD 2000
 90
        0
280
     0
281
     0
  0
CLASS
  1
ACDBPLACEHOLDER
  2
AcDbPlaceHolder
  3
AutoCAD 2000
 90
        0
280
     0
281
     0
  0
CLASS
  1
LAYOUT
  2
AcDbLayout
  3
AutoCAD 2000
 90
        0
280
     0
281
     0
  0
CLASS
  1
DICTIONARYVAR
  2
AcDbDictionaryVar
  3
AutoCAD 2000
 90
        0
280
     0
281
     0
  0
CLASS
  1
LONG_TRANSACTION
  2
AcDbLongTransaction
  3
AutoCAD 2000
 90
        0
280
     0
281
     0
  0
CLASS
  1
LWPOLYLINE
  2
AcDbPolyline
  3
AutoCAD 2000
 90
        0
280
     0
281
     1
  0
CLASS
  1
HATCH
  2
AcDbHatch
  3
AutoCAD 2000
 90
        0
280
     0
281
     1
  0
CLASS
  1
XRECORD
  2
AcDbXrecord
  3
AutoCAD 2000
 90
        0
280
     0
281
     0
  0
CLASS
  1
LONG_TRANSACTION
  2
AcDbLongTransaction
  3
AutoCAD 2000
 90
        0
280
     0
281
     0
  0
CLASS
  1
LWPOLYLINE
  2
AcDbPolyline
  3
AutoCAD 2000
 90
        0
280
     0
281
     1
  0
CLASS
  1
HATCH
  2
AcDbHatch
  3
AutoCAD 2000
 90
        0
280
     0
281
     1
  0
CLASS
  1
XRECORD
  2
AcDbXrecord
  3
AutoCAD 2000
 90
        0
280
     0
281
     0
  0
CLASS
  1
LONG_TRANSACTION
  2
AcDbLongTransaction
  3
AutoCAD 2000
 90
        0
280
     0
281
     0
  0
CLASS
  1
LWPOLYLINE
  2
AcDbPolyline
  3
AutoCAD 2000
 90
        0
280
     0
281
     1
  0
CLASS
  1
HATCH
  2
AcDbHatch
  3
AutoCAD 2000
 90
        0
280
     0
281
     1
  0
CLASS
  1
XRECORD
  2
AcDbXrecord
  3
AutoCAD 2000
 90
        0
280
     0
281
     0
  0
CLASS
  1
LONG_TRANSACTION
  2
AcDbLongTransaction
  3
AutoCAD 2000
 90
        0
280
     0
281
     0
  0
CLASS
  1
LWPOLYLINE
  2
AcDbPolyline
  3
AutoCAD 2000
 90
        0
280
     0
281
     1
  0
CLASS
  1
HATCH
  2
AcDbHatch
  3
AutoCAD 2000
 90
        0
280
     0
281
     1
  0
CLASS
  1
XRECORD
  2
AcDbXrecord
  3
AutoCAD 2000
 90
        0
280
     0
281
     0
  0
CLASS
  1
LONG_TRANSACTION
  2
AcDbLongTransaction
  3
AutoCAD 2000
 90
        0
280
     0
281
     0
  0
CLASS
  1
LWPOLYLINE
  2
AcDbPolyline
  3
AutoCAD 2000
 90
        0
280
     0
281
     1
  0
CLASS
  1
HATCH
  2
AcDbHatch
  3
AutoCAD 2000
 90
        0
280
     0
281
     1
  0
CLASS
  1
XRECORD
  2
AcDbXrecord
  3
AutoCAD 2000
 90
        0
280
     0
281
     0
  0
ENDSEC
  0
SECTION
  2
TABLES
  0
TABLE
  2
VPORT
  5
13
330
0
100
AcDbSymbolTable
 70
     2
  0
VPORT
  5
2AC
330
13
100
AcDbSymbolTableRecord
100
AcDbViewportTableRecord
  2
*ACTIVE
 70
     0
 10
0.0
 20
0.0
 11
1.0
 21
1.0
 12
15.3001130948323
 22
13.89955144619983
 13
0.0
 23
0.0
 14
0.03125
 24
0.03125
 15
0.5
 25
0.5
 16
0.0
 26
0.0
 36
1.0
 17
0.0
 27
0.0
 37
0.0
 40
8.590217368114794
 41
1.570528967254408
 42
50.0
 43
0.0
 44
0.0
 50
0.0
 51
0.0
 71
     0
 72
   100
 73
     1
 74
     1
 75
     0
 76
     0
 77
     0
 78
     0
  0
ENDTAB
  0
TABLE
  2
LTYPE
  5
F
330
0
100
AcDbSymbolTable
 70
     2
  0
LTYPE
  5
10
330
F
100
AcDbSymbolTableRecord
100
AcDbLinetypeTableRecord
  2
BYBLOCK
 70
     0
  3

 72
    65
 73
     0
 40
0.0
  0
LTYPE
  5
6
330
F
100
AcDbSymbolTableRecord
100
AcDbLinetypeTableRecord
  2
BYLAYER
 70
     0
  3

 72
    65
 73
     0
 40
0.0
  0
LTYPE
  5
5
330
F
100
AcDbSymbolTableRecord
100
AcDbLinetypeTableRecord
  2
CONTINUOUS
 70
     0
  3
Solid line
 72
    65
 73
     0
 40
0.0
  0
LTYPE
  5
48
330
F
100
AcDbSymbolTableRecord
100
AcDbLinetypeTableRecord
  2
HIDDEN2
 70
     0
  3
_ _ _ _ _ _ _ _ _ _ _ _ _ _ _ _ _ _ _ _ _ _ _ _
 72
    65
 73
     2
 40
0.1875
 49
0.125
 74
     0
 49
-0.0625
 74
     0
  0
ENDTAB
  0
TABLE
  2
LAYER
  5
B
330
0
100
AcDbSymbolTable
 70
     5
  0
LAYER
  5
C
330
B
100
AcDbSymbolTableRecord
100
AcDbLayerTableRecord
  2
0
 70
     0
 62
     7
  6
CONTINUOUS
  0
LAYER
  5
32
330
B
100
AcDbSymbolTableRecord
100
AcDbLayerTableRecord
  2
DEFPOINTS
 70
     0
 62
    -7
  6
CONTINUOUS
  0
LAYER
  5
4
330
B
100
AcDbSymbolTableRecord
100
AcDbLayerTableRecord
  2
ADPDIM
 70
     0
 62
     3
  6
CONTINUOUS
  0
LAYER
  5
1F
330
B
100
AcDbSymbolTableRecord
100
AcDbLayerTableRecord
  2
ADP1DETAIL
 70
     0
 62
     7
  6
CONTINUOUS
  0
LAYER
  5
47
330
B
100
AcDbSymbolTableRecord
100
AcDbLayerTableRecord
  2
ADP2DETAIL
 70
     0
 62
     5
  6
CONTINUOUS
  0
ENDTAB
  0
TABLE
  2
STYLE
  5
D
330
0
100
AcDbSymbolTable
 70
     2
  0
STYLE
  5
E
330
D
100
AcDbSymbolTableRecord
100
AcDbTextStyleTableRecord
  2
STANDARD
 70
     0
 40
0.0
 41
1.0
 50
0.0
 71
     0
 42
0.2
  3
txt
  4

  0
STYLE
  5
7D
330
D
100
AcDbSymbolTableRecord
100
AcDbTextStyleTableRecord
  2
ARIAL_WIDE
 70
     0
 40
0.0
 41
1.25
 50
0.0
 71
     0
 42
0.2
  3
ARIAL.TTF
  4

1001
ACAD
1000
Arial
1071
       34
  0
ENDTAB
  0
TABLE
  2
VIEW
  5
11
330
0
100
AcDbSymbolTable
 70
     0
  0
ENDTAB
  0
TABLE
  2
UCS
  5
12
330
0
100
AcDbSymbolTable
 70
     0
  0
ENDTAB
  0
TABLE
  2
APPID
  5
15
330
0
100
AcDbSymbolTable
 70
     1
  0
APPID
  5
16
330
15
100
AcDbSymbolTableRecord
100
AcDbRegAppTableRecord
  2
ACAD
 70
     0
  0
ENDTAB
  0
TABLE
  2
DIMSTYLE
  5
17
330
0
100
AcDbSymbolTable
 70
     1
  0
DIMSTYLE
105
1D
102
{ACAD_REACTORS
330
24
330
37
330
53
102
}
330
17
100
AcDbSymbolTableRecord
100
AcDbDimStyleTableRecord
  2
STANDARD
 70
     0
  3

  4

  5

  6

  7

 40
1.0
 41
0.18
 42
0.0625
 43
0.38
 44
0.18
 45
0.0
 46
0.0
 47
0.0
 48
0.0
140
0.18
141
0.09
142
0.0
143
25.4
144
1.0
145
0.0
146
1.0
147
0.09
 71
     0
 72
     0
 73
     1
 74
     1
 75
     0
 76
     0
 77
     0
 78
     0
170
     0
171
     2
172
     0
173
     0
174
     0
175
     0
176
     0
177
     0
178
     0
270
     2
271
     4
272
     4
273
     2
274
     2
340
E
275
     0
280
     0
281
     0
282
     0
283
     1
284
     0
285
     0
286
     0
287
     3
288
     0
  0
ENDTAB
  0
TABLE
  2
BLOCK_RECORD
  5
1
330
0
100
AcDbSymbolTable
 70
     4
  0
BLOCK_RECORD
  5
2
102
{ACAD_XDICTIONARY
360
F9
102
}
330
1
100
AcDbSymbolTableRecord
100
AcDbBlockTableRecord
  2
*MODEL_SPACE
  0
BLOCK_RECORD
  5
8
102
{ACAD_XDICTIONARY
360
FB
102
}
330
1
100
AcDbSymbolTableRecord
100
AcDbBlockTableRecord
  2
*PAPER_SPACE
  0
BLOCK_RECORD
  5
2B
330
1
100
AcDbSymbolTableRecord
100
AcDbBlockTableRecord
  2
_OBLIQUE
  0
BLOCK_RECORD
  5
FD
330
1
100
AcDbSymbolTableRecord
100
AcDbBlockTableRecord
  2
*D1
  0
BLOCK_RECORD
  5
10C
330
1
100
AcDbSymbolTableRecord
100
AcDbBlockTableRecord
  2
*D2
  0
BLOCK_RECORD
  5
119
330
1
100
AcDbSymbolTableRecord
100
AcDbBlockTableRecord
  2
*D3
  0
ENDTAB
  0
ENDSEC
  0
SECTION
  2
BLOCKS
  0
BLOCK
  5
3
330
2
100
AcDbEntity
  8
0
100
AcDbBlockBegin
  2
*MODEL_SPACE
 70
     0
 10
0.0
 20
0.0
 30
0.0
  3
*MODEL_SPACE
  1

  0
ENDBLK
  5
7
330
2
100
AcDbEntity
  8
0
100
AcDbBlockEnd
  0
BLOCK
  5
9
330
8
100
AcDbEntity
 67
     1
  8
0
100
AcDbBlockBegin
  2
*PAPER_SPACE
 70
     0
 10
0.0
 20
0.0
 30
0.0
  3
*PAPER_SPACE
  1

  0
ENDBLK
  5
A
330
8
100
AcDbEntity
 67
     1
  8
0
100
AcDbBlockEnd
  0
BLOCK
  5
2D
330
2B
100
AcDbEntity
  8
0
100
AcDbBlockBegin
  2
_OBLIQUE
 70
     0
 10
0.0
 20
0.0
 30
0.0
  3
_OBLIQUE
  1

  0
LINE
  5
2C
330
2B
100
AcDbEntity
  8
0
  6
BYBLOCK
 62
     0
100
AcDbLine
 10
-0.5
 20
-0.5
 30
0.0
 11
0.5
 21
0.5
 31
0.0
  0
ENDBLK
  5
2E
330
2B
100
AcDbEntity
  8
0
100
AcDbBlockEnd
  0
BLOCK
  5
108
330
FD
100
AcDbEntity
  8
0
100
AcDbBlockBegin
  2
*D1
 70
     1
 10
0.0
 20
0.0
 30
0.0
  3
*D1
  1

  0
LINE
  5
2D0
330
FD
100
AcDbEntity
  8
ADPDIM
 62
     0
100
AcDbLine
 10
13.50561371308297
 20
12.99399903183411
 30
0.0
 11
13.50561371308297
 21
13.83856410077079
 31
0.0
  0
LINE
  5
2D1
330
FD
100
AcDbEntity
  8
ADPDIM
 62
     0
100
AcDbLine
 10
15.24690447040452
 20
12.99123949123388
 30
0.0
 11
15.24690447040452
 21
13.83856410077079
 31
0.0
  0
LINE
  5
2D2
330
FD
100
AcDbEntity
  8
ADPDIM
 62
     0
100
AcDbLine
 10
13.50561371308297
 20
13.65106410077079
 30
0.0
 11
13.89250909174375
 21
13.65106410077079
 31
0.0
  0
LINE
  5
2D3
330
FD
100
AcDbEntity
  8
ADPDIM
 62
     0
100
AcDbLine
 10
15.24690447040452
 20
13.65106410077079
 30
0.0
 11
14.86000909174375
 21
13.65106410077079
 31
0.0
  0
INSERT
  5
2D4
330
FD
100
AcDbEntity
  8
ADPDIM
 62
     0
100
AcDbBlockReference
  2
_OBLIQUE
 10
13.50561371308297
 20
13.65106410077079
 30
0.0
 41
0.1875
 42
0.1875
 43
0.1875
 50
180.0
  0
INSERT
  5
2D5
330
FD
100
AcDbEntity
  8
ADPDIM
 62
     0
100
AcDbBlockReference
  2
_OBLIQUE
 10
15.24690447040452
 20
13.65106410077079
 30
0.0
 41
0.1875
 42
0.1875
 43
0.1875
  0
MTEXT
  5
2D6
330
FD
100
AcDbEntity
  8
ADPDIM
 62
     0
100
AcDbMText
 10
14.37625909174375
 20
13.65106410077079
 30
0.0
 40
0.18
 41
0.0
 71
     5
 72
     1
  1
\A1;1 3/4
  0
POINT
  5
2D7
330
FD
100
AcDbEntity
  8
DEFPOINTS
 62
     0
100
AcDbPoint
 10
13.50561371308297
 20
12.93149903183411
 30
0.0
  0
POINT
  5
2D8
330
FD
100
AcDbEntity
  8
DEFPOINTS
 62
     0
100
AcDbPoint
 10
15.24690447040452
 20
12.92873949123388
 30
0.0
  0
POINT
  5
2D9
330
FD
100
AcDbEntity
  8
DEFPOINTS
 62
     0
100
AcDbPoint
 10
15.24690447040452
 20
13.65106410077079
 30
0.0
  0
ENDBLK
  5
109
330
FD
100
AcDbEntity
  8
0
100
AcDbBlockEnd
  0
BLOCK
  5
117
330
10C
100
AcDbEntity
  8
0
100
AcDbBlockBegin
  2
*D2
 70
     1
 10
0.0
 20
0.0
 30
0.0
  3
*D2
  1

  0
LINE
  5
2DA
330
10C
100
AcDbEntity
  8
ADPDIM
 62
     0
100
AcDbLine
 10
15.02886250856168
 20
12.64787871408535
 30
0.0
 11
15.02886250856168
 21
12.3317064564644
 31
0.0
  0
LINE
  5
2DB
330
10C
100
AcDbEntity
  8
ADPDIM
 62
     0
100
AcDbLine
 10
13.72261371308297
 20
12.65100132542416
 30
0.0
 11
13.72261371308297
 21
12.3317064564644
 31
0.0
  0
LINE
  5
2DC
330
10C
100
AcDbEntity
  8
ADPDIM
 62
     0
100
AcDbLine
 10
15.02886250856168
 20
12.5192064564644
 30
0.0
 11
14.82948811082232
 21
12.5192064564644
 31
0.0
  0
LINE
  5
2DD
330
10C
100
AcDbEntity
  8
ADPDIM
 62
     0
100
AcDbLine
 10
13.72261371308297
 20
12.5192064564644
 30
0.0
 11
13.92198811082232
 21
12.5192064564644
 31
0.0
  0
INSERT
  5
2DE
330
10C
100
AcDbEntity
  8
ADPDIM
 62
     0
100
AcDbBlockReference
  2
_OBLIQUE
 10
15.02886250856168
 20
12.5192064564644
 30
0.0
 41
0.1875
 42
0.1875
 43
0.1875
  0
INSERT
  5
2DF
330
10C
100
AcDbEntity
  8
ADPDIM
 62
     0
100
AcDbBlockReference
  2
_OBLIQUE
 10
13.72261371308297
 20
12.5192064564644
 30
0.0
 41
0.1875
 42
0.1875
 43
0.1875
 50
180.0
  0
MTEXT
  5
2E0
330
10C
100
AcDbEntity
  8
ADPDIM
 62
     0
100
AcDbMText
 10
14.37573811082232
 20
12.5192064564644
 30
0.0
 40
0.18
 41
0.0
 71
     5
 72
     1
  1
\A1;1 1/4
  0
POINT
  5
2E1
330
10C
100
AcDbEntity
  8
DEFPOINTS
 62
     0
100
AcDbPoint
 10
15.02886250856168
 20
12.71037871408535
 30
0.0
  0
POINT
  5
2E2
330
10C
100
AcDbEntity
  8
DEFPOINTS
 62
     0
100
AcDbPoint
 10
13.72261371308297
 20
12.71350132542416
 30
0.0
  0
POINT
  5
2E3
330
10C
100
AcDbEntity
  8
DEFPOINTS
 62
     0
100
AcDbPoint
 10
13.72261371308297
 20
12.5192064564644
 30
0.0
  0
ENDBLK
  5
118
330
10C
100
AcDbEntity
  8
0
100
AcDbBlockEnd
  0
BLOCK
  5
124
330
119
100
AcDbEntity
  8
0
100
AcDbBlockBegin
  2
*D3
 70
     1
 10
0.0
 20
0.0
 30
0.0
  3
*D3
  1

  0
LINE
  5
2E4
330
119
100
AcDbEntity
  8
ADPDIM
 62
     0
100
AcDbLine
 10
15.84613854345614
 20
12.64787409483591
 30
0.0
 11
15.84613854345614
 21
12.33568336476868
 31
0.0
  0
LINE
  5
2E5
330
119
100
AcDbEntity
  8
ADPDIM
 62
     0
100
AcDbLine
 10
17.84613854345614
 20
12.89358767684447
 30
0.0
 11
17.84613854345614
 21
12.33568336476868
 31
0.0
  0
LINE
  5
2E6
330
119
100
AcDbEntity
  8
ADPDIM
 62
     0
100
AcDbLine
 10
15.84613854345614
 20
12.52318336476868
 30
0.0
 11
16.69238854345615
 21
12.52318336476868
 31
0.0
  0
LINE
  5
2E7
330
119
100
AcDbEntity
  8
ADPDIM
 62
     0
100
AcDbLine
 10
17.84613854345614
 20
12.52318336476868
 30
0.0
 11
16.99988854345614
 21
12.52318336476868
 31
0.0
  0
INSERT
  5
2E8
330
119
100
AcDbEntity
  8
ADPDIM
 62
     0
100
AcDbBlockReference
  2
_OBLIQUE
 10
15.84613854345614
 20
12.52318336476868
 30
0.0
 41
0.1875
 42
0.1875
 43
0.1875
 50
180.0
  0
INSERT
  5
2E9
330
119
100
AcDbEntity
  8
ADPDIM
 62
     0
100
AcDbBlockReference
  2
_OBLIQUE
 10
17.84613854345614
 20
12.52318336476868
 30
0.0
 41
0.1875
 42
0.1875
 43
0.1875
  0
MTEXT
  5
2EA
330
119
100
AcDbEntity
  8
ADPDIM
 62
     0
100
AcDbMText
 10
16.84613854345615
 20
12.52318336476868
 30
0.0
 40
0.18
 41
0.0
 71
     5
 72
     1
  1
\A1;2
  0
POINT
  5
2EB
330
119
100
AcDbEntity
  8
DEFPOINTS
 62
     0
100
AcDbPoint
 10
15.84613854345614
 20
12.71037409483591
 30
0.0
  0
POINT
  5
2EC
330
119
100
AcDbEntity
  8
DEFPOINTS
 62
     0
100
AcDbPoint
 10
17.84613854345614
 20
12.95608767684447
 30
0.0
  0
POINT
  5
2ED
330
119
100
AcDbEntity
  8
DEFPOINTS
 62
     0
100
AcDbPoint
 10
17.84613854345614
 20
12.52318336476868
 30
0.0
  0
ENDBLK
  5
125
330
119
100
AcDbEntity
  8
0
100
AcDbBlockEnd
  0
ENDSEC
  0
SECTION
  2
ENTITIES
  0
ARC
  5
1E
330
2
100
AcDbEntity
  8
ADP1DETAIL
100
AcDbCircle
 10
14.38061371308297
 20
16.77945211731172
 30
0.0
 40
1.121458333333334
100
AcDbArc
 50
222.5436547602738
 51
317.4563452397261
  0
LINE
  5
20
330
2
100
AcDbEntity
  8
ADP1DETAIL
100
AcDbLine
 10
13.68561371308297
 20
16.07799378397838
 30
0.0
 11
15.07561371308297
 21
16.07799378397838
 31
0.0
  0
LINE
  5
21
330
2
100
AcDbEntity
  8
ADP1DETAIL
100
AcDbLine
 10
15.25561371308297
 20
14.07799378397838
 30
0.0
 11
13.50561371308297
 21
14.07799378397838
 31
0.0
  0
ARC
  5
22
330
2
100
AcDbEntity
  8
ADP1DETAIL
100
AcDbCircle
 10
14.33772218093128
 20
9.981721158589055
 30
0.0
 40
3.356225554059557
100
AcDbArc
 50
79.19272323172942
 51
89.3254580937628
  0
LINE
  5
23
330
2
100
AcDbEntity
  8
ADP1DETAIL
100
AcDbLine
 10
14.90505917843253
 20
12.96097118934981
 30
0.0
 11
14.3730652587073
 21
12.96351468603257
 31
0.0
  0
DIMENSION
  5
24
330
2
100
AcDbEntity
  8
ADPDIM
100
AcDbDimension
  2
*D1
 10
15.24690447040452
 20
13.65106410077079
 30
0.0
 11
14.37625909174375
 21
13.65106410077079
 31
0.0
 70
    32
  3
STANDARD
100
AcDbAlignedDimension
 13
13.50561371308297
 23
12.93149903183411
 33
0.0
 14
15.24690447040452
 24
12.92873949123388
 34
0.0
100
AcDbRotatedDimension
1001
ACAD
1000
DSTYLE
1002
{
1070
   270
1070
     7
1070
   270
1070
     7
1070
   270
1070
     7
1070
   270
1070
     7
1070
   270
1070
     7
1070
    41
1040
0.1875
1070
    43
1040
0.375
1070
    44
1040
0.1875
1070
    78
1070
     2
1070
   141
1040
0.09375
1070
   147
1040
0.09375
1070
   173
1070
     1
1070
   271
1070
     2
1070
   276
1070
     2
1070
   277
1070
     5
1070
     6
1000
OBLIQUE
1070
     7
1000
OBLIQUE
1002
}
  0
DIMENSION
  5
37
330
2
100
AcDbEntity
  8
ADPDIM
100
AcDbDimension
  2
*D2
 10
13.72261371308297
 20
12.5192064564644
 30
0.0
 11
14.37573811082232
 21
12.5192064564644
 31
0.0
 70
    32
  3
STANDARD
100
AcDbAlignedDimension
 13
15.02886250856168
 23
12.71037871408535
 33
0.0
 14
13.72261371308297
 24
12.71350132542416
 34
0.0
100
AcDbRotatedDimension
1001
ACAD
1000
DSTYLE
1002
{
1070
   270
1070
     7
1070
   270
1070
     7
1070
   270
1070
     7
1070
   270
1070
     7
1070
   270
1070
     7
1070
    41
1040
0.1875
1070
    43
1040
0.375
1070
    44
1040
0.1875
1070
    78
1070
     2
1070
   141
1040
0.09375
1070
   147
1040
0.09375
1070
   173
1070
     1
1070
   271
1070
     2
1070
   276
1070
     2
1070
   277
1070
     5
1070
     6
1000
OBLIQUE
1070
     7
1000
OBLIQUE
1002
}
  0
LINE
  5
45
330
2
100
AcDbEntity
  8
ADP1DETAIL
100
AcDbLine
 10
13.50561371308297
 20
14.07799378397838
 30
0.0
 11
13.50561371308297
 21
15.89799378397838
 31
0.0
  0
LINE
  5
46
330
2
100
AcDbEntity
  8
ADP2DETAIL
  6
HIDDEN2
100
AcDbLine
 10
13.85494723388419
 20
14.07799378397838
 30
0.0
 11
13.85494723388419
 21
16.07799378397838
 31
0.0
  0
LINE
  5
49
330
2
100
AcDbEntity
  8
ADP2DETAIL
  6
HIDDEN2
100
AcDbLine
 10
13.73806550677882
 20
14.07799378397838
 30
0.0
 11
13.73806550677882
 21
16.07799378397838
 31
0.0
  0
LINE
  5
4A
330
2
100
AcDbEntity
  8
ADP1DETAIL
100
AcDbLine
 10
13.72261371308297
 20
12.71349903183411
 30
0.0
 11
13.72261371308297
 21
12.83849903183411
 31
0.0
  0
ARC
  5
4B
330
2
100
AcDbEntity
  8
ADP1DETAIL
100
AcDbCircle
 10
13.72361371308297
 20
12.93149903183411
 30
0.0
 40
0.218
100
AcDbArc
 50
179.6312450729445
 51
269.7371744015996
  0
LINE
  5
4C
330
2
100
AcDbEntity
  8
ADP1DETAIL
100
AcDbLine
 10
13.84761371308298
 20
12.96349903183411
 30
0.0
 11
14.37961371308297
 21
12.96349903183411
 31
0.0
  0
ARC
  5
4D
330
2
100
AcDbEntity
  8
ADP1DETAIL
100
AcDbCircle
 10
14.40070040581887
 20
9.981570608004961
 30
0.0
 40
3.356225554059557
100
AcDbArc
 50
90.40060923645667
 51
100.53334409849
  0
ARC
  5
4E
330
2
100
AcDbEntity
  8
ADP1DETAIL
100
AcDbCircle
 10
13.86361371308297
 20
12.93149903183411
 30
0.0
 40
0.358
100
AcDbArc
 50
102.3315095628152
 51
179.9999999999999
  0
LINE
  5
4F
330
2
100
AcDbEntity
  8
ADP1DETAIL
100
AcDbLine
 10
13.72261371308297
 20
12.83849903183411
 30
0.0
 11
13.84761371308298
 21
12.83849903183411
 31
0.0
  0
LINE
  5
50
330
2
100
AcDbEntity
  8
ADP1DETAIL
100
AcDbLine
 10
13.84761371308298
 20
12.83849903183411
 30
0.0
 11
13.84761371308298
 21
12.96349903183411
 31
0.0
  0
ARC
  5
51
330
2
100
AcDbEntity
  8
ADP1DETAIL
100
AcDbCircle
 10
13.68561371308297
 20
15.89799378397838
 30
0.0
 40
0.18
100
AcDbArc
 50
90.0
 51
180.0
  0
LINE
  5
52
330
2
100
AcDbEntity
  8
ADP1DETAIL
100
AcDbLine
 10
17.43903555846735
 20
13.32215791171417
 30
0.0
 11
17.81353150387494
 21
13.12998499617286
 31
0.0
  0
DIMENSION
  5
53
330
2
100
AcDbEntity
  8
ADPDIM
100
AcDbDimension
  2
*D3
 10
17.84613854345614
 20
12.52318336476868
 30
0.0
 11
16.84613854345615
 21
12.52318336476868
 31
0.0
 70
    32
  3
STANDARD
100
AcDbAlignedDimension
 13
15.84613854345614
 23
12.71037409483591
 33
0.0
 14
17.84613854345614
 24
12.95608767684447
 34
0.0
100
AcDbRotatedDimension
1001
ACAD
1000
DSTYLE
1002
{
1070
   270
1070
     7
1070
   270
1070
     7
1070
   270
1070
     7
1070
   270
1070
     7
1070
   270
1070
     7
1070
    41
1040
0.1875
1070
    43
1040
0.375
1070
    44
1040
0.1875
1070
    78
1070
     2
1070
   141
1040
0.09375
1070
   147
1040
0.09375
1070
   173
1070
     1
1070
   271
1070
     2
1070
   276
1070
     2
1070
   277
1070
     5
1070
     6
1000
OBLIQUE
1070
     7
1000
OBLIQUE
1002
}
  0
LINE
  5
61
330
2
100
AcDbEntity
  8
ADP1DETAIL
100
AcDbLine
 10
16.97909539324826
 20
12.71260850176611
 30
0.0
 11
17.84613854345614
 21
12.95608767684447
 31
0.0
  0
LINE
  5
62
330
2
100
AcDbEntity
  8
ADP2DETAIL
  6
HIDDEN2
100
AcDbLine
 10
15.84613854345614
 20
12.95608767684447
 30
0.0
 11
17.84613854345614
 21
12.95608767684447
 31
0.0
  0
LINE
  5
63
330
2
100
AcDbEntity
  8
ADP1DETAIL
100
AcDbLine
 10
15.25561371308297
 20
15.89799378397838
 30
0.0
 11
15.25561371308297
 21
14.07799378397838
 31
0.0
  0
LINE
  5
64
330
2
100
AcDbEntity
  8
ADP2DETAIL
  6
HIDDEN2
100
AcDbLine
 10
15.02316191938712
 20
14.07799378397838
 30
0.0
 11
15.02316191938712
 21
16.07799378397838
 31
0.0
  0
LINE
  5
65
330
2
100
AcDbEntity
  8
ADP2DETAIL
  6
HIDDEN2
100
AcDbLine
 10
14.90628019228175
 20
14.07799378397838
 30
0.0
 11
14.90628019228175
 21
16.07799378397838
 31
0.0
  0
LINE
  5
66
330
2
100
AcDbEntity
  8
ADP1DETAIL
100
AcDbLine
 10
16.96287391805966
 20
12.71037409483591
 30
0.0
 11
15.84613854345614
 21
12.71037409483591
 31
0.0
  0
LINE
  5
67
330
2
100
AcDbEntity
  8
ADP1DETAIL
100
AcDbLine
 10
15.84613854345614
 20
13.32877602602722
 30
0.0
 11
17.41164259804855
 21
13.32877602602723
 31
0.0
  0
LINE
  5
68
330
2
100
AcDbEntity
  8
ADP2DETAIL
  6
HIDDEN2
100
AcDbLine
 10
15.84613854345614
 20
12.83953651086878
 30
0.0
 11
17.43109323177621
 21
12.83953651086878
 31
0.0
  0
LINE
  5
69
330
2
100
AcDbEntity
  8
ADP1DETAIL
100
AcDbLine
 10
15.84613854345614
 20
12.71037409483591
 30
0.0
 11
15.84613854345614
 21
13.32877602602722
 31
0.0
  0
LINE
  5
6A
330
2
100
AcDbEntity
  8
ADP1DETAIL
100
AcDbLine
 10
15.028862497596
 20
12.71037642052152
 30
0.0
 11
15.02946012369627
 21
12.83537499188553
 31
0.0
  0
ARC
  5
6B
330
2
100
AcDbEntity
  8
ADP1DETAIL
100
AcDbCircle
 10
15.02890476894396
 20
12.92837870998916
 30
0.0
 40
0.218
100
AcDbArc
 50
269.9888929286198
 51
0.0948222572748857
  0
LINE
  5
6C
330
2
100
AcDbEntity
  8
ADP1DETAIL
100
AcDbLine
 10
15.02946012369627
 20
12.83537499188553
 30
0.0
 11
14.90446155233226
 21
12.8359726179858
 31
0.0
  0
ARC
  5
6D
330
2
100
AcDbEntity
  8
ADP1DETAIL
100
AcDbCircle
 10
14.88890636901627
 20
12.92904805122146
 30
0.0
 40
0.358
100
AcDbArc
 50
359.7260673302195
 51
77.39455776740417
  0
LINE
  5
6E
330
2
100
AcDbEntity
  8
ADP1DETAIL
100
AcDbLine
 10
14.90446155233226
 20
12.8359726179858
 30
0.0
 11
14.90505917843253
 21
12.96097118934981
 31
0.0
  0
ARC
  5
6F
330
2
100
AcDbEntity
  8
ADP1DETAIL
100
AcDbCircle
 10
16.96287391805966
 20
12.77037409483591
 30
0.0
 40
0.06
100
AcDbArc
 50
270.0
 51
285.6855662687919
  0
ARC
  5
70
330
2
100
AcDbEntity
  8
ADP1DETAIL
100
AcDbCircle
 10
17.41164259804855
 20
13.26877602602722
 30
0.0
 40
0.06
100
AcDbArc
 50
62.83533409993616
 51
90.0
  0
ARC
  5
71
330
2
100
AcDbEntity
  8
ADP1DETAIL
100
AcDbCircle
 10
15.07561371308297
 20
15.89799378397838
 30
0.0
 40
0.18
100
AcDbArc
 50
0.0
 51
90.0
  0
ARC
  5
72
330
2
100
AcDbEntity
  8
ADP1DETAIL
100
AcDbCircle
 10
17.78613854345614
 20
13.07660311048592
 30
0.0
 40
0.06
100
AcDbArc
 50
0.0000000000013231
 51
62.83533409993604
  0
LINE
  5
73
330
2
100
AcDbEntity
  8
ADP1DETAIL
100
AcDbLine
 10
17.84613854345614
 20
13.07660311048592
 30
0.0
 11
17.84613854345614
 21
12.95608767684447
 31
0.0
  0
TEXT
  5
7E
330
2
100
AcDbEntity
  8
ADPDIM
100
AcDbText
 10
8.588114614967174
 20
11.72079456629625
 30
0.0
 40
0.125
  1
J U L I U S  B L U M  &  C O . ,  I N C .      ( 8 0 0 )  5 2 6 - 6 2 9 3        W W W . J U L I U S B L U M . C O M        P A R T  N o .  6 9 3 3 - N
 41
1.25
  7
ARIAL_WIDE
 72
     1
 11
15.28965153515817
 21
11.84579456629625
 31
0.0
100
AcDbText
 73
     3
  0
ENDSEC
  0
SECTION
  2
OBJECTS
  0
DICTIONARY
  5
1B
330
0
100
AcDbDictionary
  3
ACAD_GROUP
350
19
  3
ACAD_LAYOUT
350
77
  3
ACAD_MLINESTYLE
350
1A
  3
ACAD_PLOTSETTINGS
350
78
  3
ACAD_PLOTSTYLENAME
350
75
  3
ACDBHEADERROUNDTRIPXREC
350
2AD
  3
ACDBVARIABLEDICTIONARY
350
128
  0
DICTIONARY
  5
F9
330
2
100
AcDbDictionary
280
     1
  3
ACAD_LAYOUTSELFREF
360
2CE
  0
DICTIONARY
  5
FB
330
8
100
AcDbDictionary
280
     1
  3
ACAD_LAYOUTSELFREF
360
2CF
  0
DICTIONARY
  5
19
102
{ACAD_REACTORS
330
1B
102
}
330
1B
100
AcDbDictionary
  0
DICTIONARY
  5
77
102
{ACAD_REACTORS
330
1B
102
}
330
1B
100
AcDbDictionary
  0
DICTIONARY
  5
1A
102
{ACAD_REACTORS
330
1B
102
}
330
1B
100
AcDbDictionary
  3
STANDARD
350
1C
  0
DICTIONARY
  5
78
102
{ACAD_REACTORS
330
1B
102
}
330
1B
100
AcDbDictionary
  0
ACDBDICTIONARYWDFLT
  5
75
102
{ACAD_REACTORS
330
1B
102
}
330
1B
100
AcDbDictionary
281
     1
  3
Normal
350
76
100
AcDbDictionaryWithDefault
340
76
  0
DICTIONARY
  5
2AD
102
{ACAD_REACTORS
330
1B
102
}
330
1B
100
AcDbDictionary
  3
CEPSNTYPE
350
2B7
  3
DIMSTYLEDATA
350
2BB
  3
FINGERPRINTGUID
350
2B8
  3
HYPERLINKBASE
350
2B0
  3
INSUNITS
350
2B6
  3
LAYOUTDICT
350
2B2
  3
LWETCUNION
350
2B5
  3
PLOTSETDICT
350
2B3
  3
PLOTSTYLNAMDICT
350
2B4
  3
PSVPSCALE
350
2BA
  3
PUCSBASE
350
2BE
  3
PUCSORGBACK
350
2C4
  3
PUCSORGBOTTOM
350
2C0
  3
PUCSORGFRONT
350
2C3
  3
PUCSORGLEFT
350
2C1
  3
PUCSORGRIGHT
350
2C2
  3
PUCSORGTOP
350
2BF
  3
PUCSORTHOREF
350
2BC
  3
PUCSORTHOVIEW
350
2BD
  3
STYLESHEET
350
2B1
  3
TSTACKALIGN
350
2AE
  3
TSTACKSIZE
350
2AF
  3
UCSBASE
350
2C7
  3
UCSORGBACK
350
2CD
  3
UCSORGBOTTOM
350
2C9
  3
UCSORGFRONT
350
2CC
  3
UCSORGLEFT
350
2CA
  3
UCSORGRIGHT
350
2CB
  3
UCSORGTOP
350
2C8
  3
UCSORTHOREF
350
2C5
  3
UCSORTHOVIEW
350
2C6
  3
VERSIONGUID
350
2B9
  0
DICTIONARY
  5
128
102
{ACAD_REACTORS
330
1B
102
}
330
1B
100
AcDbDictionary
  3
DIMASSOC
350
129
  0
XRECORD
  5
2CE
102
{ACAD_REACTORS
330
F9
102
}
330
F9
100
AcDbXrecord
340
2
  0
XRECORD
  5
2CF
102
{ACAD_REACTORS
330
FB
102
}
330
FB
100
AcDbXrecord
340
8
  0
MLINESTYLE
  5
1C
102
{ACAD_REACTORS
330
1A
102
}
330
1A
100
AcDbMlineStyle
  2
STANDARD
 70
     0
  3

 62
     0
 51
90.0
 52
90.0
 71
     2
 49
0.5
 62
   256
  6
BYLAYER
 49
-0.5
 62
   256
  6
BYLAYER
  0
ACDBPLACEHOLDER
  5
76
102
{ACAD_REACTORS
330
75
102
}
330
75
100
AcDbPlaceHolder
280
     0
  0
XRECORD
  5
2B7
102
{ACAD_REACTORS
330
2AD
102
}
330
2AD
100
AcDbXrecord
 90
        0
  0
XRECORD
  5
2BB
102
{ACAD_REACTORS
330
2AD
102
}
330
2AD
100
AcDbXrecord
1000
DSTYLE
1002
{
1070
   276
 70
     2
1070
   277
 70
     5
1070
   341
340
2B
1070
   343
340
2B
1070
   344
340
2B
1002
}
  0
XRECORD
  5
2B8
102
{ACAD_REACTORS
330
2AD
102
}
330
2AD
100
AcDbXrecord
  1
{EAC83FDB-9756-4EF4-ACBC-57022FC0A118}
  0
XRECORD
  5
2B0
102
{ACAD_REACTORS
330
2AD
102
}
330
2AD
100
AcDbXrecord
  1

  0
XRECORD
  5
2B6
102
{ACAD_REACTORS
330
2AD
102
}
330
2AD
100
AcDbXrecord
 90
        0
  0
XRECORD
  5
2B2
102
{ACAD_REACTORS
330
2AD
102
}
330
2AD
100
AcDbXrecord
340
77
  0
XRECORD
  5
2B5
102
{ACAD_REACTORS
330
2AD
102
}
330
2AD
100
AcDbXrecord
 90
    14877
  0
XRECORD
  5
2B3
102
{ACAD_REACTORS
330
2AD
102
}
330
2AD
100
AcDbXrecord
340
78
  0
XRECORD
  5
2B4
102
{ACAD_REACTORS
330
2AD
102
}
330
2AD
100
AcDbXrecord
340
75
  0
XRECORD
  5
2BA
102
{ACAD_REACTORS
330
2AD
102
}
330
2AD
100
AcDbXrecord
 40
0.0
  0
XRECORD
  5
2BE
102
{ACAD_REACTORS
330
2AD
102
}
330
2AD
100
AcDbXrecord
340
0
  0
XRECORD
  5
2C4
102
{ACAD_REACTORS
330
2AD
102
}
330
2AD
100
AcDbXrecord
 10
0.0
 20
0.0
 30
0.0
  0
XRECORD
  5
2C0
102
{ACAD_REACTORS
330
2AD
102
}
330
2AD
100
AcDbXrecord
 10
0.0
 20
0.0
 30
0.0
  0
XRECORD
  5
2C3
102
{ACAD_REACTORS
330
2AD
102
}
330
2AD
100
AcDbXrecord
 10
0.0
 20
0.0
 30
0.0
  0
XRECORD
  5
2C1
102
{ACAD_REACTORS
330
2AD
102
}
330
2AD
100
AcDbXrecord
 10
0.0
 20
0.0
 30
0.0
  0
XRECORD
  5
2C2
102
{ACAD_REACTORS
330
2AD
102
}
330
2AD
100
AcDbXrecord
 10
0.0
 20
0.0
 30
0.0
  0
XRECORD
  5
2BF
102
{ACAD_REACTORS
330
2AD
102
}
330
2AD
100
AcDbXrecord
 10
0.0
 20
0.0
 30
0.0
  0
XRECORD
  5
2BC
102
{ACAD_REACTORS
330
2AD
102
}
330
2AD
100
AcDbXrecord
340
0
  0
XRECORD
  5
2BD
102
{ACAD_REACTORS
330
2AD
102
}
330
2AD
100
AcDbXrecord
 70
     0
  0
XRECORD
  5
2B1
102
{ACAD_REACTORS
330
2AD
102
}
330
2AD
100
AcDbXrecord
  1

  0
XRECORD
  5
2AE
102
{ACAD_REACTORS
330
2AD
102
}
330
2AD
100
AcDbXrecord
 90
        1
  0
XRECORD
  5
2AF
102
{ACAD_REACTORS
330
2AD
102
}
330
2AD
100
AcDbXrecord
 90
       70
  0
XRECORD
  5
2C7
102
{ACAD_REACTORS
330
2AD
102
}
330
2AD
100
AcDbXrecord
340
0
  0
XRECORD
  5
2CD
102
{ACAD_REACTORS
330
2AD
102
}
330
2AD
100
AcDbXrecord
 10
0.0
 20
0.0
 30
0.0
  0
XRECORD
  5
2C9
102
{ACAD_REACTORS
330
2AD
102
}
330
2AD
100
AcDbXrecord
 10
0.0
 20
0.0
 30
0.0
  0
XRECORD
  5
2CC
102
{ACAD_REACTORS
330
2AD
102
}
330
2AD
100
AcDbXrecord
 10
0.0
 20
0.0
 30
0.0
  0
XRECORD
  5
2CA
102
{ACAD_REACTORS
330
2AD
102
}
330
2AD
100
AcDbXrecord
 10
0.0
 20
0.0
 30
0.0
  0
XRECORD
  5
2CB
102
{ACAD_REACTORS
330
2AD
102
}
330
2AD
100
AcDbXrecord
 10
0.0
 20
0.0
 30
0.0
  0
XRECORD
  5
2C8
102
{ACAD_REACTORS
330
2AD
102
}
330
2AD
100
AcDbXrecord
 10
0.0
 20
0.0
 30
0.0
  0
XRECORD
  5
2C5
102
{ACAD_REACTORS
330
2AD
102
}
330
2AD
100
AcDbXrecord
340
0
  0
XRECORD
  5
2C6
102
{ACAD_REACTORS
330
2AD
102
}
330
2AD
100
AcDbXrecord
 70
     0
  0
XRECORD
  5
2B9
102
{ACAD_REACTORS
330
2AD
102
}
330
2AD
100
AcDbXrecord
  1
{5DC1D2F8-0A65-4A64-B55E-1C21B707BF22}
  0
DICTIONARYVAR
  5
129
102
{ACAD_REACTORS
330
128
102
}
330
128
100
DictionaryVariables
280
     0
  1
1
  0
ENDSEC
  0
EOF
