  0
SECTION
  2
HEADER
  9
$ACADVER
  1
AC1014
  9
$ACADMAINTVER
 70
     9
  9
$DWGCODEPAGE
  3
ANSI_1252
  9
$INSBASE
 10
-6.366466476843108
 20
-5.005188068345523
 30
0.0
  9
$EXTMIN
 10
-15.81251405042543
 20
-8.984682543150942
 30
0.0
  9
$EXTMAX
 10
4.292096710147557
 20
2.850744719779187
 30
0.0
  9
$LIMMIN
 10
0.0
 20
0.0
  9
$LIMMAX
 10
36.0
 20
36.0
  9
$ORTHOMODE
 70
     1
  9
$REGENMODE
 70
     1
  9
$FILLMODE
 70
     1
  9
$QTEXTMODE
 70
     0
  9
$MIRRTEXT
 70
     1
  9
$DRAGMODE
 70
     0
  9
$LTSCALE
 40
1.0
  9
$OSMODE
 70
    37
  9
$ATTMODE
 70
     1
  9
$TEXTSIZE
 40
0.2
  9
$TRACEWID
 40
0.05
  9
$TEXTSTYLE
  7
STANDARD
  9
$CLAYER
  8
0
  9
$CELTYPE
  6
BYLAYER
  9
$CECOLOR
 62
   256
  9
$CELTSCALE
 40
1.0
  9
$DELOBJ
 70
     1
  9
$DISPSILH
 70
     0
  9
$DIMSCALE
 40
1.0
  9
$DIMASZ
 40
0.125
  9
$DIMEXO
 40
0.0625
  9
$DIMDLI
 40
0.38
  9
$DIMRND
 40
0.0
  9
$DIMDLE
 40
0.0
  9
$DIMEXE
 40
0.18
  9
$DIMTP
 40
0.0
  9
$DIMTM
 40
0.0
  9
$DIMTXT
 40
0.125
  9
$DIMCEN
 40
0.1875
  9
$DIMTSZ
 40
0.125
  9
$DIMTOL
 70
     0
  9
$DIMLIM
 70
     0
  9
$DIMTIH
 70
     0
  9
$DIMTOH
 70
     0
  9
$DIMSE1
 70
     0
  9
$DIMSE2
 70
     0
  9
$DIMTAD
 70
     0
  9
$DIMZIN
 70
     3
  9
$DIMBLK
  1

  9
$DIMASO
 70
     1
  9
$DIMSHO
 70
     1
  9
$DIMPOST
  1

  9
$DIMAPOST
  1

  9
$DIMALT
 70
     0
  9
$DIMALTD
 70
     1
  9
$DIMALTF
 40
25.4
  9
$DIMLFAC
 40
1.0
  9
$DIMTOFL
 70
     0
  9
$DIMTVP
 40
0.0
  9
$DIMTIX
 70
     0
  9
$DIMSOXD
 70
     0
  9
$DIMSAH
 70
     0
  9
$DIMBLK1
  1

  9
$DIMBLK2
  1

  9
$DIMSTYLE
  2
STANDARD
  9
$DIMCLRD
 70
     0
  9
$DIMCLRE
 70
     0
  9
$DIMCLRT
 70
     0
  9
$DIMTFAC
 40
1.0
  9
$DIMGAP
 40
0.125
  9
$DIMJUST
 70
     0
  9
$DIMSD1
 70
     0
  9
$DIMSD2
 70
     0
  9
$DIMTOLJ
 70
     1
  9
$DIMTZIN
 70
     3
  9
$DIMALTZ
 70
     3
  9
$DIMALTTZ
 70
     3
  9
$DIMFIT
 70
     5
  9
$DIMUPT
 70
     0
  9
$DIMUNIT
 70
     5
  9
$DIMDEC
 70
     4
  9
$DIMTDEC
 70
     4
  9
$DIMALTU
 70
     5
  9
$DIMALTTD
 70
     1
  9
$DIMTXSTY
  7
STANDARD
  9
$DIMAUNIT
 70
     0
  9
$LUNITS
 70
     5
  9
$LUPREC
 70
     4
  9
$SKETCHINC
 40
0.1
  9
$FILLETRAD
 40
0.187
  9
$AUNITS
 70
     0
  9
$AUPREC
 70
     0
  9
$MENU
  1
acad
  9
$ELEVATION
 40
0.0
  9
$PELEVATION
 40
0.0
  9
$THICKNESS
 40
0.0
  9
$LIMCHECK
 70
     0
  9
$BLIPMODE
 70
     0
  9
$CHAMFERA
 40
0.0
  9
$CHAMFERB
 40
0.0
  9
$CHAMFERC
 40
0.0
  9
$CHAMFERD
 40
0.0
  9
$SKPOLY
 70
     0
  9
$TDCREATE
 40
2450399.666550150
  9
$TDUPDATE
 40
2452297.096549838
  9
$TDINDWG
 40
0.0324446528
  9
$TDUSRTIMER
 40
0.0324446528
  9
$USRTIMER
 70
     1
  9
$ANGBASE
 50
0.0
  9
$ANGDIR
 70
     0
  9
$PDMODE
 70
     0
  9
$PDSIZE
 40
0.0
  9
$PLINEWID
 40
0.0
  9
$COORDS
 70
     2
  9
$SPLFRAME
 70
     0
  9
$SPLINETYPE
 70
     6
  9
$SPLINESEGS
 70
     8
  9
$ATTDIA
 70
     0
  9
$ATTREQ
 70
     1
  9
$HANDLING
 70
 22529
  9
$HANDSEED
  5
29A
  9
$SURFTAB1
 70
     6
  9
$SURFTAB2
 70
     6
  9
$SURFTYPE
 70
     6
  9
$SURFU
 70
     6
  9
$SURFV
 70
     6
  9
$UCSNAME
  2

  9
$UCSORG
 10
0.0
 20
0.0
 30
0.0
  9
$UCSXDIR
 10
1.0
 20
0.0
 30
0.0
  9
$UCSYDIR
 10
0.0
 20
1.0
 30
0.0
  9
$PUCSNAME
  2

  9
$PUCSORG
 10
0.0
 20
0.0
 30
0.0
  9
$PUCSXDIR
 10
1.0
 20
0.0
 30
0.0
  9
$PUCSYDIR
 10
0.0
 20
1.0
 30
0.0
  9
$USERI1
 70
     0
  9
$USERI2
 70
     0
  9
$USERI3
 70
     0
  9
$USERI4
 70
     0
  9
$USERI5
 70
     0
  9
$USERR1
 40
0.0
  9
$USERR2
 40
0.0
  9
$USERR3
 40
0.0
  9
$USERR4
 40
0.0
  9
$USERR5
 40
0.0
  9
$WORLDVIEW
 70
     1
  9
$SHADEDGE
 70
     3
  9
$SHADEDIF
 70
    70
  9
$TILEMODE
 70
     1
  9
$MAXACTVP
 70
    15
  9
$PINSBASE
 10
0.0004882914945483
 20
0.7501408034022604
 30
0.0
  9
$PLIMCHECK
 70
     0
  9
$PEXTMIN
 10
1.000000000000000E+20
 20
1.000000000000000E+20
 30
1.000000000000000E+20
  9
$PEXTMAX
 10
-1.000000000000000E+20
 20
-1.000000000000000E+20
 30
-1.000000000000000E+20
  9
$PLIMMIN
 10
0.0
 20
0.0
  9
$PLIMMAX
 10
12.0
 20
9.0
  9
$UNITMODE
 70
     0
  9
$VISRETAIN
 70
     0
  9
$PLINEGEN
 70
     0
  9
$PSLTSCALE
 70
     1
  9
$TREEDEPTH
 70
  3020
  9
$PICKSTYLE
 70
     1
  9
$CMLSTYLE
  2
STANDARD
  9
$CMLJUST
 70
     0
  9
$CMLSCALE
 40
1.0
  9
$PROXYGRAPHICS
 70
     1
  9
$MEASUREMENT
 70
     0
  0
ENDSEC
  0
SECTION
  2
CLASSES
  0
CLASS
  1
ACDBDICTIONARYWDFLT
  2
AcDbDictionaryWithDefault
  3
AutoCAD 2000
 90
        0
280
     0
281
     0
  0
CLASS
  1
ACDBPLACEHOLDER
  2
AcDbPlaceHolder
  3
AutoCAD 2000
 90
        0
280
     0
281
     0
  0
CLASS
  1
LAYOUT
  2
AcDbLayout
  3
AutoCAD 2000
 90
        0
280
     0
281
     0
  0
CLASS
  1
DICTIONARYVAR
  2
AcDbDictionaryVar
  3
AutoCAD 2000
 90
        0
280
     0
281
     0
  0
CLASS
  1
LONG_TRANSACTION
  2
AcDbLongTransaction
  3
AutoCAD 2000
 90
        0
280
     0
281
     0
  0
CLASS
  1
LWPOLYLINE
  2
AcDbPolyline
  3
AutoCAD 2000
 90
        0
280
     0
281
     1
  0
CLASS
  1
HATCH
  2
AcDbHatch
  3
AutoCAD 2000
 90
        0
280
     0
281
     1
  0
CLASS
  1
XRECORD
  2
AcDbXrecord
  3
AutoCAD 2000
 90
        0
280
     0
281
     0
  0
CLASS
  1
LONG_TRANSACTION
  2
AcDbLongTransaction
  3
AutoCAD 2000
 90
        0
280
     0
281
     0
  0
CLASS
  1
LWPOLYLINE
  2
AcDbPolyline
  3
AutoCAD 2000
 90
        0
280
     0
281
     1
  0
CLASS
  1
HATCH
  2
AcDbHatch
  3
AutoCAD 2000
 90
        0
280
     0
281
     1
  0
CLASS
  1
XRECORD
  2
AcDbXrecord
  3
AutoCAD 2000
 90
        0
280
     0
281
     0
  0
CLASS
  1
LONG_TRANSACTION
  2
AcDbLongTransaction
  3
AutoCAD 2000
 90
        0
280
     0
281
     0
  0
CLASS
  1
LWPOLYLINE
  2
AcDbPolyline
  3
AutoCAD 2000
 90
        0
280
     0
281
     1
  0
CLASS
  1
HATCH
  2
AcDbHatch
  3
AutoCAD 2000
 90
        0
280
     0
281
     1
  0
CLASS
  1
XRECORD
  2
AcDbXrecord
  3
AutoCAD 2000
 90
        0
280
     0
281
     0
  0
CLASS
  1
LONG_TRANSACTION
  2
AcDbLongTransaction
  3
AutoCAD 2000
 90
        0
280
     0
281
     0
  0
CLASS
  1
LWPOLYLINE
  2
AcDbPolyline
  3
AutoCAD 2000
 90
        0
280
     0
281
     1
  0
CLASS
  1
HATCH
  2
AcDbHatch
  3
AutoCAD 2000
 90
        0
280
     0
281
     1
  0
CLASS
  1
XRECORD
  2
AcDbXrecord
  3
AutoCAD 2000
 90
        0
280
     0
281
     0
  0
CLASS
  1
LONG_TRANSACTION
  2
AcDbLongTransaction
  3
AutoCAD 2000
 90
        0
280
     0
281
     0
  0
CLASS
  1
LWPOLYLINE
  2
AcDbPolyline
  3
AutoCAD 2000
 90
        0
280
     0
281
     1
  0
CLASS
  1
HATCH
  2
AcDbHatch
  3
AutoCAD 2000
 90
        0
280
     0
281
     1
  0
CLASS
  1
XRECORD
  2
AcDbXrecord
  3
AutoCAD 2000
 90
        0
280
     0
281
     0
  0
ENDSEC
  0
SECTION
  2
TABLES
  0
TABLE
  2
VPORT
  5
8
330
0
100
AcDbSymbolTable
 70
     2
  0
VPORT
  5
276
330
8
100
AcDbSymbolTableRecord
100
AcDbViewportTableRecord
  2
*ACTIVE
 70
     0
 10
0.0
 20
0.0
 11
1.0
 21
1.0
 12
-5.743937240211266
 22
-3.066020145356332
 13
0.0
 23
0.0
 14
0.5740882589684922
 24
0.5740882589684922
 15
0.5
 25
0.5
 16
0.0
 26
0.0
 36
1.0
 17
0.0
 27
0.0
 37
0.0
 40
12.88629141598225
 41
1.570528967254408
 42
50.0
 43
0.0
 44
0.0
 50
0.0
 51
0.0
 71
     0
 72
   100
 73
     1
 74
     0
 75
     0
 76
     0
 77
     0
 78
     0
  0
ENDTAB
  0
TABLE
  2
LTYPE
  5
5
330
0
100
AcDbSymbolTable
 70
     2
  0
LTYPE
  5
13
330
5
100
AcDbSymbolTableRecord
100
AcDbLinetypeTableRecord
  2
BYBLOCK
 70
     0
  3

 72
    65
 73
     0
 40
0.0
  0
LTYPE
  5
14
330
5
100
AcDbSymbolTableRecord
100
AcDbLinetypeTableRecord
  2
BYLAYER
 70
     0
  3

 72
    65
 73
     0
 40
0.0
  0
LTYPE
  5
15
330
5
100
AcDbSymbolTableRecord
100
AcDbLinetypeTableRecord
  2
CONTINUOUS
 70
     0
  3
Solid line
 72
    65
 73
     0
 40
0.0
  0
LTYPE
  5
72
330
5
100
AcDbSymbolTableRecord
100
AcDbLinetypeTableRecord
  2
CENTER2
 70
     0
  3
___ _ ___ _ ___ _ ___ _ ___ _ ___ _ ___ _ ___ _
 72
    65
 73
     4
 40
1.125
 49
0.75
 74
     0
 49
-0.125
 74
     0
 49
0.125
 74
     0
 49
-0.125
 74
     0
  0
ENDTAB
  0
TABLE
  2
LAYER
  5
2
330
0
100
AcDbSymbolTable
 70
     5
  0
LAYER
  5
10
330
2
100
AcDbSymbolTableRecord
100
AcDbLayerTableRecord
  2
0
 70
     0
 62
     7
  6
CONTINUOUS
  0
LAYER
  5
76
330
2
100
AcDbSymbolTableRecord
100
AcDbLayerTableRecord
  2
ADP1DETAIL
 70
     0
 62
     7
  6
CONTINUOUS
  0
LAYER
  5
77
330
2
100
AcDbSymbolTableRecord
100
AcDbLayerTableRecord
  2
ADP3DETAIL
 70
     0
 62
     1
  6
CONTINUOUS
  0
LAYER
  5
78
330
2
100
AcDbSymbolTableRecord
100
AcDbLayerTableRecord
  2
DEFPOINTS
 70
     0
 62
     7
  6
CONTINUOUS
  0
LAYER
  5
79
330
2
100
AcDbSymbolTableRecord
100
AcDbLayerTableRecord
  2
ADPDIM
 70
     0
 62
     3
  6
CONTINUOUS
  0
ENDTAB
  0
TABLE
  2
STYLE
  5
3
330
0
100
AcDbSymbolTable
 70
     2
  0
STYLE
  5
11
330
3
100
AcDbSymbolTableRecord
100
AcDbTextStyleTableRecord
  2
STANDARD
 70
     0
 40
0.0
 41
1.0
 50
0.0
 71
     0
 42
0.2
  3
txt
  4

  0
STYLE
  5
E3
330
3
100
AcDbSymbolTableRecord
100
AcDbTextStyleTableRecord
  2
ARIAL_WIDE
 70
     0
 40
0.0
 41
1.25
 50
0.0
 71
     0
 42
0.2
  3
ARIAL.TTF
  4

1001
ACAD
1000
Arial
1071
       34
  0
ENDTAB
  0
TABLE
  2
VIEW
  5
6
330
0
100
AcDbSymbolTable
 70
     0
  0
ENDTAB
  0
TABLE
  2
UCS
  5
7
330
0
100
AcDbSymbolTable
 70
     0
  0
ENDTAB
  0
TABLE
  2
APPID
  5
9
330
0
100
AcDbSymbolTable
 70
     1
  0
APPID
  5
12
330
9
100
AcDbSymbolTableRecord
100
AcDbRegAppTableRecord
  2
ACAD
 70
     0
  0
ENDTAB
  0
TABLE
  2
DIMSTYLE
  5
A
330
0
100
AcDbSymbolTable
 70
     1
  0
DIMSTYLE
105
E1
330
A
100
AcDbSymbolTableRecord
100
AcDbDimStyleTableRecord
  2
STANDARD
 70
     0
  3

  4

  5

  6

  7

 40
1.0
 41
0.18
 42
0.0625
 43
0.38
 44
0.18
 45
0.0
 46
0.0
 47
0.0
 48
0.0
140
0.18
141
0.09
142
0.0
143
25.4
144
1.0
145
0.0
146
1.0
147
0.09
 71
     0
 72
     0
 73
     1
 74
     1
 75
     0
 76
     0
 77
     0
 78
     0
170
     0
171
     2
172
     0
173
     0
174
     0
175
     0
176
     0
177
     0
178
     0
270
     2
271
     4
272
     4
273
     2
274
     2
340
11
275
     0
280
     0
281
     0
282
     0
283
     1
284
     0
285
     0
286
     0
287
     3
288
     0
  0
ENDTAB
  0
TABLE
  2
BLOCK_RECORD
  5
1
330
0
100
AcDbSymbolTable
 70
     5
  0
BLOCK_RECORD
  5
1E
102
{ACAD_XDICTIONARY
360
120
102
}
330
1
100
AcDbSymbolTableRecord
100
AcDbBlockTableRecord
  2
*MODEL_SPACE
  0
BLOCK_RECORD
  5
1A
102
{ACAD_XDICTIONARY
360
122
102
}
330
1
100
AcDbSymbolTableRecord
100
AcDbBlockTableRecord
  2
*PAPER_SPACE
  0
BLOCK_RECORD
  5
3F
330
1
100
AcDbSymbolTableRecord
100
AcDbBlockTableRecord
  2
6932
  0
BLOCK_RECORD
  5
6A
330
1
100
AcDbSymbolTableRecord
100
AcDbBlockTableRecord
  2
*D1
  0
BLOCK_RECORD
  5
6B
330
1
100
AcDbSymbolTableRecord
100
AcDbBlockTableRecord
  2
*D2
  0
BLOCK_RECORD
  5
6C
330
1
100
AcDbSymbolTableRecord
100
AcDbBlockTableRecord
  2
*D3
  0
BLOCK_RECORD
  5
6D
330
1
100
AcDbSymbolTableRecord
100
AcDbBlockTableRecord
  2
*D4
  0
ENDTAB
  0
ENDSEC
  0
SECTION
  2
BLOCKS
  0
BLOCK
  5
7C
330
1E
100
AcDbEntity
  8
0
100
AcDbBlockBegin
  2
*MODEL_SPACE
 70
     0
 10
0.0
 20
0.0
 30
0.0
  3
*MODEL_SPACE
  1

  0
ENDBLK
  5
7D
330
1E
100
AcDbEntity
  8
0
100
AcDbBlockEnd
  0
BLOCK
  5
7A
330
1A
100
AcDbEntity
 67
     1
  8
0
100
AcDbBlockBegin
  2
*PAPER_SPACE
 70
     0
 10
0.0
 20
0.0
 30
0.0
  3
*PAPER_SPACE
  1

  0
ENDBLK
  5
7B
330
1A
100
AcDbEntity
 67
     1
  8
0
100
AcDbBlockEnd
  0
BLOCK
  5
7F
330
3F
100
AcDbEntity
  8
0
100
AcDbBlockBegin
  2
6932
 70
     0
 10
0.0
 20
0.0
 30
0.0
  3
6932
  1

  0
ARC
  5
80
330
3F
100
AcDbEntity
  8
0
100
AcDbCircle
 10
1.423477931033307
 20
-1.684122970514319
 30
0.0
 40
2.633
100
AcDbArc
 50
63.4983553156438
 51
84.27919746480432
  0
ARC
  5
81
330
3F
100
AcDbEntity
  8
0
100
AcDbCircle
 10
1.423477931033307
 20
-1.684122970514319
 30
0.0
 40
2.758
100
AcDbArc
 50
63.26429060437405
 51
90.0
  0
ARC
  5
82
330
3F
100
AcDbEntity
  8
0
100
AcDbCircle
 10
1.423477931033307
 20
-1.684122970514319
 30
0.0
 40
2.758
100
AcDbArc
 50
90.0
 51
116.7357093956259
  0
ARC
  5
83
330
3F
100
AcDbEntity
  8
0
100
AcDbCircle
 10
1.423477931033307
 20
-1.684122970514319
 30
0.0
 40
2.633
100
AcDbArc
 50
95.72080253519571
 51
116.5016446843562
  0
ARC
  5
84
330
3F
100
AcDbEntity
  8
0
100
AcDbCircle
 10
0.3609779310333074
 20
0.3238770294856792
 30
0.0
 40
0.125
100
AcDbArc
 50
90.0
 51
180.0
  0
ARC
  5
85
330
3F
100
AcDbEntity
  8
0
100
AcDbCircle
 10
0.3609779310333074
 20
0.4488770294856792
 30
0.0
 40
0.375
100
AcDbArc
 50
118.3823034732097
 51
270.0
  0
ARC
  5
86
330
3F
100
AcDbEntity
  8
0
100
AcDbCircle
 10
0.3609779310333074
 20
0.4488770294856792
 30
0.0
 40
0.25
100
AcDbArc
 50
116.7196862029631
 51
224.5752925136955
  0
LINE
  5
87
330
3F
100
AcDbEntity
  8
0
100
AcDbLine
 10
0.2359779310333074
 20
0.3238770294856792
 30
0.0
 11
0.2359779310333074
 21
0.2951727679962879
 31
0.0
  0
ARC
  5
88
330
3F
100
AcDbEntity
  8
0
100
AcDbCircle
 10
0.2049779310333086
 20
0.2951727679962879
 30
0.0
 40
0.031
100
AcDbArc
 50
224.5752925136955
 51
0.0
  0
LINE
  5
89
330
3F
100
AcDbEntity
  8
0
100
AcDbLine
 10
0.5479779310333122
 20
0.3388770294856798
 30
0.0
 11
0.5479779310333122
 21
0.4338770294856787
 31
0.0
  0
ARC
  5
8A
330
3F
100
AcDbEntity
  8
0
100
AcDbCircle
 10
0.5329779310333116
 20
0.3388770294856798
 30
0.0
 40
0.015
100
AcDbArc
 50
270.0
 51
0.0
  0
LINE
  5
8B
330
3F
100
AcDbEntity
  8
0
100
AcDbLine
 10
0.3609779310333074
 20
0.0738770294856792
 30
0.0
 11
0.3609779310333074
 21
0.3088770294856786
 31
0.0
  0
ARC
  5
8C
330
3F
100
AcDbEntity
  8
0
100
AcDbCircle
 10
0.375977931033308
 20
0.3088770294856786
 30
0.0
 40
0.015
100
AcDbArc
 50
89.99999999999998
 51
180.0
  0
LINE
  5
8D
330
3F
100
AcDbEntity
  8
0
100
AcDbLine
 10
0.375977931033308
 20
0.3238770294856792
 30
0.0
 11
0.5329779310333116
 21
0.3238770294856792
 31
0.0
  0
ARC
  5
8E
330
3F
100
AcDbEntity
  8
0
100
AcDbCircle
 10
0.5329779310333116
 20
0.4338770294856787
 30
0.0
 40
0.015
100
AcDbArc
 50
0.0
 51
90.0
  0
LINE
  5
8F
330
3F
100
AcDbEntity
  8
0
100
AcDbLine
 10
0.5329779310333116
 20
0.4488770294856792
 30
0.0
 11
0.3609779310333074
 21
0.4488770294856792
 31
0.0
  0
ARC
  5
90
330
3F
100
AcDbEntity
  8
0
100
AcDbCircle
 10
1.173477931033307
 20
0.811385795248686
 30
0.0
 40
0.125
100
AcDbArc
 50
0.0
 51
95.72080253519567
  0
ARC
  5
91
330
3F
100
AcDbEntity
  8
0
100
AcDbCircle
 10
1.673477931033307
 20
0.811385795248686
 30
0.0
 40
0.125
100
AcDbArc
 50
84.27919746480434
 51
180.0
  0
LINE
  5
92
330
3F
100
AcDbEntity
  8
0
100
AcDbLine
 10
1.423477931033307
 20
0.6988770294856792
 30
0.0
 11
1.533477931033306
 21
0.6988770294856792
 31
0.0
  0
ARC
  5
93
330
3F
100
AcDbEntity
  8
0
100
AcDbCircle
 10
1.313477931033308
 20
0.7138770294856798
 30
0.0
 40
0.015
100
AcDbArc
 50
180.0
 51
270.0
  0
LINE
  5
94
330
3F
100
AcDbEntity
  8
0
100
AcDbLine
 10
1.423477931033307
 20
0.6988770294856792
 30
0.0
 11
1.313477931033308
 21
0.6988770294856792
 31
0.0
  0
LINE
  5
95
330
3F
100
AcDbEntity
  8
0
100
AcDbLine
 10
1.298477931033307
 20
0.7138770294856798
 30
0.0
 11
1.298477931033307
 21
0.811385795248686
 31
0.0
  0
ARC
  5
96
330
3F
100
AcDbEntity
  8
0
100
AcDbCircle
 10
1.533477931033306
 20
0.7138770294856798
 30
0.0
 40
0.015
100
AcDbArc
 50
270.0
 51
0.000000000000007
  0
LINE
  5
97
330
3F
100
AcDbEntity
  8
0
100
AcDbLine
 10
1.548477931033307
 20
0.7138770294856798
 30
0.0
 11
1.548477931033307
 21
0.811385795248686
 31
0.0
  0
ARC
  5
98
330
3F
100
AcDbEntity
  8
0
100
AcDbCircle
 10
2.641977931033306
 20
0.2951727679962879
 30
0.0
 40
0.031
100
AcDbArc
 50
180.0
 51
315.4247074863044
  0
ARC
  5
99
330
3F
100
AcDbEntity
  8
0
100
AcDbCircle
 10
2.485977931033307
 20
0.4488770294856792
 30
0.0
 40
0.25
100
AcDbArc
 50
315.4247074863044
 51
63.28031379703684
  0
ARC
  5
9A
330
3F
100
AcDbEntity
  8
0
100
AcDbCircle
 10
2.485977931033307
 20
0.3238770294856792
 30
0.0
 40
0.125
100
AcDbArc
 50
0.000000000000007
 51
90.0
  0
ARC
  5
9B
330
3F
100
AcDbEntity
  8
0
100
AcDbCircle
 10
2.485977931033307
 20
0.4488770294856792
 30
0.0
 40
0.375
100
AcDbArc
 50
270.0
 51
61.61769652679025
  0
LINE
  5
9C
330
3F
100
AcDbEntity
  8
0
100
AcDbLine
 10
2.298977931033309
 20
0.3388770294856798
 30
0.0
 11
2.298977931033309
 21
0.4338770294856787
 31
0.0
  0
LINE
  5
9D
330
3F
100
AcDbEntity
  8
0
100
AcDbLine
 10
2.470977931033306
 20
0.3238770294856792
 30
0.0
 11
2.31397793103331
 21
0.3238770294856792
 31
0.0
  0
ARC
  5
9E
330
3F
100
AcDbEntity
  8
0
100
AcDbCircle
 10
2.31397793103331
 20
0.3388770294856798
 30
0.0
 40
0.015
100
AcDbArc
 50
180.0
 51
270.0
  0
ARC
  5
9F
330
3F
100
AcDbEntity
  8
0
100
AcDbCircle
 10
2.470977931033306
 20
0.3088770294856786
 30
0.0
 40
0.015
100
AcDbArc
 50
0.000000000000007
 51
90.00000000000003
  0
LINE
  5
A0
330
3F
100
AcDbEntity
  8
0
100
AcDbLine
 10
2.485977931033307
 20
0.0738770294856792
 30
0.0
 11
2.485977931033307
 21
0.3088770294856786
 31
0.0
  0
LINE
  5
A1
330
3F
100
AcDbEntity
  8
0
100
AcDbLine
 10
2.31397793103331
 20
0.4488770294856792
 30
0.0
 11
2.485977931033307
 21
0.4488770294856792
 31
0.0
  0
ARC
  5
A2
330
3F
100
AcDbEntity
  8
0
100
AcDbCircle
 10
2.31397793103331
 20
0.4338770294856787
 30
0.0
 40
0.015
100
AcDbArc
 50
90.0
 51
180.0
  0
LINE
  5
A3
330
3F
100
AcDbEntity
  8
0
100
AcDbLine
 10
2.610977931033307
 20
0.3238770294856792
 30
0.0
 11
2.610977931033307
 21
0.2951727679962879
 31
0.0
  0
ENDBLK
  5
A4
330
3F
100
AcDbEntity
  8
0
100
AcDbBlockEnd
  0
BLOCK
  5
A5
330
6A
100
AcDbEntity
  8
0
100
AcDbBlockBegin
  2
*D1
 70
     1
 10
0.0
 20
0.0
 30
0.0
  3
*D1
  1

  0
LINE
  5
A6
330
6A
100
AcDbEntity
  8
0
  6
BYBLOCK
 62
     0
100
AcDbLine
 10
-6.115966476843109
 20
-5.005188068345523
 30
0.0
 11
-4.975587339244189
 21
-5.005188068345523
 31
0.0
  0
LINE
  5
A7
330
6A
100
AcDbEntity
  8
0
  6
BYBLOCK
 62
     0
100
AcDbLine
 10
-4.874525618152173
 20
-2.496635833268951
 30
0.0
 11
-5.335587339244188
 21
-2.496635833268951
 31
0.0
  0
LINE
  5
A8
330
6A
100
AcDbEntity
  8
0
  6
BYBLOCK
 62
     0
100
AcDbLine
 10
-5.155587339244188
 20
-5.005188068345523
 30
0.0
 11
-5.155587339244188
 21
-4.14674528414057
 31
0.0
  0
LINE
  5
A9
330
6A
100
AcDbEntity
  8
0
  6
BYBLOCK
 62
     0
100
AcDbLine
 10
-5.155587339244188
 20
-2.496635833268951
 30
0.0
 11
-5.155587339244188
 21
-3.355078617473903
 31
0.0
  0
LINE
  5
AA
330
6A
100
AcDbEntity
  8
0
  6
BYBLOCK
 62
     0
100
AcDbLine
 10
-5.030587339244188
 20
-5.130188068345523
 30
0.0
 11
-5.280587339244188
 21
-4.880188068345523
 31
0.0
  0
LINE
  5
AB
330
6A
100
AcDbEntity
  8
0
  6
BYBLOCK
 62
     0
100
AcDbLine
 10
-5.030587339244188
 20
-2.621635833268951
 30
0.0
 11
-5.280587339244188
 21
-2.371635833268951
 31
0.0
  0
TEXT
  5
AC
330
6A
100
AcDbEntity
  8
0
  6
BYBLOCK
 62
     0
100
AcDbText
 10
-5.093087339244188
 20
-4.02174528414057
 30
0.0
 40
0.125
  1
2 1/2
 50
90.0
 72
     1
 11
-5.155587339244188
 21
-3.750911950807237
 31
0.0
100
AcDbText
 73
     2
  0
POINT
  5
AE
330
6A
100
AcDbEntity
  8
DEFPOINTS
  6
BYBLOCK
 62
     0
100
AcDbPoint
 10
-6.178466476843109
 20
-5.005188068345523
 30
0.0
  0
POINT
  5
AF
330
6A
100
AcDbEntity
  8
DEFPOINTS
  6
BYBLOCK
 62
     0
100
AcDbPoint
 10
-4.812025618152173
 20
-2.496635833268951
 30
0.0
  0
POINT
  5
B0
330
6A
100
AcDbEntity
  8
DEFPOINTS
  6
BYBLOCK
 62
     0
100
AcDbPoint
 10
-5.155587339244188
 20
-2.496635833268951
 30
0.0
  0
ENDBLK
  5
B1
330
6A
100
AcDbEntity
  8
0
100
AcDbBlockEnd
  0
BLOCK
  5
B2
330
6B
100
AcDbEntity
  8
0
100
AcDbBlockBegin
  2
*D2
 70
     1
 10
0.0
 20
0.0
 30
0.0
  3
*D2
  1

  0
LINE
  5
B3
330
6B
100
AcDbEntity
  8
0
  6
BYBLOCK
 62
     0
100
AcDbLine
 10
-9.253390625834075
 20
-7.184087525452145
 30
0.0
 11
-9.253390625834075
 21
-6.46272654062375
 31
0.0
  0
LINE
  5
B4
330
6B
100
AcDbEntity
  8
0
  6
BYBLOCK
 62
     0
100
AcDbLine
 10
-6.377071943314913
 20
-7.184087525452145
 30
0.0
 11
-6.377071943314913
 21
-6.46272654062375
 31
0.0
  0
LINE
  5
B5
330
6B
100
AcDbEntity
  8
0
  6
BYBLOCK
 62
     0
100
AcDbLine
 10
-9.253390625834075
 20
-6.642726540623749
 30
0.0
 11
-8.23189795124116
 21
-6.642726540623749
 31
0.0
  0
LINE
  5
B6
330
6B
100
AcDbEntity
  8
0
  6
BYBLOCK
 62
     0
100
AcDbLine
 10
-6.377071943314913
 20
-6.642726540623749
 30
0.0
 11
-7.398564617907827
 21
-6.642726540623749
 31
0.0
  0
LINE
  5
B7
330
6B
100
AcDbEntity
  8
0
  6
BYBLOCK
 62
     0
100
AcDbLine
 10
-9.378390625834075
 20
-6.767726540623749
 30
0.0
 11
-9.128390625834075
 21
-6.517726540623749
 31
0.0
  0
LINE
  5
B8
330
6B
100
AcDbEntity
  8
0
  6
BYBLOCK
 62
     0
100
AcDbLine
 10
-6.502071943314913
 20
-6.767726540623749
 30
0.0
 11
-6.252071943314913
 21
-6.517726540623749
 31
0.0
  0
TEXT
  5
B9
330
6B
100
AcDbEntity
  8
0
  6
BYBLOCK
 62
     0
100
AcDbText
 10
-8.10689795124116
 20
-6.705226540623749
 30
0.0
 40
0.125
  1
2 7/8
 72
     1
 11
-7.815231284574494
 21
-6.642726540623749
 31
0.0
100
AcDbText
 73
     2
  0
POINT
  5
BA
330
6B
100
AcDbEntity
  8
DEFPOINTS
  6
BYBLOCK
 62
     0
100
AcDbPoint
 10
-9.253390625834075
 20
-7.246587525452145
 30
0.0
  0
POINT
  5
BB
330
6B
100
AcDbEntity
  8
DEFPOINTS
  6
BYBLOCK
 62
     0
100
AcDbPoint
 10
-6.377071943314913
 20
-7.246587525452145
 30
0.0
  0
POINT
  5
BC
330
6B
100
AcDbEntity
  8
DEFPOINTS
  6
BYBLOCK
 62
     0
100
AcDbPoint
 10
-6.377071943314913
 20
-6.642726540623749
 30
0.0
  0
ENDBLK
  5
BD
330
6B
100
AcDbEntity
  8
0
100
AcDbBlockEnd
  0
BLOCK
  5
BE
330
6C
100
AcDbEntity
  8
0
100
AcDbBlockBegin
  2
*D3
 70
     1
 10
0.0
 20
0.0
 30
0.0
  3
*D3
  1

  0
LINE
  5
BF
330
6C
100
AcDbEntity
  8
0
  6
BYBLOCK
 62
     0
100
AcDbLine
 10
-8.861897837545411
 20
-7.906418341367919
 30
0.0
 11
-8.861897837545411
 21
-8.253614537719597
 31
0.0
  0
LINE
  5
C0
330
6C
100
AcDbEntity
  8
0
  6
BYBLOCK
 62
     0
100
AcDbLine
 10
-6.736897837545411
 20
-7.906418341367919
 30
0.0
 11
-6.736897837545411
 21
-8.253614537719597
 31
0.0
  0
LINE
  5
C1
330
6C
100
AcDbEntity
  8
0
  6
BYBLOCK
 62
     0
100
AcDbLine
 10
-8.861897837545411
 20
-8.073614537719597
 30
0.0
 11
-8.195231170878745
 21
-8.073614537719597
 31
0.0
  0
LINE
  5
C2
330
6C
100
AcDbEntity
  8
0
  6
BYBLOCK
 62
     0
100
AcDbLine
 10
-6.736897837545411
 20
-8.073614537719597
 30
0.0
 11
-7.403564504212078
 21
-8.073614537719597
 31
0.0
  0
LINE
  5
C3
330
6C
100
AcDbEntity
  8
0
  6
BYBLOCK
 62
     0
100
AcDbLine
 10
-8.986897837545411
 20
-8.198614537719597
 30
0.0
 11
-8.736897837545411
 21
-7.948614537719597
 31
0.0
  0
LINE
  5
C4
330
6C
100
AcDbEntity
  8
0
  6
BYBLOCK
 62
     0
100
AcDbLine
 10
-6.861897837545411
 20
-8.198614537719597
 30
0.0
 11
-6.611897837545411
 21
-7.948614537719597
 31
0.0
  0
TEXT
  5
C5
330
6C
100
AcDbEntity
  8
0
  6
BYBLOCK
 62
     0
100
AcDbText
 10
-8.070231170878745
 20
-8.136114537719597
 30
0.0
 40
0.125
  1
2 1/8
 72
     1
 11
-7.799397837545411
 21
-8.073614537719597
 31
0.0
100
AcDbText
 73
     2
  0
POINT
  5
C6
330
6C
100
AcDbEntity
  8
DEFPOINTS
  6
BYBLOCK
 62
     0
100
AcDbPoint
 10
-8.861897837545411
 20
-7.843918341367919
 30
0.0
  0
POINT
  5
C7
330
6C
100
AcDbEntity
  8
DEFPOINTS
  6
BYBLOCK
 62
     0
100
AcDbPoint
 10
-6.736897837545411
 20
-7.843918341367919
 30
0.0
  0
POINT
  5
C8
330
6C
100
AcDbEntity
  8
DEFPOINTS
  6
BYBLOCK
 62
     0
100
AcDbPoint
 10
-6.736897837545411
 20
-8.073614537719597
 30
0.0
  0
ENDBLK
  5
C9
330
6C
100
AcDbEntity
  8
0
100
AcDbBlockEnd
  0
BLOCK
  5
CA
330
6D
100
AcDbEntity
  8
0
100
AcDbBlockBegin
  2
*D4
 70
     1
 10
0.0
 20
0.0
 30
0.0
  3
*D4
  1

  0
LINE
  5
CB
330
6D
100
AcDbEntity
  8
0
  6
BYBLOCK
 62
     0
100
AcDbLine
 10
-6.925642822485082
 20
-0.3847240724244245
 30
0.0
 11
-4.812025618152171
 21
-2.496635833268949
 31
0.0
  0
LINE
  5
CC
330
6D
100
AcDbEntity
  8
0
  6
BYBLOCK
 62
     0
100
AcDbLine
 10
-7.102419503383543
 20
-0.384795420329461
 30
0.0
 11
-6.748866141586621
 21
-0.3846527245193879
 31
0.0
  0
TEXT
  5
CD
330
6D
100
AcDbEntity
  8
0
  6
BYBLOCK
 62
     0
100
AcDbText
 10
-4.767777936998777
 20
-2.629200506966537
 30
0.0
 40
0.125
  1
R3
 50
315.0231248465178
 72
     1
 11
-4.649914925082297
 21
-2.658615721846256
 31
0.0
100
AcDbText
 73
     2
  0
POINT
  5
CE
330
6D
100
AcDbEntity
  8
DEFPOINTS
  6
BYBLOCK
 62
     0
100
AcDbPoint
 10
-6.925642822485082
 20
-0.3847240724244245
 30
0.0
  0
POINT
  5
CF
330
6D
100
AcDbEntity
  8
DEFPOINTS
  6
BYBLOCK
 62
     0
100
AcDbPoint
 10
-4.803466476843108
 20
-2.505188068345522
 30
0.0
  0
ENDBLK
  5
D0
330
6D
100
AcDbEntity
  8
0
100
AcDbBlockEnd
  0
ENDSEC
  0
SECTION
  2
ENTITIES
  0
LINE
  5
D1
330
1E
100
AcDbEntity
  8
ADP3DETAIL
  6
CENTER2
100
AcDbLine
 10
-1.74187196658082
 20
0.4948119316544766
 30
0.0
 11
-4.803466476843109
 21
0.4948119316544766
 31
0.0
  0
LINE
  5
D2
330
1E
100
AcDbEntity
  8
ADP1DETAIL
100
AcDbLine
 10
-4.803466476843116
 20
1.924167312055738
 30
0.0
 11
-2.303466476843109
 21
1.924167312055738
 31
0.0
  0
LINE
  5
D3
330
1E
100
AcDbEntity
  8
ADP1DETAIL
100
AcDbLine
 10
-2.303466476843109
 20
-0.949832687944264
 30
0.0
 11
-4.803466476843109
 21
-0.949832687944264
 31
0.0
  0
DIMENSION
  5
D4
330
1E
100
AcDbEntity
  8
ADPDIM
100
AcDbDimension
  2
*D1
 10
-5.155587339244188
 20
-2.496635833268951
 30
0.0
 11
-5.155587339244188
 21
-3.750911950807237
 31
0.0
100
AcDbAlignedDimension
 13
-6.178466476843109
 23
-5.005188068345523
 33
0.0
 14
-4.812025618152173
 24
-2.496635833268951
 34
0.0
 50
90.0
100
AcDbRotatedDimension
  0
LINE
  5
D5
330
1E
100
AcDbEntity
  8
ADP3DETAIL
  6
CENTER2
100
AcDbLine
 10
-7.799397837545411
 20
-2.505188068345523
 30
0.0
 11
-7.799397837545411
 21
-5.485064116417477
 31
0.0
  0
LINE
  5
D6
330
1E
100
AcDbEntity
  8
ADP1DETAIL
100
AcDbLine
 10
-6.366466476843108
 20
-2.505188068345523
 30
0.0
 11
-6.366466476843108
 21
-5.005188068345523
 31
0.0
  0
LINE
  5
D7
330
1E
100
AcDbEntity
  8
ADP1DETAIL
100
AcDbLine
 10
-9.24046647684311
 20
-5.005188068345523
 30
0.0
 11
-9.24046647684311
 21
-2.505188068345523
 31
0.0
  0
DIMENSION
  5
D8
330
1E
100
AcDbEntity
  8
ADPDIM
100
AcDbDimension
  2
*D3
 10
-6.736897837545411
 20
-8.073614537719597
 30
0.0
 11
-7.799397837545411
 21
-8.073614537719597
 31
0.0
100
AcDbAlignedDimension
 13
-8.861897837545411
 23
-7.843918341367919
 33
0.0
 14
-6.736897837545411
 24
-7.843918341367919
 34
0.0
100
AcDbRotatedDimension
  0
DIMENSION
  5
D9
330
1E
100
AcDbEntity
  8
ADPDIM
100
AcDbDimension
  2
*D2
 10
-6.377071943314913
 20
-6.642726540623749
 30
0.0
 11
-7.815231284574494
 21
-6.642726540623749
 31
0.0
100
AcDbAlignedDimension
 13
-9.253390625834075
 23
-7.246587525452145
 33
0.0
 14
-6.377071943314913
 24
-7.246587525452145
 34
0.0
100
AcDbRotatedDimension
  0
LINE
  5
DA
330
1E
100
AcDbEntity
  8
ADP1DETAIL
100
AcDbLine
 10
-6.366466476843108
 20
-5.005188068345523
 30
0.0
 11
-9.24046647684311
 21
-5.005188068345523
 31
0.0
  0
INSERT
  5
DB
330
1E
100
AcDbEntity
  8
ADP1DETAIL
100
AcDbBlockReference
  2
6932
 10
-9.222875768578719
 20
-7.917795370853598
 30
0.0
  0
DIMENSION
  5
DC
330
1E
100
AcDbEntity
  8
ADPDIM
100
AcDbDimension
  2
*D4
 10
-4.803466476843108
 20
-2.505188068345522
 30
0.0
 11
-4.649914925082297
 21
-2.658615721846256
 31
0.0
 70
     4
100
AcDbRadialDimension
 15
-6.925642822485082
 25
-0.3847240724244245
 35
0.0
 40
-2.98790042873679
  0
ARC
  5
DD
330
1E
100
AcDbEntity
  8
ADP3DETAIL
  6
CENTER2
100
AcDbCircle
 10
-4.803466476843109
 20
-2.505188068345523
 30
0.0
 40
3.0
100
AcDbArc
 50
90.0
 51
180.0
  0
ARC
  5
DE
330
1E
100
AcDbEntity
  8
ADP1DETAIL
100
AcDbCircle
 10
-4.803466476843109
 20
-2.505188068345523
 30
0.0
 40
4.437
100
AcDbArc
 50
90.0
 51
180.0
  0
ARC
  5
DF
330
1E
100
AcDbEntity
  8
ADP1DETAIL
100
AcDbCircle
 10
-4.803466476843109
 20
-2.505188068345523
 30
0.0
 40
1.562999999999999
100
AcDbArc
 50
90.0
 51
179.9999999999999
  0
LINE
  5
E0
330
1E
100
AcDbEntity
  8
ADP1DETAIL
100
AcDbLine
 10
-2.303466476843109
 20
1.975949728197067
 30
0.0
 11
-2.303466476843109
 21
-0.949832687944264
 31
0.0
  0
TEXT
  5
E4
330
1E
100
AcDbEntity
  8
ADPDIM
100
AcDbText
 10
-15.81251405042543
 20
-8.92917435761206
 30
0.0
 40
0.1875
  1
J U L I U S  B L U M  &  C O . ,  I N C .      ( 8 0 0 )  5 2 6 - 6 2 9 3        W W W . J U L I U S B L U M . C O M        P A R T  N o .  6 9 3 2 - C
 41
1.25
  7
ARIAL_WIDE
 72
     1
 11
-5.760208670138936
 21
-8.74167435761206
 31
0.0
100
AcDbText
 73
     3
  0
ENDSEC
  0
SECTION
  2
OBJECTS
  0
DICTIONARY
  5
C
330
0
100
AcDbDictionary
  3
ACAD_GROUP
350
D
  3
ACAD_LAYOUT
350
19
  3
ACAD_MLINESTYLE
350
16
  3
ACAD_PLOTSETTINGS
350
18
  3
ACAD_PLOTSTYLENAME
350
E
  3
ACDBHEADERROUNDTRIPXREC
350
277
  3
ACDBVARIABLEDICTIONARY
350
155
  0
DICTIONARY
  5
120
330
1E
100
AcDbDictionary
280
     1
  3
ACAD_LAYOUTSELFREF
360
299
  0
DICTIONARY
  5
122
330
1A
100
AcDbDictionary
280
     1
  3
ACAD_LAYOUTSELFREF
360
298
  0
DICTIONARY
  5
D
102
{ACAD_REACTORS
330
C
102
}
330
C
100
AcDbDictionary
  0
DICTIONARY
  5
19
102
{ACAD_REACTORS
330
C
102
}
330
C
100
AcDbDictionary
  0
DICTIONARY
  5
16
102
{ACAD_REACTORS
330
C
102
}
330
C
100
AcDbDictionary
  3
STANDARD
350
17
  0
DICTIONARY
  5
18
102
{ACAD_REACTORS
330
C
102
}
330
C
100
AcDbDictionary
  0
ACDBDICTIONARYWDFLT
  5
E
102
{ACAD_REACTORS
330
C
102
}
330
C
100
AcDbDictionary
281
     1
  3
Normal
350
F
100
AcDbDictionaryWithDefault
340
F
  0
DICTIONARY
  5
277
102
{ACAD_REACTORS
330
C
102
}
330
C
100
AcDbDictionary
  3
CEPSNTYPE
350
281
  3
DIMSTYLEDATA
350
285
  3
FINGERPRINTGUID
350
282
  3
HYPERLINKBASE
350
27A
  3
INSUNITS
350
280
  3
LAYOUTDICT
350
27C
  3
LWETCUNION
350
27F
  3
PLOTSETDICT
350
27D
  3
PLOTSTYLNAMDICT
350
27E
  3
PSVPSCALE
350
284
  3
PUCSBASE
350
288
  3
PUCSORGBACK
350
28E
  3
PUCSORGBOTTOM
350
28A
  3
PUCSORGFRONT
350
28D
  3
PUCSORGLEFT
350
28B
  3
PUCSORGRIGHT
350
28C
  3
PUCSORGTOP
350
289
  3
PUCSORTHOREF
350
286
  3
PUCSORTHOVIEW
350
287
  3
STYLESHEET
350
27B
  3
TSTACKALIGN
350
278
  3
TSTACKSIZE
350
279
  3
UCSBASE
350
291
  3
UCSORGBACK
350
297
  3
UCSORGBOTTOM
350
293
  3
UCSORGFRONT
350
296
  3
UCSORGLEFT
350
294
  3
UCSORGRIGHT
350
295
  3
UCSORGTOP
350
292
  3
UCSORTHOREF
350
28F
  3
UCSORTHOVIEW
350
290
  3
VERSIONGUID
350
283
  0
DICTIONARY
  5
155
102
{ACAD_REACTORS
330
C
102
}
330
C
100
AcDbDictionary
  3
DIMASSOC
350
157
  3
HIDETEXT
350
156
  0
XRECORD
  5
299
102
{ACAD_REACTORS
330
120
102
}
330
120
100
AcDbXrecord
340
1E
  0
XRECORD
  5
298
102
{ACAD_REACTORS
330
122
102
}
330
122
100
AcDbXrecord
340
1A
  0
MLINESTYLE
  5
17
102
{ACAD_REACTORS
330
16
102
}
330
16
100
AcDbMlineStyle
  2
STANDARD
 70
     0
  3

 62
   256
 51
90.0
 52
90.0
 71
     2
 49
0.5
 62
   256
  6
BYLAYER
 49
-0.5
 62
   256
  6
BYLAYER
  0
ACDBPLACEHOLDER
  5
F
102
{ACAD_REACTORS
330
E
102
}
330
E
100
AcDbPlaceHolder
280
     0
  0
XRECORD
  5
281
102
{ACAD_REACTORS
330
277
102
}
330
277
100
AcDbXrecord
 90
        0
  0
XRECORD
  5
285
102
{ACAD_REACTORS
330
277
102
}
330
277
100
AcDbXrecord
1000
DSTYLE
1002
{
1070
   277
 70
     5
1070
   279
 70
     2
1002
}
  0
XRECORD
  5
282
102
{ACAD_REACTORS
330
277
102
}
330
277
100
AcDbXrecord
  1
{039BD511-5319-4742-8825-9EACC1BA16DF}
  0
XRECORD
  5
27A
102
{ACAD_REACTORS
330
277
102
}
330
277
100
AcDbXrecord
  1

  0
XRECORD
  5
280
102
{ACAD_REACTORS
330
277
102
}
330
277
100
AcDbXrecord
 90
        0
  0
XRECORD
  5
27C
102
{ACAD_REACTORS
330
277
102
}
330
277
100
AcDbXrecord
340
19
  0
XRECORD
  5
27F
102
{ACAD_REACTORS
330
277
102
}
330
277
100
AcDbXrecord
 90
    14877
  0
XRECORD
  5
27D
102
{ACAD_REACTORS
330
277
102
}
330
277
100
AcDbXrecord
340
18
  0
XRECORD
  5
27E
102
{ACAD_REACTORS
330
277
102
}
330
277
100
AcDbXrecord
340
E
  0
XRECORD
  5
284
102
{ACAD_REACTORS
330
277
102
}
330
277
100
AcDbXrecord
 40
0.0
  0
XRECORD
  5
288
102
{ACAD_REACTORS
330
277
102
}
330
277
100
AcDbXrecord
340
0
  0
XRECORD
  5
28E
102
{ACAD_REACTORS
330
277
102
}
330
277
100
AcDbXrecord
 10
0.0
 20
0.0
 30
0.0
  0
XRECORD
  5
28A
102
{ACAD_REACTORS
330
277
102
}
330
277
100
AcDbXrecord
 10
0.0
 20
0.0
 30
0.0
  0
XRECORD
  5
28D
102
{ACAD_REACTORS
330
277
102
}
330
277
100
AcDbXrecord
 10
0.0
 20
0.0
 30
0.0
  0
XRECORD
  5
28B
102
{ACAD_REACTORS
330
277
102
}
330
277
100
AcDbXrecord
 10
0.0
 20
0.0
 30
0.0
  0
XRECORD
  5
28C
102
{ACAD_REACTORS
330
277
102
}
330
277
100
AcDbXrecord
 10
0.0
 20
0.0
 30
0.0
  0
XRECORD
  5
289
102
{ACAD_REACTORS
330
277
102
}
330
277
100
AcDbXrecord
 10
0.0
 20
0.0
 30
0.0
  0
XRECORD
  5
286
102
{ACAD_REACTORS
330
277
102
}
330
277
100
AcDbXrecord
340
0
  0
XRECORD
  5
287
102
{ACAD_REACTORS
330
277
102
}
330
277
100
AcDbXrecord
 70
     0
  0
XRECORD
  5
27B
102
{ACAD_REACTORS
330
277
102
}
330
277
100
AcDbXrecord
  1

  0
XRECORD
  5
278
102
{ACAD_REACTORS
330
277
102
}
330
277
100
AcDbXrecord
 90
        1
  0
XRECORD
  5
279
102
{ACAD_REACTORS
330
277
102
}
330
277
100
AcDbXrecord
 90
       70
  0
XRECORD
  5
291
102
{ACAD_REACTORS
330
277
102
}
330
277
100
AcDbXrecord
340
0
  0
XRECORD
  5
297
102
{ACAD_REACTORS
330
277
102
}
330
277
100
AcDbXrecord
 10
0.0
 20
0.0
 30
0.0
  0
XRECORD
  5
293
102
{ACAD_REACTORS
330
277
102
}
330
277
100
AcDbXrecord
 10
0.0
 20
0.0
 30
0.0
  0
XRECORD
  5
296
102
{ACAD_REACTORS
330
277
102
}
330
277
100
AcDbXrecord
 10
0.0
 20
0.0
 30
0.0
  0
XRECORD
  5
294
102
{ACAD_REACTORS
330
277
102
}
330
277
100
AcDbXrecord
 10
0.0
 20
0.0
 30
0.0
  0
XRECORD
  5
295
102
{ACAD_REACTORS
330
277
102
}
330
277
100
AcDbXrecord
 10
0.0
 20
0.0
 30
0.0
  0
XRECORD
  5
292
102
{ACAD_REACTORS
330
277
102
}
330
277
100
AcDbXrecord
 10
0.0
 20
0.0
 30
0.0
  0
XRECORD
  5
28F
102
{ACAD_REACTORS
330
277
102
}
330
277
100
AcDbXrecord
340
0
  0
XRECORD
  5
290
102
{ACAD_REACTORS
330
277
102
}
330
277
100
AcDbXrecord
 70
     0
  0
XRECORD
  5
283
102
{ACAD_REACTORS
330
277
102
}
330
277
100
AcDbXrecord
  1
{651A7218-7FC6-410C-9EEA-BC5131A42609}
  0
DICTIONARYVAR
  5
157
102
{ACAD_REACTORS
330
155
102
}
330
155
100
DictionaryVariables
280
     0
  1
2
  0
DICTIONARYVAR
  5
156
102
{ACAD_REACTORS
330
155
102
}
330
155
100
DictionaryVariables
280
     0
  1
1
  0
ENDSEC
  0
EOF
