  0
SECTION
  2
HEADER
  9
$ACADVER
  1
AC1014
  9
$ACADMAINTVER
 70
     9
  9
$DWGCODEPAGE
  3
ANSI_1252
  9
$INSBASE
 10
17.9194910113096
 20
8.593938398136993
 30
0.0
  9
$EXTMIN
 10
7.969804190694103
 20
2.841004375310106
 30
0.0
  9
$EXTMAX
 10
24.69327046797923
 20
11.25709021663733
 30
0.0
  9
$LIMMIN
 10
0.0
 20
0.0
  9
$LIMMAX
 10
36.0
 20
36.0
  9
$ORTHOMODE
 70
     1
  9
$REGENMODE
 70
     1
  9
$FILLMODE
 70
     1
  9
$QTEXTMODE
 70
     0
  9
$MIRRTEXT
 70
     1
  9
$DRAGMODE
 70
     0
  9
$LTSCALE
 40
1.0
  9
$OSMODE
 70
    37
  9
$ATTMODE
 70
     1
  9
$TEXTSIZE
 40
0.2
  9
$TRACEWID
 40
0.05
  9
$TEXTSTYLE
  7
STANDARD
  9
$CLAYER
  8
0
  9
$CELTYPE
  6
BYLAYER
  9
$CECOLOR
 62
   256
  9
$CELTSCALE
 40
1.0
  9
$DELOBJ
 70
     1
  9
$DISPSILH
 70
     0
  9
$DIMSCALE
 40
1.0
  9
$DIMASZ
 40
0.125
  9
$DIMEXO
 40
0.0625
  9
$DIMDLI
 40
0.38
  9
$DIMRND
 40
0.0
  9
$DIMDLE
 40
0.0
  9
$DIMEXE
 40
0.18
  9
$DIMTP
 40
0.0
  9
$DIMTM
 40
0.0
  9
$DIMTXT
 40
0.125
  9
$DIMCEN
 40
0.1875
  9
$DIMTSZ
 40
0.125
  9
$DIMTOL
 70
     0
  9
$DIMLIM
 70
     0
  9
$DIMTIH
 70
     0
  9
$DIMTOH
 70
     0
  9
$DIMSE1
 70
     0
  9
$DIMSE2
 70
     0
  9
$DIMTAD
 70
     0
  9
$DIMZIN
 70
     3
  9
$DIMBLK
  1

  9
$DIMASO
 70
     1
  9
$DIMSHO
 70
     1
  9
$DIMPOST
  1

  9
$DIMAPOST
  1

  9
$DIMALT
 70
     0
  9
$DIMALTD
 70
     1
  9
$DIMALTF
 40
25.4
  9
$DIMLFAC
 40
1.0
  9
$DIMTOFL
 70
     0
  9
$DIMTVP
 40
0.0
  9
$DIMTIX
 70
     0
  9
$DIMSOXD
 70
     0
  9
$DIMSAH
 70
     0
  9
$DIMBLK1
  1

  9
$DIMBLK2
  1

  9
$DIMSTYLE
  2
STANDARD
  9
$DIMCLRD
 70
     0
  9
$DIMCLRE
 70
     0
  9
$DIMCLRT
 70
     0
  9
$DIMTFAC
 40
1.0
  9
$DIMGAP
 40
0.125
  9
$DIMJUST
 70
     0
  9
$DIMSD1
 70
     0
  9
$DIMSD2
 70
     0
  9
$DIMTOLJ
 70
     1
  9
$DIMTZIN
 70
     3
  9
$DIMALTZ
 70
     3
  9
$DIMALTTZ
 70
     3
  9
$DIMFIT
 70
     5
  9
$DIMUPT
 70
     0
  9
$DIMUNIT
 70
     5
  9
$DIMDEC
 70
     4
  9
$DIMTDEC
 70
     4
  9
$DIMALTU
 70
     5
  9
$DIMALTTD
 70
     1
  9
$DIMTXSTY
  7
STANDARD
  9
$DIMAUNIT
 70
     0
  9
$LUNITS
 70
     5
  9
$LUPREC
 70
     4
  9
$SKETCHINC
 40
0.1
  9
$FILLETRAD
 40
0.187
  9
$AUNITS
 70
     0
  9
$AUPREC
 70
     0
  9
$MENU
  1
acad
  9
$ELEVATION
 40
0.0
  9
$PELEVATION
 40
0.0
  9
$THICKNESS
 40
0.0
  9
$LIMCHECK
 70
     0
  9
$BLIPMODE
 70
     0
  9
$CHAMFERA
 40
0.0
  9
$CHAMFERB
 40
0.0
  9
$CHAMFERC
 40
0.0
  9
$CHAMFERD
 40
0.0
  9
$SKPOLY
 70
     0
  9
$TDCREATE
 40
2450399.667541666
  9
$TDUPDATE
 40
2452297.096438611
  9
$TDINDWG
 40
0.0340265162
  9
$TDUSRTIMER
 40
0.0340265162
  9
$USRTIMER
 70
     1
  9
$ANGBASE
 50
0.0
  9
$ANGDIR
 70
     0
  9
$PDMODE
 70
     0
  9
$PDSIZE
 40
0.0
  9
$PLINEWID
 40
0.0
  9
$COORDS
 70
     2
  9
$SPLFRAME
 70
     0
  9
$SPLINETYPE
 70
     6
  9
$SPLINESEGS
 70
     8
  9
$ATTDIA
 70
     0
  9
$ATTREQ
 70
     1
  9
$HANDLING
 70
 22529
  9
$HANDSEED
  5
2F9
  9
$SURFTAB1
 70
     6
  9
$SURFTAB2
 70
     6
  9
$SURFTYPE
 70
     6
  9
$SURFU
 70
     6
  9
$SURFV
 70
     6
  9
$UCSNAME
  2

  9
$UCSORG
 10
0.0
 20
0.0
 30
0.0
  9
$UCSXDIR
 10
1.0
 20
0.0
 30
0.0
  9
$UCSYDIR
 10
0.0
 20
1.0
 30
0.0
  9
$PUCSNAME
  2

  9
$PUCSORG
 10
0.0
 20
0.0
 30
0.0
  9
$PUCSXDIR
 10
1.0
 20
0.0
 30
0.0
  9
$PUCSYDIR
 10
0.0
 20
1.0
 30
0.0
  9
$USERI1
 70
     0
  9
$USERI2
 70
     0
  9
$USERI3
 70
     0
  9
$USERI4
 70
     0
  9
$USERI5
 70
     0
  9
$USERR1
 40
0.0
  9
$USERR2
 40
0.0
  9
$USERR3
 40
0.0
  9
$USERR4
 40
0.0
  9
$USERR5
 40
0.0
  9
$WORLDVIEW
 70
     1
  9
$SHADEDGE
 70
     3
  9
$SHADEDIF
 70
    70
  9
$TILEMODE
 70
     1
  9
$MAXACTVP
 70
    15
  9
$PINSBASE
 10
0.0004882914945483
 20
0.7501408034022604
 30
0.0
  9
$PLIMCHECK
 70
     0
  9
$PEXTMIN
 10
1.000000000000000E+20
 20
1.000000000000000E+20
 30
1.000000000000000E+20
  9
$PEXTMAX
 10
-1.000000000000000E+20
 20
-1.000000000000000E+20
 30
-1.000000000000000E+20
  9
$PLIMMIN
 10
0.0
 20
0.0
  9
$PLIMMAX
 10
12.0
 20
9.0
  9
$UNITMODE
 70
     0
  9
$VISRETAIN
 70
     0
  9
$PLINEGEN
 70
     0
  9
$PSLTSCALE
 70
     1
  9
$TREEDEPTH
 70
  3020
  9
$PICKSTYLE
 70
     1
  9
$CMLSTYLE
  2
STANDARD
  9
$CMLJUST
 70
     0
  9
$CMLSCALE
 40
1.0
  9
$PROXYGRAPHICS
 70
     1
  9
$MEASUREMENT
 70
     0
  0
ENDSEC
  0
SECTION
  2
CLASSES
  0
CLASS
  1
ACDBDICTIONARYWDFLT
  2
AcDbDictionaryWithDefault
  3
AutoCAD 2000
 90
        0
280
     0
281
     0
  0
CLASS
  1
ACDBPLACEHOLDER
  2
AcDbPlaceHolder
  3
AutoCAD 2000
 90
        0
280
     0
281
     0
  0
CLASS
  1
LAYOUT
  2
AcDbLayout
  3
AutoCAD 2000
 90
        0
280
     0
281
     0
  0
CLASS
  1
DICTIONARYVAR
  2
AcDbDictionaryVar
  3
AutoCAD 2000
 90
        0
280
     0
281
     0
  0
CLASS
  1
LONG_TRANSACTION
  2
AcDbLongTransaction
  3
AutoCAD 2000
 90
        0
280
     0
281
     0
  0
CLASS
  1
LWPOLYLINE
  2
AcDbPolyline
  3
AutoCAD 2000
 90
        0
280
     0
281
     1
  0
CLASS
  1
HATCH
  2
AcDbHatch
  3
AutoCAD 2000
 90
        0
280
     0
281
     1
  0
CLASS
  1
XRECORD
  2
AcDbXrecord
  3
AutoCAD 2000
 90
        0
280
     0
281
     0
  0
CLASS
  1
LONG_TRANSACTION
  2
AcDbLongTransaction
  3
AutoCAD 2000
 90
        0
280
     0
281
     0
  0
CLASS
  1
LWPOLYLINE
  2
AcDbPolyline
  3
AutoCAD 2000
 90
        0
280
     0
281
     1
  0
CLASS
  1
HATCH
  2
AcDbHatch
  3
AutoCAD 2000
 90
        0
280
     0
281
     1
  0
CLASS
  1
XRECORD
  2
AcDbXrecord
  3
AutoCAD 2000
 90
        0
280
     0
281
     0
  0
CLASS
  1
LONG_TRANSACTION
  2
AcDbLongTransaction
  3
AutoCAD 2000
 90
        0
280
     0
281
     0
  0
CLASS
  1
LWPOLYLINE
  2
AcDbPolyline
  3
AutoCAD 2000
 90
        0
280
     0
281
     1
  0
CLASS
  1
HATCH
  2
AcDbHatch
  3
AutoCAD 2000
 90
        0
280
     0
281
     1
  0
CLASS
  1
XRECORD
  2
AcDbXrecord
  3
AutoCAD 2000
 90
        0
280
     0
281
     0
  0
CLASS
  1
LONG_TRANSACTION
  2
AcDbLongTransaction
  3
AutoCAD 2000
 90
        0
280
     0
281
     0
  0
CLASS
  1
LWPOLYLINE
  2
AcDbPolyline
  3
AutoCAD 2000
 90
        0
280
     0
281
     1
  0
CLASS
  1
HATCH
  2
AcDbHatch
  3
AutoCAD 2000
 90
        0
280
     0
281
     1
  0
CLASS
  1
XRECORD
  2
AcDbXrecord
  3
AutoCAD 2000
 90
        0
280
     0
281
     0
  0
CLASS
  1
LONG_TRANSACTION
  2
AcDbLongTransaction
  3
AutoCAD 2000
 90
        0
280
     0
281
     0
  0
CLASS
  1
LWPOLYLINE
  2
AcDbPolyline
  3
AutoCAD 2000
 90
        0
280
     0
281
     1
  0
CLASS
  1
HATCH
  2
AcDbHatch
  3
AutoCAD 2000
 90
        0
280
     0
281
     1
  0
CLASS
  1
XRECORD
  2
AcDbXrecord
  3
AutoCAD 2000
 90
        0
280
     0
281
     0
  0
ENDSEC
  0
SECTION
  2
TABLES
  0
TABLE
  2
VPORT
  5
8
330
0
100
AcDbSymbolTable
 70
     2
  0
VPORT
  5
2D5
330
8
100
AcDbSymbolTableRecord
100
AcDbViewportTableRecord
  2
*ACTIVE
 70
     0
 10
0.0
 20
0.0
 11
1.0
 21
1.0
 12
16.34494903514281
 22
7.04800422145986
 13
0.0
 23
0.0
 14
0.5740882589684922
 24
0.5740882589684922
 15
0.5
 25
0.5
 16
0.0
 26
0.0
 36
1.0
 17
0.0
 27
0.0
 37
0.0
 40
10.71704457697949
 41
1.570528967254408
 42
50.0
 43
0.0
 44
0.0
 50
0.0
 51
0.0
 71
     0
 72
   100
 73
     1
 74
     0
 75
     0
 76
     0
 77
     0
 78
     0
  0
ENDTAB
  0
TABLE
  2
LTYPE
  5
5
330
0
100
AcDbSymbolTable
 70
     1
  0
LTYPE
  5
13
330
5
100
AcDbSymbolTableRecord
100
AcDbLinetypeTableRecord
  2
BYBLOCK
 70
     0
  3

 72
    65
 73
     0
 40
0.0
  0
LTYPE
  5
14
330
5
100
AcDbSymbolTableRecord
100
AcDbLinetypeTableRecord
  2
BYLAYER
 70
     0
  3

 72
    65
 73
     0
 40
0.0
  0
LTYPE
  5
15
330
5
100
AcDbSymbolTableRecord
100
AcDbLinetypeTableRecord
  2
CONTINUOUS
 70
     0
  3
Solid line
 72
    65
 73
     0
 40
0.0
  0
ENDTAB
  0
TABLE
  2
LAYER
  5
2
330
0
100
AcDbSymbolTable
 70
     4
  0
LAYER
  5
10
330
2
100
AcDbSymbolTableRecord
100
AcDbLayerTableRecord
  2
0
 70
     0
 62
     7
  6
CONTINUOUS
  0
LAYER
  5
76
330
2
100
AcDbSymbolTableRecord
100
AcDbLayerTableRecord
  2
ADP1DETAIL
 70
     0
 62
     7
  6
CONTINUOUS
  0
LAYER
  5
78
330
2
100
AcDbSymbolTableRecord
100
AcDbLayerTableRecord
  2
DEFPOINTS
 70
     0
 62
     7
  6
CONTINUOUS
  0
LAYER
  5
79
330
2
100
AcDbSymbolTableRecord
100
AcDbLayerTableRecord
  2
ADPDIM
 70
     0
 62
     3
  6
CONTINUOUS
  0
ENDTAB
  0
TABLE
  2
STYLE
  5
3
330
0
100
AcDbSymbolTable
 70
     2
  0
STYLE
  5
11
330
3
100
AcDbSymbolTableRecord
100
AcDbTextStyleTableRecord
  2
STANDARD
 70
     0
 40
0.0
 41
1.0
 50
0.0
 71
     0
 42
0.2
  3
txt
  4

  0
STYLE
  5
142
330
3
100
AcDbSymbolTableRecord
100
AcDbTextStyleTableRecord
  2
ARIAL_WIDE
 70
     0
 40
0.0
 41
1.25
 50
0.0
 71
     0
 42
0.2
  3
ARIAL.TTF
  4

1001
ACAD
1000
Arial
1071
       34
  0
ENDTAB
  0
TABLE
  2
VIEW
  5
6
330
0
100
AcDbSymbolTable
 70
     0
  0
ENDTAB
  0
TABLE
  2
UCS
  5
7
330
0
100
AcDbSymbolTable
 70
     0
  0
ENDTAB
  0
TABLE
  2
APPID
  5
9
330
0
100
AcDbSymbolTable
 70
     1
  0
APPID
  5
12
330
9
100
AcDbSymbolTableRecord
100
AcDbRegAppTableRecord
  2
ACAD
 70
     0
  0
ENDTAB
  0
TABLE
  2
DIMSTYLE
  5
A
330
0
100
AcDbSymbolTable
 70
     1
  0
DIMSTYLE
105
140
330
A
100
AcDbSymbolTableRecord
100
AcDbDimStyleTableRecord
  2
STANDARD
 70
     0
  3

  4

  5

  6

  7

 40
1.0
 41
0.18
 42
0.0625
 43
0.38
 44
0.18
 45
0.0
 46
0.0
 47
0.0
 48
0.0
140
0.18
141
0.09
142
0.0
143
25.4
144
1.0
145
0.0
146
1.0
147
0.09
 71
     0
 72
     0
 73
     1
 74
     1
 75
     0
 76
     0
 77
     0
 78
     0
170
     0
171
     2
172
     0
173
     0
174
     0
175
     0
176
     0
177
     0
178
     0
270
     2
271
     4
272
     4
273
     2
274
     2
340
11
275
     0
280
     0
281
     0
282
     0
283
     1
284
     0
285
     0
286
     0
287
     3
288
     0
  0
ENDTAB
  0
TABLE
  2
BLOCK_RECORD
  5
1
330
0
100
AcDbSymbolTable
 70
     5
  0
BLOCK_RECORD
  5
1E
102
{ACAD_XDICTIONARY
360
17F
102
}
330
1
100
AcDbSymbolTableRecord
100
AcDbBlockTableRecord
  2
*MODEL_SPACE
  0
BLOCK_RECORD
  5
1A
102
{ACAD_XDICTIONARY
360
181
102
}
330
1
100
AcDbSymbolTableRecord
100
AcDbBlockTableRecord
  2
*PAPER_SPACE
  0
BLOCK_RECORD
  5
6E
330
1
100
AcDbSymbolTableRecord
100
AcDbBlockTableRecord
  2
*D0
  0
BLOCK_RECORD
  5
6F
330
1
100
AcDbSymbolTableRecord
100
AcDbBlockTableRecord
  2
*D1
  0
BLOCK_RECORD
  5
70
330
1
100
AcDbSymbolTableRecord
100
AcDbBlockTableRecord
  2
*D2
  0
BLOCK_RECORD
  5
71
330
1
100
AcDbSymbolTableRecord
100
AcDbBlockTableRecord
  2
*D3
  0
BLOCK_RECORD
  5
72
330
1
100
AcDbSymbolTableRecord
100
AcDbBlockTableRecord
  2
*D4
  0
ENDTAB
  0
ENDSEC
  0
SECTION
  2
BLOCKS
  0
BLOCK
  5
7C
330
1E
100
AcDbEntity
  8
0
100
AcDbBlockBegin
  2
*MODEL_SPACE
 70
     0
 10
0.0
 20
0.0
 30
0.0
  3
*MODEL_SPACE
  1

  0
ENDBLK
  5
7D
330
1E
100
AcDbEntity
  8
0
100
AcDbBlockEnd
  0
BLOCK
  5
7A
330
1A
100
AcDbEntity
 67
     1
  8
0
100
AcDbBlockBegin
  2
*PAPER_SPACE
 70
     0
 10
0.0
 20
0.0
 30
0.0
  3
*PAPER_SPACE
  1

  0
ENDBLK
  5
7B
330
1A
100
AcDbEntity
 67
     1
  8
0
100
AcDbBlockEnd
  0
BLOCK
  5
7F
330
6E
100
AcDbEntity
  8
0
100
AcDbBlockBegin
  2
*D0
 70
     1
 10
0.0
 20
0.0
 30
0.0
  3
*D0
  1

  0
LINE
  5
80
330
6E
100
AcDbEntity
  8
0
  6
BYBLOCK
 62
     0
100
AcDbLine
 10
13.8257410113096
 20
4.153947948993284
 30
0.0
 11
13.8257410113096
 21
3.547890089841549
 31
0.0
  0
LINE
  5
81
330
6E
100
AcDbEntity
  8
0
  6
BYBLOCK
 62
     0
100
AcDbLine
 10
16.1382410113096
 20
4.153947948993284
 30
0.0
 11
16.1382410113096
 21
3.547890089841549
 31
0.0
  0
LINE
  5
82
330
6E
100
AcDbEntity
  8
0
  6
BYBLOCK
 62
     0
100
AcDbLine
 10
13.8257410113096
 20
3.727890089841549
 30
0.0
 11
14.52365767797626
 21
3.727890089841549
 31
0.0
  0
LINE
  5
83
330
6E
100
AcDbEntity
  8
0
  6
BYBLOCK
 62
     0
100
AcDbLine
 10
16.1382410113096
 20
3.727890089841549
 30
0.0
 11
15.44032434464293
 21
3.727890089841549
 31
0.0
  0
LINE
  5
84
330
6E
100
AcDbEntity
  8
0
  6
BYBLOCK
 62
     0
100
AcDbLine
 10
13.7007410113096
 20
3.602890089841549
 30
0.0
 11
13.9507410113096
 21
3.852890089841549
 31
0.0
  0
LINE
  5
85
330
6E
100
AcDbEntity
  8
0
  6
BYBLOCK
 62
     0
100
AcDbLine
 10
16.0132410113096
 20
3.602890089841549
 30
0.0
 11
16.2632410113096
 21
3.852890089841549
 31
0.0
  0
TEXT
  5
86
330
6E
100
AcDbEntity
  8
0
  6
BYBLOCK
 62
     0
100
AcDbText
 10
14.64865767797626
 20
3.665390089841549
 30
0.0
 40
0.125
  1
2 5/16
 72
     1
 11
14.9819910113096
 21
3.727890089841549
 31
0.0
100
AcDbText
 73
     2
  0
POINT
  5
88
330
6E
100
AcDbEntity
  8
DEFPOINTS
  6
BYBLOCK
 62
     0
100
AcDbPoint
 10
13.8257410113096
 20
4.216447948993284
 30
0.0
  0
POINT
  5
89
330
6E
100
AcDbEntity
  8
DEFPOINTS
  6
BYBLOCK
 62
     0
100
AcDbPoint
 10
16.1382410113096
 20
4.216447948993284
 30
0.0
  0
POINT
  5
8A
330
6E
100
AcDbEntity
  8
DEFPOINTS
  6
BYBLOCK
 62
     0
100
AcDbPoint
 10
16.1382410113096
 20
3.727890089841549
 30
0.0
  0
ENDBLK
  5
8B
330
6E
100
AcDbEntity
  8
0
100
AcDbBlockEnd
  0
BLOCK
  5
8C
330
6F
100
AcDbEntity
  8
0
100
AcDbBlockBegin
  2
*D1
 70
     1
 10
0.0
 20
0.0
 30
0.0
  3
*D1
  1

  0
LINE
  5
8D
330
6F
100
AcDbEntity
  8
0
  6
BYBLOCK
 62
     0
100
AcDbLine
 10
13.5444910113096
 20
10.90643839813699
 30
0.0
 11
13.5444910113096
 21
11.25709021663733
 31
0.0
  0
LINE
  5
8E
330
6F
100
AcDbEntity
  8
0
  6
BYBLOCK
 62
     0
100
AcDbLine
 10
16.4194910113096
 20
10.90643839813699
 30
0.0
 11
16.4194910113096
 21
11.25709021663733
 31
0.0
  0
LINE
  5
8F
330
6F
100
AcDbEntity
  8
0
  6
BYBLOCK
 62
     0
100
AcDbLine
 10
13.5444910113096
 20
11.07709021663733
 30
0.0
 11
14.56532434464293
 21
11.07709021663733
 31
0.0
  0
LINE
  5
90
330
6F
100
AcDbEntity
  8
0
  6
BYBLOCK
 62
     0
100
AcDbLine
 10
16.4194910113096
 20
11.07709021663733
 30
0.0
 11
15.39865767797627
 21
11.07709021663733
 31
0.0
  0
LINE
  5
91
330
6F
100
AcDbEntity
  8
0
  6
BYBLOCK
 62
     0
100
AcDbLine
 10
13.4194910113096
 20
10.95209021663733
 30
0.0
 11
13.6694910113096
 21
11.20209021663733
 31
0.0
  0
LINE
  5
92
330
6F
100
AcDbEntity
  8
0
  6
BYBLOCK
 62
     0
100
AcDbLine
 10
16.2944910113096
 20
10.95209021663733
 30
0.0
 11
16.5444910113096
 21
11.20209021663733
 31
0.0
  0
TEXT
  5
93
330
6F
100
AcDbEntity
  8
0
  6
BYBLOCK
 62
     0
100
AcDbText
 10
14.69032434464293
 20
11.01459021663732
 30
0.0
 40
0.125
  1
2 7/8
 72
     1
 11
14.9819910113096
 21
11.07709021663733
 31
0.0
100
AcDbText
 73
     2
  0
POINT
  5
94
330
6F
100
AcDbEntity
  8
DEFPOINTS
  6
BYBLOCK
 62
     0
100
AcDbPoint
 10
13.5444910113096
 20
10.84393839813699
 30
0.0
  0
POINT
  5
95
330
6F
100
AcDbEntity
  8
DEFPOINTS
  6
BYBLOCK
 62
     0
100
AcDbPoint
 10
16.4194910113096
 20
10.84393839813699
 30
0.0
  0
POINT
  5
96
330
6F
100
AcDbEntity
  8
DEFPOINTS
  6
BYBLOCK
 62
     0
100
AcDbPoint
 10
16.4194910113096
 20
11.07709021663733
 30
0.0
  0
ENDBLK
  5
97
330
6F
100
AcDbEntity
  8
0
100
AcDbBlockEnd
  0
BLOCK
  5
98
330
70
100
AcDbEntity
  8
0
100
AcDbBlockBegin
  2
*D2
 70
     1
 10
0.0
 20
0.0
 30
0.0
  3
*D2
  1

  0
LINE
  5
99
330
70
100
AcDbEntity
  8
0
  6
BYBLOCK
 62
     0
100
AcDbLine
 10
19.28222021893421
 20
8.593938398136993
 30
0.0
 11
18.24586352796368
 21
8.593938398136993
 31
0.0
  0
LINE
  5
9A
330
70
100
AcDbEntity
  8
0
  6
BYBLOCK
 62
     0
100
AcDbLine
 10
19.28214198044799
 20
10.20791968905147
 30
0.0
 11
18.24586352796368
 21
10.20791968905147
 31
0.0
  0
LINE
  5
9B
330
70
100
AcDbEntity
  8
0
  6
BYBLOCK
 62
     0
100
AcDbLine
 10
18.42586352796368
 20
8.593938398136993
 30
0.0
 11
18.42586352796368
 21
9.005095710260899
 31
0.0
  0
LINE
  5
9C
330
70
100
AcDbEntity
  8
0
  6
BYBLOCK
 62
     0
100
AcDbLine
 10
18.42586352796368
 20
10.20791968905147
 30
0.0
 11
18.42586352796368
 21
9.796762376927567
 31
0.0
  0
LINE
  5
9D
330
70
100
AcDbEntity
  8
0
  6
BYBLOCK
 62
     0
100
AcDbLine
 10
18.55086352796368
 20
8.468938398136993
 30
0.0
 11
18.30086352796368
 21
8.718938398136993
 31
0.0
  0
LINE
  5
9E
330
70
100
AcDbEntity
  8
0
  6
BYBLOCK
 62
     0
100
AcDbLine
 10
18.55086352796368
 20
10.08291968905147
 30
0.0
 11
18.30086352796368
 21
10.33291968905147
 31
0.0
  0
TEXT
  5
9F
330
70
100
AcDbEntity
  8
0
  6
BYBLOCK
 62
     0
100
AcDbText
 10
18.48836352796368
 20
9.130095710260899
 30
0.0
 40
0.125
  1
1 5/8
 50
90.0
 72
     1
 11
18.42586352796368
 21
9.400929043594233
 31
0.0
100
AcDbText
 73
     2
  0
POINT
  5
A0
330
70
100
AcDbEntity
  8
DEFPOINTS
  6
BYBLOCK
 62
     0
100
AcDbPoint
 10
19.34472021893421
 20
8.593938398136993
 30
0.0
  0
POINT
  5
A1
330
70
100
AcDbEntity
  8
DEFPOINTS
  6
BYBLOCK
 62
     0
100
AcDbPoint
 10
19.344641980448
 20
10.20791968905147
 30
0.0
  0
POINT
  5
A2
330
70
100
AcDbEntity
  8
DEFPOINTS
  6
BYBLOCK
 62
     0
100
AcDbPoint
 10
18.42586352796368
 20
10.20791968905147
 30
0.0
  0
ENDBLK
  5
A3
330
70
100
AcDbEntity
  8
0
100
AcDbBlockEnd
  0
BLOCK
  5
A4
330
71
100
AcDbEntity
  8
0
100
AcDbBlockBegin
  2
*D3
 70
     1
 10
0.0
 20
0.0
 30
0.0
  3
*D3
  1

  0
LINE
  5
A5
330
71
100
AcDbEntity
  8
0
  6
BYBLOCK
 62
     0
100
AcDbLine
 10
19.66388401503903
 20
8.869629163144079
 30
0.0
 11
20.5451168600811
 21
8.869629163144079
 31
0.0
  0
LINE
  5
A6
330
71
100
AcDbEntity
  8
0
  6
BYBLOCK
 62
     0
100
AcDbLine
 10
19.66383250382005
 20
9.932253809131392
 30
0.0
 11
20.5451168600811
 21
9.932253809131392
 31
0.0
  0
LINE
  5
A7
330
71
100
AcDbEntity
  8
0
  6
BYBLOCK
 62
     0
100
AcDbLine
 10
20.3651168600811
 20
8.869629163144079
 30
0.0
 11
20.3651168600811
 21
8.619629163144079
 31
0.0
  0
LINE
  5
A8
330
71
100
AcDbEntity
  8
0
  6
BYBLOCK
 62
     0
100
AcDbLine
 10
20.3651168600811
 20
9.932253809131392
 30
0.0
 11
20.3651168600811
 21
10.18225380913139
 31
0.0
  0
LINE
  5
A9
330
71
100
AcDbEntity
  8
0
  6
BYBLOCK
 62
     0
100
AcDbLine
 10
20.4901168600811
 20
8.744629163144079
 30
0.0
 11
20.2401168600811
 21
8.994629163144079
 31
0.0
  0
LINE
  5
AA
330
71
100
AcDbEntity
  8
0
  6
BYBLOCK
 62
     0
100
AcDbLine
 10
20.4901168600811
 20
9.807253809131392
 30
0.0
 11
20.2401168600811
 21
10.05725380913139
 31
0.0
  0
TEXT
  5
AB
330
71
100
AcDbEntity
  8
0
  6
BYBLOCK
 62
     0
100
AcDbText
 10
20.4276168600811
 20
10.30725380913139
 30
0.0
 40
0.125
  1
1 1/16
 50
90.0
 72
     1
 11
20.3651168600811
 21
10.59892047579805
 31
0.0
100
AcDbText
 73
     2
  0
POINT
  5
AC
330
71
100
AcDbEntity
  8
DEFPOINTS
  6
BYBLOCK
 62
     0
100
AcDbPoint
 10
19.60138401503903
 20
8.869629163144079
 30
0.0
  0
POINT
  5
AD
330
71
100
AcDbEntity
  8
DEFPOINTS
  6
BYBLOCK
 62
     0
100
AcDbPoint
 10
19.60133250382004
 20
9.932253809131392
 30
0.0
  0
POINT
  5
AE
330
71
100
AcDbEntity
  8
DEFPOINTS
  6
BYBLOCK
 62
     0
100
AcDbPoint
 10
20.3651168600811
 20
9.932253809131392
 30
0.0
  0
ENDBLK
  5
AF
330
71
100
AcDbEntity
  8
0
100
AcDbBlockEnd
  0
BLOCK
  5
B0
330
72
100
AcDbEntity
  8
0
100
AcDbBlockBegin
  2
*D4
 70
     1
 10
0.0
 20
0.0
 30
0.0
  3
*D4
  1

  0
LINE
  5
B1
330
72
100
AcDbEntity
  8
0
  6
BYBLOCK
 62
     0
100
AcDbLine
 10
16.4194910113096
 20
10.90643839813699
 30
0.0
 11
16.4194910113096
 21
11.25709021663733
 31
0.0
  0
LINE
  5
B2
330
72
100
AcDbEntity
  8
0
  6
BYBLOCK
 62
     0
100
AcDbLine
 10
17.9194910113096
 20
10.28143839813699
 30
0.0
 11
17.9194910113096
 21
11.25709021663733
 31
0.0
  0
LINE
  5
B3
330
72
100
AcDbEntity
  8
0
  6
BYBLOCK
 62
     0
100
AcDbLine
 10
16.4194910113096
 20
11.07709021663733
 30
0.0
 11
16.7944910113096
 21
11.07709021663733
 31
0.0
  0
LINE
  5
B4
330
72
100
AcDbEntity
  8
0
  6
BYBLOCK
 62
     0
100
AcDbLine
 10
17.9194910113096
 20
11.07709021663733
 30
0.0
 11
17.5444910113096
 21
11.07709021663733
 31
0.0
  0
LINE
  5
B5
330
72
100
AcDbEntity
  8
0
  6
BYBLOCK
 62
     0
100
AcDbLine
 10
16.2944910113096
 20
10.95209021663733
 30
0.0
 11
16.5444910113096
 21
11.20209021663733
 31
0.0
  0
LINE
  5
B6
330
72
100
AcDbEntity
  8
0
  6
BYBLOCK
 62
     0
100
AcDbLine
 10
17.7944910113096
 20
10.95209021663733
 30
0.0
 11
18.0444910113096
 21
11.20209021663733
 31
0.0
  0
TEXT
  5
B7
330
72
100
AcDbEntity
  8
0
  6
BYBLOCK
 62
     0
100
AcDbText
 10
16.9194910113096
 20
11.01459021663732
 30
0.0
 40
0.125
  1
1 1/2
 72
     1
 11
17.1694910113096
 21
11.07709021663733
 31
0.0
100
AcDbText
 73
     2
  0
POINT
  5
B8
330
72
100
AcDbEntity
  8
DEFPOINTS
  6
BYBLOCK
 62
     0
100
AcDbPoint
 10
16.4194910113096
 20
10.84393839813699
 30
0.0
  0
POINT
  5
B9
330
72
100
AcDbEntity
  8
DEFPOINTS
  6
BYBLOCK
 62
     0
100
AcDbPoint
 10
17.9194910113096
 20
10.21893839813699
 30
0.0
  0
POINT
  5
BA
330
72
100
AcDbEntity
  8
DEFPOINTS
  6
BYBLOCK
 62
     0
100
AcDbPoint
 10
17.9194910113096
 20
11.07709021663733
 30
0.0
  0
ENDBLK
  5
BB
330
72
100
AcDbEntity
  8
0
100
AcDbBlockEnd
  0
ENDSEC
  0
SECTION
  2
ENTITIES
  0
ARC
  5
BC
330
1E
100
AcDbEntity
  8
ADP1DETAIL
100
AcDbCircle
 10
19.38231733203021
 20
10.72873902259334
 30
0.0
 40
0.125
100
AcDbArc
 50
35.07820271387751
 51
180.0055548785815
  0
ARC
  5
BD
330
1E
100
AcDbEntity
  8
ADP1DETAIL
100
AcDbCircle
 10
19.68844028575097
 20
10.94778642515959
 30
0.0
 40
0.25
100
AcDbArc
 50
215.7721420757122
 51
267.9093935297879
  0
ARC
  5
BE
330
1E
100
AcDbEntity
  8
ADP1DETAIL
100
AcDbCircle
 10
19.38231733203021
 20
10.08873257614426
 30
0.0
 40
0.125
100
AcDbArc
 50
35.07820271387751
 51
180.0055548785815
  0
LINE
  5
BF
330
1E
100
AcDbEntity
  8
ADP1DETAIL
100
AcDbLine
 10
19.38235068314691
 20
9.744732577760974
 30
0.0
 11
19.50835068255474
 21
9.744744793576973
 31
0.0
  0
ARC
  5
C0
330
1E
100
AcDbEntity
  8
ADP1DETAIL
100
AcDbCircle
 10
19.68844028575097
 20
10.3077799787105
 30
0.0
 40
0.25
100
AcDbArc
 50
215.7721420757122
 51
267.9093935297879
  0
ARC
  5
C1
330
1E
100
AcDbEntity
  8
ADP1DETAIL
100
AcDbCircle
 10
19.38238401503903
 20
8.713129163144078
 30
0.0
 40
0.125
100
AcDbArc
 50
180.0
 51
324.927352164704
  0
LINE
  5
C2
330
1E
100
AcDbEntity
  8
ADP1DETAIL
100
AcDbLine
 10
19.38238401503903
 20
9.057129163144079
 30
0.0
 11
19.50838401503903
 21
9.057129163144079
 31
0.0
  0
ARC
  5
C3
330
1E
100
AcDbEntity
  8
ADP1DETAIL
100
AcDbCircle
 10
19.68852820416844
 20
8.494111440509488
 30
0.0
 40
0.25
100
AcDbArc
 50
92.09616134879359
 51
144.2334128028693
  0
ARC
  5
C4
330
1E
100
AcDbEntity
  8
ADP1DETAIL
100
AcDbCircle
 10
19.38238401503903
 20
8.087854633210604
 30
0.0
 40
0.125
100
AcDbArc
 50
180.0
 51
324.927352164704
  0
DIMENSION
  5
C5
330
1E
100
AcDbEntity
  8
ADPDIM
100
AcDbDimension
  2
*D0
 10
16.1382410113096
 20
3.727890089841549
 30
0.0
 11
14.9819910113096
 21
3.727890089841549
 31
0.0
100
AcDbAlignedDimension
 13
13.8257410113096
 23
4.216447948993284
 33
0.0
 14
16.1382410113096
 24
4.216447948993284
 34
0.0
100
AcDbRotatedDimension
  0
DIMENSION
  5
C6
330
1E
100
AcDbEntity
  8
ADPDIM
100
AcDbDimension
  2
*D1
 10
16.4194910113096
 20
11.07709021663733
 30
0.0
 11
14.9819910113096
 21
11.07709021663733
 31
0.0
100
AcDbAlignedDimension
 13
13.5444910113096
 23
10.84393839813699
 33
0.0
 14
16.4194910113096
 24
10.84393839813699
 34
0.0
100
AcDbRotatedDimension
  0
LINE
  5
C7
330
1E
100
AcDbEntity
  8
ADP1DETAIL
100
AcDbLine
 10
13.6694910113096
 20
10.71893839813699
 30
0.0
 11
16.2944910113096
 21
10.71893839813699
 31
0.0
  0
LINE
  5
C8
330
1E
100
AcDbEntity
  8
ADP1DETAIL
100
AcDbLine
 10
13.5444910113096
 20
10.84393839813699
 30
0.0
 11
16.4194910113096
 21
10.84393839813699
 31
0.0
  0
LINE
  5
C9
330
1E
100
AcDbEntity
  8
ADP1DETAIL
100
AcDbLine
 10
15.7354910113096
 20
8.652938398136992
 30
0.0
 11
14.2284910113096
 21
8.652938398136992
 31
0.0
  0
LINE
  5
CA
330
1E
100
AcDbEntity
  8
ADP1DETAIL
100
AcDbLine
 10
14.2284910113096
 20
10.15993839813699
 30
0.0
 11
15.7354910113096
 21
10.15993839813699
 31
0.0
  0
LINE
  5
CB
330
1E
100
AcDbEntity
  8
ADP1DETAIL
100
AcDbLine
 10
13.7007410113096
 20
6.653947948993284
 30
0.0
 11
16.2632410113096
 21
6.653947948993284
 31
0.0
  0
LINE
  5
CC
330
1E
100
AcDbEntity
  8
ADP1DETAIL
100
AcDbLine
 10
13.8257410113096
 20
6.528947948993284
 30
0.0
 11
16.1382410113096
 21
6.528947948993284
 31
0.0
  0
LINE
  5
CD
330
1E
100
AcDbEntity
  8
ADP1DETAIL
100
AcDbLine
 10
13.5444910113096
 20
6.810197948993284
 30
0.0
 11
16.4194910113096
 21
6.810197948993284
 31
0.0
  0
LINE
  5
CE
330
1E
100
AcDbEntity
  8
ADP1DETAIL
100
AcDbLine
 10
16.2944910113096
 20
8.093938398136993
 30
0.0
 11
13.6694910113096
 21
8.093938398136993
 31
0.0
  0
LINE
  5
CF
330
1E
100
AcDbEntity
  8
ADP1DETAIL
100
AcDbLine
 10
16.4194910113096
 20
7.968938398136993
 30
0.0
 11
13.5444910113096
 21
7.968938398136993
 31
0.0
  0
LINE
  5
D0
330
1E
100
AcDbEntity
  8
ADP1DETAIL
100
AcDbLine
 10
16.2632410113096
 20
4.091447948993284
 30
0.0
 11
13.7007410113096
 21
4.091447948993285
 31
0.0
  0
LINE
  5
D1
330
1E
100
AcDbEntity
  8
ADP1DETAIL
100
AcDbLine
 10
16.1382410113096
 20
4.216447948993284
 30
0.0
 11
13.8257410113096
 21
4.216447948993284
 31
0.0
  0
LINE
  5
D2
330
1E
100
AcDbEntity
  8
ADP1DETAIL
100
AcDbLine
 10
16.4194910113096
 20
3.935197948993284
 30
0.0
 11
13.5444910113096
 21
3.935197948993284
 31
0.0
  0
LINE
  5
D3
330
1E
100
AcDbEntity
  8
ADP1DETAIL
100
AcDbLine
 10
15.8257410113096
 20
4.403947948993284
 30
0.0
 11
14.1382410113096
 21
4.403947948993284
 31
0.0
  0
LINE
  5
D4
330
1E
100
AcDbEntity
  8
ADP1DETAIL
100
AcDbLine
 10
14.1382410113096
 20
6.341447948993284
 30
0.0
 11
15.8257410113096
 21
6.341447948993284
 31
0.0
  0
LINE
  5
D5
330
1E
100
AcDbEntity
  8
ADP1DETAIL
100
AcDbLine
 10
14.1382410113096
 20
6.216447948993284
 30
0.0
 11
13.8257410113096
 21
6.216447948993284
 31
0.0
  0
LINE
  5
D6
330
1E
100
AcDbEntity
  8
ADP1DETAIL
100
AcDbLine
 10
13.8257410113096
 20
4.528947948993284
 30
0.0
 11
14.1382410113096
 21
4.528947948993284
 31
0.0
  0
LINE
  5
D7
330
1E
100
AcDbEntity
  8
ADP1DETAIL
100
AcDbLine
 10
13.8257410113096
 20
4.841447948993284
 30
0.0
 11
13.8257410113096
 21
6.528947948993284
 31
0.0
  0
LINE
  5
D8
330
1E
100
AcDbEntity
  8
ADP1DETAIL
100
AcDbLine
 10
12.0444910113096
 20
4.560197948993284
 30
0.0
 11
12.0444910113096
 21
6.185197948993284
 31
0.0
  0
LINE
  5
D9
330
1E
100
AcDbEntity
  8
ADP1DETAIL
100
AcDbLine
 10
13.8257410113096
 20
5.028947948993284
 30
0.0
 11
12.0444910113096
 21
5.028947948993284
 31
0.0
  0
LINE
  5
DA
330
1E
100
AcDbEntity
  8
ADP1DETAIL
100
AcDbLine
 10
13.7007410113096
 20
4.716447948993284
 30
0.0
 11
12.0444910113096
 21
4.716447948993284
 31
0.0
  0
LINE
  5
DB
330
1E
100
AcDbEntity
  8
ADP1DETAIL
100
AcDbLine
 10
13.8257410113096
 20
4.841447948993284
 30
0.0
 11
12.0444910113096
 21
4.841447948993284
 31
0.0
  0
LINE
  5
DC
330
1E
100
AcDbEntity
  8
ADP1DETAIL
100
AcDbLine
 10
13.5444910113096
 20
4.560197948993284
 30
0.0
 11
12.0444910113096
 21
4.560197948993284
 31
0.0
  0
LINE
  5
DD
330
1E
100
AcDbEntity
  8
ADP1DETAIL
100
AcDbLine
 10
13.8257410113096
 20
4.216447948993284
 30
0.0
 11
13.8257410113096
 21
4.841447948993284
 31
0.0
  0
LINE
  5
DE
330
1E
100
AcDbEntity
  8
ADP1DETAIL
100
AcDbLine
 10
13.7007410113096
 20
4.091447948993285
 30
0.0
 11
13.7007410113096
 21
4.716447948993284
 31
0.0
  0
LINE
  5
DF
330
1E
100
AcDbEntity
  8
ADP1DETAIL
100
AcDbLine
 10
13.5444910113096
 20
3.935197948993284
 30
0.0
 11
13.5444910113096
 21
4.560197948993284
 31
0.0
  0
LINE
  5
E0
330
1E
100
AcDbEntity
  8
ADP1DETAIL
100
AcDbLine
 10
12.0444910113096
 20
6.028947948993284
 30
0.0
 11
13.7007410113096
 21
6.028947948993284
 31
0.0
  0
LINE
  5
E1
330
1E
100
AcDbEntity
  8
ADP1DETAIL
100
AcDbLine
 10
12.0444910113096
 20
5.716447948993284
 30
0.0
 11
13.8257410113096
 21
5.716447948993284
 31
0.0
  0
LINE
  5
E2
330
1E
100
AcDbEntity
  8
ADP1DETAIL
100
AcDbLine
 10
12.0444910113096
 20
5.903947948993284
 30
0.0
 11
13.8257410113096
 21
5.903947948993284
 31
0.0
  0
LINE
  5
E3
330
1E
100
AcDbEntity
  8
ADP1DETAIL
100
AcDbLine
 10
12.0444910113096
 20
6.185197948993284
 30
0.0
 11
13.5444910113096
 21
6.185197948993284
 31
0.0
  0
LINE
  5
E4
330
1E
100
AcDbEntity
  8
ADP1DETAIL
100
AcDbLine
 10
13.5444910113096
 20
6.185197948993284
 30
0.0
 11
13.5444910113096
 21
6.810197948993284
 31
0.0
  0
LINE
  5
E5
330
1E
100
AcDbEntity
  8
ADP1DETAIL
100
AcDbLine
 10
13.7007410113096
 20
6.028947948993284
 30
0.0
 11
13.7007410113096
 21
6.653947948993284
 31
0.0
  0
LINE
  5
E6
330
1E
100
AcDbEntity
  8
ADP1DETAIL
100
AcDbLine
 10
14.1382410113096
 20
4.528947948993284
 30
0.0
 11
14.1382410113096
 21
4.403947948993284
 31
0.0
  0
LINE
  5
E7
330
1E
100
AcDbEntity
  8
ADP1DETAIL
100
AcDbLine
 10
14.1382410113096
 20
6.341447948993284
 30
0.0
 11
14.1382410113096
 21
6.216447948993284
 31
0.0
  0
LINE
  5
E8
330
1E
100
AcDbEntity
  8
ADP1DETAIL
100
AcDbLine
 10
14.2284910113096
 20
9.534938398136993
 30
0.0
 11
13.5444910113096
 21
10.21893839813699
 31
0.0
  0
LINE
  5
E9
330
1E
100
AcDbEntity
  8
ADP1DETAIL
100
AcDbLine
 10
13.5444910113096
 20
8.593938398136993
 30
0.0
 11
14.2284910113096
 21
9.277938398136992
 31
0.0
  0
LINE
  5
EA
330
1E
100
AcDbEntity
  8
ADP1DETAIL
100
AcDbLine
 10
14.2284910113096
 20
10.15993839813699
 30
0.0
 11
13.5444910113096
 21
10.84393839813699
 31
0.0
  0
LINE
  5
EB
330
1E
100
AcDbEntity
  8
ADP1DETAIL
100
AcDbLine
 10
13.5444910113096
 20
7.968938398136993
 30
0.0
 11
14.2284910113096
 21
8.652938398136992
 31
0.0
  0
LINE
  5
EC
330
1E
100
AcDbEntity
  8
ADP1DETAIL
100
AcDbLine
 10
12.0444910113096
 20
8.593938398136993
 30
0.0
 11
12.0444910113096
 21
10.21893839813699
 31
0.0
  0
LINE
  5
ED
330
1E
100
AcDbEntity
  8
ADP1DETAIL
100
AcDbLine
 10
13.6694910113096
 20
8.718938398136993
 30
0.0
 11
12.0444910113096
 21
8.718938398136993
 31
0.0
  0
LINE
  5
EE
330
1E
100
AcDbEntity
  8
ADP1DETAIL
100
AcDbLine
 10
13.5444910113096
 20
8.593938398136993
 30
0.0
 11
12.0444910113096
 21
8.593938398136993
 31
0.0
  0
LINE
  5
EF
330
1E
100
AcDbEntity
  8
ADP1DETAIL
100
AcDbLine
 10
13.6694910113096
 20
8.093938398136993
 30
0.0
 11
13.6694910113096
 21
8.718938398136993
 31
0.0
  0
LINE
  5
F0
330
1E
100
AcDbEntity
  8
ADP1DETAIL
100
AcDbLine
 10
13.5444910113096
 20
7.968938398136993
 30
0.0
 11
13.5444910113096
 21
8.593938398136993
 31
0.0
  0
LINE
  5
F1
330
1E
100
AcDbEntity
  8
ADP1DETAIL
100
AcDbLine
 10
12.0444910113096
 20
10.09393839813699
 30
0.0
 11
13.6694910113096
 21
10.09393839813699
 31
0.0
  0
LINE
  5
F2
330
1E
100
AcDbEntity
  8
ADP1DETAIL
100
AcDbLine
 10
12.0444910113096
 20
10.21893839813699
 30
0.0
 11
13.5444910113096
 21
10.21893839813699
 31
0.0
  0
LINE
  5
F3
330
1E
100
AcDbEntity
  8
ADP1DETAIL
100
AcDbLine
 10
13.6694910113096
 20
10.09393839813699
 30
0.0
 11
13.6694910113096
 21
10.71893839813699
 31
0.0
  0
LINE
  5
F4
330
1E
100
AcDbEntity
  8
ADP1DETAIL
100
AcDbLine
 10
13.5444910113096
 20
10.21893839813699
 30
0.0
 11
13.5444910113096
 21
10.84393839813699
 31
0.0
  0
LINE
  5
F5
330
1E
100
AcDbEntity
  8
ADP1DETAIL
100
AcDbLine
 10
14.2284910113096
 20
8.652938398136992
 30
0.0
 11
14.2284910113096
 21
10.15993839813699
 31
0.0
  0
LINE
  5
F6
330
1E
100
AcDbEntity
  8
ADP1DETAIL
100
AcDbLine
 10
16.2632410113096
 20
6.028947948993284
 30
0.0
 11
17.9194910113096
 21
6.028947948993284
 31
0.0
  0
LINE
  5
F7
330
1E
100
AcDbEntity
  8
ADP1DETAIL
100
AcDbLine
 10
17.9194910113096
 20
5.028947948993284
 30
0.0
 11
16.1382410113096
 21
5.028947948993284
 31
0.0
  0
LINE
  5
F8
330
1E
100
AcDbEntity
  8
ADP1DETAIL
100
AcDbLine
 10
16.1382410113096
 20
5.716447948993284
 30
0.0
 11
17.9194910113096
 21
5.716447948993284
 31
0.0
  0
LINE
  5
F9
330
1E
100
AcDbEntity
  8
ADP1DETAIL
100
AcDbLine
 10
16.1382410113096
 20
5.903947948993284
 30
0.0
 11
17.9194910113096
 21
5.903947948993284
 31
0.0
  0
LINE
  5
FA
330
1E
100
AcDbEntity
  8
ADP1DETAIL
100
AcDbLine
 10
16.4194910113096
 20
6.185197948993284
 30
0.0
 11
17.9194910113096
 21
6.185197948993284
 31
0.0
  0
LINE
  5
FB
330
1E
100
AcDbEntity
  8
ADP1DETAIL
100
AcDbLine
 10
17.9194910113096
 20
4.716447948993284
 30
0.0
 11
16.2632410113096
 21
4.716447948993284
 31
0.0
  0
LINE
  5
FC
330
1E
100
AcDbEntity
  8
ADP1DETAIL
100
AcDbLine
 10
17.9194910113096
 20
4.841447948993284
 30
0.0
 11
16.1382410113096
 21
4.841447948993284
 31
0.0
  0
LINE
  5
FD
330
1E
100
AcDbEntity
  8
ADP1DETAIL
100
AcDbLine
 10
17.9194910113096
 20
4.560197948993284
 30
0.0
 11
16.4194910113096
 21
4.560197948993284
 31
0.0
  0
LINE
  5
FE
330
1E
100
AcDbEntity
  8
ADP1DETAIL
100
AcDbLine
 10
16.1382410113096
 20
6.528947948993284
 30
0.0
 11
16.1382410113096
 21
4.216447948993284
 31
0.0
  0
LINE
  5
FF
330
1E
100
AcDbEntity
  8
ADP1DETAIL
100
AcDbLine
 10
16.2632410113096
 20
4.716447948993284
 30
0.0
 11
16.2632410113096
 21
4.091447948993284
 31
0.0
  0
LINE
  5
100
330
1E
100
AcDbEntity
  8
ADP1DETAIL
100
AcDbLine
 10
15.8257410113096
 20
4.528947948993284
 30
0.0
 11
16.1382410113096
 21
4.528947948993284
 31
0.0
  0
LINE
  5
101
330
1E
100
AcDbEntity
  8
ADP1DETAIL
100
AcDbLine
 10
15.8257410113096
 20
4.403947948993284
 30
0.0
 11
15.8257410113096
 21
4.528947948993284
 31
0.0
  0
LINE
  5
102
330
1E
100
AcDbEntity
  8
ADP1DETAIL
100
AcDbLine
 10
16.4194910113096
 20
4.560197948993284
 30
0.0
 11
16.4194910113096
 21
3.935197948993284
 31
0.0
  0
LINE
  5
103
330
1E
100
AcDbEntity
  8
ADP1DETAIL
100
AcDbLine
 10
16.4194910113096
 20
6.810197948993284
 30
0.0
 11
16.4194910113096
 21
6.185197948993284
 31
0.0
  0
LINE
  5
104
330
1E
100
AcDbEntity
  8
ADP1DETAIL
100
AcDbLine
 10
16.2632410113096
 20
6.653947948993284
 30
0.0
 11
16.2632410113096
 21
6.028947948993284
 31
0.0
  0
LINE
  5
105
330
1E
100
AcDbEntity
  8
ADP1DETAIL
100
AcDbLine
 10
16.1382410113096
 20
6.216447948993284
 30
0.0
 11
15.8257410113096
 21
6.216447948993284
 31
0.0
  0
LINE
  5
106
330
1E
100
AcDbEntity
  8
ADP1DETAIL
100
AcDbLine
 10
15.8257410113096
 20
6.216447948993284
 30
0.0
 11
15.8257410113096
 21
6.341447948993284
 31
0.0
  0
LINE
  5
107
330
1E
100
AcDbEntity
  8
ADP1DETAIL
100
AcDbLine
 10
17.9194910113096
 20
6.185197948993284
 30
0.0
 11
17.9194910113096
 21
4.560197948993284
 31
0.0
  0
DIMENSION
  5
108
330
1E
100
AcDbEntity
  8
ADPDIM
100
AcDbDimension
  2
*D4
 10
17.9194910113096
 20
11.07709021663733
 30
0.0
 11
17.1694910113096
 21
11.07709021663733
 31
0.0
100
AcDbAlignedDimension
 13
16.4194910113096
 23
10.84393839813699
 33
0.0
 14
17.9194910113096
 24
10.21893839813699
 34
0.0
100
AcDbRotatedDimension
  0
LINE
  5
109
330
1E
100
AcDbEntity
  8
ADP1DETAIL
100
AcDbLine
 10
17.9194910113096
 20
8.718938398136993
 30
0.0
 11
16.2944910113096
 21
8.718938398136993
 31
0.0
  0
LINE
  5
10A
330
1E
100
AcDbEntity
  8
ADP1DETAIL
100
AcDbLine
 10
17.9194910113096
 20
8.593938398136993
 30
0.0
 11
16.4194910113096
 21
8.593938398136993
 31
0.0
  0
LINE
  5
10B
330
1E
100
AcDbEntity
  8
ADP1DETAIL
100
AcDbLine
 10
16.2944910113096
 20
10.09393839813699
 30
0.0
 11
17.9194910113096
 21
10.09393839813699
 31
0.0
  0
LINE
  5
10C
330
1E
100
AcDbEntity
  8
ADP1DETAIL
100
AcDbLine
 10
16.4194910113096
 20
10.21893839813699
 30
0.0
 11
17.9194910113096
 21
10.21893839813699
 31
0.0
  0
LINE
  5
10D
330
1E
100
AcDbEntity
  8
ADP1DETAIL
100
AcDbLine
 10
15.7354910113096
 20
10.15993839813699
 30
0.0
 11
15.7354910113096
 21
8.652938398136992
 31
0.0
  0
LINE
  5
10E
330
1E
100
AcDbEntity
  8
ADP1DETAIL
100
AcDbLine
 10
16.4194910113096
 20
7.968938398136993
 30
0.0
 11
15.7354910113096
 21
8.652938398136992
 31
0.0
  0
LINE
  5
10F
330
1E
100
AcDbEntity
  8
ADP1DETAIL
100
AcDbLine
 10
16.2944910113096
 20
8.718938398136993
 30
0.0
 11
16.2944910113096
 21
8.093938398136993
 31
0.0
  0
LINE
  5
110
330
1E
100
AcDbEntity
  8
ADP1DETAIL
100
AcDbLine
 10
16.4194910113096
 20
8.593938398136993
 30
0.0
 11
16.4194910113096
 21
7.968938398136993
 31
0.0
  0
LINE
  5
111
330
1E
100
AcDbEntity
  8
ADP1DETAIL
100
AcDbLine
 10
16.4194910113096
 20
8.593938398136993
 30
0.0
 11
15.7354910113096
 21
9.277938398136992
 31
0.0
  0
LINE
  5
112
330
1E
100
AcDbEntity
  8
ADP1DETAIL
100
AcDbLine
 10
16.4194910113096
 20
10.84393839813699
 30
0.0
 11
15.7354910113096
 21
10.15993839813699
 31
0.0
  0
LINE
  5
113
330
1E
100
AcDbEntity
  8
ADP1DETAIL
100
AcDbLine
 10
16.2944910113096
 20
10.71893839813699
 30
0.0
 11
16.2944910113096
 21
10.09393839813699
 31
0.0
  0
LINE
  5
114
330
1E
100
AcDbEntity
  8
ADP1DETAIL
100
AcDbLine
 10
16.4194910113096
 20
10.84393839813699
 30
0.0
 11
16.4194910113096
 21
10.21893839813699
 31
0.0
  0
LINE
  5
115
330
1E
100
AcDbEntity
  8
ADP1DETAIL
100
AcDbLine
 10
16.4194910113096
 20
10.21893839813699
 30
0.0
 11
15.7354910113096
 21
9.534938398136993
 31
0.0
  0
DIMENSION
  5
116
330
1E
100
AcDbEntity
  8
ADPDIM
100
AcDbDimension
  2
*D2
 10
18.42586352796368
 20
10.20791968905147
 30
0.0
 11
18.42586352796368
 21
9.400929043594233
 31
0.0
100
AcDbAlignedDimension
 13
19.34472021893421
 23
8.593938398136993
 33
0.0
 14
19.344641980448
 24
10.20791968905147
 34
0.0
 50
90.0
100
AcDbRotatedDimension
  0
LINE
  5
117
330
1E
100
AcDbEntity
  8
ADP1DETAIL
100
AcDbLine
 10
19.36738413128503
 20
9.399731125118574
 30
0.0
 11
19.36735213748121
 21
9.72973112356766
 31
0.0
  0
LINE
  5
118
330
1E
100
AcDbEntity
  8
ADP1DETAIL
100
AcDbLine
 10
19.02338411458286
 20
10.15441346857494
 30
0.0
 11
19.02338411458286
 21
8.647413468574944
 31
0.0
  0
LINE
  5
119
330
1E
100
AcDbEntity
  8
ADP1DETAIL
100
AcDbLine
 10
17.9194910113096
 20
10.21893839813699
 30
0.0
 11
17.9194910113096
 21
8.593938398136993
 31
0.0
  0
ARC
  5
11A
330
1E
100
AcDbEntity
  8
ADP1DETAIL
100
AcDbCircle
 10
19.42938398556726
 20
9.401237136068605
 30
0.0
 40
0.4060000000000001
100
AcDbArc
 50
136.9392315549051
 51
180.0456768061986
  0
LINE
  5
11B
330
1E
100
AcDbEntity
  8
ADP1DETAIL
100
AcDbLine
 10
19.24137852756115
 20
8.087854633210604
 30
0.0
 11
19.24136273929391
 21
8.713129163144078
 31
0.0
  0
LINE
  5
11C
330
1E
100
AcDbEntity
  8
ADP1DETAIL
100
AcDbLine
 10
19.21139709231385
 20
8.722681880890803
 30
0.0
 11
19.21037304410119
 21
8.102843654239848
 31
0.0
  0
ARC
  5
11D
330
1E
100
AcDbEntity
  8
ADP1DETAIL
100
AcDbCircle
 10
18.32775827242815
 20
8.104041838007493
 30
0.0
 40
0.8826936281513425
100
AcDbArc
 50
358.9647418692438
 51
37.99433047685981
  0
ARC
  5
11E
330
1E
100
AcDbEntity
  8
ADP1DETAIL
100
AcDbCircle
 10
19.22537304008326
 20
8.102854633210604
 30
0.0
 40
0.0150000000000006
100
AcDbArc
 50
180.0419365829274
 51
270.0
  0
LINE
  5
11F
330
1E
100
AcDbEntity
  8
ADP1DETAIL
100
AcDbLine
 10
19.25738401503903
 20
8.087854633210604
 30
0.0
 11
19.22537304008326
 21
8.087854633210604
 31
0.0
  0
ARC
  5
120
330
1E
100
AcDbEntity
  8
ADP1DETAIL
100
AcDbCircle
 10
19.42938401503903
 20
9.400629163144078
 30
0.0
 40
0.4060000000000001
100
AcDbArc
 50
179.9598780723828
 51
223.0663233236764
  0
ARC
  5
121
330
1E
100
AcDbEntity
  8
ADP1DETAIL
100
AcDbCircle
 10
18.85603437635978
 20
8.902302191231072
 30
0.0
 40
0.3542134459117149
100
AcDbArc
 50
359.8326154630628
 51
38.62185314587851
  0
LINE
  5
122
330
1E
100
AcDbEntity
  8
ADP1DETAIL
100
AcDbLine
 10
19.25738401503903
 20
8.713129163144078
 30
0.0
 11
19.22537304008326
 21
8.713129163144078
 31
0.0
  0
ARC
  5
123
330
1E
100
AcDbEntity
  8
ADP1DETAIL
100
AcDbCircle
 10
19.22537304008326
 20
8.728129163144078
 30
0.0
 40
0.0150000000000006
100
AcDbArc
 50
180.0419365829274
 51
270.0
  0
LINE
  5
124
330
1E
100
AcDbEntity
  8
ADP1DETAIL
100
AcDbLine
 10
19.21037304410119
 20
8.728118184173322
 30
0.0
 11
19.21024631072976
 21
8.901267389544305
 31
0.0
  0
ARC
  5
125
330
1E
100
AcDbEntity
  8
ADP1DETAIL
100
AcDbCircle
 10
19.38238401503903
 20
9.072129163144079
 30
0.0
 40
0.0150000000000006
100
AcDbArc
 50
180.0
 51
269.9999999999966
  0
LINE
  5
126
330
1E
100
AcDbEntity
  8
ADP1DETAIL
100
AcDbLine
 10
19.36738401503903
 20
9.402129163144078
 30
0.0
 11
19.36738401503903
 21
9.072129163144079
 31
0.0
  0
LINE
  5
127
330
1E
100
AcDbEntity
  8
ADP1DETAIL
100
AcDbLine
 10
19.24132800546511
 20
10.08871890709919
 30
0.0
 11
19.24131184521501
 21
10.72872535198151
 31
0.0
  0
LINE
  5
128
330
1E
100
AcDbEntity
  8
ADP1DETAIL
100
AcDbLine
 10
19.214704064075
 20
10.72433325497211
 30
0.0
 11
19.21364475111889
 21
10.0831499043653
 31
0.0
  0
ARC
  5
129
330
1E
100
AcDbEntity
  8
ADP1DETAIL
100
AcDbCircle
 10
18.32775827242815
 20
10.69778509914239
 30
0.0
 40
0.8826936281513425
100
AcDbArc
 50
322.0056695231401
 51
1.035258130756192
  0
LINE
  5
12A
330
1E
100
AcDbEntity
  8
ADP1DETAIL
100
AcDbLine
 10
19.25731733261768
 20
10.08872045727918
 30
0.0
 11
19.22530635781235
 21
10.08871735378569
 31
0.0
  0
ARC
  5
12B
330
1E
100
AcDbEntity
  8
ADP1DETAIL
100
AcDbCircle
 10
19.22530781207616
 20
10.07371735385618
 30
0.0
 40
0.0150000000000002
100
AcDbArc
 50
90.00555487858212
 51
179.9636182956563
  0
LINE
  5
12C
330
1E
100
AcDbEntity
  8
ADP1DETAIL
100
AcDbLine
 10
19.21030781510016
 20
10.07372687856346
 30
0.0
 11
19.2101978687042
 21
9.900577661719321
 31
0.0
  0
ARC
  5
12D
330
1E
100
AcDbEntity
  8
ADP1DETAIL
100
AcDbCircle
 10
18.8559860363239
 20
9.899508518864283
 30
0.0
 40
0.3542134459117149
100
AcDbArc
 50
321.383701732703
 51
0.1729394155187425
  0
ARC
  5
12E
330
1E
100
AcDbEntity
  8
ADP1DETAIL
100
AcDbCircle
 10
19.38235213741072
 20
9.72973257783147
 30
0.0
 40
0.0150000000000002
100
AcDbArc
 50
90.00555487858212
 51
180.005554878582
  0
ARC
  5
12F
330
1E
100
AcDbEntity
  8
ADP1DETAIL
100
AcDbCircle
 10
19.22530781207616
 20
10.71372380030526
 30
0.0
 40
0.0150000000000002
100
AcDbArc
 50
90.00555487858212
 51
179.9636182956563
  0
LINE
  5
130
330
1E
100
AcDbEntity
  8
ADP1DETAIL
100
AcDbLine
 10
19.25731733261768
 20
10.72872690372826
 30
0.0
 11
19.22530635781235
 21
10.72872380023477
 31
0.0
  0
DIMENSION
  5
131
330
1E
100
AcDbEntity
  8
ADPDIM
100
AcDbDimension
  2
*D3
 10
20.3651168600811
 20
9.932253809131392
 30
0.0
 11
20.3651168600811
 21
10.59892047579805
 31
0.0
100
AcDbAlignedDimension
 13
19.60138401503903
 23
8.869629163144079
 33
0.0
 14
19.60133250382004
 24
9.932253809131392
 34
0.0
 50
90.0
100
AcDbRotatedDimension
  0
LINE
  5
132
330
1E
100
AcDbEntity
  8
ADP1DETAIL
100
AcDbLine
 10
19.67932031817594
 20
10.69795282815664
 30
0.0
 11
19.67938401503903
 21
8.118669622215554
 31
0.0
  0
ARC
  5
133
330
1E
100
AcDbEntity
  8
ADP1DETAIL
100
AcDbCircle
 10
19.68852820416844
 20
7.868836910576015
 30
0.0
 40
0.25
100
AcDbArc
 50
92.09616134879359
 51
144.2334128028693
  0
ARC
  5
134
330
1E
100
AcDbEntity
  8
ADP1DETAIL
100
AcDbCircle
 10
19.66438401503903
 20
8.854629163144078
 30
0.0
 40
0.0150000000000006
100
AcDbArc
 50
0.0
 51
90.0
  0
LINE
  5
135
330
1E
100
AcDbEntity
  8
ADP1DETAIL
100
AcDbLine
 10
19.67938401503903
 20
8.854629163144078
 30
0.0
 11
19.67938401503903
 21
8.745138644535142
 31
0.0
  0
LINE
  5
136
330
1E
100
AcDbEntity
  8
ADP1DETAIL
100
AcDbLine
 10
19.52338401503903
 20
9.042129163144078
 30
0.0
 11
19.52338401503903
 21
8.884629163144079
 31
0.0
  0
ARC
  5
137
330
1E
100
AcDbEntity
  8
ADP1DETAIL
100
AcDbCircle
 10
19.53838401503903
 20
8.884629163144079
 30
0.0
 40
0.0150000000000006
100
AcDbArc
 50
180.0
 51
270.0
  0
ARC
  5
138
330
1E
100
AcDbEntity
  8
ADP1DETAIL
100
AcDbCircle
 10
19.50838401503903
 20
9.042129163144078
 30
0.0
 40
0.0150000000000006
100
AcDbArc
 50
0.0
 51
90.0
  0
LINE
  5
139
330
1E
100
AcDbEntity
  8
ADP1DETAIL
100
AcDbLine
 10
19.53838401503903
 20
8.869629163144079
 30
0.0
 11
19.66438401503903
 21
8.869629163144079
 31
0.0
  0
ARC
  5
13A
330
1E
100
AcDbEntity
  8
ADP1DETAIL
100
AcDbCircle
 10
19.66433104926015
 20
9.947259916968899
 30
0.0
 40
0.0150000000000037
100
AcDbArc
 50
270.0055548785889
 51
0.0055548785820747
  0
LINE
  5
13B
330
1E
100
AcDbEntity
  8
ADP1DETAIL
100
AcDbLine
 10
19.67933104918966
 20
9.947261371232709
 30
0.0
 11
19.67932043398308
 21
10.05675188932706
 31
0.0
  0
LINE
  5
13C
330
1E
100
AcDbEntity
  8
ADP1DETAIL
100
AcDbLine
 10
19.52334922822044
 20
9.759746247770287
 30
0.0
 11
19.52333395845044
 21
9.917246247030078
 31
0.0
  0
ARC
  5
13D
330
1E
100
AcDbEntity
  8
ADP1DETAIL
100
AcDbCircle
 10
19.53833395837994
 20
9.917247701293888
 30
0.0
 40
0.0150000000000002
100
AcDbArc
 50
90.00555487858212
 51
180.005554878582
  0
ARC
  5
13E
330
1E
100
AcDbEntity
  8
ADP1DETAIL
100
AcDbCircle
 10
19.50834922829093
 20
9.759744793506477
 30
0.0
 40
0.0150000000000002
100
AcDbArc
 50
270.005554878582
 51
0.0055548785820747
  0
LINE
  5
13F
330
1E
100
AcDbEntity
  8
ADP1DETAIL
100
AcDbLine
 10
19.53833250411613
 20
9.932247701223392
 30
0.0
 11
19.66433250352396
 21
9.932259917039392
 31
0.0
  0
TEXT
  5
143
330
1E
100
AcDbEntity
  8
ADPDIM
100
AcDbText
 10
7.969804190694103
 20
2.887261196592507
 30
0.0
 40
0.15625
  1
J U L I U S  B L U M  &  C O . ,  I N C .      ( 8 0 0 )  5 2 6 - 6 2 9 3        W W W . J U L I U S B L U M . C O M        P A R T  N o .  6 9 3 1 - T
 41
1.25
  7
ARIAL_WIDE
 72
     1
 11
16.33153732933666
 21
3.043511196592507
 31
0.0
100
AcDbText
 73
     3
  0
ENDSEC
  0
SECTION
  2
OBJECTS
  0
DICTIONARY
  5
C
330
0
100
AcDbDictionary
  3
ACAD_GROUP
350
D
  3
ACAD_LAYOUT
350
19
  3
ACAD_MLINESTYLE
350
16
  3
ACAD_PLOTSETTINGS
350
18
  3
ACAD_PLOTSTYLENAME
350
E
  3
ACDBHEADERROUNDTRIPXREC
350
2D6
  3
ACDBVARIABLEDICTIONARY
350
1B4
  0
DICTIONARY
  5
17F
330
1E
100
AcDbDictionary
280
     1
  3
ACAD_LAYOUTSELFREF
360
2F8
  0
DICTIONARY
  5
181
330
1A
100
AcDbDictionary
280
     1
  3
ACAD_LAYOUTSELFREF
360
2F7
  0
DICTIONARY
  5
D
102
{ACAD_REACTORS
330
C
102
}
330
C
100
AcDbDictionary
  0
DICTIONARY
  5
19
102
{ACAD_REACTORS
330
C
102
}
330
C
100
AcDbDictionary
  0
DICTIONARY
  5
16
102
{ACAD_REACTORS
330
C
102
}
330
C
100
AcDbDictionary
  3
STANDARD
350
17
  0
DICTIONARY
  5
18
102
{ACAD_REACTORS
330
C
102
}
330
C
100
AcDbDictionary
  0
ACDBDICTIONARYWDFLT
  5
E
102
{ACAD_REACTORS
330
C
102
}
330
C
100
AcDbDictionary
281
     1
  3
Normal
350
F
100
AcDbDictionaryWithDefault
340
F
  0
DICTIONARY
  5
2D6
102
{ACAD_REACTORS
330
C
102
}
330
C
100
AcDbDictionary
  3
CEPSNTYPE
350
2E0
  3
DIMSTYLEDATA
350
2E4
  3
FINGERPRINTGUID
350
2E1
  3
HYPERLINKBASE
350
2D9
  3
INSUNITS
350
2DF
  3
LAYOUTDICT
350
2DB
  3
LWETCUNION
350
2DE
  3
PLOTSETDICT
350
2DC
  3
PLOTSTYLNAMDICT
350
2DD
  3
PSVPSCALE
350
2E3
  3
PUCSBASE
350
2E7
  3
PUCSORGBACK
350
2ED
  3
PUCSORGBOTTOM
350
2E9
  3
PUCSORGFRONT
350
2EC
  3
PUCSORGLEFT
350
2EA
  3
PUCSORGRIGHT
350
2EB
  3
PUCSORGTOP
350
2E8
  3
PUCSORTHOREF
350
2E5
  3
PUCSORTHOVIEW
350
2E6
  3
STYLESHEET
350
2DA
  3
TSTACKALIGN
350
2D7
  3
TSTACKSIZE
350
2D8
  3
UCSBASE
350
2F0
  3
UCSORGBACK
350
2F6
  3
UCSORGBOTTOM
350
2F2
  3
UCSORGFRONT
350
2F5
  3
UCSORGLEFT
350
2F3
  3
UCSORGRIGHT
350
2F4
  3
UCSORGTOP
350
2F1
  3
UCSORTHOREF
350
2EE
  3
UCSORTHOVIEW
350
2EF
  3
VERSIONGUID
350
2E2
  0
DICTIONARY
  5
1B4
102
{ACAD_REACTORS
330
C
102
}
330
C
100
AcDbDictionary
  3
DIMASSOC
350
1B6
  3
HIDETEXT
350
1B5
  0
XRECORD
  5
2F8
102
{ACAD_REACTORS
330
17F
102
}
330
17F
100
AcDbXrecord
340
1E
  0
XRECORD
  5
2F7
102
{ACAD_REACTORS
330
181
102
}
330
181
100
AcDbXrecord
340
1A
  0
MLINESTYLE
  5
17
102
{ACAD_REACTORS
330
16
102
}
330
16
100
AcDbMlineStyle
  2
STANDARD
 70
     0
  3

 62
   256
 51
90.0
 52
90.0
 71
     2
 49
0.5
 62
   256
  6
BYLAYER
 49
-0.5
 62
   256
  6
BYLAYER
  0
ACDBPLACEHOLDER
  5
F
102
{ACAD_REACTORS
330
E
102
}
330
E
100
AcDbPlaceHolder
280
     0
  0
XRECORD
  5
2E0
102
{ACAD_REACTORS
330
2D6
102
}
330
2D6
100
AcDbXrecord
 90
        0
  0
XRECORD
  5
2E4
102
{ACAD_REACTORS
330
2D6
102
}
330
2D6
100
AcDbXrecord
1000
DSTYLE
1002
{
1070
   277
 70
     5
1070
   279
 70
     2
1002
}
  0
XRECORD
  5
2E1
102
{ACAD_REACTORS
330
2D6
102
}
330
2D6
100
AcDbXrecord
  1
{FE49F047-0742-4EC8-BE7A-FFCDD0A4A617}
  0
XRECORD
  5
2D9
102
{ACAD_REACTORS
330
2D6
102
}
330
2D6
100
AcDbXrecord
  1

  0
XRECORD
  5
2DF
102
{ACAD_REACTORS
330
2D6
102
}
330
2D6
100
AcDbXrecord
 90
        0
  0
XRECORD
  5
2DB
102
{ACAD_REACTORS
330
2D6
102
}
330
2D6
100
AcDbXrecord
340
19
  0
XRECORD
  5
2DE
102
{ACAD_REACTORS
330
2D6
102
}
330
2D6
100
AcDbXrecord
 90
    14877
  0
XRECORD
  5
2DC
102
{ACAD_REACTORS
330
2D6
102
}
330
2D6
100
AcDbXrecord
340
18
  0
XRECORD
  5
2DD
102
{ACAD_REACTORS
330
2D6
102
}
330
2D6
100
AcDbXrecord
340
E
  0
XRECORD
  5
2E3
102
{ACAD_REACTORS
330
2D6
102
}
330
2D6
100
AcDbXrecord
 40
0.0
  0
XRECORD
  5
2E7
102
{ACAD_REACTORS
330
2D6
102
}
330
2D6
100
AcDbXrecord
340
0
  0
XRECORD
  5
2ED
102
{ACAD_REACTORS
330
2D6
102
}
330
2D6
100
AcDbXrecord
 10
0.0
 20
0.0
 30
0.0
  0
XRECORD
  5
2E9
102
{ACAD_REACTORS
330
2D6
102
}
330
2D6
100
AcDbXrecord
 10
0.0
 20
0.0
 30
0.0
  0
XRECORD
  5
2EC
102
{ACAD_REACTORS
330
2D6
102
}
330
2D6
100
AcDbXrecord
 10
0.0
 20
0.0
 30
0.0
  0
XRECORD
  5
2EA
102
{ACAD_REACTORS
330
2D6
102
}
330
2D6
100
AcDbXrecord
 10
0.0
 20
0.0
 30
0.0
  0
XRECORD
  5
2EB
102
{ACAD_REACTORS
330
2D6
102
}
330
2D6
100
AcDbXrecord
 10
0.0
 20
0.0
 30
0.0
  0
XRECORD
  5
2E8
102
{ACAD_REACTORS
330
2D6
102
}
330
2D6
100
AcDbXrecord
 10
0.0
 20
0.0
 30
0.0
  0
XRECORD
  5
2E5
102
{ACAD_REACTORS
330
2D6
102
}
330
2D6
100
AcDbXrecord
340
0
  0
XRECORD
  5
2E6
102
{ACAD_REACTORS
330
2D6
102
}
330
2D6
100
AcDbXrecord
 70
     0
  0
XRECORD
  5
2DA
102
{ACAD_REACTORS
330
2D6
102
}
330
2D6
100
AcDbXrecord
  1

  0
XRECORD
  5
2D7
102
{ACAD_REACTORS
330
2D6
102
}
330
2D6
100
AcDbXrecord
 90
        1
  0
XRECORD
  5
2D8
102
{ACAD_REACTORS
330
2D6
102
}
330
2D6
100
AcDbXrecord
 90
       70
  0
XRECORD
  5
2F0
102
{ACAD_REACTORS
330
2D6
102
}
330
2D6
100
AcDbXrecord
340
0
  0
XRECORD
  5
2F6
102
{ACAD_REACTORS
330
2D6
102
}
330
2D6
100
AcDbXrecord
 10
0.0
 20
0.0
 30
0.0
  0
XRECORD
  5
2F2
102
{ACAD_REACTORS
330
2D6
102
}
330
2D6
100
AcDbXrecord
 10
0.0
 20
0.0
 30
0.0
  0
XRECORD
  5
2F5
102
{ACAD_REACTORS
330
2D6
102
}
330
2D6
100
AcDbXrecord
 10
0.0
 20
0.0
 30
0.0
  0
XRECORD
  5
2F3
102
{ACAD_REACTORS
330
2D6
102
}
330
2D6
100
AcDbXrecord
 10
0.0
 20
0.0
 30
0.0
  0
XRECORD
  5
2F4
102
{ACAD_REACTORS
330
2D6
102
}
330
2D6
100
AcDbXrecord
 10
0.0
 20
0.0
 30
0.0
  0
XRECORD
  5
2F1
102
{ACAD_REACTORS
330
2D6
102
}
330
2D6
100
AcDbXrecord
 10
0.0
 20
0.0
 30
0.0
  0
XRECORD
  5
2EE
102
{ACAD_REACTORS
330
2D6
102
}
330
2D6
100
AcDbXrecord
340
0
  0
XRECORD
  5
2EF
102
{ACAD_REACTORS
330
2D6
102
}
330
2D6
100
AcDbXrecord
 70
     0
  0
XRECORD
  5
2E2
102
{ACAD_REACTORS
330
2D6
102
}
330
2D6
100
AcDbXrecord
  1
{5D4C96C1-68EC-43FB-9E75-341B18464422}
  0
DICTIONARYVAR
  5
1B6
102
{ACAD_REACTORS
330
1B4
102
}
330
1B4
100
DictionaryVariables
280
     0
  1
2
  0
DICTIONARYVAR
  5
1B5
102
{ACAD_REACTORS
330
1B4
102
}
330
1B4
100
DictionaryVariables
280
     0
  1
1
  0
ENDSEC
  0
EOF
