  0
SECTION
  2
HEADER
  9
$ACADVER
  1
AC1014
  9
$ACADMAINTVER
 70
     9
  9
$DWGCODEPAGE
  3
ANSI_1252
  9
$INSBASE
 10
-9.539313895254029
 20
8.716599935993357
 30
0.0
  9
$EXTMIN
 10
-18.39921698995959
 20
5.674146728174871
 30
0.0
  9
$EXTMAX
 10
1.705393770613394
 20
15.29058532249795
 30
0.0
  9
$LIMMIN
 10
0.0
 20
0.0
  9
$LIMMAX
 10
36.0
 20
36.0
  9
$ORTHOMODE
 70
     1
  9
$REGENMODE
 70
     1
  9
$FILLMODE
 70
     1
  9
$QTEXTMODE
 70
     0
  9
$MIRRTEXT
 70
     1
  9
$DRAGMODE
 70
     0
  9
$LTSCALE
 40
1.0
  9
$OSMODE
 70
    37
  9
$ATTMODE
 70
     1
  9
$TEXTSIZE
 40
0.2
  9
$TRACEWID
 40
0.05
  9
$TEXTSTYLE
  7
STANDARD
  9
$CLAYER
  8
X
  9
$CELTYPE
  6
BYLAYER
  9
$CECOLOR
 62
   256
  9
$CELTSCALE
 40
1.0
  9
$DELOBJ
 70
     1
  9
$DISPSILH
 70
     0
  9
$DIMSCALE
 40
1.0
  9
$DIMASZ
 40
0.125
  9
$DIMEXO
 40
0.0625
  9
$DIMDLI
 40
0.38
  9
$DIMRND
 40
0.0
  9
$DIMDLE
 40
0.0
  9
$DIMEXE
 40
0.18
  9
$DIMTP
 40
0.0
  9
$DIMTM
 40
0.0
  9
$DIMTXT
 40
0.125
  9
$DIMCEN
 40
0.1875
  9
$DIMTSZ
 40
0.125
  9
$DIMTOL
 70
     0
  9
$DIMLIM
 70
     0
  9
$DIMTIH
 70
     0
  9
$DIMTOH
 70
     0
  9
$DIMSE1
 70
     0
  9
$DIMSE2
 70
     0
  9
$DIMTAD
 70
     0
  9
$DIMZIN
 70
     3
  9
$DIMBLK
  1

  9
$DIMASO
 70
     1
  9
$DIMSHO
 70
     1
  9
$DIMPOST
  1

  9
$DIMAPOST
  1

  9
$DIMALT
 70
     0
  9
$DIMALTD
 70
     1
  9
$DIMALTF
 40
25.4
  9
$DIMLFAC
 40
1.0
  9
$DIMTOFL
 70
     0
  9
$DIMTVP
 40
0.0
  9
$DIMTIX
 70
     0
  9
$DIMSOXD
 70
     0
  9
$DIMSAH
 70
     0
  9
$DIMBLK1
  1

  9
$DIMBLK2
  1

  9
$DIMSTYLE
  2
STANDARD
  9
$DIMCLRD
 70
     0
  9
$DIMCLRE
 70
     0
  9
$DIMCLRT
 70
     0
  9
$DIMTFAC
 40
1.0
  9
$DIMGAP
 40
0.125
  9
$DIMJUST
 70
     0
  9
$DIMSD1
 70
     0
  9
$DIMSD2
 70
     0
  9
$DIMTOLJ
 70
     1
  9
$DIMTZIN
 70
     3
  9
$DIMALTZ
 70
     3
  9
$DIMALTTZ
 70
     3
  9
$DIMFIT
 70
     5
  9
$DIMUPT
 70
     0
  9
$DIMUNIT
 70
     5
  9
$DIMDEC
 70
     4
  9
$DIMTDEC
 70
     4
  9
$DIMALTU
 70
     5
  9
$DIMALTTD
 70
     1
  9
$DIMTXSTY
  7
STANDARD
  9
$DIMAUNIT
 70
     0
  9
$LUNITS
 70
     5
  9
$LUPREC
 70
     4
  9
$SKETCHINC
 40
0.1
  9
$FILLETRAD
 40
0.187
  9
$AUNITS
 70
     0
  9
$AUPREC
 70
     0
  9
$MENU
  1
acad
  9
$ELEVATION
 40
0.0
  9
$PELEVATION
 40
0.0
  9
$THICKNESS
 40
0.0
  9
$LIMCHECK
 70
     0
  9
$BLIPMODE
 70
     0
  9
$CHAMFERA
 40
0.0
  9
$CHAMFERB
 40
0.0
  9
$CHAMFERC
 40
0.0
  9
$CHAMFERD
 40
0.0
  9
$SKPOLY
 70
     0
  9
$TDCREATE
 40
2450399.665773727
  9
$TDUPDATE
 40
2452297.096246562
  9
$TDINDWG
 40
0.0373607523
  9
$TDUSRTIMER
 40
0.0373607523
  9
$USRTIMER
 70
     1
  9
$ANGBASE
 50
0.0
  9
$ANGDIR
 70
     0
  9
$PDMODE
 70
     0
  9
$PDSIZE
 40
0.0
  9
$PLINEWID
 40
0.0
  9
$COORDS
 70
     2
  9
$SPLFRAME
 70
     0
  9
$SPLINETYPE
 70
     6
  9
$SPLINESEGS
 70
     8
  9
$ATTDIA
 70
     0
  9
$ATTREQ
 70
     1
  9
$HANDLING
 70
 22529
  9
$HANDSEED
  5
2AF
  9
$SURFTAB1
 70
     6
  9
$SURFTAB2
 70
     6
  9
$SURFTYPE
 70
     6
  9
$SURFU
 70
     6
  9
$SURFV
 70
     6
  9
$UCSNAME
  2

  9
$UCSORG
 10
0.0
 20
0.0
 30
0.0
  9
$UCSXDIR
 10
1.0
 20
0.0
 30
0.0
  9
$UCSYDIR
 10
0.0
 20
1.0
 30
0.0
  9
$PUCSNAME
  2

  9
$PUCSORG
 10
0.0
 20
0.0
 30
0.0
  9
$PUCSXDIR
 10
1.0
 20
0.0
 30
0.0
  9
$PUCSYDIR
 10
0.0
 20
1.0
 30
0.0
  9
$USERI1
 70
     0
  9
$USERI2
 70
     0
  9
$USERI3
 70
     0
  9
$USERI4
 70
     0
  9
$USERI5
 70
     0
  9
$USERR1
 40
0.0
  9
$USERR2
 40
0.0
  9
$USERR3
 40
0.0
  9
$USERR4
 40
0.0
  9
$USERR5
 40
0.0
  9
$WORLDVIEW
 70
     1
  9
$SHADEDGE
 70
     3
  9
$SHADEDIF
 70
    70
  9
$TILEMODE
 70
     1
  9
$MAXACTVP
 70
    15
  9
$PINSBASE
 10
0.0004882914945483
 20
0.7501408034022604
 30
0.0
  9
$PLIMCHECK
 70
     0
  9
$PEXTMIN
 10
1.000000000000000E+20
 20
1.000000000000000E+20
 30
1.000000000000000E+20
  9
$PEXTMAX
 10
-1.000000000000000E+20
 20
-1.000000000000000E+20
 30
-1.000000000000000E+20
  9
$PLIMMIN
 10
0.0
 20
0.0
  9
$PLIMMAX
 10
12.0
 20
9.0
  9
$UNITMODE
 70
     0
  9
$VISRETAIN
 70
     0
  9
$PLINEGEN
 70
     0
  9
$PSLTSCALE
 70
     1
  9
$TREEDEPTH
 70
  3020
  9
$PICKSTYLE
 70
     1
  9
$CMLSTYLE
  2
STANDARD
  9
$CMLJUST
 70
     0
  9
$CMLSCALE
 40
1.0
  9
$PROXYGRAPHICS
 70
     1
  9
$MEASUREMENT
 70
     0
  0
ENDSEC
  0
SECTION
  2
CLASSES
  0
CLASS
  1
ACDBDICTIONARYWDFLT
  2
AcDbDictionaryWithDefault
  3
AutoCAD 2000
 90
        0
280
     0
281
     0
  0
CLASS
  1
ACDBPLACEHOLDER
  2
AcDbPlaceHolder
  3
AutoCAD 2000
 90
        0
280
     0
281
     0
  0
CLASS
  1
LAYOUT
  2
AcDbLayout
  3
AutoCAD 2000
 90
        0
280
     0
281
     0
  0
CLASS
  1
DICTIONARYVAR
  2
AcDbDictionaryVar
  3
AutoCAD 2000
 90
        0
280
     0
281
     0
  0
CLASS
  1
LONG_TRANSACTION
  2
AcDbLongTransaction
  3
AutoCAD 2000
 90
        0
280
     0
281
     0
  0
CLASS
  1
LWPOLYLINE
  2
AcDbPolyline
  3
AutoCAD 2000
 90
        0
280
     0
281
     1
  0
CLASS
  1
HATCH
  2
AcDbHatch
  3
AutoCAD 2000
 90
        0
280
     0
281
     1
  0
CLASS
  1
XRECORD
  2
AcDbXrecord
  3
AutoCAD 2000
 90
        0
280
     0
281
     0
  0
CLASS
  1
LONG_TRANSACTION
  2
AcDbLongTransaction
  3
AutoCAD 2000
 90
        0
280
     0
281
     0
  0
CLASS
  1
LWPOLYLINE
  2
AcDbPolyline
  3
AutoCAD 2000
 90
        0
280
     0
281
     1
  0
CLASS
  1
HATCH
  2
AcDbHatch
  3
AutoCAD 2000
 90
        0
280
     0
281
     1
  0
CLASS
  1
XRECORD
  2
AcDbXrecord
  3
AutoCAD 2000
 90
        0
280
     0
281
     0
  0
CLASS
  1
LONG_TRANSACTION
  2
AcDbLongTransaction
  3
AutoCAD 2000
 90
        0
280
     0
281
     0
  0
CLASS
  1
LWPOLYLINE
  2
AcDbPolyline
  3
AutoCAD 2000
 90
        0
280
     0
281
     1
  0
CLASS
  1
HATCH
  2
AcDbHatch
  3
AutoCAD 2000
 90
        0
280
     0
281
     1
  0
CLASS
  1
XRECORD
  2
AcDbXrecord
  3
AutoCAD 2000
 90
        0
280
     0
281
     0
  0
CLASS
  1
LONG_TRANSACTION
  2
AcDbLongTransaction
  3
AutoCAD 2000
 90
        0
280
     0
281
     0
  0
CLASS
  1
LWPOLYLINE
  2
AcDbPolyline
  3
AutoCAD 2000
 90
        0
280
     0
281
     1
  0
CLASS
  1
HATCH
  2
AcDbHatch
  3
AutoCAD 2000
 90
        0
280
     0
281
     1
  0
CLASS
  1
XRECORD
  2
AcDbXrecord
  3
AutoCAD 2000
 90
        0
280
     0
281
     0
  0
CLASS
  1
LONG_TRANSACTION
  2
AcDbLongTransaction
  3
AutoCAD 2000
 90
        0
280
     0
281
     0
  0
CLASS
  1
LWPOLYLINE
  2
AcDbPolyline
  3
AutoCAD 2000
 90
        0
280
     0
281
     1
  0
CLASS
  1
HATCH
  2
AcDbHatch
  3
AutoCAD 2000
 90
        0
280
     0
281
     1
  0
CLASS
  1
XRECORD
  2
AcDbXrecord
  3
AutoCAD 2000
 90
        0
280
     0
281
     0
  0
ENDSEC
  0
SECTION
  2
TABLES
  0
TABLE
  2
VPORT
  5
8
330
0
100
AcDbSymbolTable
 70
     2
  0
VPORT
  5
28B
330
8
100
AcDbSymbolTableRecord
100
AcDbViewportTableRecord
  2
*ACTIVE
 70
     0
 10
0.0
 20
0.0
 11
1.0
 21
1.0
 12
-8.330465051017695
 22
10.48260505553638
 13
0.0
 23
0.0
 14
0.5740882589684922
 24
0.5740882589684922
 15
0.5
 25
0.5
 16
0.0
 26
0.0
 36
1.0
 17
0.0
 27
0.0
 37
0.0
 40
12.88378830563964
 41
1.570528967254408
 42
50.0
 43
0.0
 44
0.0
 50
0.0
 51
0.0
 71
     0
 72
   100
 73
     1
 74
     0
 75
     0
 76
     0
 77
     0
 78
     0
  0
ENDTAB
  0
TABLE
  2
LTYPE
  5
5
330
0
100
AcDbSymbolTable
 70
     2
  0
LTYPE
  5
13
330
5
100
AcDbSymbolTableRecord
100
AcDbLinetypeTableRecord
  2
BYBLOCK
 70
     0
  3

 72
    65
 73
     0
 40
0.0
  0
LTYPE
  5
14
330
5
100
AcDbSymbolTableRecord
100
AcDbLinetypeTableRecord
  2
BYLAYER
 70
     0
  3

 72
    65
 73
     0
 40
0.0
  0
LTYPE
  5
15
330
5
100
AcDbSymbolTableRecord
100
AcDbLinetypeTableRecord
  2
CONTINUOUS
 70
     0
  3
Solid line
 72
    65
 73
     0
 40
0.0
  0
LTYPE
  5
85
330
5
100
AcDbSymbolTableRecord
100
AcDbLinetypeTableRecord
  2
CENTER2
 70
     0
  3
___ _ ___ _ ___ _ ___ _ ___ _ ___ _ ___ _ ___ _
 72
    65
 73
     4
 40
1.125
 49
0.75
 74
     0
 49
-0.125
 74
     0
 49
0.125
 74
     0
 49
-0.125
 74
     0
  0
ENDTAB
  0
TABLE
  2
LAYER
  5
2
330
0
100
AcDbSymbolTable
 70
     6
  0
LAYER
  5
10
330
2
100
AcDbSymbolTableRecord
100
AcDbLayerTableRecord
  2
0
 70
     0
 62
     7
  6
CONTINUOUS
  0
LAYER
  5
87
330
2
100
AcDbSymbolTableRecord
100
AcDbLayerTableRecord
  2
X
 70
     0
 62
     3
  6
CONTINUOUS
  0
LAYER
  5
89
330
2
100
AcDbSymbolTableRecord
100
AcDbLayerTableRecord
  2
ADP1DETAIL
 70
     0
 62
     7
  6
CONTINUOUS
  0
LAYER
  5
8A
330
2
100
AcDbSymbolTableRecord
100
AcDbLayerTableRecord
  2
ADP3DETAIL
 70
     0
 62
     1
  6
CONTINUOUS
  0
LAYER
  5
8B
330
2
100
AcDbSymbolTableRecord
100
AcDbLayerTableRecord
  2
DEFPOINTS
 70
     0
 62
     7
  6
CONTINUOUS
  0
LAYER
  5
8C
330
2
100
AcDbSymbolTableRecord
100
AcDbLayerTableRecord
  2
ADPDIM
 70
     0
 62
     3
  6
CONTINUOUS
  0
ENDTAB
  0
TABLE
  2
STYLE
  5
3
330
0
100
AcDbSymbolTable
 70
     2
  0
STYLE
  5
11
330
3
100
AcDbSymbolTableRecord
100
AcDbTextStyleTableRecord
  2
STANDARD
 70
     0
 40
0.0
 41
1.0
 50
0.0
 71
     0
 42
0.2
  3
txt
  4

  0
STYLE
  5
F8
330
3
100
AcDbSymbolTableRecord
100
AcDbTextStyleTableRecord
  2
ARIAL_WIDE
 70
     0
 40
0.0
 41
1.25
 50
0.0
 71
     0
 42
0.2
  3
ARIAL.TTF
  4

1001
ACAD
1000
Arial
1071
       34
  0
ENDTAB
  0
TABLE
  2
VIEW
  5
6
330
0
100
AcDbSymbolTable
 70
     0
  0
ENDTAB
  0
TABLE
  2
UCS
  5
7
330
0
100
AcDbSymbolTable
 70
     0
  0
ENDTAB
  0
TABLE
  2
APPID
  5
9
330
0
100
AcDbSymbolTable
 70
     1
  0
APPID
  5
12
330
9
100
AcDbSymbolTableRecord
100
AcDbRegAppTableRecord
  2
ACAD
 70
     0
  0
ENDTAB
  0
TABLE
  2
DIMSTYLE
  5
A
330
0
100
AcDbSymbolTable
 70
     1
  0
DIMSTYLE
105
F6
330
A
100
AcDbSymbolTableRecord
100
AcDbDimStyleTableRecord
  2
STANDARD
 70
     0
  3

  4

  5

  6

  7

 40
1.0
 41
0.18
 42
0.0625
 43
0.38
 44
0.18
 45
0.0
 46
0.0
 47
0.0
 48
0.0
140
0.18
141
0.09
142
0.0
143
25.4
144
1.0
145
0.0
146
1.0
147
0.09
 71
     0
 72
     0
 73
     1
 74
     1
 75
     0
 76
     0
 77
     0
 78
     0
170
     0
171
     2
172
     0
173
     0
174
     0
175
     0
176
     0
177
     0
178
     0
270
     2
271
     4
272
     4
273
     2
274
     2
340
11
275
     0
280
     0
281
     0
282
     0
283
     1
284
     0
285
     0
286
     0
287
     3
288
     0
  0
ENDTAB
  0
TABLE
  2
BLOCK_RECORD
  5
1
330
0
100
AcDbSymbolTable
 70
     5
  0
BLOCK_RECORD
  5
1E
102
{ACAD_XDICTIONARY
360
135
102
}
330
1
100
AcDbSymbolTableRecord
100
AcDbBlockTableRecord
  2
*MODEL_SPACE
  0
BLOCK_RECORD
  5
1A
102
{ACAD_XDICTIONARY
360
137
102
}
330
1
100
AcDbSymbolTableRecord
100
AcDbBlockTableRecord
  2
*PAPER_SPACE
  0
BLOCK_RECORD
  5
29
330
1
100
AcDbSymbolTableRecord
100
AcDbBlockTableRecord
  2
6931
  0
BLOCK_RECORD
  5
6A
330
1
100
AcDbSymbolTableRecord
100
AcDbBlockTableRecord
  2
*D1
  0
BLOCK_RECORD
  5
7D
330
1
100
AcDbSymbolTableRecord
100
AcDbBlockTableRecord
  2
*D2
  0
BLOCK_RECORD
  5
7E
330
1
100
AcDbSymbolTableRecord
100
AcDbBlockTableRecord
  2
*D3
  0
BLOCK_RECORD
  5
80
330
1
100
AcDbSymbolTableRecord
100
AcDbBlockTableRecord
  2
*D4
  0
ENDTAB
  0
ENDSEC
  0
SECTION
  2
BLOCKS
  0
BLOCK
  5
8F
330
1E
100
AcDbEntity
  8
0
100
AcDbBlockBegin
  2
*MODEL_SPACE
 70
     0
 10
0.0
 20
0.0
 30
0.0
  3
*MODEL_SPACE
  1

  0
ENDBLK
  5
90
330
1E
100
AcDbEntity
  8
0
100
AcDbBlockEnd
  0
BLOCK
  5
8D
330
1A
100
AcDbEntity
 67
     1
  8
0
100
AcDbBlockBegin
  2
*PAPER_SPACE
 70
     0
 10
0.0
 20
0.0
 30
0.0
  3
*PAPER_SPACE
  1

  0
ENDBLK
  5
8E
330
1A
100
AcDbEntity
 67
     1
  8
0
100
AcDbBlockEnd
  0
BLOCK
  5
92
330
29
100
AcDbEntity
  8
0
100
AcDbBlockBegin
  2
6931
 70
     0
 10
0.0
 20
0.0
 30
0.0
  3
6931
  1

  0
LINE
  5
93
330
29
100
AcDbEntity
  8
0
100
AcDbLine
 10
0.1526229329345945
 20
0.4970938740557234
 30
0.0
 11
0.3257721383055774
 21
0.4972206074271526
 31
0.0
  0
ARC
  5
94
330
29
100
AcDbEntity
  8
0
100
AcDbCircle
 10
0.3091339119053522
 20
0.1690829031178822
 30
0.0
 40
0.0150000000000006
100
AcDbArc
 50
90.0
 51
180.0
  0
LINE
  5
95
330
29
100
AcDbEntity
  8
0
100
AcDbLine
 10
0.2941339119053516
 20
0.1690829031178822
 30
0.0
 11
0.2941339119053516
 21
0.043082903117881
 31
0.0
  0
ARC
  5
96
330
29
100
AcDbEntity
  8
0
100
AcDbCircle
 10
-0.0813838107292391
 20
0.0189387139884687
 30
0.0
 40
0.25
100
AcDbArc
 50
2.096161348793594
 51
54.23341280286933
  0
LINE
  5
97
330
29
100
AcDbEntity
  8
0
100
AcDbLine
 10
0.2791339119053511
 20
0.0280829031178804
 30
0.0
 11
0.1696433932964148
 21
0.0280829031178804
 31
0.0
  0
ARC
  5
98
330
29
100
AcDbEntity
  8
0
100
AcDbCircle
 10
0.2791339119053511
 20
0.043082903117881
 30
0.0
 40
0.0150000000000006
100
AcDbArc
 50
270.0
 51
0.0
  0
ARC
  5
99
330
29
100
AcDbEntity
  8
0
100
AcDbCircle
 10
0.1376339119053505
 20
0.325082903117881
 30
0.0
 40
0.125
100
AcDbArc
 50
90.0
 51
234.927352164704
  0
ARC
  5
9A
330
29
100
AcDbEntity
  8
0
100
AcDbCircle
 10
0.152633911905351
 20
0.4820938780736502
 30
0.0
 40
0.0150000000000006
100
AcDbArc
 50
90.0419365829275
 51
180.0
  0
LINE
  5
9B
330
29
100
AcDbEntity
  8
0
100
AcDbLine
 10
0.1376339119053505
 20
0.4500829031178811
 30
0.0
 11
0.1376339119053505
 21
0.4820938780736502
 31
0.0
  0
LINE
  5
9C
330
29
100
AcDbEntity
  8
0
100
AcDbLine
 10
1.498231627324742
 20
0.4971591030567524
 30
0.0
 11
1.325082410480593
 21
0.497269049452715
 31
0.0
  0
LINE
  5
9D
330
29
100
AcDbEntity
  8
0
100
AcDbLine
 10
1.371766119993981
 20
0.0281358689672562
 30
0.0
 11
1.481256638088336
 21
0.0281464841738384
 31
0.0
  0
ARC
  5
9E
330
29
100
AcDbEntity
  8
0
100
AcDbCircle
 10
1.324013267625556
 20
0.8514808818330124
 30
0.0
 40
0.3542134459117149
100
AcDbArc
 50
231.383701732703
 51
270.1729394155187
  0
ARC
  5
9F
330
29
100
AcDbEntity
  8
0
100
AcDbCircle
 10
0.3268069399923448
 20
0.8514325417971289
 30
0.0
 40
0.3542134459117149
100
AcDbArc
 50
269.8326154630628
 51
308.6218531458785
  0
LINE
  5
A0
330
29
100
AcDbEntity
  8
0
100
AcDbLine
 10
0.8242358738798465
 20
0.3400827868718839
 30
0.0
 11
1.154235872328932
 21
0.3401147806756981
 31
0.0
  0
LINE
  5
A1
330
29
100
AcDbEntity
  8
0
100
AcDbLine
 10
0.8266339119053505
 20
0.3400829031178816
 30
0.0
 11
0.4966339119053523
 21
0.3400829031178816
 31
0.0
  0
ARC
  5
A2
330
29
100
AcDbEntity
  8
0
100
AcDbCircle
 10
0.4666339119053511
 20
0.1990829031178816
 30
0.0
 40
0.0150000000000006
100
AcDbArc
 50
270.0
 51
0.0
  0
LINE
  5
A3
330
29
100
AcDbEntity
  8
0
100
AcDbLine
 10
0.4816339119053517
 20
0.325082903117881
 30
0.0
 11
0.4816339119053517
 21
0.1990829031178816
 31
0.0
  0
ARC
  5
A4
330
29
100
AcDbEntity
  8
0
100
AcDbCircle
 10
0.4966339119053523
 20
0.325082903117881
 30
0.0
 40
0.0150000000000006
100
AcDbArc
 50
90.0
 51
179.9999999999966
  0
LINE
  5
A5
330
29
100
AcDbEntity
  8
0
100
AcDbLine
 10
0.4666339119053511
 20
0.1840829031178828
 30
0.0
 11
0.3091339119053522
 21
0.1840829031178828
 31
0.0
  0
LINE
  5
A6
330
29
100
AcDbEntity
  8
0
100
AcDbLine
 10
1.356752449984664
 20
0.1691344140407835
 30
0.0
 11
1.356764665800664
 21
0.0431344146329504
 31
0.0
  0
ARC
  5
A7
330
29
100
AcDbEntity
  8
0
100
AcDbCircle
 10
1.371764665730172
 20
0.043135868896762
 30
0.0
 40
0.0150000000000037
100
AcDbArc
 50
180.0055548785889
 51
270.005554878582
  0
ARC
  5
A8
330
29
100
AcDbEntity
  8
0
100
AcDbCircle
 10
1.34175245005516
 20
0.1691329597769737
 30
0.0
 40
0.0150000000000002
100
AcDbArc
 50
0.005554878582119
 51
90.00555487858212
  0
ARC
  5
A9
330
29
100
AcDbEntity
  8
0
100
AcDbCircle
 10
1.18424954226775
 20
0.1991176898659788
 30
0.0
 40
0.0150000000000002
100
AcDbArc
 50
180.005554878582
 51
270.005554878582
  0
LINE
  5
AA
330
29
100
AcDbEntity
  8
0
100
AcDbLine
 10
1.169237326522246
 20
0.3251162350100039
 30
0.0
 11
1.169249542338246
 21
0.1991162356021689
 31
0.0
  0
ARC
  5
AB
330
29
100
AcDbEntity
  8
0
100
AcDbCircle
 10
1.154237326592742
 20
0.325114780746194
 30
0.0
 40
0.0150000000000002
100
AcDbArc
 50
0.005554878582119
 51
90.00555487858212
  0
LINE
  5
AC
330
29
100
AcDbEntity
  8
0
100
AcDbLine
 10
1.184250996531559
 20
0.1841176899364747
 30
0.0
 11
1.34175099579135
 21
0.1841329597064778
 31
0.0
  0
ARC
  5
AD
330
29
100
AcDbEntity
  8
0
100
AcDbCircle
 10
0.8257418848298776
 20
0.2780829325896494
 30
0.0
 40
0.4060000000000001
100
AcDbArc
 50
46.93923155490511
 51
90.04567680619867
  0
ARC
  5
AE
330
29
100
AcDbEntity
  8
0
100
AcDbCircle
 10
0.8251339119053504
 20
0.2780829031178804
 30
0.0
 40
0.4060000000000001
100
AcDbArc
 50
89.95987807238291
 51
133.0663233236764
  0
ARC
  5
AF
330
29
100
AcDbEntity
  8
0
100
AcDbCircle
 10
1.732284727471782
 20
0.0190266324059376
 30
0.0
 40
0.25
100
AcDbArc
 50
125.7721420757122
 51
177.9093935297879
  0
ARC
  5
B0
330
29
100
AcDbEntity
  8
0
100
AcDbCircle
 10
1.498222102617457
 20
0.4821591060807542
 30
0.0
 40
0.0150000000000002
100
AcDbArc
 50
0.005554878582119
 51
89.96361829565627
  0
LINE
  5
B1
330
29
100
AcDbEntity
  8
0
100
AcDbLine
 10
1.513225206040456
 20
0.4501495855392364
 30
0.0
 11
1.513222102546961
 21
0.482160560344564
 31
0.0
  0
ARC
  5
B2
330
29
100
AcDbEntity
  8
0
100
AcDbCircle
 10
1.513237324905535
 20
0.325149586126706
 30
0.0
 40
0.125
100
AcDbArc
 50
305.0782027138775
 51
90.00555487858157
  0
ENDBLK
  5
B3
330
29
100
AcDbEntity
  8
0
100
AcDbBlockEnd
  0
BLOCK
  5
B4
330
6A
100
AcDbEntity
  8
0
100
AcDbBlockBegin
  2
*D1
 70
     1
 10
0.0
 20
0.0
 30
0.0
  3
*D1
  1

  0
LINE
  5
B5
330
6A
100
AcDbEntity
  8
0
  6
BYBLOCK
 62
     0
100
AcDbLine
 10
-6.115966476843109
 20
-5.005188068345523
 30
0.0
 11
-4.975587339244189
 21
-5.005188068345523
 31
0.0
  0
LINE
  5
B6
330
6A
100
AcDbEntity
  8
0
  6
BYBLOCK
 62
     0
100
AcDbLine
 10
-4.874525618152173
 20
-2.496635833268951
 30
0.0
 11
-5.335587339244188
 21
-2.496635833268951
 31
0.0
  0
LINE
  5
B7
330
6A
100
AcDbEntity
  8
0
  6
BYBLOCK
 62
     0
100
AcDbLine
 10
-5.155587339244188
 20
-5.005188068345523
 30
0.0
 11
-5.155587339244188
 21
-4.14674528414057
 31
0.0
  0
LINE
  5
B8
330
6A
100
AcDbEntity
  8
0
  6
BYBLOCK
 62
     0
100
AcDbLine
 10
-5.155587339244188
 20
-2.496635833268951
 30
0.0
 11
-5.155587339244188
 21
-3.355078617473903
 31
0.0
  0
LINE
  5
B9
330
6A
100
AcDbEntity
  8
0
  6
BYBLOCK
 62
     0
100
AcDbLine
 10
-5.030587339244188
 20
-5.130188068345523
 30
0.0
 11
-5.280587339244188
 21
-4.880188068345523
 31
0.0
  0
LINE
  5
BA
330
6A
100
AcDbEntity
  8
0
  6
BYBLOCK
 62
     0
100
AcDbLine
 10
-5.030587339244188
 20
-2.621635833268951
 30
0.0
 11
-5.280587339244188
 21
-2.371635833268951
 31
0.0
  0
TEXT
  5
BB
330
6A
100
AcDbEntity
  8
0
  6
BYBLOCK
 62
     0
100
AcDbText
 10
-5.093087339244188
 20
-4.02174528414057
 30
0.0
 40
0.125
  1
2 1/2
 50
90.0
 72
     1
 11
-5.155587339244188
 21
-3.750911950807237
 31
0.0
100
AcDbText
 73
     2
  0
POINT
  5
BD
330
6A
100
AcDbEntity
  8
DEFPOINTS
  6
BYBLOCK
 62
     0
100
AcDbPoint
 10
-6.178466476843109
 20
-5.005188068345523
 30
0.0
  0
POINT
  5
BE
330
6A
100
AcDbEntity
  8
DEFPOINTS
  6
BYBLOCK
 62
     0
100
AcDbPoint
 10
-4.812025618152173
 20
-2.496635833268951
 30
0.0
  0
POINT
  5
BF
330
6A
100
AcDbEntity
  8
DEFPOINTS
  6
BYBLOCK
 62
     0
100
AcDbPoint
 10
-5.155587339244188
 20
-2.496635833268951
 30
0.0
  0
ENDBLK
  5
C0
330
6A
100
AcDbEntity
  8
0
100
AcDbBlockEnd
  0
BLOCK
  5
C1
330
7D
100
AcDbEntity
  8
0
100
AcDbBlockBegin
  2
*D2
 70
     1
 10
0.0
 20
0.0
 30
0.0
  3
*D2
  1

  0
LINE
  5
C2
330
7D
100
AcDbEntity
  8
0
  6
BYBLOCK
 62
     0
100
AcDbLine
 10
-11.28378896569198
 20
7.195881221392252
 30
0.0
 11
-11.28378896569198
 21
7.840050747314275
 31
0.0
  0
LINE
  5
C3
330
7D
100
AcDbEntity
  8
0
  6
BYBLOCK
 62
     0
100
AcDbLine
 10
-9.669807674777501
 20
7.195959459878466
 30
0.0
 11
-9.669807674777501
 21
7.840050747314275
 31
0.0
  0
LINE
  5
C4
330
7D
100
AcDbEntity
  8
0
  6
BYBLOCK
 62
     0
100
AcDbLine
 10
-11.28378896569198
 20
7.660050747314276
 30
0.0
 11
-10.87263165356807
 21
7.660050747314276
 31
0.0
  0
LINE
  5
C5
330
7D
100
AcDbEntity
  8
0
  6
BYBLOCK
 62
     0
100
AcDbLine
 10
-9.669807674777501
 20
7.660050747314276
 30
0.0
 11
-10.0809649869014
 21
7.660050747314276
 31
0.0
  0
LINE
  5
C6
330
7D
100
AcDbEntity
  8
0
  6
BYBLOCK
 62
     0
100
AcDbLine
 10
-11.40878896569198
 20
7.535050747314276
 30
0.0
 11
-11.15878896569198
 21
7.785050747314276
 31
0.0
  0
LINE
  5
C7
330
7D
100
AcDbEntity
  8
0
  6
BYBLOCK
 62
     0
100
AcDbLine
 10
-9.794807674777501
 20
7.535050747314276
 30
0.0
 11
-9.544807674777501
 21
7.785050747314276
 31
0.0
  0
TEXT
  5
C8
330
7D
100
AcDbEntity
  8
0
  6
BYBLOCK
 62
     0
100
AcDbText
 10
-10.74763165356807
 20
7.597550747314276
 30
0.0
 40
0.125
  1
1 5/8
 72
     1
 11
-10.47679832023474
 21
7.660050747314276
 31
0.0
100
AcDbText
 73
     2
  0
POINT
  5
C9
330
7D
100
AcDbEntity
  8
DEFPOINTS
  6
BYBLOCK
 62
     0
100
AcDbPoint
 10
-11.28378896569198
 20
7.133381221392252
 30
0.0
  0
POINT
  5
CA
330
7D
100
AcDbEntity
  8
DEFPOINTS
  6
BYBLOCK
 62
     0
100
AcDbPoint
 10
-9.669807674777501
 20
7.133459459878466
 30
0.0
  0
POINT
  5
CB
330
7D
100
AcDbEntity
  8
DEFPOINTS
  6
BYBLOCK
 62
     0
100
AcDbPoint
 10
-9.669807674777501
 20
7.660050747314276
 30
0.0
  0
ENDBLK
  5
CC
330
7D
100
AcDbEntity
  8
0
100
AcDbBlockEnd
  0
BLOCK
  5
CD
330
7E
100
AcDbEntity
  8
0
100
AcDbBlockBegin
  2
*D3
 70
     1
 10
0.0
 20
0.0
 30
0.0
  3
*D3
  1

  0
LINE
  5
CE
330
7E
100
AcDbEntity
  8
0
  6
BYBLOCK
 62
     0
100
AcDbLine
 10
-11.00809820068489
 20
6.814217425287431
 30
0.0
 11
-11.00809820068489
 21
6.414857696064917
 31
0.0
  0
LINE
  5
CF
330
7E
100
AcDbEntity
  8
0
  6
BYBLOCK
 62
     0
100
AcDbLine
 10
-9.945473554697585
 20
6.814268936506415
 30
0.0
 11
-9.945473554697585
 21
6.414857696064917
 31
0.0
  0
LINE
  5
D0
330
7E
100
AcDbEntity
  8
0
  6
BYBLOCK
 62
     0
100
AcDbLine
 10
-11.00809820068489
 20
6.594857696064917
 30
0.0
 11
-11.25809820068489
 21
6.594857696064917
 31
0.0
  0
LINE
  5
D1
330
7E
100
AcDbEntity
  8
0
  6
BYBLOCK
 62
     0
100
AcDbLine
 10
-9.945473554697585
 20
6.594857696064917
 30
0.0
 11
-9.695473554697585
 21
6.594857696064917
 31
0.0
  0
LINE
  5
D2
330
7E
100
AcDbEntity
  8
0
  6
BYBLOCK
 62
     0
100
AcDbLine
 10
-11.13309820068489
 20
6.469857696064917
 30
0.0
 11
-10.88309820068489
 21
6.719857696064917
 31
0.0
  0
LINE
  5
D3
330
7E
100
AcDbEntity
  8
0
  6
BYBLOCK
 62
     0
100
AcDbLine
 10
-10.07047355469758
 20
6.469857696064917
 30
0.0
 11
-9.820473554697585
 21
6.719857696064917
 31
0.0
  0
TEXT
  5
D4
330
7E
100
AcDbEntity
  8
0
  6
BYBLOCK
 62
     0
100
AcDbText
 10
-9.570473554697585
 20
6.532357696064917
 30
0.0
 40
0.125
  1
1 1/16
 72
     1
 11
-9.278806888030919
 21
6.594857696064917
 31
0.0
100
AcDbText
 73
     2
  0
POINT
  5
D5
330
7E
100
AcDbEntity
  8
DEFPOINTS
  6
BYBLOCK
 62
     0
100
AcDbPoint
 10
-11.00809820068489
 20
6.876717425287431
 30
0.0
  0
POINT
  5
D6
330
7E
100
AcDbEntity
  8
DEFPOINTS
  6
BYBLOCK
 62
     0
100
AcDbPoint
 10
-9.945473554697585
 20
6.876768936506415
 30
0.0
  0
POINT
  5
D7
330
7E
100
AcDbEntity
  8
DEFPOINTS
  6
BYBLOCK
 62
     0
100
AcDbPoint
 10
-9.945473554697585
 20
6.594857696064917
 30
0.0
  0
ENDBLK
  5
D8
330
7E
100
AcDbEntity
  8
0
100
AcDbBlockEnd
  0
BLOCK
  5
D9
330
80
100
AcDbEntity
  8
0
100
AcDbBlockBegin
  2
*D4
 70
     1
 10
0.0
 20
0.0
 30
0.0
  3
*D4
  1

  0
LINE
  5
DA
330
80
100
AcDbEntity
  8
0
  6
BYBLOCK
 62
     0
100
AcDbLine
 10
-9.903621706514305
 20
12.80952543910592
 30
0.0
 11
-7.999213416216003
 21
11.23511800924867
 31
0.0
  0
LINE
  5
DB
330
80
100
AcDbEntity
  8
0
  6
BYBLOCK
 62
     0
100
AcDbLine
 10
-10.07960837223294
 20
12.79283132369853
 30
0.0
 11
-9.727635040795664
 21
12.8262195545133
 31
0.0
  0
TEXT
  5
DC
330
80
100
AcDbEntity
  8
0
  6
BYBLOCK
 62
     0
100
AcDbText
 10
-7.942696163230802
 20
11.10730153881154
 30
0.0
 40
0.125
  1
R2 1/2
 50
320.4188692796592
 72
     1
 11
-7.645965317484952
 21
10.94308166701137
 31
0.0
100
AcDbText
 73
     2
  0
POINT
  5
DD
330
80
100
AcDbEntity
  8
DEFPOINTS
  6
BYBLOCK
 62
     0
100
AcDbPoint
 10
-9.903621706514305
 20
12.80952543910592
 30
0.0
  0
POINT
  5
DE
330
80
100
AcDbEntity
  8
DEFPOINTS
  6
BYBLOCK
 62
     0
100
AcDbPoint
 10
-7.976813895254031
 20
11.21659993599336
 30
0.0
  0
ENDBLK
  5
DF
330
80
100
AcDbEntity
  8
0
100
AcDbBlockEnd
  0
ENDSEC
  0
SECTION
  2
ENTITIES
  0
DIMENSION
  5
E0
330
1E
100
AcDbEntity
  8
X
100
AcDbDimension
  2
*D4
 10
-7.976813895254031
 20
11.21659993599336
 30
0.0
 11
-7.645965317484952
 21
10.94308166701137
 31
0.0
 70
     4
100
AcDbRadialDimension
 15
-9.903621706514305
 25
12.80952543910592
 35
0.0
 40
-2.470937006754038
  0
ARC
  5
E1
330
1E
100
AcDbEntity
  8
ADP3DETAIL
  6
CENTER2
100
AcDbCircle
 10
-7.97681389525403
 20
11.21659993599335
 30
0.0
 40
2.5
100
AcDbArc
 50
90.0
 51
180.0
  0
ARC
  5
E2
330
1E
100
AcDbEntity
  8
ADP1DETAIL
100
AcDbCircle
 10
-7.97681389525403
 20
11.21659993599335
 30
0.0
 40
1.75
100
AcDbArc
 50
90.0
 51
179.9999999999999
  0
ARC
  5
E3
330
1E
100
AcDbEntity
  8
ADP1DETAIL
100
AcDbCircle
 10
-7.97681389525403
 20
11.21659993599335
 30
0.0
 40
1.625
100
AcDbArc
 50
90.0
 51
179.9999999999999
  0
ARC
  5
E4
330
1E
100
AcDbEntity
  8
ADP1DETAIL
100
AcDbCircle
 10
-7.97681389525403
 20
11.21659993599335
 30
0.0
 40
3.25
100
AcDbArc
 50
90.0
 51
180.0
  0
ARC
  5
E5
330
1E
100
AcDbEntity
  8
ADP1DETAIL
100
AcDbCircle
 10
-7.97681389525403
 20
11.21659993599335
 30
0.0
 40
3.375
100
AcDbArc
 50
90.0
 51
180.0
  0
DIMENSION
  5
E6
330
1E
100
AcDbEntity
  8
ADPDIM
100
AcDbDimension
  2
*D3
 10
-9.945473554697585
 20
6.594857696064917
 30
0.0
 11
-9.278806888030919
 21
6.594857696064917
 31
0.0
100
AcDbAlignedDimension
 13
-11.00809820068489
 23
6.876717425287431
 33
0.0
 14
-9.945473554697585
 24
6.876768936506415
 34
0.0
100
AcDbRotatedDimension
  0
DIMENSION
  5
E7
330
1E
100
AcDbEntity
  8
ADPDIM
100
AcDbDimension
  2
*D2
 10
-9.669807674777501
 20
7.660050747314276
 30
0.0
 11
-10.47679832023474
 21
7.660050747314276
 31
0.0
100
AcDbAlignedDimension
 13
-11.28378896569198
 23
7.133381221392252
 33
0.0
 14
-9.669807674777501
 24
7.133459459878466
 34
0.0
100
AcDbRotatedDimension
  0
LINE
  5
E8
330
1E
100
AcDbEntity
  8
ADP1DETAIL
100
AcDbLine
 10
-9.601813895254029
 20
8.716599935993357
 30
0.0
 11
-11.35181389525403
 21
8.716599935993357
 31
0.0
  0
INSERT
  5
E9
330
1E
100
AcDbEntity
  8
ADP1DETAIL
100
AcDbBlockReference
  2
6931
 10
-11.30223211259025
 20
6.770634522169547
 30
0.0
  0
LINE
  5
EA
330
1E
100
AcDbEntity
  8
ADP1DETAIL
100
AcDbLine
 10
-11.22681389525402
 20
8.716599935993357
 30
0.0
 11
-11.22681389525402
 21
11.21659993599335
 31
0.0
  0
LINE
  5
EB
330
1E
100
AcDbEntity
  8
ADP1DETAIL
100
AcDbLine
 10
-11.35181389525403
 20
8.716599935993357
 30
0.0
 11
-11.35181389525403
 21
11.21659993599335
 31
0.0
  0
DIMENSION
  5
EC
330
1E
100
AcDbEntity
  8
ADPDIM
100
AcDbDimension
  2
*D1
 10
-8.578934757655108
 20
11.22515217106992
 30
0.0
 11
-8.578934757655108
 21
9.970876053531643
 31
0.0
 12
-3.423347418410919
 22
13.72178800433888
 32
0.0
100
AcDbAlignedDimension
 13
-9.601813895254029
 23
8.716599935993357
 33
0.0
 14
-8.235373036563093
 24
11.22515217106992
 34
0.0
 50
90.0
100
AcDbRotatedDimension
  0
LINE
  5
ED
330
1E
100
AcDbEntity
  8
ADP1DETAIL
100
AcDbLine
 10
-9.726813895254029
 20
11.21659993599335
 30
0.0
 11
-9.726813895254029
 21
8.716599935993357
 31
0.0
  0
LINE
  5
EE
330
1E
100
AcDbEntity
  8
ADP1DETAIL
100
AcDbLine
 10
-9.601813895254029
 20
11.21659993599335
 30
0.0
 11
-9.601813895254029
 21
8.716599935993357
 31
0.0
  0
LINE
  5
EF
330
1E
100
AcDbEntity
  8
ADP3DETAIL
  6
CENTER2
100
AcDbLine
 10
-10.47681389525402
 20
11.21659993599335
 30
0.0
 11
-10.47681389525403
 21
8.347448912306788
 31
0.0
  0
LINE
  5
F0
330
1E
100
AcDbEntity
  8
ADP3DETAIL
  6
CENTER2
100
AcDbLine
 10
-7.97681389525403
 20
13.71659993599335
 30
0.0
 11
-5.130353284718728
 21
13.71659993599335
 31
0.0
  0
LINE
  5
F1
330
1E
100
AcDbEntity
  8
ADP1DETAIL
100
AcDbLine
 10
-5.47681389525403
 20
12.96659993599335
 30
0.0
 11
-7.97681389525403
 21
12.96659993599335
 31
0.0
  0
LINE
  5
F2
330
1E
100
AcDbEntity
  8
ADP1DETAIL
100
AcDbLine
 10
-5.47681389525403
 20
12.84159993599335
 30
0.0
 11
-7.97681389525403
 21
12.84159993599335
 31
0.0
  0
LINE
  5
F3
330
1E
100
AcDbEntity
  8
ADP1DETAIL
100
AcDbLine
 10
-7.97681389525403
 20
14.46659993599335
 30
0.0
 11
-5.47681389525403
 21
14.46659993599335
 31
0.0
  0
LINE
  5
F4
330
1E
100
AcDbEntity
  8
ADP1DETAIL
100
AcDbLine
 10
-7.97681389525403
 20
14.59159993599335
 30
0.0
 11
-5.47681389525403
 21
14.59159993599335
 31
0.0
  0
LINE
  5
F5
330
1E
100
AcDbEntity
  8
ADP1DETAIL
100
AcDbLine
 10
-5.47681389525403
 20
14.59159993599335
 30
0.0
 11
-5.47681389525403
 21
12.84159993599335
 31
0.0
  0
TEXT
  5
F9
330
1E
100
AcDbEntity
  8
ADPDIM
100
AcDbText
 10
-18.39921698995959
 20
5.729654913713753
 30
0.0
 40
0.1875
  1
J U L I U S  B L U M  &  C O . ,  I N C .      ( 8 0 0 )  5 2 6 - 6 2 9 3        W W W . J U L I U S B L U M . C O M        P A R T  N o .  6 9 3 1 - C
 41
1.25
  7
ARIAL_WIDE
 72
     1
 11
-8.346911609673099
 21
5.917154913713753
 31
0.0
100
AcDbText
 73
     3
  0
ENDSEC
  0
SECTION
  2
OBJECTS
  0
DICTIONARY
  5
C
330
0
100
AcDbDictionary
  3
ACAD_GROUP
350
D
  3
ACAD_LAYOUT
350
19
  3
ACAD_MLINESTYLE
350
16
  3
ACAD_PLOTSETTINGS
350
18
  3
ACAD_PLOTSTYLENAME
350
E
  3
ACDBHEADERROUNDTRIPXREC
350
28C
  3
ACDBVARIABLEDICTIONARY
350
16A
  0
DICTIONARY
  5
135
330
1E
100
AcDbDictionary
280
     1
  3
ACAD_LAYOUTSELFREF
360
2AE
  0
DICTIONARY
  5
137
330
1A
100
AcDbDictionary
280
     1
  3
ACAD_LAYOUTSELFREF
360
2AD
  0
DICTIONARY
  5
D
102
{ACAD_REACTORS
330
C
102
}
330
C
100
AcDbDictionary
  0
DICTIONARY
  5
19
102
{ACAD_REACTORS
330
C
102
}
330
C
100
AcDbDictionary
  0
DICTIONARY
  5
16
102
{ACAD_REACTORS
330
C
102
}
330
C
100
AcDbDictionary
  3
STANDARD
350
17
  0
DICTIONARY
  5
18
102
{ACAD_REACTORS
330
C
102
}
330
C
100
AcDbDictionary
  0
ACDBDICTIONARYWDFLT
  5
E
102
{ACAD_REACTORS
330
C
102
}
330
C
100
AcDbDictionary
281
     1
  3
Normal
350
F
100
AcDbDictionaryWithDefault
340
F
  0
DICTIONARY
  5
28C
102
{ACAD_REACTORS
330
C
102
}
330
C
100
AcDbDictionary
  3
CEPSNTYPE
350
296
  3
DIMSTYLEDATA
350
29A
  3
FINGERPRINTGUID
350
297
  3
HYPERLINKBASE
350
28F
  3
INSUNITS
350
295
  3
LAYOUTDICT
350
291
  3
LWETCUNION
350
294
  3
PLOTSETDICT
350
292
  3
PLOTSTYLNAMDICT
350
293
  3
PSVPSCALE
350
299
  3
PUCSBASE
350
29D
  3
PUCSORGBACK
350
2A3
  3
PUCSORGBOTTOM
350
29F
  3
PUCSORGFRONT
350
2A2
  3
PUCSORGLEFT
350
2A0
  3
PUCSORGRIGHT
350
2A1
  3
PUCSORGTOP
350
29E
  3
PUCSORTHOREF
350
29B
  3
PUCSORTHOVIEW
350
29C
  3
STYLESHEET
350
290
  3
TSTACKALIGN
350
28D
  3
TSTACKSIZE
350
28E
  3
UCSBASE
350
2A6
  3
UCSORGBACK
350
2AC
  3
UCSORGBOTTOM
350
2A8
  3
UCSORGFRONT
350
2AB
  3
UCSORGLEFT
350
2A9
  3
UCSORGRIGHT
350
2AA
  3
UCSORGTOP
350
2A7
  3
UCSORTHOREF
350
2A4
  3
UCSORTHOVIEW
350
2A5
  3
VERSIONGUID
350
298
  0
DICTIONARY
  5
16A
102
{ACAD_REACTORS
330
C
102
}
330
C
100
AcDbDictionary
  3
DIMASSOC
350
16C
  3
HIDETEXT
350
16B
  0
XRECORD
  5
2AE
102
{ACAD_REACTORS
330
135
102
}
330
135
100
AcDbXrecord
340
1E
  0
XRECORD
  5
2AD
102
{ACAD_REACTORS
330
137
102
}
330
137
100
AcDbXrecord
340
1A
  0
MLINESTYLE
  5
17
102
{ACAD_REACTORS
330
16
102
}
330
16
100
AcDbMlineStyle
  2
STANDARD
 70
     0
  3

 62
   256
 51
90.0
 52
90.0
 71
     2
 49
0.5
 62
   256
  6
BYLAYER
 49
-0.5
 62
   256
  6
BYLAYER
  0
ACDBPLACEHOLDER
  5
F
102
{ACAD_REACTORS
330
E
102
}
330
E
100
AcDbPlaceHolder
280
     0
  0
XRECORD
  5
296
102
{ACAD_REACTORS
330
28C
102
}
330
28C
100
AcDbXrecord
 90
        0
  0
XRECORD
  5
29A
102
{ACAD_REACTORS
330
28C
102
}
330
28C
100
AcDbXrecord
1000
DSTYLE
1002
{
1070
   277
 70
     5
1070
   279
 70
     2
1002
}
  0
XRECORD
  5
297
102
{ACAD_REACTORS
330
28C
102
}
330
28C
100
AcDbXrecord
  1
{87BC951A-1D8F-4450-87A1-7535DD44744E}
  0
XRECORD
  5
28F
102
{ACAD_REACTORS
330
28C
102
}
330
28C
100
AcDbXrecord
  1

  0
XRECORD
  5
295
102
{ACAD_REACTORS
330
28C
102
}
330
28C
100
AcDbXrecord
 90
        0
  0
XRECORD
  5
291
102
{ACAD_REACTORS
330
28C
102
}
330
28C
100
AcDbXrecord
340
19
  0
XRECORD
  5
294
102
{ACAD_REACTORS
330
28C
102
}
330
28C
100
AcDbXrecord
 90
    14877
  0
XRECORD
  5
292
102
{ACAD_REACTORS
330
28C
102
}
330
28C
100
AcDbXrecord
340
18
  0
XRECORD
  5
293
102
{ACAD_REACTORS
330
28C
102
}
330
28C
100
AcDbXrecord
340
E
  0
XRECORD
  5
299
102
{ACAD_REACTORS
330
28C
102
}
330
28C
100
AcDbXrecord
 40
0.0
  0
XRECORD
  5
29D
102
{ACAD_REACTORS
330
28C
102
}
330
28C
100
AcDbXrecord
340
0
  0
XRECORD
  5
2A3
102
{ACAD_REACTORS
330
28C
102
}
330
28C
100
AcDbXrecord
 10
0.0
 20
0.0
 30
0.0
  0
XRECORD
  5
29F
102
{ACAD_REACTORS
330
28C
102
}
330
28C
100
AcDbXrecord
 10
0.0
 20
0.0
 30
0.0
  0
XRECORD
  5
2A2
102
{ACAD_REACTORS
330
28C
102
}
330
28C
100
AcDbXrecord
 10
0.0
 20
0.0
 30
0.0
  0
XRECORD
  5
2A0
102
{ACAD_REACTORS
330
28C
102
}
330
28C
100
AcDbXrecord
 10
0.0
 20
0.0
 30
0.0
  0
XRECORD
  5
2A1
102
{ACAD_REACTORS
330
28C
102
}
330
28C
100
AcDbXrecord
 10
0.0
 20
0.0
 30
0.0
  0
XRECORD
  5
29E
102
{ACAD_REACTORS
330
28C
102
}
330
28C
100
AcDbXrecord
 10
0.0
 20
0.0
 30
0.0
  0
XRECORD
  5
29B
102
{ACAD_REACTORS
330
28C
102
}
330
28C
100
AcDbXrecord
340
0
  0
XRECORD
  5
29C
102
{ACAD_REACTORS
330
28C
102
}
330
28C
100
AcDbXrecord
 70
     0
  0
XRECORD
  5
290
102
{ACAD_REACTORS
330
28C
102
}
330
28C
100
AcDbXrecord
  1

  0
XRECORD
  5
28D
102
{ACAD_REACTORS
330
28C
102
}
330
28C
100
AcDbXrecord
 90
        1
  0
XRECORD
  5
28E
102
{ACAD_REACTORS
330
28C
102
}
330
28C
100
AcDbXrecord
 90
       70
  0
XRECORD
  5
2A6
102
{ACAD_REACTORS
330
28C
102
}
330
28C
100
AcDbXrecord
340
0
  0
XRECORD
  5
2AC
102
{ACAD_REACTORS
330
28C
102
}
330
28C
100
AcDbXrecord
 10
0.0
 20
0.0
 30
0.0
  0
XRECORD
  5
2A8
102
{ACAD_REACTORS
330
28C
102
}
330
28C
100
AcDbXrecord
 10
0.0
 20
0.0
 30
0.0
  0
XRECORD
  5
2AB
102
{ACAD_REACTORS
330
28C
102
}
330
28C
100
AcDbXrecord
 10
0.0
 20
0.0
 30
0.0
  0
XRECORD
  5
2A9
102
{ACAD_REACTORS
330
28C
102
}
330
28C
100
AcDbXrecord
 10
0.0
 20
0.0
 30
0.0
  0
XRECORD
  5
2AA
102
{ACAD_REACTORS
330
28C
102
}
330
28C
100
AcDbXrecord
 10
0.0
 20
0.0
 30
0.0
  0
XRECORD
  5
2A7
102
{ACAD_REACTORS
330
28C
102
}
330
28C
100
AcDbXrecord
 10
0.0
 20
0.0
 30
0.0
  0
XRECORD
  5
2A4
102
{ACAD_REACTORS
330
28C
102
}
330
28C
100
AcDbXrecord
340
0
  0
XRECORD
  5
2A5
102
{ACAD_REACTORS
330
28C
102
}
330
28C
100
AcDbXrecord
 70
     0
  0
XRECORD
  5
298
102
{ACAD_REACTORS
330
28C
102
}
330
28C
100
AcDbXrecord
  1
{7E1D677F-55CC-49A2-8366-DCEA7E5E356A}
  0
DICTIONARYVAR
  5
16C
102
{ACAD_REACTORS
330
16A
102
}
330
16A
100
DictionaryVariables
280
     0
  1
2
  0
DICTIONARYVAR
  5
16B
102
{ACAD_REACTORS
330
16A
102
}
330
16A
100
DictionaryVariables
280
     0
  1
1
  0
ENDSEC
  0
EOF
