  0
SECTION
  2
HEADER
  9
$ACADVER
  1
AC1015
  9
$ACADMAINTVER
 70
    20
  9
$DWGCODEPAGE
  3
ANSI_936
  9
$INSBASE
 10
14.83247237062566
 20
1.032587704827295
 30
0.0
  9
$EXTMIN
 10
8.700073336134749
 20
-0.2053536507116576
 30
-0.0000000349181948
  9
$EXTMAX
 10
22.1061402043632
 20
4.932273182046102
 30
0.0000000814935746
  9
$LIMMIN
 10
0.0
 20
0.0
  9
$LIMMAX
 10
36.0
 20
36.0
  9
$ORTHOMODE
 70
     1
  9
$REGENMODE
 70
     1
  9
$FILLMODE
 70
     1
  9
$QTEXTMODE
 70
     0
  9
$MIRRTEXT
 70
     1
  9
$LTSCALE
 40
1.0
  9
$ATTMODE
 70
     1
  9
$TEXTSIZE
 40
0.2
  9
$TRACEWID
 40
0.05
  9
$TEXTSTYLE
  7
STANDARD
  9
$CLAYER
  8
ADP1DETAIL
  9
$CELTYPE
  6
BYLAYER
  9
$CECOLOR
 62
   256
  9
$CELTSCALE
 40
1.0
  9
$DISPSILH
 70
     0
  9
$DIMSCALE
 40
1.0
  9
$DIMASZ
 40
0.125
  9
$DIMEXO
 40
0.0625
  9
$DIMDLI
 40
0.38
  9
$DIMRND
 40
0.0
  9
$DIMDLE
 40
0.0
  9
$DIMEXE
 40
0.18
  9
$DIMTP
 40
0.0
  9
$DIMTM
 40
0.0
  9
$DIMTXT
 40
0.125
  9
$DIMCEN
 40
0.1875
  9
$DIMTSZ
 40
0.125
  9
$DIMTOL
 70
     0
  9
$DIMLIM
 70
     0
  9
$DIMTIH
 70
     0
  9
$DIMTOH
 70
     0
  9
$DIMSE1
 70
     0
  9
$DIMSE2
 70
     0
  9
$DIMTAD
 70
     0
  9
$DIMZIN
 70
     3
  9
$DIMBLK
  1

  9
$DIMASO
 70
     1
  9
$DIMSHO
 70
     1
  9
$DIMPOST
  1

  9
$DIMAPOST
  1

  9
$DIMALT
 70
     0
  9
$DIMALTD
 70
     1
  9
$DIMALTF
 40
25.4
  9
$DIMLFAC
 40
1.0
  9
$DIMTOFL
 70
     0
  9
$DIMTVP
 40
0.0
  9
$DIMTIX
 70
     0
  9
$DIMSOXD
 70
     0
  9
$DIMSAH
 70
     0
  9
$DIMBLK1
  1

  9
$DIMBLK2
  1

  9
$DIMSTYLE
  2
STANDARD
  9
$DIMCLRD
 70
     0
  9
$DIMCLRE
 70
     0
  9
$DIMCLRT
 70
     0
  9
$DIMTFAC
 40
1.0
  9
$DIMGAP
 40
0.125
  9
$DIMJUST
 70
     0
  9
$DIMSD1
 70
     0
  9
$DIMSD2
 70
     0
  9
$DIMTOLJ
 70
     1
  9
$DIMTZIN
 70
     0
  9
$DIMALTZ
 70
     0
  9
$DIMALTTZ
 70
     0
  9
$DIMUPT
 70
     0
  9
$DIMDEC
 70
     4
  9
$DIMTDEC
 70
     4
  9
$DIMALTU
 70
     2
  9
$DIMALTTD
 70
     2
  9
$DIMTXSTY
  7
STANDARD
  9
$DIMAUNIT
 70
     0
  9
$DIMADEC
 70
     0
  9
$DIMALTRND
 40
0.0
  9
$DIMAZIN
 70
     0
  9
$DIMDSEP
 70
    46
  9
$DIMATFIT
 70
     3
  9
$DIMFRAC
 70
     2
  9
$DIMLDRBLK
  1

  9
$DIMLUNIT
 70
     5
  9
$DIMLWD
 70
    -2
  9
$DIMLWE
 70
    -2
  9
$DIMTMOVE
 70
     0
  9
$LUNITS
 70
     5
  9
$LUPREC
 70
     4
  9
$SKETCHINC
 40
0.1
  9
$FILLETRAD
 40
0.09
  9
$AUNITS
 70
     0
  9
$AUPREC
 70
     0
  9
$MENU
  1
acad
  9
$ELEVATION
 40
0.0
  9
$PELEVATION
 40
0.0
  9
$THICKNESS
 40
0.0
  9
$LIMCHECK
 70
     0
  9
$CHAMFERA
 40
0.0
  9
$CHAMFERB
 40
0.0
  9
$CHAMFERC
 40
0.0
  9
$CHAMFERD
 40
0.0
  9
$SKPOLY
 70
     0
  9
$TDCREATE
 40
2450364.013956204
  9
$TDUCREATE
 40
2450364.222289537
  9
$TDUPDATE
 40
2455237.667297905
  9
$TDUUPDATE
 40
2455237.875631238
  9
$TDINDWG
 40
0.0756979167
  9
$TDUSRTIMER
 40
0.0756979167
  9
$USRTIMER
 70
     1
  9
$ANGBASE
 50
0.0
  9
$ANGDIR
 70
     0
  9
$PDMODE
 70
     0
  9
$PDSIZE
 40
0.0
  9
$PLINEWID
 40
0.0
  9
$SPLFRAME
 70
     0
  9
$SPLINETYPE
 70
     6
  9
$SPLINESEGS
 70
     8
  9
$HANDSEED
  5
3DA
  9
$SURFTAB1
 70
     6
  9
$SURFTAB2
 70
     6
  9
$SURFTYPE
 70
     6
  9
$SURFU
 70
     6
  9
$SURFV
 70
     6
  9
$UCSBASE
  2

  9
$UCSNAME
  2

  9
$UCSORG
 10
0.0
 20
0.0
 30
0.0
  9
$UCSXDIR
 10
1.0
 20
0.0
 30
0.0
  9
$UCSYDIR
 10
0.0
 20
1.0
 30
0.0
  9
$UCSORTHOREF
  2

  9
$UCSORTHOVIEW
 70
     0
  9
$UCSORGTOP
 10
0.0
 20
0.0
 30
0.0
  9
$UCSORGBOTTOM
 10
0.0
 20
0.0
 30
0.0
  9
$UCSORGLEFT
 10
0.0
 20
0.0
 30
0.0
  9
$UCSORGRIGHT
 10
0.0
 20
0.0
 30
0.0
  9
$UCSORGFRONT
 10
0.0
 20
0.0
 30
0.0
  9
$UCSORGBACK
 10
0.0
 20
0.0
 30
0.0
  9
$PUCSBASE
  2

  9
$PUCSNAME
  2

  9
$PUCSORG
 10
0.0
 20
0.0
 30
0.0
  9
$PUCSXDIR
 10
1.0
 20
0.0
 30
0.0
  9
$PUCSYDIR
 10
0.0
 20
1.0
 30
0.0
  9
$PUCSORTHOREF
  2

  9
$PUCSORTHOVIEW
 70
     0
  9
$PUCSORGTOP
 10
0.0
 20
0.0
 30
0.0
  9
$PUCSORGBOTTOM
 10
0.0
 20
0.0
 30
0.0
  9
$PUCSORGLEFT
 10
0.0
 20
0.0
 30
0.0
  9
$PUCSORGRIGHT
 10
0.0
 20
0.0
 30
0.0
  9
$PUCSORGFRONT
 10
0.0
 20
0.0
 30
0.0
  9
$PUCSORGBACK
 10
0.0
 20
0.0
 30
0.0
  9
$USERI1
 70
     0
  9
$USERI2
 70
     0
  9
$USERI3
 70
     0
  9
$USERI4
 70
     0
  9
$USERI5
 70
     0
  9
$USERR1
 40
0.0
  9
$USERR2
 40
0.0
  9
$USERR3
 40
0.0
  9
$USERR4
 40
0.0
  9
$USERR5
 40
0.0
  9
$WORLDVIEW
 70
     1
  9
$SHADEDGE
 70
     3
  9
$SHADEDIF
 70
    70
  9
$TILEMODE
 70
     1
  9
$MAXACTVP
 70
    15
  9
$PINSBASE
 10
-1.038494034028074E+34
 20
0.0
 30
0.0
  9
$PLIMCHECK
 70
     0
  9
$PEXTMIN
 10
1.000000000000000E+20
 20
1.000000000000000E+20
 30
1.000000000000000E+20
  9
$PEXTMAX
 10
-1.000000000000000E+20
 20
-1.000000000000000E+20
 30
-1.000000000000000E+20
  9
$PLIMMIN
 10
0.0
 20
0.0
  9
$PLIMMAX
 10
12.0
 20
9.0
  9
$UNITMODE
 70
     0
  9
$VISRETAIN
 70
     0
  9
$PLINEGEN
 70
     0
  9
$PSLTSCALE
 70
     1
  9
$TREEDEPTH
 70
  3020
  9
$CMLSTYLE
  2
STANDARD
  9
$CMLJUST
 70
     0
  9
$CMLSCALE
 40
1.0
  9
$PROXYGRAPHICS
 70
     1
  9
$MEASUREMENT
 70
     0
  9
$CELWEIGHT
370
    -1
  9
$ENDCAPS
280
     0
  9
$JOINSTYLE
280
     0
  9
$LWDISPLAY
290
     0
  9
$INSUNITS
 70
     0
  9
$HYPERLINKBASE
  1

  9
$STYLESHEET
  1

  9
$XEDIT
290
     1
  9
$CEPSNTYPE
380
     0
  9
$PSTYLEMODE
290
     1
  9
$FINGERPRINTGUID
  2
{DB5AF134-E682-42C6-A721-B01AFC7AF3F1}
  9
$VERSIONGUID
  2
{44079025-F2CF-41EA-93C2-B275F500E95A}
  9
$EXTNAMES
290
     1
  9
$PSVPSCALE
 40
0.0
  9
$OLESTARTUP
290
     0
  0
ENDSEC
  0
SECTION
  2
CLASSES
  0
CLASS
  1
ACDBDICTIONARYWDFLT
  2
AcDbDictionaryWithDefault
  3
ObjectDBX Classes
 90
        0
280
     0
281
     0
  0
CLASS
  1
ACDBPLACEHOLDER
  2
AcDbPlaceHolder
  3
ObjectDBX Classes
 90
        0
280
     0
281
     0
  0
CLASS
  1
LAYOUT
  2
AcDbLayout
  3
ObjectDBX Classes
 90
        0
280
     0
281
     0
  0
CLASS
  1
DICTIONARYVAR
  2
AcDbDictionaryVar
  3
ObjectDBX Classes
 90
        0
280
     0
281
     0
  0
CLASS
  1
MATERIAL
  2
AcDbMaterial
  3
ObjectDBX Classes
 90
     1024
280
     0
281
     0
  0
CLASS
  1
VISUALSTYLE
  2
AcDbVisualStyle
  3
ObjectDBX Classes
 90
     4095
280
     0
281
     0
  0
CLASS
  1
TABLESTYLE
  2
AcDbTableStyle
  3
ObjectDBX Classes
 90
     4095
280
     0
281
     0
  0
ENDSEC
  0
SECTION
  2
TABLES
  0
TABLE
  2
VPORT
  5
13
102
{ACAD_XDICTIONARY
360
307
102
}
330
0
100
AcDbSymbolTable
 70
     1
  0
VPORT
  5
237
330
13
100
AcDbSymbolTableRecord
100
AcDbViewportTableRecord
  2
*Active
 70
     0
 10
0.0
 20
0.0
 11
1.0
 21
1.0
 12
15.40310677024897
 22
2.363459765667222
 13
0.0
 23
0.0
 14
0.5740882589684922
 24
0.5740882589684922
 15
0.5
 25
0.5
 16
0.0
 26
0.0
 36
1.0
 17
0.0
 27
0.0
 37
0.0
 40
5.550380823162829
 41
2.426443202979515
 42
50.0
 43
0.0
 44
0.0
 50
0.0
 51
0.0
 71
     0
 72
   100
 73
     1
 74
     0
 75
     0
 76
     0
 77
     0
 78
     0
281
     0
 65
     1
110
0.0
120
0.0
130
0.0
111
1.0
121
0.0
131
0.0
112
0.0
122
1.0
132
0.0
 79
     0
146
0.0
  0
ENDTAB
  0
TABLE
  2
LTYPE
  5
F
330
0
100
AcDbSymbolTable
 70
     3
  0
LTYPE
  5
10
330
F
100
AcDbSymbolTableRecord
100
AcDbLinetypeTableRecord
  2
BYBLOCK
 70
     0
  3

 72
    65
 73
     0
 40
0.0
  0
LTYPE
  5
6
330
F
100
AcDbSymbolTableRecord
100
AcDbLinetypeTableRecord
  2
BYLAYER
 70
     0
  3

 72
    65
 73
     0
 40
0.0
  0
LTYPE
  5
5
330
F
100
AcDbSymbolTableRecord
100
AcDbLinetypeTableRecord
  2
CONTINUOUS
 70
     0
  3
Solid line
 72
    65
 73
     0
 40
0.0
  0
LTYPE
  5
32
330
F
100
AcDbSymbolTableRecord
100
AcDbLinetypeTableRecord
  2
HIDDEN2
 70
     0
  3
_ _ _ _ _ _ _ _ _ _ _ _ _ _ _ _ _ _ _ _ _ _ _ _
 72
    65
 73
     2
 40
0.1875
 49
0.125
 74
     0
 49
-0.0625
 74
     0
  0
ENDTAB
  0
TABLE
  2
LAYER
  5
B
330
0
100
AcDbSymbolTable
 70
     5
  0
LAYER
  5
C
330
B
100
AcDbSymbolTableRecord
100
AcDbLayerTableRecord
  2
0
 70
     0
 62
     7
  6
CONTINUOUS
370
    -3
390
99
  0
LAYER
  5
3D
330
B
100
AcDbSymbolTableRecord
100
AcDbLayerTableRecord
  2
ADPDIM
 70
     0
 62
     3
  6
CONTINUOUS
370
    -3
390
99
  0
LAYER
  5
4
330
B
100
AcDbSymbolTableRecord
100
AcDbLayerTableRecord
  2
ADP1DETAIL
 70
     0
 62
     7
  6
CONTINUOUS
370
    -3
390
99
  0
LAYER
  5
47
330
B
100
AcDbSymbolTableRecord
100
AcDbLayerTableRecord
  2
DEFPOINTS
 70
     0
 62
     7
  6
CONTINUOUS
290
     0
370
    -3
390
99
  0
LAYER
  5
31
330
B
100
AcDbSymbolTableRecord
100
AcDbLayerTableRecord
  2
ADP2DETAIL
 70
     0
 62
     5
  6
CONTINUOUS
370
    -3
390
99
  0
ENDTAB
  0
TABLE
  2
STYLE
  5
D
330
0
100
AcDbSymbolTable
 70
     2
  0
STYLE
  5
E
330
D
100
AcDbSymbolTableRecord
100
AcDbTextStyleTableRecord
  2
STANDARD
 70
     0
 40
0.0
 41
1.0
 50
0.0
 71
     0
 42
0.2
  3
txt
  4

  0
STYLE
  5
A0
330
D
100
AcDbSymbolTableRecord
100
AcDbTextStyleTableRecord
  2
ARIAL_WIDE
 70
     0
 40
0.0
 41
1.25
 50
0.0
 71
     0
 42
0.2
  3
ARIAL.TTF
  4

1001
ACAD
1000
Arial
1071
       34
  0
ENDTAB
  0
TABLE
  2
VIEW
  5
11
330
0
100
AcDbSymbolTable
 70
     0
  0
ENDTAB
  0
TABLE
  2
UCS
  5
12
330
0
100
AcDbSymbolTable
 70
     0
  0
ENDTAB
  0
TABLE
  2
APPID
  5
15
330
0
100
AcDbSymbolTable
 70
     2
  0
APPID
  5
16
330
15
100
AcDbSymbolTableRecord
100
AcDbRegAppTableRecord
  2
ACAD
 70
     0
  0
APPID
  5
323
330
15
100
AcDbSymbolTableRecord
100
AcDbRegAppTableRecord
  2
ACAD_EXEMPT_FROM_CAD_STANDARDS
 70
     0
  0
ENDTAB
  0
TABLE
  2
DIMSTYLE
  5
17
330
0
100
AcDbSymbolTable
 70
     2
100
AcDbDimStyleTable
 71
     1
340
1D
  0
DIMSTYLE
105
1D
102
{ACAD_REACTORS
330
3C
330
2B9
330
2BB
330
2BC
102
}
330
17
100
AcDbSymbolTableRecord
100
AcDbDimStyleTableRecord
  2
STANDARD
 70
     0
340
E
  0
ENDTAB
  0
TABLE
  2
BLOCK_RECORD
  5
1
330
0
100
AcDbSymbolTable
 70
    19
  0
BLOCK_RECORD
  5
2
102
{ACAD_XDICTIONARY
360
102
102
}
330
1
100
AcDbSymbolTableRecord
100
AcDbBlockTableRecord
  2
*MODEL_SPACE
340
9C
  0
BLOCK_RECORD
  5
8
102
{ACAD_XDICTIONARY
360
104
102
}
330
1
100
AcDbSymbolTableRecord
100
AcDbBlockTableRecord
  2
*PAPER_SPACE
340
9D
  0
BLOCK_RECORD
  5
5D
330
1
100
AcDbSymbolTableRecord
100
AcDbBlockTableRecord
  2
*D0
340
0
  0
BLOCK_RECORD
  5
4F
330
1
100
AcDbSymbolTableRecord
100
AcDbBlockTableRecord
  2
*D1
340
0
  0
BLOCK_RECORD
  5
4D
330
1
100
AcDbSymbolTableRecord
100
AcDbBlockTableRecord
  2
6930
340
0
  0
BLOCK_RECORD
  5
106
330
1
100
AcDbSymbolTableRecord
100
AcDbBlockTableRecord
  2
*D3
340
0
  0
BLOCK_RECORD
  5
2BD
330
1
100
AcDbSymbolTableRecord
100
AcDbBlockTableRecord
  2
*D7
340
0
  0
BLOCK_RECORD
  5
2CA
330
1
100
AcDbSymbolTableRecord
100
AcDbBlockTableRecord
  2
*D8
340
0
  0
BLOCK_RECORD
  5
2D7
330
1
100
AcDbSymbolTableRecord
100
AcDbBlockTableRecord
  2
*D9
340
0
  0
BLOCK_RECORD
  5
32A
330
1
100
AcDbSymbolTableRecord
100
AcDbBlockTableRecord
  2
*D11
340
0
  0
BLOCK_RECORD
  5
338
330
1
100
AcDbSymbolTableRecord
100
AcDbBlockTableRecord
  2
*D12
340
0
  0
BLOCK_RECORD
  5
350
330
1
100
AcDbSymbolTableRecord
100
AcDbBlockTableRecord
  2
*D13
340
0
  0
BLOCK_RECORD
  5
35E
330
1
100
AcDbSymbolTableRecord
100
AcDbBlockTableRecord
  2
*D14
340
0
  0
BLOCK_RECORD
  5
36C
330
1
100
AcDbSymbolTableRecord
100
AcDbBlockTableRecord
  2
*D15
340
0
  0
BLOCK_RECORD
  5
39D
330
1
100
AcDbSymbolTableRecord
100
AcDbBlockTableRecord
  2
_Oblique
340
0
102
{BLKREFS
331
3AF
331
3B0
102
}
  0
ENDTAB
  0
ENDSEC
  0
SECTION
  2
BLOCKS
  0
BLOCK
  5
3
330
2
100
AcDbEntity
  8
0
100
AcDbBlockBegin
  2
*MODEL_SPACE
 70
     0
 10
0.0
 20
0.0
 30
0.0
  3
*MODEL_SPACE
  1

  0
ENDBLK
  5
7
330
2
100
AcDbEntity
  8
0
100
AcDbBlockEnd
  0
BLOCK
  5
9
330
8
100
AcDbEntity
 67
     1
  8
0
100
AcDbBlockBegin
  2
*PAPER_SPACE
 70
     0
 10
0.0
 20
0.0
 30
0.0
  3
*PAPER_SPACE
  1

  0
ENDBLK
  5
A
330
8
100
AcDbEntity
 67
     1
  8
0
100
AcDbBlockEnd
  0
BLOCK
  5
68
330
5D
100
AcDbEntity
  8
0
100
AcDbBlockBegin
  2
*D0
 70
     1
 10
0.0
 20
0.0
 30
0.0
  3
*D0
  1

  0
LINE
  5
5E
330
5D
100
AcDbEntity
  8
0
  6
ByBlock
 62
     0
100
AcDbLine
 10
16.59366176661783
 20
-3.695163504021722
 30
0.0
 11
16.59366176661783
 21
-2.928368029626047
 31
0.0
  0
LINE
  5
5F
330
5D
100
AcDbEntity
  8
0
  6
ByBlock
 62
     0
100
AcDbLine
 10
18.8375833473702
 20
-3.695163504021722
 30
0.0
 11
18.8375833473702
 21
-2.928368029626047
 31
0.0
  0
LINE
  5
60
330
5D
100
AcDbEntity
  8
0
  6
ByBlock
 62
     0
100
AcDbLine
 10
16.59366176661783
 20
-3.108368029626046
 30
0.0
 11
17.31978922366068
 21
-3.108368029626046
 31
0.0
  0
LINE
  5
61
330
5D
100
AcDbEntity
  8
0
  6
ByBlock
 62
     0
100
AcDbLine
 10
18.8375833473702
 20
-3.108368029626046
 30
0.0
 11
18.11145589032735
 21
-3.108368029626046
 31
0.0
  0
LINE
  5
62
330
5D
100
AcDbEntity
  8
0
  6
ByBlock
 62
     0
100
AcDbLine
 10
16.46866176661783
 20
-3.233368029626046
 30
0.0
 11
16.71866176661783
 21
-2.983368029626046
 31
0.0
  0
LINE
  5
63
330
5D
100
AcDbEntity
  8
0
  6
ByBlock
 62
     0
100
AcDbLine
 10
18.7125833473702
 20
-3.233368029626046
 30
0.0
 11
18.9625833473702
 21
-2.983368029626046
 31
0.0
  0
TEXT
  5
64
330
5D
100
AcDbEntity
  8
0
  6
ByBlock
 62
     0
100
AcDbText
 10
17.44478922366068
 20
-3.170868029626046
 30
0.0
 40
0.125
  1
2 1/4
 72
     1
 11
17.71562255699401
 21
-3.108368029626046
 31
0.0
100
AcDbText
 73
     2
  0
POINT
  5
65
330
5D
100
AcDbEntity
  8
DEFPOINTS
  6
ByBlock
 62
     0
100
AcDbPoint
 10
16.59366176661783
 20
-3.757663504021722
 30
0.0
  0
POINT
  5
66
330
5D
100
AcDbEntity
  8
DEFPOINTS
  6
ByBlock
 62
     0
100
AcDbPoint
 10
18.8375833473702
 20
-3.757663504021722
 30
0.0
  0
POINT
  5
67
330
5D
100
AcDbEntity
  8
DEFPOINTS
  6
ByBlock
 62
     0
100
AcDbPoint
 10
18.8375833473702
 20
-3.108368029626046
 30
0.0
  0
ENDBLK
  5
69
330
5D
100
AcDbEntity
  8
0
100
AcDbBlockEnd
  0
BLOCK
  5
5A
330
4F
100
AcDbEntity
  8
0
100
AcDbBlockBegin
  2
*D1
 70
     1
 10
0.0
 20
0.0
 30
0.0
  3
*D1
  1

  0
LINE
  5
50
330
4F
100
AcDbEntity
  8
0
  6
ByBlock
 62
     0
100
AcDbLine
 10
17.0634033639686
 20
-4.101586284435083
 30
0.0
 11
17.0634033639686
 21
-4.496090066308565
 31
0.0
  0
LINE
  5
51
330
4F
100
AcDbEntity
  8
0
  6
ByBlock
 62
     0
100
AcDbLine
 10
18.36784175001942
 20
-4.101586284435083
 30
0.0
 11
18.36784175001942
 21
-4.496090066308565
 31
0.0
  0
LINE
  5
52
330
4F
100
AcDbEntity
  8
0
  6
ByBlock
 62
     0
100
AcDbLine
 10
17.0634033639686
 20
-4.316090066308565
 30
0.0
 11
16.8134033639686
 21
-4.316090066308565
 31
0.0
  0
LINE
  5
53
330
4F
100
AcDbEntity
  8
0
  6
ByBlock
 62
     0
100
AcDbLine
 10
18.36784175001942
 20
-4.316090066308565
 30
0.0
 11
18.61784175001942
 21
-4.316090066308565
 31
0.0
  0
LINE
  5
54
330
4F
100
AcDbEntity
  8
0
  6
ByBlock
 62
     0
100
AcDbLine
 10
16.9384033639686
 20
-4.441090066308565
 30
0.0
 11
17.1884033639686
 21
-4.191090066308565
 31
0.0
  0
LINE
  5
55
330
4F
100
AcDbEntity
  8
0
  6
ByBlock
 62
     0
100
AcDbLine
 10
18.24284175001942
 20
-4.441090066308565
 30
0.0
 11
18.49284175001942
 21
-4.191090066308565
 31
0.0
  0
TEXT
  5
56
330
4F
100
AcDbEntity
  8
0
  6
ByBlock
 62
     0
100
AcDbText
 10
18.74284175001942
 20
-4.378590066308565
 30
0.0
 40
0.125
  1
1 5/16
 72
     1
 11
19.05534175001942
 21
-4.316090066308565
 31
0.0
100
AcDbText
 73
     2
  0
POINT
  5
57
330
4F
100
AcDbEntity
  8
DEFPOINTS
  6
ByBlock
 62
     0
100
AcDbPoint
 10
17.0634033639686
 20
-4.039086284435083
 30
0.0
  0
POINT
  5
58
330
4F
100
AcDbEntity
  8
DEFPOINTS
  6
ByBlock
 62
     0
100
AcDbPoint
 10
18.36784175001942
 20
-4.039086284435083
 30
0.0
  0
POINT
  5
59
330
4F
100
AcDbEntity
  8
DEFPOINTS
  6
ByBlock
 62
     0
100
AcDbPoint
 10
18.36784175001942
 20
-4.316090066308565
 30
0.0
  0
ENDBLK
  5
5B
330
4F
100
AcDbEntity
  8
0
100
AcDbBlockEnd
  0
BLOCK
  5
88
330
4D
100
AcDbEntity
  8
0
100
AcDbBlockBegin
  2
6930
 70
     0
 10
0.0
 20
0.0
 30
0.0
  3
6930
  1

  0
DIMENSION
  5
4E
330
4D
100
AcDbEntity
  8
ADPDIM
100
AcDbDimension
  2
*D1
 10
-0.0000000000000036
 20
-0.1905037818734829
 30
0.0
 11
0.6874999999999965
 21
-0.1905037818734829
 31
0.0
 12
-18.36784175001943
 22
4.125586284435082
 32
0.0
 71
     5
 42
-1.0
100
AcDbAlignedDimension
 13
-1.304438386050826
 23
0.0864999999999992
 33
0.0
 14
-0.0000000000000036
 24
0.0864999999999992
 34
0.0
100
AcDbRotatedDimension
  0
DIMENSION
  5
5C
330
4D
100
AcDbEntity
  8
ADPDIM
100
AcDbDimension
  2
*D0
 10
0.469741597350776
 20
1.017218254809035
 30
0.0
 11
-0.6522191930254131
 21
1.017218254809035
 31
0.0
 12
-18.36784175001943
 22
4.125586284435082
 32
0.0
 71
     5
 42
-1.0
100
AcDbAlignedDimension
 13
-1.774179983401602
 23
0.3679227804133607
 33
0.0
 14
0.469741597350776
 24
0.3679227804133607
 34
0.0
100
AcDbRotatedDimension
  0
ARC
  5
6A
330
4D
100
AcDbEntity
  8
ADP1DETAIL
100
AcDbCircle
 10
-0.6488995775555182
 20
0.076013771840433
 30
0.0
 40
0.75
100
AcDbArc
 50
90.25360076942181
 51
135.5469981948047
  0
LINE
  5
6B
330
4D
100
AcDbEntity
  8
ADP1DETAIL
100
AcDbLine
 10
-0.6644383860508221
 20
0.3759999999999994
 30
0.0
 11
-1.164438386050822
 21
0.3759999999999994
 31
0.0
  0
ARC
  5
6C
330
4D
100
AcDbEntity
  8
ADP1DETAIL
100
AcDbCircle
 10
-1.694899577555517
 20
0.0140137718404336
 30
0.0
 40
0.2649999999999998
100
AcDbArc
 50
0.0
 51
78.45730220113806
  0
LINE
  5
6D
330
4D
100
AcDbEntity
  8
ADP1DETAIL
100
AcDbLine
 10
-1.179438386050819
 20
0.3609999999999989
 30
0.0
 11
-1.179438386050819
 21
0.2029999999999994
 31
0.0
  0
LINE
  5
6E
330
4D
100
AcDbEntity
  8
ADP1DETAIL
100
AcDbLine
 10
-1.304438386050822
 20
0.1729999999999983
 30
0.0
 11
-1.304438386050819
 21
0.0
 31
0.0
  0
ARC
  5
6F
330
4D
100
AcDbEntity
  8
ADP1DETAIL
100
AcDbCircle
 10
-1.414932034202735
 20
0.0149999999999988
 30
0.0
 40
0.015
100
AcDbArc
 50
183.7698334967862
 51
270.0
  0
LINE
  5
70
330
4D
100
AcDbEntity
  8
ADP1DETAIL
100
AcDbLine
 10
-1.304438386050819
 20
0.0
 30
0.0
 11
-1.414932034202735
 21
0.0
 31
0.0
  0
ARC
  5
71
330
4D
100
AcDbEntity
  8
ADP1DETAIL
100
AcDbCircle
 10
-1.289438386050822
 20
0.1729999999999983
 30
0.0
 40
0.0150000000000001
100
AcDbArc
 50
90.0
 51
180.0
  0
LINE
  5
72
330
4D
100
AcDbEntity
  8
ADP1DETAIL
100
AcDbLine
 10
-1.194438386050819
 20
0.1879999999999988
 30
0.0
 11
-1.289438386050822
 21
0.1879999999999988
 31
0.0
  0
ARC
  5
73
330
4D
100
AcDbEntity
  8
ADP1DETAIL
100
AcDbCircle
 10
-1.194438386050819
 20
0.2029999999999994
 30
0.0
 40
0.0150000000000006
100
AcDbArc
 50
270.0
 51
359.9999999999983
  0
ARC
  5
74
330
4D
100
AcDbEntity
  8
ADP1DETAIL
100
AcDbCircle
 10
-1.665849434458813
 20
0.3799847937508449
 30
0.0
 40
0.1089999999999999
100
AcDbArc
 50
90.0
 51
282.7068037043093
  0
LINE
  5
75
330
4D
100
AcDbEntity
  8
ADP1DETAIL
100
AcDbLine
 10
-1.665849434458813
 20
0.488984793750845
 30
0.0
 11
-1.666373113604315
 21
0.5322425161042155
 31
0.0
  0
LINE
  5
76
330
4D
100
AcDbEntity
  8
ADP1DETAIL
100
AcDbLine
 10
-1.665849434458813
 20
0.5331110915688502
 30
0.0
 11
-1.578746819893297
 21
0.5334422017985947
 31
0.0
  0
ARC
  5
77
330
4D
100
AcDbEntity
  8
ADP1DETAIL
100
AcDbCircle
 10
-1.164438386050822
 20
0.3610000000000006
 30
0.0
 40
0.0149999999999993
100
AcDbArc
 50
90.0
 51
180.0000000000034
  0
ARC
  5
78
330
4D
100
AcDbEntity
  8
ADP1DETAIL
100
AcDbCircle
 10
-1.481552999134411
 20
1.151026599243705
 30
0.0
 40
0.6249999999999996
100
AcDbArc
 50
261.3649853652225
 51
298.4020250590626
  0
LINE
  5
79
330
4D
100
AcDbEntity
  8
ADP1DETAIL
100
AcDbLine
 10
-0.6634527977546086
 20
0.3751171815603644
 30
0.0
 11
-0.1400000000000006
 21
0.3759999999999994
 31
0.0
  0
ARC
  5
7A
330
4D
100
AcDbEntity
  8
ADP1DETAIL
100
AcDbCircle
 10
-0.655538808495308
 20
0.0760137718404366
 30
0.0
 40
0.749999999999996
100
AcDbArc
 50
44.45300180519512
 51
89.74639923057827
  0
LINE
  5
7B
330
4D
100
AcDbEntity
  8
ADP1DETAIL
100
AcDbLine
 10
-0.125
 20
0.3609999999999989
 30
0.0
 11
-0.125
 21
0.2029999999999994
 31
0.0
  0
ARC
  5
7C
330
4D
100
AcDbEntity
  8
ADP1DETAIL
100
AcDbCircle
 10
0.3904611915046914
 20
0.0140137718404336
 30
0.0
 40
0.2649999999999998
100
AcDbArc
 50
101.5426977988619
 51
180.0
  0
LINE
  5
7D
330
4D
100
AcDbEntity
  8
ADP1DETAIL
100
AcDbLine
 10
-0.110000000000003
 20
0.1879999999999988
 30
0.0
 11
-0.0150000000000006
 21
0.1879999999999988
 31
0.0
  0
ARC
  5
7E
330
4D
100
AcDbEntity
  8
ADP1DETAIL
100
AcDbCircle
 10
-0.1099999999999994
 20
0.2029999999999994
 30
0.0
 40
0.0150000000000006
100
AcDbArc
 50
179.9999999999966
 51
269.9999999999932
  0
LINE
  5
7F
330
4D
100
AcDbEntity
  8
ADP1DETAIL
100
AcDbLine
 10
0.0
 20
0.1729999999999983
 30
0.0
 11
0.0
 21
0.0
 31
0.0
  0
ARC
  5
80
330
4D
100
AcDbEntity
  8
ADP1DETAIL
100
AcDbCircle
 10
0.1104936481519161
 20
0.0149999999999988
 30
0.0
 40
0.015
100
AcDbArc
 50
270.0
 51
356.2301665032137
  0
LINE
  5
81
330
4D
100
AcDbEntity
  8
ADP1DETAIL
100
AcDbLine
 10
0.0
 20
0.0
 30
0.0
 11
0.1104936481519161
 21
0.0
 31
0.0
  0
ARC
  5
82
330
4D
100
AcDbEntity
  8
ADP1DETAIL
100
AcDbCircle
 10
-0.0150000000000006
 20
0.1729999999999983
 30
0.0
 40
0.0150000000000006
100
AcDbArc
 50
0.0
 51
90.0
  0
LINE
  5
83
330
4D
100
AcDbEntity
  8
ADP1DETAIL
100
AcDbLine
 10
0.3614110484079873
 20
0.5331110915688502
 30
0.0
 11
0.2743084338424708
 21
0.5334422017985947
 31
0.0
  0
ARC
  5
84
330
4D
100
AcDbEntity
  8
ADP1DETAIL
100
AcDbCircle
 10
0.1771146130835888
 20
1.151026599243705
 30
0.0
 40
0.6249999999999996
100
AcDbArc
 50
241.5979749409373
 51
278.6350146347775
  0
ARC
  5
85
330
4D
100
AcDbEntity
  8
ADP1DETAIL
100
AcDbCircle
 10
-0.1400000000000006
 20
0.3609999999999989
 30
0.0
 40
0.0150000000000006
100
AcDbArc
 50
0.0
 51
90.0
  0
LINE
  5
86
330
4D
100
AcDbEntity
  8
ADP1DETAIL
100
AcDbLine
 10
0.3614110484079873
 20
0.488984793750845
 30
0.0
 11
0.3619347275534892
 21
0.5322425161042155
 31
0.0
  0
ARC
  5
87
330
4D
100
AcDbEntity
  8
ADP1DETAIL
100
AcDbCircle
 10
0.3614110484079873
 20
0.3799847937508449
 30
0.0
 40
0.1089999999999999
100
AcDbArc
 50
257.2931962956907
 51
90.0
  0
ENDBLK
  5
89
330
4D
100
AcDbEntity
  8
0
100
AcDbBlockEnd
  0
BLOCK
  5
111
330
106
100
AcDbEntity
  8
0
100
AcDbBlockBegin
  2
*D3
 70
     1
 10
0.0
 20
0.0
 30
0.0
  3
*D3
  1

  0
LINE
  5
25F
330
106
100
AcDbEntity
  8
ADPDIM
 62
     0
100
AcDbLine
 10
14.83247237062566
 20
0.970087704827295
 30
0.0
 11
14.83247237062566
 21
0.6395183704849286
 31
0.0
  0
LINE
  5
260
330
106
100
AcDbEntity
  8
ADPDIM
 62
     0
100
AcDbLine
 10
18.58247237062566
 20
1.167626873489141
 30
0.0
 11
18.58247237062566
 21
0.6395183704849286
 31
0.0
  0
LINE
  5
261
330
106
100
AcDbEntity
  8
ADPDIM
 62
     0
100
AcDbLine
 10
14.83247237062566
 20
0.8195183704849284
 30
0.0
 11
16.29080570395899
 21
0.8195183704849284
 31
0.0
  0
LINE
  5
262
330
106
100
AcDbEntity
  8
ADPDIM
 62
     0
100
AcDbLine
 10
18.58247237062566
 20
0.8195183704849284
 30
0.0
 11
17.12413903729232
 21
0.8195183704849284
 31
0.0
  0
LINE
  5
263
330
106
100
AcDbEntity
  8
ADPDIM
 62
     0
100
AcDbLine
 10
18.45747237062566
 20
0.6945183704849285
 30
0.0
 11
18.70747237062566
 21
0.9445183704849284
 31
0.0
  0
LINE
  5
264
330
106
100
AcDbEntity
  8
ADPDIM
 62
     0
100
AcDbLine
 10
14.70747237062566
 20
0.6945183704849285
 30
0.0
 11
14.95747237062566
 21
0.9445183704849284
 31
0.0
  0
MTEXT
  5
265
330
106
100
AcDbEntity
  8
ADPDIM
 62
     0
100
AcDbMText
 10
16.70747237062566
 20
0.8195183704849284
 30
0.0
 40
0.125
 41
0.0
 71
     5
 72
     1
  1
\A1;3 3/4
 73
     1
 44
1.0
1001
ACAD
1000
MTEXTBEGIN
1070
    73
1070
     1
1070
    44
1040
1.0
1070
    74
1070
     0
1000
MTEXTEND
  0
POINT
  5
266
330
106
100
AcDbEntity
  8
DEFPOINTS
 62
     0
100
AcDbPoint
 10
14.83247237062566
 20
1.032587704827295
 30
0.0
  0
POINT
  5
267
330
106
100
AcDbEntity
  8
DEFPOINTS
 62
     0
100
AcDbPoint
 10
18.58247237062566
 20
1.230126873489141
 30
0.0
  0
POINT
  5
268
330
106
100
AcDbEntity
  8
DEFPOINTS
 62
     0
100
AcDbPoint
 10
18.58247237062566
 20
0.8195183704849284
 30
0.0
  0
ENDBLK
  5
112
330
106
100
AcDbEntity
  8
0
100
AcDbBlockEnd
  0
BLOCK
  5
2C8
330
2BD
100
AcDbEntity
  8
0
100
AcDbBlockBegin
  2
*D7
 70
     1
 10
0.0
 20
0.0
 30
0.0
  3
*D7
  1

  0
LINE
  5
3AB
330
2BD
100
AcDbEntity
  8
ADPDIM
 62
     0
370
    -2
100
AcDbLine
 10
11.85962073167451
 20
1.391846168262808
 30
0.0
 11
11.85962073167451
 21
2.158641642658483
 31
0.0
  0
LINE
  5
3AC
330
2BD
100
AcDbEntity
  8
ADPDIM
 62
     0
370
    -2
100
AcDbLine
 10
14.10354231242689
 20
1.391846168262808
 30
0.0
 11
14.10354231242689
 21
2.158641642658483
 31
0.0
  0
LINE
  5
3AD
330
2BD
100
AcDbEntity
  8
ADPDIM
 62
     0
370
    -2
100
AcDbLine
 10
11.85962073167451
 20
1.978641642658483
 30
0.0
 11
12.62074818871737
 21
1.978641642658483
 31
0.0
  0
LINE
  5
3AE
330
2BD
100
AcDbEntity
  8
ADPDIM
 62
     0
370
    -2
100
AcDbLine
 10
14.10354231242689
 20
1.978641642658483
 30
0.0
 11
13.34241485538403
 21
1.978641642658483
 31
0.0
  0
INSERT
  5
3AF
330
2BD
100
AcDbEntity
  8
ADPDIM
 62
     0
370
    -2
100
AcDbBlockReference
  2
_Oblique
 10
11.85962073167451
 20
1.978641642658483
 30
0.0
 41
0.18
 42
0.18
 43
0.18
 50
180.0
  0
INSERT
  5
3B0
330
2BD
100
AcDbEntity
  8
ADPDIM
 62
     0
370
    -2
100
AcDbBlockReference
  2
_Oblique
 10
14.10354231242689
 20
1.978641642658483
 30
0.0
 41
0.18
 42
0.18
 43
0.18
  0
MTEXT
  5
3B1
330
2BD
100
AcDbEntity
  8
ADPDIM
 62
     0
100
AcDbMText
 10
12.9815815220507
 20
1.978641642658483
 30
0.0
 40
0.125
 41
0.0
 71
     5
 72
     1
  1
\A1;2 1/4
 73
     1
 44
1.0
1001
ACAD
1000
MTEXTBEGIN
1070
    73
1070
     1
1070
    44
1040
1.0
1070
    74
1070
     0
1000
MTEXTEND
  0
POINT
  5
3B2
330
2BD
100
AcDbEntity
  8
DEFPOINTS
 62
     0
100
AcDbPoint
 10
11.85962073167451
 20
1.329346168262808
 30
0.0
  0
POINT
  5
3B3
330
2BD
100
AcDbEntity
  8
DEFPOINTS
 62
     0
100
AcDbPoint
 10
14.10354231242689
 20
1.329346168262808
 30
0.0
  0
POINT
  5
3B4
330
2BD
100
AcDbEntity
  8
DEFPOINTS
 62
     0
100
AcDbPoint
 10
14.10354231242689
 20
1.978641642658483
 30
0.0
  0
ENDBLK
  5
2C9
330
2BD
100
AcDbEntity
  8
0
100
AcDbBlockEnd
  0
BLOCK
  5
2D5
330
2CA
100
AcDbEntity
  8
0
100
AcDbBlockBegin
  2
*D8
 70
     1
 10
0.0
 20
0.0
 30
0.0
  3
*D8
  1

  0
LINE
  5
2EE
330
2CA
100
AcDbEntity
  8
ADPDIM
 62
     0
370
    -2
100
AcDbLine
 10
12.33966825276513
 20
1.160916164089762
 30
0.0
 11
12.33966825276513
 21
0.8430270847489465
 31
0.0
  0
LINE
  5
2EF
330
2CA
100
AcDbEntity
  8
ADPDIM
 62
     0
370
    -2
100
AcDbLine
 10
13.65216825276513
 20
1.160916164089762
 30
0.0
 11
13.65216825276513
 21
0.8430270847489465
 31
0.0
  0
LINE
  5
2F0
330
2CA
100
AcDbEntity
  8
ADPDIM
 62
     0
370
    -2
100
AcDbLine
 10
12.33966825276513
 20
1.023027084748946
 30
0.0
 11
12.55841825276513
 21
1.023027084748946
 31
0.0
  0
LINE
  5
2F1
330
2CA
100
AcDbEntity
  8
ADPDIM
 62
     0
370
    -2
100
AcDbLine
 10
13.65216825276513
 20
1.023027084748946
 30
0.0
 11
13.43341825276513
 21
1.023027084748946
 31
0.0
  0
LINE
  5
2F2
330
2CA
100
AcDbEntity
  8
ADPDIM
 62
     0
370
    -2
100
AcDbLine
 10
13.52716825276513
 20
0.8980270847489464
 30
0.0
 11
13.77716825276513
 21
1.148027084748946
 31
0.0
  0
LINE
  5
2F3
330
2CA
100
AcDbEntity
  8
ADPDIM
 62
     0
370
    -2
100
AcDbLine
 10
12.21466825276513
 20
0.8980270847489464
 30
0.0
 11
12.46466825276513
 21
1.148027084748946
 31
0.0
  0
MTEXT
  5
2F4
330
2CA
100
AcDbEntity
  8
ADPDIM
 62
     0
100
AcDbMText
 10
12.99591825276513
 20
1.023027084748946
 30
0.0
 40
0.125
 41
0.0
 71
     5
 72
     1
  1
\A1;1 5/16
 73
     1
 44
1.0
1001
ACAD
1000
MTEXTBEGIN
1070
    73
1070
     1
1070
    44
1040
1.0
1070
    74
1070
     0
1000
MTEXTEND
  0
POINT
  5
2F5
330
2CA
100
AcDbEntity
  8
DEFPOINTS
 62
     0
100
AcDbPoint
 10
12.33966825276513
 20
1.223416164089762
 30
0.0
  0
POINT
  5
2F6
330
2CA
100
AcDbEntity
  8
DEFPOINTS
 62
     0
100
AcDbPoint
 10
13.65216825276513
 20
1.223416164089762
 30
0.0
  0
POINT
  5
2F7
330
2CA
100
AcDbEntity
  8
DEFPOINTS
 62
     0
100
AcDbPoint
 10
13.65216825276513
 20
1.023027084748946
 30
0.0
  0
ENDBLK
  5
2D6
330
2CA
100
AcDbEntity
  8
0
100
AcDbBlockEnd
  0
BLOCK
  5
2E2
330
2D7
100
AcDbEntity
  8
0
100
AcDbBlockBegin
  2
*D9
 70
     1
 10
0.0
 20
0.0
 30
0.0
  3
*D9
  1

  0
LINE
  5
2F8
330
2D7
100
AcDbEntity
  8
ADPDIM
 62
     0
370
    -2
100
AcDbLine
 10
12.21087418411862
 20
0.9748405890251774
 30
0.0
 11
12.21087418411862
 21
0.4851894388960039
 31
0.0
  0
LINE
  5
2F9
330
2D7
100
AcDbEntity
  8
ADPDIM
 62
     0
370
    -2
100
AcDbLine
 10
13.77337418411862
 20
0.9748405890251774
 30
0.0
 11
13.77337418411862
 21
0.4851894388960039
 31
0.0
  0
LINE
  5
2FA
330
2D7
100
AcDbEntity
  8
ADPDIM
 62
     0
370
    -2
100
AcDbLine
 10
12.21087418411862
 20
0.6651894388960038
 30
0.0
 11
12.55462418411862
 21
0.6651894388960038
 31
0.0
  0
LINE
  5
2FB
330
2D7
100
AcDbEntity
  8
ADPDIM
 62
     0
370
    -2
100
AcDbLine
 10
13.77337418411862
 20
0.6651894388960038
 30
0.0
 11
13.42962418411862
 21
0.6651894388960038
 31
0.0
  0
LINE
  5
2FC
330
2D7
100
AcDbEntity
  8
ADPDIM
 62
     0
370
    -2
100
AcDbLine
 10
13.64837418411862
 20
0.5401894388960038
 30
0.0
 11
13.89837418411862
 21
0.7901894388960038
 31
0.0
  0
LINE
  5
2FD
330
2D7
100
AcDbEntity
  8
ADPDIM
 62
     0
370
    -2
100
AcDbLine
 10
12.08587418411862
 20
0.5401894388960038
 30
0.0
 11
12.33587418411862
 21
0.7901894388960038
 31
0.0
  0
MTEXT
  5
2FE
330
2D7
100
AcDbEntity
  8
ADPDIM
 62
     0
100
AcDbMText
 10
12.99212418411862
 20
0.6651894388960038
 30
0.0
 40
0.125
 41
0.0
 71
     5
 72
     1
  1
\A1;1 9/16
 73
     1
 44
1.0
1001
ACAD
1000
MTEXTBEGIN
1070
    73
1070
     1
1070
    44
1040
1.0
1070
    74
1070
     0
1000
MTEXTEND
  0
POINT
  5
2FF
330
2D7
100
AcDbEntity
  8
DEFPOINTS
 62
     0
100
AcDbPoint
 10
12.21087418411862
 20
1.037340589025177
 30
0.0
  0
POINT
  5
300
330
2D7
100
AcDbEntity
  8
DEFPOINTS
 62
     0
100
AcDbPoint
 10
13.77337418411862
 20
1.037340589025177
 30
0.0
  0
POINT
  5
301
330
2D7
100
AcDbEntity
  8
DEFPOINTS
 62
     0
100
AcDbPoint
 10
13.77337418411862
 20
0.6651894388960038
 30
0.0
  0
ENDBLK
  5
2E3
330
2D7
100
AcDbEntity
  8
0
100
AcDbBlockEnd
  0
BLOCK
  5
335
330
32A
100
AcDbEntity
  8
0
100
AcDbBlockBegin
  2
*D11
 70
     1
 10
0.0
 20
0.0
 30
0.0
  3
*D11
  1

  0
LINE
  5
32B
330
32A
100
AcDbEntity
  8
ADP1DETAIL
 62
     0
370
    -2
100
AcDbLine
 10
14.76997237062566
 20
1.84737599533733
 30
0.0
 11
14.23148603735807
 21
1.84737599533733
 31
0.0
  0
LINE
  5
32C
330
32A
100
AcDbEntity
  8
ADP1DETAIL
 62
     0
370
    -2
100
AcDbLine
 10
14.76997237062566
 20
0.9723759953373305
 30
0.0
 11
14.23148603735807
 21
0.9723759953373306
 31
0.0
  0
LINE
  5
32D
330
32A
100
AcDbEntity
  8
ADP1DETAIL
 62
     0
370
    -2
100
AcDbLine
 10
14.41148603735807
 20
1.84737599533733
 30
0.0
 11
14.41148603735807
 21
1.701542662003997
 31
0.0
  0
LINE
  5
32E
330
32A
100
AcDbEntity
  8
ADP1DETAIL
 62
     0
370
    -2
100
AcDbLine
 10
14.41148603735807
 20
0.9723759953373305
 30
0.0
 11
14.41148603735807
 21
1.118209328670663
 31
0.0
  0
LINE
  5
32F
330
32A
100
AcDbEntity
  8
ADP1DETAIL
 62
     0
370
    -2
100
AcDbLine
 10
14.53648603735807
 20
0.8473759953373305
 30
0.0
 11
14.28648603735807
 21
1.09737599533733
 31
0.0
  0
LINE
  5
330
330
32A
100
AcDbEntity
  8
ADP1DETAIL
 62
     0
370
    -2
100
AcDbLine
 10
14.53648603735807
 20
1.72237599533733
 30
0.0
 11
14.28648603735807
 21
1.97237599533733
 31
0.0
  0
MTEXT
  5
331
330
32A
100
AcDbEntity
  8
ADP1DETAIL
 62
     0
100
AcDbMText
 10
14.41148603735807
 20
1.409875995337332
 30
0.0
 40
0.125
 41
0.0
 71
     5
 72
     1
  1
\A1;7/8
 11
0.0000000000000001
 21
1.0
 31
0.0
 73
     1
 44
1.0
1001
ACAD
1000
MTEXTBEGIN
1070
    73
1070
     1
1070
    44
1040
1.0
1070
    74
1070
     0
1000
MTEXTEND
  0
POINT
  5
332
330
32A
100
AcDbEntity
  8
DEFPOINTS
 62
     0
100
AcDbPoint
 10
14.83247237062566
 20
1.84737599533733
 30
0.0
  0
POINT
  5
333
330
32A
100
AcDbEntity
  8
DEFPOINTS
 62
     0
100
AcDbPoint
 10
14.83247237062566
 20
0.9723759953373305
 30
0.0
  0
POINT
  5
334
330
32A
100
AcDbEntity
  8
DEFPOINTS
 62
     0
100
AcDbPoint
 10
14.41148603735807
 20
0.9723759953373305
 30
0.0
  0
ENDBLK
  5
336
330
32A
100
AcDbEntity
  8
0
100
AcDbBlockEnd
  0
BLOCK
  5
343
330
338
100
AcDbEntity
  8
0
100
AcDbBlockBegin
  2
*D12
 70
     1
 10
0.0
 20
0.0
 30
0.0
  3
*D12
  1

  0
LINE
  5
345
330
338
100
AcDbEntity
  8
ADP1DETAIL
 62
     0
370
    -2
100
AcDbLine
 10
14.76997237062566
 20
1.84737599533733
 30
0.0
 11
14.2545662696905
 21
1.84737599533733
 31
0.0
  0
LINE
  5
346
330
338
100
AcDbEntity
  8
ADP1DETAIL
 62
     0
370
    -2
100
AcDbLine
 10
19.66560857180793
 20
1.34737599533733
 30
0.0
 11
14.2545662696905
 21
1.347375995337332
 31
0.0
  0
LINE
  5
347
330
338
100
AcDbEntity
  8
ADP1DETAIL
 62
     0
370
    -2
100
AcDbLine
 10
14.4345662696905
 20
1.84737599533733
 30
0.0
 11
14.4345662696905
 21
1.347375995337331
 31
0.0
  0
LINE
  5
348
330
338
100
AcDbEntity
  8
ADP1DETAIL
 62
     0
370
    -2
100
AcDbLine
 10
14.4345662696905
 20
1.347375995337331
 30
0.0
 11
14.4345662696905
 21
1.097375995337331
 31
0.0
  0
LINE
  5
349
330
338
100
AcDbEntity
  8
ADP1DETAIL
 62
     0
370
    -2
100
AcDbLine
 10
14.5595662696905
 20
1.222375995337331
 30
0.0
 11
14.3095662696905
 21
1.472375995337331
 31
0.0
  0
LINE
  5
34A
330
338
100
AcDbEntity
  8
ADP1DETAIL
 62
     0
370
    -2
100
AcDbLine
 10
14.5595662696905
 20
1.72237599533733
 30
0.0
 11
14.3095662696905
 21
1.97237599533733
 31
0.0
  0
MTEXT
  5
34B
330
338
100
AcDbEntity
  8
ADP1DETAIL
 62
     0
100
AcDbMText
 10
14.4345662696905
 20
0.8265426620040008
 30
0.0
 40
0.125
 41
0.0
 71
     5
 72
     1
  1
\A1;1/2
 11
0.0000000000000001
 21
1.0
 31
0.0
 73
     1
 44
1.0
1001
ACAD
1000
MTEXTBEGIN
1070
    73
1070
     1
1070
    44
1040
1.0
1070
    74
1070
     0
1000
MTEXTEND
  0
POINT
  5
34C
330
338
100
AcDbEntity
  8
DEFPOINTS
 62
     0
100
AcDbPoint
 10
14.83247237062566
 20
1.84737599533733
 30
0.0
  0
POINT
  5
34D
330
338
100
AcDbEntity
  8
DEFPOINTS
 62
     0
100
AcDbPoint
 10
19.72810857180793
 20
1.34737599533733
 30
0.0
  0
POINT
  5
34E
330
338
100
AcDbEntity
  8
DEFPOINTS
 62
     0
100
AcDbPoint
 10
14.4345662696905
 20
1.347375995337331
 30
0.0
  0
ENDBLK
  5
344
330
338
100
AcDbEntity
  8
0
100
AcDbBlockEnd
  0
BLOCK
  5
35B
330
350
100
AcDbEntity
  8
0
100
AcDbBlockBegin
  2
*D13
 70
     1
 10
0.0
 20
0.0
 30
0.0
  3
*D13
  1

  0
LINE
  5
351
330
350
100
AcDbEntity
  8
ADP1DETAIL
 62
     0
370
    -2
100
AcDbLine
 10
18.49247237062566
 20
1.623005275205187
 30
0.0
 11
18.49247237062566
 21
2.20100391110564
 31
0.0
  0
LINE
  5
352
330
350
100
AcDbEntity
  8
ADP1DETAIL
 62
     0
370
    -2
100
AcDbLine
 10
17.77163734710215
 20
1.623005275205187
 30
0.0
 11
17.77163734710215
 21
2.20100391110564
 31
0.0
  0
LINE
  5
353
330
350
100
AcDbEntity
  8
ADP1DETAIL
 62
     0
370
    -2
100
AcDbLine
 10
18.49247237062566
 20
2.021003911105641
 30
0.0
 11
18.74247237062566
 21
2.021003911105641
 31
0.0
  0
LINE
  5
354
330
350
100
AcDbEntity
  8
ADP1DETAIL
 62
     0
370
    -2
100
AcDbLine
 10
17.77163734710215
 20
2.021003911105641
 30
0.0
 11
17.52163734710215
 21
2.021003911105641
 31
0.0
  0
LINE
  5
355
330
350
100
AcDbEntity
  8
ADP1DETAIL
 62
     0
370
    -2
100
AcDbLine
 10
17.64663734710215
 20
1.896003911105641
 30
0.0
 11
17.89663734710215
 21
2.146003911105641
 31
0.0
  0
LINE
  5
356
330
350
100
AcDbEntity
  8
ADP1DETAIL
 62
     0
370
    -2
100
AcDbLine
 10
18.36747237062566
 20
1.896003911105641
 30
0.0
 11
18.61747237062566
 21
2.146003911105641
 31
0.0
  0
MTEXT
  5
357
330
350
100
AcDbEntity
  8
ADP1DETAIL
 62
     0
100
AcDbMText
 10
18.1320548588639
 20
2.021003911105641
 30
0.0
 40
0.125
 41
0.0
 71
     5
 72
     1
  1
\A1;3/4
 73
     1
 44
1.0
1001
ACAD
1000
MTEXTBEGIN
1070
    73
1070
     1
1070
    44
1040
1.0
1070
    74
1070
     0
1000
MTEXTEND
  0
POINT
  5
358
330
350
100
AcDbEntity
  8
DEFPOINTS
 62
     0
100
AcDbPoint
 10
18.49247237062566
 20
1.560505275205187
 30
0.0
  0
POINT
  5
359
330
350
100
AcDbEntity
  8
DEFPOINTS
 62
     0
100
AcDbPoint
 10
17.77163734710215
 20
1.560505275205187
 30
0.0
  0
POINT
  5
35A
330
350
100
AcDbEntity
  8
DEFPOINTS
 62
     0
100
AcDbPoint
 10
17.77163734710215
 20
2.021003911105641
 30
0.0
  0
ENDBLK
  5
35C
330
350
100
AcDbEntity
  8
0
100
AcDbBlockEnd
  0
BLOCK
  5
369
330
35E
100
AcDbEntity
  8
0
100
AcDbBlockBegin
  2
*D14
 70
     1
 10
0.0
 20
0.0
 30
0.0
  3
*D14
  1

  0
LINE
  5
379
330
35E
100
AcDbEntity
  8
ADP1DETAIL
 62
     0
370
    -2
100
AcDbLine
 10
18.49247237062566
 20
1.623005275205187
 30
0.0
 11
18.49247237062566
 21
3.992780035521725
 31
0.0
  0
LINE
  5
37A
330
35E
100
AcDbEntity
  8
ADP1DETAIL
 62
     0
370
    -2
100
AcDbLine
 10
17.61747237062566
 20
1.623005275205187
 30
0.0
 11
17.61747237062566
 21
3.992780035521725
 31
0.0
  0
LINE
  5
37B
330
35E
100
AcDbEntity
  8
ADP1DETAIL
 62
     0
370
    -2
100
AcDbLine
 10
18.49247237062566
 20
3.812780035521725
 30
0.0
 11
18.34663903729232
 21
3.812780035521725
 31
0.0
  0
LINE
  5
37C
330
35E
100
AcDbEntity
  8
ADP1DETAIL
 62
     0
370
    -2
100
AcDbLine
 10
17.61747237062566
 20
3.812780035521725
 30
0.0
 11
17.76330570395899
 21
3.812780035521725
 31
0.0
  0
LINE
  5
37D
330
35E
100
AcDbEntity
  8
ADP1DETAIL
 62
     0
370
    -2
100
AcDbLine
 10
17.49247237062566
 20
3.687780035521725
 30
0.0
 11
17.74247237062566
 21
3.937780035521725
 31
0.0
  0
LINE
  5
37E
330
35E
100
AcDbEntity
  8
ADP1DETAIL
 62
     0
370
    -2
100
AcDbLine
 10
18.36747237062566
 20
3.687780035521725
 30
0.0
 11
18.61747237062566
 21
3.937780035521725
 31
0.0
  0
MTEXT
  5
37F
330
35E
100
AcDbEntity
  8
ADP1DETAIL
 62
     0
100
AcDbMText
 10
18.05497237062566
 20
3.812780035521725
 30
0.0
 40
0.125
 41
0.0
 71
     5
 72
     1
  1
\A1;7/8
 73
     1
 44
1.0
1001
ACAD
1000
MTEXTBEGIN
1070
    73
1070
     1
1070
    44
1040
1.0
1070
    74
1070
     0
1000
MTEXTEND
  0
POINT
  5
380
330
35E
100
AcDbEntity
  8
DEFPOINTS
 62
     0
100
AcDbPoint
 10
18.49247237062566
 20
1.560505275205187
 30
0.0
  0
POINT
  5
381
330
35E
100
AcDbEntity
  8
DEFPOINTS
 62
     0
100
AcDbPoint
 10
17.61747237062566
 20
1.560505275205187
 30
0.0
  0
POINT
  5
382
330
35E
100
AcDbEntity
  8
DEFPOINTS
 62
     0
100
AcDbPoint
 10
17.61747237062566
 20
3.812780035521725
 30
0.0
  0
ENDBLK
  5
36A
330
35E
100
AcDbEntity
  8
0
100
AcDbBlockEnd
  0
BLOCK
  5
377
330
36C
100
AcDbEntity
  8
0
100
AcDbBlockBegin
  2
*D15
 70
     1
 10
0.0
 20
0.0
 30
0.0
  3
*D15
  1

  0
LINE
  5
36D
330
36C
100
AcDbEntity
  8
ADP1DETAIL
 62
     0
370
    -2
100
AcDbLine
 10
14.76997237062566
 20
1.84737599533733
 30
0.0
 11
14.3224589213918
 21
1.84737599533733
 31
0.0
  0
LINE
  5
36E
330
36C
100
AcDbEntity
  8
ADP1DETAIL
 62
     0
370
    -2
100
AcDbLine
 10
14.76997237062566
 20
1.437252539865085
 30
0.0
 11
14.3224589213918
 21
1.437252539865085
 31
0.0
  0
LINE
  5
36F
330
36C
100
AcDbEntity
  8
ADP1DETAIL
 62
     0
370
    -2
100
AcDbLine
 10
14.5024589213918
 20
1.84737599533733
 30
0.0
 11
14.5024589213918
 21
1.437252539865085
 31
0.0
  0
LINE
  5
370
330
36C
100
AcDbEntity
  8
ADP1DETAIL
 62
     0
370
    -2
100
AcDbLine
 10
14.5024589213918
 20
1.437252539865085
 30
0.0
 11
14.5024589213918
 21
1.187252539865085
 31
0.0
  0
LINE
  5
371
330
36C
100
AcDbEntity
  8
ADP1DETAIL
 62
     0
370
    -2
100
AcDbLine
 10
14.6274589213918
 20
1.312252539865085
 30
0.0
 11
14.3774589213918
 21
1.562252539865085
 31
0.0
  0
LINE
  5
372
330
36C
100
AcDbEntity
  8
ADP1DETAIL
 62
     0
370
    -2
100
AcDbLine
 10
14.6274589213918
 20
1.72237599533733
 30
0.0
 11
14.3774589213918
 21
1.97237599533733
 31
0.0
  0
MTEXT
  5
373
330
36C
100
AcDbEntity
  8
ADP1DETAIL
 62
     0
100
AcDbMText
 10
14.5024589213918
 20
0.8539192065317543
 30
0.0
 40
0.125
 41
0.0
 71
     5
 72
     1
  1
\A1;7/16
 11
0.0000000000000001
 21
1.0
 31
0.0
 73
     1
 44
1.0
1001
ACAD
1000
MTEXTBEGIN
1070
    73
1070
     1
1070
    44
1040
1.0
1070
    74
1070
     0
1000
MTEXTEND
  0
POINT
  5
374
330
36C
100
AcDbEntity
  8
DEFPOINTS
 62
     0
100
AcDbPoint
 10
14.83247237062566
 20
1.84737599533733
 30
0.0
  0
POINT
  5
375
330
36C
100
AcDbEntity
  8
DEFPOINTS
 62
     0
100
AcDbPoint
 10
14.83247237062566
 20
1.437252539865085
 30
0.0
  0
POINT
  5
376
330
36C
100
AcDbEntity
  8
DEFPOINTS
 62
     0
100
AcDbPoint
 10
14.5024589213918
 20
1.437252539865085
 30
0.0
  0
ENDBLK
  5
378
330
36C
100
AcDbEntity
  8
0
100
AcDbBlockEnd
  0
BLOCK
  5
39F
330
39D
100
AcDbEntity
  8
0
100
AcDbBlockBegin
  2
_Oblique
 70
     0
 10
0.0
 20
0.0
 30
0.0
  3
_Oblique
  1

  0
LINE
  5
39E
330
39D
100
AcDbEntity
  8
0
  6
ByBlock
 62
     0
370
    -2
100
AcDbLine
 10
-0.5
 20
-0.5
 30
0.0
 11
0.5
 21
0.5
 31
0.0
  0
ENDBLK
  5
3A0
330
39D
100
AcDbEntity
  8
0
100
AcDbBlockEnd
  0
ENDSEC
  0
SECTION
  2
ENTITIES
  0
LWPOLYLINE
  5
1E
330
2
100
AcDbEntity
  8
ADP1DETAIL
100
AcDbPolyline
 90
        5
 70
     0
 43
0.0
 10
18.40120336208511
 20
2.798014720248003
 10
18.40120336208511
 20
2.873333236214952
 42
0.235746749156012
 10
18.14795648885344
 20
3.317150349165698
 10
17.86981479565346
 20
3.45775903811308
 42
-0.2764658909976421
 10
17.61401369631268
 20
3.812780035521725
 42
-0.215162686839721
  0
LWPOLYLINE
  5
25
330
2
100
AcDbEntity
  8
ADP1DETAIL
100
AcDbPolyline
 90
        5
 70
     0
 43
0.0
 10
18.40120336208511
 20
4.827545350795446
 10
18.40120336208511
 20
4.752226834828498
 42
-0.235746749156012
 10
18.14795648885344
 20
4.308409721877751
 10
17.86981479565346
 20
4.16780103293037
 42
0.2764658909976421
 10
17.61401369631268
 20
3.812780035521725
 42
0.215162686839721
  0
LINE
  5
2C
330
2
100
AcDbEntity
  8
ADP1DETAIL
100
AcDbLine
 10
18.40120336208511
 20
2.798014720248003
 30
0.0
 11
14.83247237062566
 21
2.798014720248005
 31
0.0
  0
LINE
  5
2D
330
2
100
AcDbEntity
  8
ADP1DETAIL
100
AcDbLine
 10
17.61747237062566
 20
1.84737599533733
 30
0.0
 11
18.49247237062568
 21
1.437252539865085
 31
0.0
  0
LINE
  5
2F
330
2
100
AcDbEntity
  8
ADP1DETAIL
100
AcDbLine
 10
18.54204238073551
 20
1.29000739984075
 30
0.0
 11
17.61747237062566
 21
1.032587704827295
 31
0.0
  0
LINE
  5
30
330
2
100
AcDbEntity
  8
ADP2DETAIL
  6
HIDDEN2
100
AcDbLine
 10
14.83247237062566
 20
3.167055147928493
 30
0.0
 11
18.58247237062566
 21
3.167055147928493
 31
0.0
  0
LINE
  5
33
330
2
100
AcDbEntity
  8
ADP2DETAIL
  6
HIDDEN2
100
AcDbLine
 10
14.83247237062566
 20
1.223044404967666
 30
0.0
 11
18.301532512819
 21
1.223044404967666
 31
0.0
  0
LINE
  5
34
330
2
100
AcDbEntity
  8
ADP2DETAIL
  6
HIDDEN2
100
AcDbLine
 10
14.83247237062566
 20
1.437252539865085
 30
0.0
 11
18.49247237062568
 21
1.437252539865085
 31
0.0
  0
LINE
  5
35
330
2
100
AcDbEntity
  8
ADP1DETAIL
100
AcDbLine
 10
18.58247237062564
 20
1.34737599533733
 30
0.0
 11
14.83247237062566
 21
1.347375995337331
 31
0.0
  0
LINE
  5
36
330
2
100
AcDbEntity
  8
ADP1DETAIL
100
AcDbLine
 10
18.40247237062566
 20
2.693333236214952
 30
0.0
 11
14.83247237062566
 21
2.693333236214954
 31
0.0
  0
LINE
  5
37
330
2
100
AcDbEntity
  8
ADP1DETAIL
100
AcDbLine
 10
14.83247237062566
 20
4.932226834828497
 30
0.0
 11
18.40247237062566
 21
4.932226834828497
 31
0.0
  0
LINE
  5
38
330
2
100
AcDbEntity
  8
ADP2DETAIL
  6
HIDDEN2
100
AcDbLine
 10
14.83247237062566
 20
4.346877213032144
 30
0.0
 11
18.58247237062566
 21
4.346877213032144
 31
0.0
  0
LINE
  5
39
330
2
100
AcDbEntity
  8
ADP2DETAIL
  6
HIDDEN2
100
AcDbLine
 10
14.83247237062566
 20
3.287222239994918
 30
0.0
 11
18.58247237062566
 21
3.287222239994918
 31
0.0
  0
LINE
  5
3A
330
2
100
AcDbEntity
  8
ADP1DETAIL
100
AcDbLine
 10
18.40120336208511
 20
4.827545350795446
 30
0.0
 11
14.83247237062566
 21
4.827545350795446
 31
0.0
  0
LINE
  5
3B
330
2
100
AcDbEntity
  8
ADP2DETAIL
  6
HIDDEN2
100
AcDbLine
 10
14.83247237062566
 20
4.467044074596202
 30
0.0
 11
18.58247237062566
 21
4.467044074596202
 31
0.0
  0
DIMENSION
  5
3C
330
2
100
AcDbEntity
  8
ADPDIM
100
AcDbDimension
  2
*D3
 10
18.58247237062566
 20
0.8195183704849284
 30
0.0
 11
16.70747237062566
 21
0.8195183704849284
 31
0.0
 70
    32
 71
     5
 42
-1.0
  3
STANDARD
100
AcDbAlignedDimension
 13
14.83247237062566
 23
1.032587704827295
 33
0.0
 14
18.58247237062566
 24
1.230126873489141
 34
0.0
100
AcDbRotatedDimension
1001
ACAD
1000
DSTYLE
1002
{
1070
   270
1070
     7
1070
   270
1070
     7
1070
   270
1070
     7
1070
   270
1070
     7
1070
   270
1070
     7
1070
    41
1040
0.125
1070
    73
1070
     0
1070
    74
1070
     0
1070
    78
1070
     3
1070
   140
1040
0.125
1070
   141
1040
0.1875
1070
   142
1040
0.125
1070
   147
1040
0.125
1070
   171
1070
     1
1070
   276
1070
     2
1070
   277
1070
     5
1002
}
  0
LINE
  5
8A
330
2
100
AcDbEntity
  8
ADP1DETAIL
100
AcDbLine
 10
14.83247237062566
 20
1.032587704827295
 30
0.0
 11
14.83247237062566
 21
1.84737599533733
 31
0.0
  0
LINE
  5
8B
330
2
100
AcDbEntity
  8
ADP1DETAIL
100
AcDbLine
 10
17.61747237062566
 20
1.032587704827295
 30
0.0
 11
14.83247237062566
 21
1.032587704827295
 31
0.0
  0
LINE
  5
8D
330
2
100
AcDbEntity
  8
ADP1DETAIL
100
AcDbLine
 10
14.83247237062566
 20
1.84737599533733
 30
0.0
 11
17.61747237062566
 21
1.84737599533733
 31
0.0
  0
LINE
  5
8E
330
2
100
AcDbEntity
  8
ADP1DETAIL
100
AcDbLine
 10
14.83247237062566
 20
2.693333236214954
 30
0.0
 11
14.83247237062566
 21
4.932226834828497
 31
0.0
  0
LINE
  5
8F
330
2
100
AcDbEntity
  8
ADP1DETAIL
100
AcDbLine
 10
18.58247237062566
 20
4.752226834828498
 30
0.0
 11
18.58247237062566
 21
2.873333236214952
 31
0.0
  0
ARC
  5
94
330
2
100
AcDbEntity
  8
ADP1DETAIL
100
AcDbCircle
 10
18.52446841559531
 20
1.34737599533733
 30
0.0
 40
0.0599999999999945
100
AcDbArc
 50
287.0316199970723
 51
0.0000000000036046
  0
ARC
  5
95
330
2
100
AcDbEntity
  8
ADP1DETAIL
100
AcDbCircle
 10
18.40247237062566
 20
2.873333236214952
 30
0.0
 40
0.18
100
AcDbArc
 50
270.0
 51
0.0
  0
ARC
  5
96
330
2
100
AcDbEntity
  8
ADP1DETAIL
100
AcDbCircle
 10
18.40247237062566
 20
4.752226834828498
 30
0.0
 40
0.18
100
AcDbArc
 50
0.0
 51
90.0
  0
TEXT
  5
A1
330
2
100
AcDbEntity
  8
ADPDIM
100
AcDbText
 10
8.701731783566245
 20
-0.1661386639973639
 30
0.0
 40
0.125
  1
J U L I U S  B L U M  &  C O . ,  I N C .      ( 8 0 0 )  5 2 6 - 6 2 9 3        W W W . J U L I U S B L U M . C O M        P A R T  N o .  6 9 3 0 - N
 41
1.25
  7
ARIAL_WIDE
 72
     1
 11
15.40326870375724
 21
-0.0411386639973639
 31
0.0
100
AcDbText
 73
     3
  0
DIMENSION
  5
2B9
330
2
100
AcDbEntity
  8
ADPDIM
100
AcDbDimension
  2
*D7
 10
14.10354231242689
 20
1.978641642658483
 30
0.0
 11
12.9815815220507
 21
1.978641642658483
 31
0.0
 70
    32
 71
     5
 42
2.243921580752378
  3
STANDARD
100
AcDbAlignedDimension
 13
11.85962073167451
 23
1.329346168262808
 33
0.0
 14
14.10354231242689
 24
1.329346168262808
 34
0.0
100
AcDbRotatedDimension
1001
ACAD
1000
DSTYLE
1002
{
1070
   343
1005
39D
1070
   173
1070
     1
1070
   344
1005
39D
1070
   276
1070
     2
1070
   277
1070
     5
1070
   140
1040
0.125
1002
}
  0
SPLINE
  5
2BA
330
2
100
AcDbEntity
  8
ADPDIM
 62
     7
100
AcDbSpline
210
0.0
220
0.0
230
1.0
 70
    11
 71
     3
 72
    68
 73
    64
 74
     0
 42
0.0000000001
 43
0.0000000001
 40
0.0
 40
0.0
 40
0.0
 40
0.0
 40
1.0
 40
1.0
 40
1.0
 40
2.0
 40
2.0
 40
2.0
 40
3.0
 40
3.0
 40
3.0
 40
4.0
 40
4.0
 40
4.0
 40
5.0
 40
5.0
 40
5.0
 40
6.0
 40
6.0
 40
6.0
 40
7.0
 40
7.0
 40
7.0
 40
8.0
 40
8.0
 40
8.0
 40
9.0
 40
9.0
 40
9.0
 40
10.0
 40
10.0
 40
10.0
 40
11.0
 40
11.0
 40
11.0
 40
12.0
 40
12.0
 40
12.0
 40
13.0
 40
13.0
 40
13.0
 40
14.0
 40
14.0
 40
14.0
 40
15.0
 40
15.0
 40
15.0
 40
16.0
 40
16.0
 40
16.0
 40
17.0
 40
17.0
 40
17.0
 40
18.0
 40
18.0
 40
18.0
 40
19.0
 40
19.0
 40
19.0
 40
20.0
 40
20.0
 40
20.0
 40
21.0
 40
21.0
 40
21.0
 40
21.0
 10
13.64656195047834
 20
1.411176090979417
 30
0.0
 10
13.64656195047834
 20
1.411176090979417
 30
0.0
 10
13.64656195047834
 20
1.222872625153702
 30
0.0
 10
13.64656195047834
 20
1.222872625153702
 30
0.0
 10
13.64656195047834
 20
1.222872625153702
 30
0.0
 10
13.77151009224879
 20
1.222872625153702
 30
0.0
 10
13.77151009224879
 20
1.222872625153702
 30
0.0
 10
13.77151009224879
 20
1.222872625153702
 30
0.0
 10
13.77151009224879
 20
1.039843120607149
 30
0.0
 10
13.77151009224879
 20
1.039843120607149
 30
0.0
 10
13.77151009224879
 20
1.039843120607149
 30
0.0
 10
13.89822074035931
 20
1.039843120607149
 30
0.0
 10
13.89822074035931
 20
1.039843120607149
 30
0.0
 10
13.89822074035931
 20
1.039843120607149
 30
0.0
 10
13.8911842727401
 20
1.138394340499663
 30
0.0
 10
13.96333857075466
 20
1.191188184255537
 30
0.0
 10
14.03549286876922
 20
1.243982028011412
 30
0.0
 10
14.11644614074315
 20
1.261579975930033
 30
0.0
 10
14.11644614074315
 20
1.363656208502694
 30
0.0
 10
14.11644614074315
 20
1.465732441075367
 30
0.0
 10
14.03725537510934
 20
1.485079337592992
 30
0.0
 10
13.9809365186733
 20
1.485079337592992
 30
0.0
 10
13.9809365186733
 20
1.485079337592992
 30
0.0
 10
13.9809365186733
 20
1.53963568768894
 30
0.0
 10
13.9809365186733
 20
1.53963568768894
 30
0.0
 10
13.9809365186733
 20
1.53963568768894
 30
0.0
 10
13.62633380079068
 20
1.529955460559593
 30
0.0
 10
13.49346793823095
 20
1.662834880860383
 30
0.0
 10
13.36060207567127
 20
1.795700743420112
 30
0.0
 10
13.14853188973663
 20
1.849375840346013
 30
0.0
 10
12.99191286480909
 20
1.849375840346013
 30
0.0
 10
12.83529383988155
 20
1.849375840346013
 30
0.0
 10
12.62322365394697
 20
1.795700743420112
 30
0.0
 10
12.49035779138724
 20
1.662834880860383
 30
0.0
 10
12.35749192882751
 20
1.529955460559593
 30
0.0
 10
12.00288921094493
 20
1.53963568768894
 30
0.0
 10
12.00288921094493
 20
1.53963568768894
 30
0.0
 10
12.00288921094493
 20
1.53963568768894
 30
0.0
 10
12.00288921094493
 20
1.485079337592992
 30
0.0
 10
12.00288921094493
 20
1.485079337592992
 30
0.0
 10
11.94657035450889
 20
1.485079337592992
 30
0.0
 10
11.86737958887509
 20
1.465732441075367
 30
0.0
 10
11.86737958887509
 20
1.363656208502694
 30
0.0
 10
11.86737958887509
 20
1.261579975930033
 30
0.0
 10
11.94833286084897
 20
1.243982028011412
 30
0.0
 10
12.02048715886353
 20
1.191188184255537
 30
0.0
 10
12.09264145687813
 20
1.138394340499663
 30
0.0
 10
12.08560498925888
 20
1.039843120607149
 30
0.0
 10
12.08560498925888
 20
1.039843120607149
 30
0.0
 10
12.08560498925888
 20
1.039843120607149
 30
0.0
 10
12.21230207962836
 20
1.039843120607149
 30
0.0
 10
12.21230207962836
 20
1.039843120607149
 30
0.0
 10
12.21230207962836
 20
1.039843120607149
 30
0.0
 10
12.21230207962836
 20
1.222872625153702
 30
0.0
 10
12.21230207962836
 20
1.222872625153702
 30
0.0
 10
12.21230207962836
 20
1.222872625153702
 30
0.0
 10
12.33725022139875
 20
1.222872625153702
 30
0.0
 10
12.33725022139875
 20
1.222872625153702
 30
0.0
 10
12.33725022139875
 20
1.222872625153702
 30
0.0
 10
12.33725022139875
 20
1.411176090979417
 30
0.0
 10
12.33725022139875
 20
1.411176090979417
 30
0.0
 10
12.33725022139875
 20
1.411176090979417
 30
0.0
 10
13.64656195047834
 20
1.411176090979417
 30
0.0
 10
13.64656195047834
 20
1.411176090979417
 30
0.0
  0
DIMENSION
  5
2BB
330
2
100
AcDbEntity
  8
ADPDIM
 62
     3
100
AcDbDimension
  2
*D8
 10
13.65216825276513
 20
1.023027084748946
 30
0.0
 11
12.99591825276513
 21
1.023027084748946
 31
0.0
 70
    32
 71
     5
 42
1.3125
  3
STANDARD
100
AcDbAlignedDimension
 13
12.33966825276513
 23
1.223416164089762
 33
0.0
 14
13.65216825276513
 24
1.223416164089762
 34
0.0
100
AcDbRotatedDimension
1001
ACAD
1000
DSTYLE
1002
{
1070
   276
1070
     2
1070
    41
1040
0.125
1070
    73
1070
     0
1070
    74
1070
     0
1070
    78
1070
     3
1070
   140
1040
0.125
1070
   141
1040
0.1875
1070
   142
1040
0.125
1070
   147
1040
0.125
1070
   171
1070
     1
1070
   273
1070
     5
1070
   274
1070
     1
1070
   277
1070
     5
1070
   279
1070
     2
1070
   284
1070
     3
1070
   285
1070
     3
1070
   286
1070
     3
1002
}
  0
DIMENSION
  5
2BC
330
2
100
AcDbEntity
  8
ADPDIM
 62
     3
100
AcDbDimension
  2
*D9
 10
13.77337418411862
 20
0.6651894388960038
 30
0.0
 11
12.99212418411862
 21
0.6651894388960038
 31
0.0
 70
    32
 71
     5
 42
1.5625
  3
STANDARD
100
AcDbAlignedDimension
 13
12.21087418411862
 23
1.037340589025177
 33
0.0
 14
13.77337418411862
 24
1.037340589025177
 34
0.0
100
AcDbRotatedDimension
1001
ACAD
1000
DSTYLE
1002
{
1070
   276
1070
     2
1070
    41
1040
0.125
1070
    73
1070
     0
1070
    74
1070
     0
1070
    78
1070
     3
1070
   140
1040
0.125
1070
   141
1040
0.1875
1070
   142
1040
0.125
1070
   147
1040
0.125
1070
   171
1070
     1
1070
   273
1070
     5
1070
   274
1070
     1
1070
   277
1070
     5
1070
   279
1070
     2
1070
   284
1070
     3
1070
   285
1070
     3
1070
   286
1070
     3
1002
}
  0
ARC
  5
390
330
2
100
AcDbEntity
  8
ADP1DETAIL
100
AcDbCircle
 10
18.27267401433999
 20
4.62163018054042
 30
0.0
 40
0.2418934090093771
100
AcDbArc
 50
6.417150731507959
 51
58.8588413091372
  0
ARC
  5
397
330
2
100
AcDbEntity
  8
ADP1DETAIL
100
AcDbCircle
 10
18.27426343469914
 20
3.005354575744822
 30
0.0
 40
0.2418934090093771
100
AcDbArc
 50
301.1411586908628
 51
353.5828492684921
  0
LINE
  5
398
330
2
100
AcDbEntity
  8
ADP1DETAIL
100
AcDbLine
 10
18.51305184210447
 20
4.64866573567447
 30
0.0
 11
18.51464126246362
 21
2.978319020610772
 31
0.0
  0
LINE
  5
399
330
2
100
AcDbEntity
  8
ADP1DETAIL
100
AcDbLine
 10
18.49247237062568
 20
1.437252539865085
 30
0.0
 11
18.49247237062568
 21
1.408778621685222
 31
0.0
  0
LINE
  5
39A
330
2
100
AcDbEntity
  8
ADP1DETAIL
100
AcDbLine
 10
18.49247237062568
 20
1.408778621685222
 30
0.0
 11
18.58247237062565
 21
1.408778621685222
 31
0.0
  0
LINE
  5
39B
330
2
100
AcDbEntity
  8
ADP1DETAIL
100
AcDbLine
 10
18.58247237062565
 20
1.408778621685222
 30
0.0
 11
18.5844684155953
 21
1.347375995337334
 31
0.0
  0
LINE
  5
39C
330
2
100
AcDbEntity
  8
ADP1DETAIL
100
AcDbLine
 10
18.49247237062568
 20
1.408778621685222
 30
0.0
 11
14.83247237062566
 21
1.408778621685222
 31
0.0
  0
ENDSEC
  0
SECTION
  2
OBJECTS
  0
DICTIONARY
  5
1B
330
0
100
AcDbDictionary
281
     1
  3
ACAD_COLOR
350
283
  3
ACAD_GROUP
350
19
  3
ACAD_LAYOUT
350
9A
  3
ACAD_MATERIAL
350
26E
  3
ACAD_MLINESTYLE
350
1A
  3
ACAD_PLOTSETTINGS
350
9B
  3
ACAD_PLOTSTYLENAME
350
98
  3
ACAD_TABLESTYLE
350
284
  3
ACAD_VISUALSTYLE
350
272
  3
AcDbVariableDictionary
350
117
  3
DWGPROPS
350
3CD
  0
DICTIONARY
  5
307
330
13
100
AcDbDictionary
280
     1
281
     1
  0
DICTIONARY
  5
102
330
2
100
AcDbDictionary
280
     1
281
     1
  3
ACAD_LAYOUTSELFREF
360
25B
  0
DICTIONARY
  5
104
330
8
100
AcDbDictionary
280
     1
281
     1
  3
ACAD_LAYOUTSELFREF
360
25C
  0
DICTIONARY
  5
283
102
{ACAD_REACTORS
330
1B
102
}
330
1B
100
AcDbDictionary
281
     1
  0
DICTIONARY
  5
19
102
{ACAD_REACTORS
330
1B
102
}
330
1B
100
AcDbDictionary
281
     1
  0
DICTIONARY
  5
9A
102
{ACAD_REACTORS
330
1B
102
}
330
1B
100
AcDbDictionary
281
     1
  3
Layout1
350
9D
  3
Model
350
9C
  0
DICTIONARY
  5
26E
102
{ACAD_REACTORS
330
1B
102
}
330
1B
100
AcDbDictionary
281
     1
  3
ByBlock
350
270
  3
ByLayer
350
26F
  3
Global
350
271
  0
DICTIONARY
  5
1A
102
{ACAD_REACTORS
330
1B
102
}
330
1B
100
AcDbDictionary
281
     1
  3
STANDARD
350
1C
  0
DICTIONARY
  5
9B
102
{ACAD_REACTORS
330
1B
102
}
330
1B
100
AcDbDictionary
281
     1
  0
ACDBDICTIONARYWDFLT
  5
98
102
{ACAD_REACTORS
330
1B
102
}
330
1B
100
AcDbDictionary
281
     1
  3
Normal
350
99
100
AcDbDictionaryWithDefault
340
99
  0
DICTIONARY
  5
284
102
{ACAD_REACTORS
330
1B
102
}
330
1B
100
AcDbDictionary
281
     1
  3
Standard
350
285
  0
DICTIONARY
  5
272
102
{ACAD_REACTORS
330
1B
102
}
330
1B
100
AcDbDictionary
281
     1
  3
2dWireframe
350
278
  3
3D Hidden
350
27A
  3
3dWireframe
350
279
  3
Basic
350
277
  3
Brighten
350
27E
  3
ColorChange
350
282
  3
Conceptual
350
27B
  3
Dim
350
27D
  3
Facepattern
350
281
  3
Flat
350
273
  3
FlatWithEdges
350
274
  3
Gouraud
350
275
  3
GouraudWithEdges
350
276
  3
Linepattern
350
280
  3
Realistic
350
27C
  3
Thicken
350
27F
  0
DICTIONARY
  5
117
102
{ACAD_REACTORS
330
1B
102
}
330
1B
100
AcDbDictionary
281
     1
  3
CTABLESTYLE
350
31B
  3
DIMASSOC
350
118
  3
INDEXCTL
350
31D
  3
SORTENTS
350
31C
  0
XRECORD
  5
3CD
102
{ACAD_REACTORS
330
1B
102
}
330
1B
100
AcDbXrecord
280
     1
  1
DWGPROPS COOKIE
  2

  3

  4

  6

  7

  8
John
  9

300
=
301
=
302
=
303
=
304
=
305
=
306
=
307
=
308
=
309
=
 40
0.0756978125
 41
2450364.013956204
 42
2455237.667297905
  1

 90
        0
  0
XRECORD
  5
25B
102
{ACAD_REACTORS
330
102
102
}
330
102
100
AcDbXrecord
280
     1
340
2
  0
XRECORD
  5
25C
102
{ACAD_REACTORS
330
104
102
}
330
104
100
AcDbXrecord
280
     1
340
8
  0
LAYOUT
  5
9D
102
{ACAD_XDICTIONARY
360
3D0
102
}
102
{ACAD_REACTORS
330
9A
102
}
330
9A
100
AcDbPlotSettings
  1

  2
Fax
  4

  6

 40
0.0
 41
0.0
 42
0.0
 43
0.0
 44
0.0
 45
0.0
 46
0.0
 47
0.0
 48
0.0
 49
0.0
140
0.0
141
0.0
142
1.0
143
1.0
 70
   688
 72
     0
 73
     0
 74
     5
  7
Default R14 pen assignments.ctb
 75
    16
147
1.0
148
0.0
149
0.0
100
AcDbLayout
  1
Layout1
 70
     1
 71
     1
 10
0.0
 20
0.0
 11
12.0
 21
9.0
 12
-1.038494034028074E+34
 22
0.0
 32
0.0
 14
1.000000000000000E+20
 24
1.000000000000000E+20
 34
1.000000000000000E+20
 15
-1.000000000000000E+20
 25
-1.000000000000000E+20
 35
-1.000000000000000E+20
146
0.0
 13
0.0
 23
0.0
 33
0.0
 16
1.0
 26
0.0
 36
0.0
 17
0.0
 27
1.0
 37
0.0
 76
     0
330
8
  0
LAYOUT
  5
9C
102
{ACAD_XDICTIONARY
360
3CE
102
}
102
{ACAD_REACTORS
330
9A
102
}
330
9A
100
AcDbPlotSettings
  1

  2
Fax
  4

  6

 40
0.0
 41
0.0
 42
0.0
 43
0.0
 44
0.0
 45
0.0
 46
0.0
 47
0.0
 48
0.0
 49
0.0
140
0.0
141
0.0
142
1.0
143
1.0
 70
  1712
 72
     0
 73
     0
 74
     0
  7
Default R14 pen assignments.ctb
 75
     0
147
1.0
148
0.0
149
0.0
100
AcDbLayout
  1
Model
 70
     1
 71
     0
 10
0.0
 20
0.0
 11
12.0
 21
9.0
 12
0.0
 22
0.0
 32
0.0
 14
0.0
 24
0.0
 34
0.0
 15
0.0
 25
0.0
 35
0.0
146
0.0
 13
0.0
 23
0.0
 33
0.0
 16
1.0
 26
0.0
 36
0.0
 17
0.0
 27
1.0
 37
0.0
 76
     0
330
2
331
237
  0
MATERIAL
  5
270
102
{ACAD_XDICTIONARY
360
3D4
102
}
102
{ACAD_REACTORS
330
26E
102
}
330
26E
100
AcDbMaterial
  1
ByBlock
  0
MATERIAL
  5
26F
102
{ACAD_XDICTIONARY
360
3D2
102
}
102
{ACAD_REACTORS
330
26E
102
}
330
26E
100
AcDbMaterial
  1
ByLayer
  0
MATERIAL
  5
271
102
{ACAD_XDICTIONARY
360
3D6
102
}
102
{ACAD_REACTORS
330
26E
102
}
330
26E
100
AcDbMaterial
  1
Global
  0
MLINESTYLE
  5
1C
102
{ACAD_REACTORS
330
1A
102
}
330
1A
100
AcDbMlineStyle
  2
STANDARD
 70
     0
  3

 62
     0
 51
90.0
 52
90.0
 71
     2
 49
0.5
 62
   256
  6
BYLAYER
 49
-0.5
 62
   256
  6
BYLAYER
  0
ACDBPLACEHOLDER
  5
99
102
{ACAD_REACTORS
330
98
102
}
330
98
  0
TABLESTYLE
  5
285
102
{ACAD_XDICTIONARY
360
3D8
102
}
102
{ACAD_REACTORS
330
284
102
}
330
284
100
AcDbTableStyle
  3
Standard
 70
     0
 71
     0
 40
0.06
 41
0.06
280
     0
281
     0
  7
STANDARD
140
0.18
170
     2
 62
     0
 63
     7
283
     0
274
    -2
284
     1
 64
     0
275
    -2
285
     1
 65
     0
276
    -2
286
     1
 66
     0
277
    -2
287
     1
 67
     0
278
    -2
288
     1
 68
     0
279
    -2
289
     1
 69
     0
  7
STANDARD
140
0.25
170
     5
 62
     0
 63
     7
283
     0
274
    -2
284
     1
 64
     0
275
    -2
285
     1
 65
     0
276
    -2
286
     1
 66
     0
277
    -2
287
     1
 67
     0
278
    -2
288
     1
 68
     0
279
    -2
289
     1
 69
     0
  7
STANDARD
140
0.18
170
     5
 62
     0
 63
     7
283
     0
274
    -2
284
     1
 64
     0
275
    -2
285
     1
 65
     0
276
    -2
286
     1
 66
     0
277
    -2
287
     1
 67
     0
278
    -2
288
     1
 68
     0
279
    -2
289
     1
 69
     0
  0
VISUALSTYLE
  5
278
102
{ACAD_REACTORS
330
272
102
}
330
272
100
AcDbVisualStyle
  2
2dWireframe
 70
     4
 71
     0
 72
     2
 73
     0
 90
        0
 40
-0.6
 41
-30.0
 62
     5
 63
     7
 74
     1
 91
        4
 64
     7
 65
   257
 75
     1
175
     1
 42
1.0
 92
        0
 66
   257
 43
1.0
 76
     1
 77
     6
 78
     2
 67
     7
 79
     5
170
     0
171
     0
290
     0
174
     0
 93
        1
 44
0.0
173
     0
291
     0
 45
0.0
1001
ACAD
1000
AcDbSavedByObjectVersion
1070
     0
  0
VISUALSTYLE
  5
27A
102
{ACAD_REACTORS
330
272
102
}
330
272
100
AcDbVisualStyle
  2
3D Hidden
 70
     6
 71
     1
 72
     2
 73
     2
 90
        0
 40
-0.6
 41
-30.0
 62
     5
 63
     7
 74
     2
 91
        2
 64
     7
 65
   257
 75
     2
175
     1
 42
40.0
 92
        0
 66
   257
 43
1.0
 76
     1
 77
     6
 78
     2
 67
     7
 79
     3
170
     0
171
     0
290
     0
174
     0
 93
        1
 44
0.0
173
     0
291
     0
 45
0.0
1001
ACAD
1000
AcDbSavedByObjectVersion
1070
     0
  0
VISUALSTYLE
  5
279
102
{ACAD_REACTORS
330
272
102
}
330
272
100
AcDbVisualStyle
  2
3dWireframe
 70
     5
 71
     0
 72
     2
 73
     0
 90
        0
 40
-0.6
 41
-30.0
 62
     5
 63
     7
 74
     1
 91
        4
 64
     7
 65
   257
 75
     1
175
     1
 42
1.0
 92
        0
 66
   257
 43
1.0
 76
     1
 77
     6
 78
     2
 67
     7
 79
     5
170
     0
171
     0
290
     0
174
     0
 93
        1
 44
0.0
173
     0
291
     0
 45
0.0
1001
ACAD
1000
AcDbSavedByObjectVersion
1070
     0
  0
VISUALSTYLE
  5
277
102
{ACAD_REACTORS
330
272
102
}
330
272
100
AcDbVisualStyle
  2
Basic
 70
     7
 71
     1
 72
     0
 73
     1
 90
        0
 40
-0.6
 41
-30.0
 62
     5
 63
     7
 74
     0
 91
        4
 64
     7
 65
   257
 75
     1
175
     1
 42
1.0
 92
        8
 66
     7
 43
1.0
 76
     1
 77
     6
 78
     2
 67
     7
 79
     5
170
     0
171
     0
290
     0
174
     0
 93
        1
 44
0.0
173
     0
291
     1
 45
0.0
1001
ACAD
1000
AcDbSavedByObjectVersion
1070
     0
  0
VISUALSTYLE
  5
27E
102
{ACAD_REACTORS
330
272
102
}
330
272
100
AcDbVisualStyle
  2
Brighten
 70
    12
 71
     2
 72
     2
 73
     0
 90
        0
 40
-0.6
 41
-30.0
 62
     5
 63
     7
 74
     1
 91
        4
 64
     7
 65
   257
 75
     1
175
     1
 42
1.0
 92
        8
 66
     7
 43
1.0
 76
     1
 77
     6
 78
     2
 67
     7
 79
     5
170
     0
171
     0
290
     0
174
     0
 93
        1
 44
50.0
173
     0
291
     1
 45
0.0
1001
ACAD
1000
AcDbSavedByObjectVersion
1070
     0
  0
VISUALSTYLE
  5
282
102
{ACAD_REACTORS
330
272
102
}
330
272
100
AcDbVisualStyle
  2
ColorChange
 70
    16
 71
     2
 72
     2
 73
     3
 90
        0
 40
-0.6
 41
-30.0
 62
     5
 63
     8
 74
     1
 91
        4
 64
     7
 65
   257
 75
     1
175
     1
 42
1.0
 92
        8
 66
     8
 43
1.0
 76
     1
 77
     6
 78
     2
 67
     7
 79
     5
170
     0
171
     0
290
     0
174
     0
 93
        1
 44
0.0
173
     0
291
     1
 45
0.0
1001
ACAD
1000
AcDbSavedByObjectVersion
1070
     0
  0
VISUALSTYLE
  5
27B
102
{ACAD_REACTORS
330
272
102
}
330
272
100
AcDbVisualStyle
  2
Conceptual
 70
     9
 71
     3
 72
     2
 73
     0
 90
        0
 40
-0.6
 41
-30.0
 62
     5
 63
     7
 74
     2
 91
        2
 64
     7
 65
   257
 75
     1
175
     1
 42
40.0
 92
        8
 66
     7
 43
1.0
 76
     1
 77
     6
 78
     2
 67
     7
 79
     3
170
     0
171
     0
290
     0
174
     0
 93
        1
 44
0.0
173
     0
291
     0
 45
0.0
1001
ACAD
1000
AcDbSavedByObjectVersion
1070
     0
  0
VISUALSTYLE
  5
27D
102
{ACAD_REACTORS
330
272
102
}
330
272
100
AcDbVisualStyle
  2
Dim
 70
    11
 71
     2
 72
     2
 73
     0
 90
        0
 40
-0.6
 41
-30.0
 62
     5
 63
     7
 74
     1
 91
        4
 64
     7
 65
   257
 75
     1
175
     1
 42
1.0
 92
        8
 66
     7
 43
1.0
 76
     1
 77
     6
 78
     2
 67
     7
 79
     5
170
     0
171
     0
290
     0
174
     0
 93
        1
 44
-50.0
173
     0
291
     1
 45
0.0
1001
ACAD
1000
AcDbSavedByObjectVersion
1070
     0
  0
VISUALSTYLE
  5
281
102
{ACAD_REACTORS
330
272
102
}
330
272
100
AcDbVisualStyle
  2
Facepattern
 70
    15
 71
     2
 72
     2
 73
     0
 90
        0
 40
-0.6
 41
-30.0
 62
     5
 63
     7
 74
     1
 91
        4
 64
     7
 65
   257
 75
     1
175
     1
 42
1.0
 92
        8
 66
     7
 43
1.0
 76
     1
 77
     6
 78
     2
 67
     7
 79
     5
170
     0
171
     0
290
     0
174
     0
 93
        1
 44
0.0
173
     0
291
     1
 45
0.0
1001
ACAD
1000
AcDbSavedByObjectVersion
1070
     0
  0
VISUALSTYLE
  5
273
102
{ACAD_REACTORS
330
272
102
}
330
272
100
AcDbVisualStyle
  2
Flat
 70
     0
 71
     2
 72
     1
 73
     1
 90
        2
 40
-0.6
 41
30.0
 62
     5
 63
     7
 74
     0
 91
        4
 64
     7
 65
   257
 75
     1
175
     1
 42
1.0
 92
        8
 66
     7
 43
1.0
 76
     1
 77
     6
 78
     2
 67
     7
 79
     5
170
     0
171
     0
290
     0
174
     0
 93
       13
 44
0.0
173
     0
291
     1
 45
0.0
1001
ACAD
1000
AcDbSavedByObjectVersion
1070
     0
  0
VISUALSTYLE
  5
274
102
{ACAD_REACTORS
330
272
102
}
330
272
100
AcDbVisualStyle
  2
FlatWithEdges
 70
     1
 71
     2
 72
     1
 73
     1
 90
        2
 40
-0.6
 41
30.0
 62
     5
 63
     7
 74
     1
 91
        4
 64
     7
 65
   257
 75
     1
175
     1
 42
1.0
 92
        0
 66
   257
 43
1.0
 76
     1
 77
     6
 78
     2
 67
     7
 79
     5
170
     0
171
     0
290
     0
174
     0
 93
       13
 44
0.0
173
     0
291
     1
 45
0.0
1001
ACAD
1000
AcDbSavedByObjectVersion
1070
     0
  0
VISUALSTYLE
  5
275
102
{ACAD_REACTORS
330
272
102
}
330
272
100
AcDbVisualStyle
  2
Gouraud
 70
     2
 71
     2
 72
     2
 73
     1
 90
        2
 40
-0.6
 41
30.0
 62
     5
 63
     7
 74
     0
 91
        4
 64
     7
 65
   257
 75
     1
175
     1
 42
1.0
 92
        0
 66
     7
 43
1.0
 76
     1
 77
     6
 78
     2
 67
     7
 79
     5
170
     0
171
     0
290
     0
174
     0
 93
       13
 44
0.0
173
     0
291
     1
 45
0.0
1001
ACAD
1000
AcDbSavedByObjectVersion
1070
     0
  0
VISUALSTYLE
  5
276
102
{ACAD_REACTORS
330
272
102
}
330
272
100
AcDbVisualStyle
  2
GouraudWithEdges
 70
     3
 71
     2
 72
     2
 73
     1
 90
        2
 40
-0.6
 41
30.0
 62
     5
 63
     7
 74
     1
 91
        4
 64
     7
 65
   257
 75
     1
175
     1
 42
1.0
 92
        0
 66
   257
 43
1.0
 76
     1
 77
     6
 78
     2
 67
     7
 79
     5
170
     0
171
     0
290
     0
174
     0
 93
       13
 44
0.0
173
     0
291
     1
 45
0.0
1001
ACAD
1000
AcDbSavedByObjectVersion
1070
     0
  0
VISUALSTYLE
  5
280
102
{ACAD_REACTORS
330
272
102
}
330
272
100
AcDbVisualStyle
  2
Linepattern
 70
    14
 71
     2
 72
     2
 73
     0
 90
        0
 40
-0.6
 41
-30.0
 62
     5
 63
     7
 74
     1
 91
        4
 64
     7
 65
   257
 75
     7
175
     7
 42
1.0
 92
        8
 66
     7
 43
1.0
 76
     1
 77
     6
 78
     2
 67
     7
 79
     5
170
     0
171
     0
290
     0
174
     0
 93
        1
 44
0.0
173
     0
291
     1
 45
0.0
1001
ACAD
1000
AcDbSavedByObjectVersion
1070
     0
  0
VISUALSTYLE
  5
27C
102
{ACAD_REACTORS
330
272
102
}
330
272
100
AcDbVisualStyle
  2
Realistic
 70
     8
 71
     2
 72
     2
 73
     0
 90
        0
 40
-0.6
 41
-30.0
 62
     5
 63
     7
 74
     1
 91
        0
 64
     7
 65
   257
 75
     1
175
     1
 42
1.0
 92
        8
 66
     8
 43
1.0
 76
     1
 77
     6
 78
     2
 67
     7
 79
     5
170
     0
171
     0
290
     0
174
     0
 93
       13
 44
0.0
173
     0
291
     0
 45
0.0
1001
ACAD
1000
AcDbSavedByObjectVersion
1070
     0
  0
VISUALSTYLE
  5
27F
102
{ACAD_REACTORS
330
272
102
}
330
272
100
AcDbVisualStyle
  2
Thicken
 70
    13
 71
     2
 72
     2
 73
     0
 90
        0
 40
-0.6
 41
-30.0
 62
     5
 63
     7
 74
     1
 91
        4
 64
     7
 65
   257
 75
     1
175
     1
 42
1.0
 92
       12
 66
     7
 43
1.0
 76
     1
 77
     6
 78
     2
 67
     7
 79
     5
170
     0
171
     0
290
     0
174
     0
 93
        1
 44
0.0
173
     0
291
     1
 45
0.0
1001
ACAD
1000
AcDbSavedByObjectVersion
1070
     0
  0
DICTIONARYVAR
  5
31B
102
{ACAD_REACTORS
330
117
102
}
330
117
100
DictionaryVariables
280
     0
  1
STANDARD
  0
DICTIONARYVAR
  5
118
102
{ACAD_REACTORS
330
117
102
}
330
117
100
DictionaryVariables
280
     0
  1
1
  0
DICTIONARYVAR
  5
31D
102
{ACAD_REACTORS
330
117
102
}
330
117
100
DictionaryVariables
280
     0
  1
0
  0
DICTIONARYVAR
  5
31C
102
{ACAD_REACTORS
330
117
102
}
330
117
100
DictionaryVariables
280
     0
  1
127
  0
DICTIONARY
  5
3D0
330
9D
100
AcDbDictionary
280
     1
281
     1
  3
ACAD_XREC_ROUNDTRIP
360
3D1
  0
DICTIONARY
  5
3CE
330
9C
100
AcDbDictionary
280
     1
281
     1
  3
ACAD_XREC_ROUNDTRIP
360
3CF
  0
DICTIONARY
  5
3D4
330
270
100
AcDbDictionary
280
     1
281
     1
  3
ACAD_XREC_ROUNDTRIP
360
3D5
  0
DICTIONARY
  5
3D2
330
26F
100
AcDbDictionary
280
     1
281
     1
  3
ACAD_XREC_ROUNDTRIP
360
3D3
  0
DICTIONARY
  5
3D6
330
271
100
AcDbDictionary
280
     1
281
     1
  3
ACAD_XREC_ROUNDTRIP
360
3D7
  0
DICTIONARY
  5
3D8
330
285
100
AcDbDictionary
280
     1
281
     1
  3
ACAD_XREC_ROUNDTRIP
360
3D9
  0
XRECORD
  5
3D1
102
{ACAD_REACTORS
330
3D0
102
}
330
3D0
100
AcDbXrecord
280
     1
102
SHADEPLOT
 70
     0
102
SHADEPLOTRESLEVEL
 70
     2
102
SHADEPLOTCUSTOMDPI
 70
   300
  0
XRECORD
  5
3CF
102
{ACAD_REACTORS
330
3CE
102
}
330
3CE
100
AcDbXrecord
280
     1
102
SHADEPLOT
 70
     0
102
SHADEPLOTRESLEVEL
 70
     2
102
SHADEPLOTCUSTOMDPI
 70
   300
  0
XRECORD
  5
3D5
102
{ACAD_REACTORS
330
3D4
102
}
330
3D4
100
AcDbXrecord
280
     1
102
MATERIAL
148
0.0
149
0.0
149
0.0
 93
        0
 94
       63
282
     0
 72
     1
 77
     1
171
     1
175
     1
179
     1
273
     0
  0
XRECORD
  5
3D3
102
{ACAD_REACTORS
330
3D2
102
}
330
3D2
100
AcDbXrecord
280
     1
102
MATERIAL
148
0.0
149
0.0
149
0.0
 93
        0
 94
       63
282
     0
 72
     1
 77
     1
171
     1
175
     1
179
     1
273
     0
  0
XRECORD
  5
3D7
102
{ACAD_REACTORS
330
3D6
102
}
330
3D6
100
AcDbXrecord
280
     1
102
MATERIAL
148
0.0
149
0.0
149
0.0
 93
        0
 94
       63
282
     0
 72
     1
 77
     1
171
     1
175
     1
179
     1
273
     0
  0
XRECORD
  5
3D9
102
{ACAD_REACTORS
330
3D8
102
}
330
3D8
100
AcDbXrecord
280
     1
102
ACAD_ROUNDTRIP_PRE2007_TABLESTYLE
 90
      512
 91
        0
  1

 92
      512
 93
        0
  2

 94
      512
 95
        0
  3

  0
ENDSEC
  0
EOF
