  0
SECTION
  2
HEADER
  9
$ACADVER
  1
AC1015
  9
$ACADMAINTVER
 70
    20
  9
$DWGCODEPAGE
  3
ANSI_1252
  9
$INSBASE
 10
10.73126138474142
 20
0.4341708769940454
 30
0.0
  9
$EXTMIN
 10
4.989441007596255
 20
-2.987153094909089
 30
-0.0015258207003583
  9
$EXTMAX
 10
18.38452154768691
 20
1.55474491761349
 30
0.0000000349246037
  9
$LIMMIN
 10
0.0
 20
0.0
  9
$LIMMAX
 10
36.0
 20
36.0
  9
$ORTHOMODE
 70
     1
  9
$REGENMODE
 70
     1
  9
$FILLMODE
 70
     1
  9
$QTEXTMODE
 70
     0
  9
$MIRRTEXT
 70
     1
  9
$LTSCALE
 40
1.0
  9
$ATTMODE
 70
     1
  9
$TEXTSIZE
 40
0.2
  9
$TRACEWID
 40
0.05
  9
$TEXTSTYLE
  7
STANDARD
  9
$CLAYER
  8
ADPDIM
  9
$CELTYPE
  6
ByLayer
  9
$CECOLOR
 62
   256
  9
$CELTSCALE
 40
1.0
  9
$DISPSILH
 70
     0
  9
$DIMSCALE
 40
1.0
  9
$DIMASZ
 40
0.125
  9
$DIMEXO
 40
0.0625
  9
$DIMDLI
 40
0.38
  9
$DIMRND
 40
0.0
  9
$DIMDLE
 40
0.0
  9
$DIMEXE
 40
0.18
  9
$DIMTP
 40
0.0
  9
$DIMTM
 40
0.0
  9
$DIMTXT
 40
0.125
  9
$DIMCEN
 40
0.1875
  9
$DIMTSZ
 40
0.125
  9
$DIMTOL
 70
     0
  9
$DIMLIM
 70
     0
  9
$DIMTIH
 70
     0
  9
$DIMTOH
 70
     0
  9
$DIMSE1
 70
     0
  9
$DIMSE2
 70
     0
  9
$DIMTAD
 70
     0
  9
$DIMZIN
 70
     3
  9
$DIMBLK
  1

  9
$DIMASO
 70
     1
  9
$DIMSHO
 70
     1
  9
$DIMPOST
  1

  9
$DIMAPOST
  1

  9
$DIMALT
 70
     0
  9
$DIMALTD
 70
     1
  9
$DIMALTF
 40
25.4
  9
$DIMLFAC
 40
1.0
  9
$DIMTOFL
 70
     0
  9
$DIMTVP
 40
0.0
  9
$DIMTIX
 70
     0
  9
$DIMSOXD
 70
     0
  9
$DIMSAH
 70
     0
  9
$DIMBLK1
  1

  9
$DIMBLK2
  1

  9
$DIMSTYLE
  2
Standard
  9
$DIMCLRD
 70
     0
  9
$DIMCLRE
 70
     0
  9
$DIMCLRT
 70
     0
  9
$DIMTFAC
 40
1.0
  9
$DIMGAP
 40
0.125
  9
$DIMJUST
 70
     0
  9
$DIMSD1
 70
     0
  9
$DIMSD2
 70
     0
  9
$DIMTOLJ
 70
     1
  9
$DIMTZIN
 70
     3
  9
$DIMALTZ
 70
     3
  9
$DIMALTTZ
 70
     3
  9
$DIMUPT
 70
     0
  9
$DIMDEC
 70
     4
  9
$DIMTDEC
 70
     4
  9
$DIMALTU
 70
     5
  9
$DIMALTTD
 70
     1
  9
$DIMTXSTY
  7
STANDARD
  9
$DIMAUNIT
 70
     0
  9
$DIMADEC
 70
     0
  9
$DIMALTRND
 40
0.0
  9
$DIMAZIN
 70
     0
  9
$DIMDSEP
 70
    46
  9
$DIMATFIT
 70
     3
  9
$DIMFRAC
 70
     0
  9
$DIMLDRBLK
  1

  9
$DIMLUNIT
 70
     5
  9
$DIMLWD
 70
    -2
  9
$DIMLWE
 70
    -2
  9
$DIMTMOVE
 70
     2
  9
$LUNITS
 70
     5
  9
$LUPREC
 70
     4
  9
$SKETCHINC
 40
0.1
  9
$FILLETRAD
 40
0.0
  9
$AUNITS
 70
     0
  9
$AUPREC
 70
     0
  9
$MENU
  1
acad
  9
$ELEVATION
 40
0.0
  9
$PELEVATION
 40
0.0
  9
$THICKNESS
 40
0.0
  9
$LIMCHECK
 70
     0
  9
$CHAMFERA
 40
0.0
  9
$CHAMFERB
 40
0.0
  9
$CHAMFERC
 40
0.0
  9
$CHAMFERD
 40
0.0
  9
$SKPOLY
 70
     0
  9
$TDCREATE
 40
2450353.128433253
  9
$TDUCREATE
 40
2450353.295099919
  9
$TDUPDATE
 40
2453980.436327454
  9
$TDUUPDATE
 40
2453980.602994120
  9
$TDINDWG
 40
0.0446472338
  9
$TDUSRTIMER
 40
0.0446472338
  9
$USRTIMER
 70
     1
  9
$ANGBASE
 50
0.0
  9
$ANGDIR
 70
     0
  9
$PDMODE
 70
     0
  9
$PDSIZE
 40
0.0
  9
$PLINEWID
 40
0.0
  9
$SPLFRAME
 70
     0
  9
$SPLINETYPE
 70
     6
  9
$SPLINESEGS
 70
     8
  9
$HANDSEED
  5
32F
  9
$SURFTAB1
 70
     6
  9
$SURFTAB2
 70
     6
  9
$SURFTYPE
 70
     6
  9
$SURFU
 70
     6
  9
$SURFV
 70
     6
  9
$UCSBASE
  2

  9
$UCSNAME
  2

  9
$UCSORG
 10
0.0
 20
0.0
 30
0.0
  9
$UCSXDIR
 10
1.0
 20
0.0
 30
0.0
  9
$UCSYDIR
 10
0.0
 20
1.0
 30
0.0
  9
$UCSORTHOREF
  2

  9
$UCSORTHOVIEW
 70
     0
  9
$UCSORGTOP
 10
0.0
 20
0.0
 30
0.0
  9
$UCSORGBOTTOM
 10
0.0
 20
0.0
 30
0.0
  9
$UCSORGLEFT
 10
0.0
 20
0.0
 30
0.0
  9
$UCSORGRIGHT
 10
0.0
 20
0.0
 30
0.0
  9
$UCSORGFRONT
 10
0.0
 20
0.0
 30
0.0
  9
$UCSORGBACK
 10
0.0
 20
0.0
 30
0.0
  9
$PUCSBASE
  2

  9
$PUCSNAME
  2

  9
$PUCSORG
 10
0.0
 20
0.0
 30
0.0
  9
$PUCSXDIR
 10
1.0
 20
0.0
 30
0.0
  9
$PUCSYDIR
 10
0.0
 20
1.0
 30
0.0
  9
$PUCSORTHOREF
  2

  9
$PUCSORTHOVIEW
 70
     0
  9
$PUCSORGTOP
 10
0.0
 20
0.0
 30
0.0
  9
$PUCSORGBOTTOM
 10
0.0
 20
0.0
 30
0.0
  9
$PUCSORGLEFT
 10
0.0
 20
0.0
 30
0.0
  9
$PUCSORGRIGHT
 10
0.0
 20
0.0
 30
0.0
  9
$PUCSORGFRONT
 10
0.0
 20
0.0
 30
0.0
  9
$PUCSORGBACK
 10
0.0
 20
0.0
 30
0.0
  9
$USERI1
 70
     0
  9
$USERI2
 70
     0
  9
$USERI3
 70
     0
  9
$USERI4
 70
     0
  9
$USERI5
 70
     0
  9
$USERR1
 40
0.0
  9
$USERR2
 40
0.0
  9
$USERR3
 40
0.0
  9
$USERR4
 40
0.0
  9
$USERR5
 40
0.0
  9
$WORLDVIEW
 70
     1
  9
$SHADEDGE
 70
     3
  9
$SHADEDIF
 70
    70
  9
$TILEMODE
 70
     1
  9
$MAXACTVP
 70
    15
  9
$PINSBASE
 10
0.0
 20
0.0
 30
0.0
  9
$PLIMCHECK
 70
     0
  9
$PEXTMIN
 10
1.000000000000000E+20
 20
1.000000000000000E+20
 30
1.000000000000000E+20
  9
$PEXTMAX
 10
-1.000000000000000E+20
 20
-1.000000000000000E+20
 30
-1.000000000000000E+20
  9
$PLIMMIN
 10
0.0
 20
0.0
  9
$PLIMMAX
 10
12.0
 20
9.0
  9
$UNITMODE
 70
     0
  9
$VISRETAIN
 70
     0
  9
$PLINEGEN
 70
     0
  9
$PSLTSCALE
 70
     1
  9
$TREEDEPTH
 70
  3020
  9
$CMLSTYLE
  2
Standard
  9
$CMLJUST
 70
     0
  9
$CMLSCALE
 40
1.0
  9
$PROXYGRAPHICS
 70
     1
  9
$MEASUREMENT
 70
     0
  9
$CELWEIGHT
370
    -1
  9
$ENDCAPS
280
     0
  9
$JOINSTYLE
280
     0
  9
$LWDISPLAY
290
     0
  9
$INSUNITS
 70
     0
  9
$HYPERLINKBASE
  1

  9
$STYLESHEET
  1

  9
$XEDIT
290
     1
  9
$CEPSNTYPE
380
     0
  9
$PSTYLEMODE
290
     1
  9
$FINGERPRINTGUID
  2
{48E0DFB6-DC53-49E6-A47F-118AC23D4070}
  9
$VERSIONGUID
  2
{107D5C9F-15EE-45D6-9BB0-4F336CAEBAAB}
  9
$EXTNAMES
290
     1
  9
$PSVPSCALE
 40
0.0
  9
$OLESTARTUP
290
     0
  0
ENDSEC
  0
SECTION
  2
CLASSES
  0
CLASS
  1
ACDBDICTIONARYWDFLT
  2
AcDbDictionaryWithDefault
  3
ObjectDBX Classes
 90
        0
280
     0
281
     0
  0
CLASS
  1
ACDBPLACEHOLDER
  2
AcDbPlaceHolder
  3
ObjectDBX Classes
 90
        0
280
     0
281
     0
  0
CLASS
  1
LAYOUT
  2
AcDbLayout
  3
ObjectDBX Classes
 90
        0
280
     0
281
     0
  0
CLASS
  1
DICTIONARYVAR
  2
AcDbDictionaryVar
  3
ObjectDBX Classes
 90
        0
280
     0
281
     0
  0
CLASS
  1
MATERIAL
  2
AcDbMaterial
  3
ObjectDBX Classes
 90
     1024
280
     0
281
     0
  0
CLASS
  1
VISUALSTYLE
  2
AcDbVisualStyle
  3
ObjectDBX Classes
 90
     4095
280
     0
281
     0
  0
CLASS
  1
TABLESTYLE
  2
AcDbTableStyle
  3
ObjectDBX Classes
 90
     4095
280
     0
281
     0
  0
ENDSEC
  0
SECTION
  2
TABLES
  0
TABLE
  2
VPORT
  5
8
330
0
100
AcDbSymbolTable
 70
     1
  0
VPORT
  5
1F4
330
8
100
AcDbSymbolTableRecord
100
AcDbViewportTableRecord
  2
*Active
 70
     0
 10
0.0
 20
0.0
 11
1.0
 21
1.0
 12
11.68698127764158
 22
-0.7162040886477996
 13
0.0
 23
0.0
 14
0.5740882589684922
 24
0.5740882589684922
 15
0.5
 25
0.5
 16
0.0
 26
0.0
 36
1.0
 17
0.0
 27
0.0
 37
0.0
 40
7.807240776528828
 41
1.726930320150659
 42
50.0
 43
0.0
 44
0.0
 50
0.0
 51
0.0
 71
     0
 72
   100
 73
     1
 74
     0
 75
     0
 76
     0
 77
     0
 78
     0
281
     0
 65
     1
110
0.0
120
0.0
130
0.0
111
1.0
121
0.0
131
0.0
112
0.0
122
1.0
132
0.0
 79
     0
146
0.0
  0
ENDTAB
  0
TABLE
  2
LTYPE
  5
5
330
0
100
AcDbSymbolTable
 70
     1
  0
LTYPE
  5
13
330
5
100
AcDbSymbolTableRecord
100
AcDbLinetypeTableRecord
  2
ByBlock
 70
     0
  3

 72
    65
 73
     0
 40
0.0
  0
LTYPE
  5
14
330
5
100
AcDbSymbolTableRecord
100
AcDbLinetypeTableRecord
  2
ByLayer
 70
     0
  3

 72
    65
 73
     0
 40
0.0
  0
LTYPE
  5
15
330
5
100
AcDbSymbolTableRecord
100
AcDbLinetypeTableRecord
  2
CONTINUOUS
 70
     0
  3
Solid line
 72
    65
 73
     0
 40
0.0
  0
ENDTAB
  0
TABLE
  2
LAYER
  5
2
330
0
100
AcDbSymbolTable
 70
     4
  0
LAYER
  5
10
330
2
100
AcDbSymbolTableRecord
100
AcDbLayerTableRecord
  2
0
 70
     0
 62
     7
  6
CONTINUOUS
370
    -3
390
F
  0
LAYER
  5
25
330
2
100
AcDbSymbolTableRecord
100
AcDbLayerTableRecord
  2
ADPDIM
 70
     0
 62
     3
  6
CONTINUOUS
370
    -3
390
F
  0
LAYER
  5
26
330
2
100
AcDbSymbolTableRecord
100
AcDbLayerTableRecord
  2
ADP1DETAIL
 70
     0
 62
     7
  6
CONTINUOUS
370
    -3
390
F
  0
LAYER
  5
27
330
2
100
AcDbSymbolTableRecord
100
AcDbLayerTableRecord
  2
DEFPOINTS
 70
     0
 62
     7
  6
CONTINUOUS
290
     0
370
    -3
390
F
  0
ENDTAB
  0
TABLE
  2
STYLE
  5
3
330
0
100
AcDbSymbolTable
 70
     2
  0
STYLE
  5
11
330
3
100
AcDbSymbolTableRecord
100
AcDbTextStyleTableRecord
  2
STANDARD
 70
     0
 40
0.0
 41
1.0
 50
0.0
 71
     0
 42
0.2
  3
txt
  4

  0
STYLE
  5
9B
330
3
100
AcDbSymbolTableRecord
100
AcDbTextStyleTableRecord
  2
ARIAL_WIDE
 70
     0
 40
0.0
 41
1.25
 50
0.0
 71
     0
 42
0.2
  3
ARIAL.TTF
  4

1001
ACAD
1000
Arial
1071
       34
  0
ENDTAB
  0
TABLE
  2
VIEW
  5
6
330
0
100
AcDbSymbolTable
 70
     0
  0
ENDTAB
  0
TABLE
  2
UCS
  5
7
330
0
100
AcDbSymbolTable
 70
     0
  0
ENDTAB
  0
TABLE
  2
APPID
  5
9
330
0
100
AcDbSymbolTable
 70
     1
  0
APPID
  5
12
330
9
100
AcDbSymbolTableRecord
100
AcDbRegAppTableRecord
  2
ACAD
 70
     0
  0
ENDTAB
  0
TABLE
  2
DIMSTYLE
  5
A
330
0
100
AcDbSymbolTable
 70
     1
100
AcDbDimStyleTable
 71
     0
  0
DIMSTYLE
105
99
102
{ACAD_REACTORS
330
276
330
278
330
279
102
}
330
A
100
AcDbSymbolTableRecord
100
AcDbDimStyleTableRecord
  2
Standard
 70
     0
340
11
  0
ENDTAB
  0
TABLE
  2
BLOCK_RECORD
  5
1
330
0
100
AcDbSymbolTable
 70
    10
  0
BLOCK_RECORD
  5
1E
102
{ACAD_XDICTIONARY
360
D8
102
}
330
1
100
AcDbSymbolTableRecord
100
AcDbBlockTableRecord
  2
*Model_Space
340
21
  0
BLOCK_RECORD
  5
1A
102
{ACAD_XDICTIONARY
360
DA
102
}
330
1
100
AcDbSymbolTableRecord
100
AcDbBlockTableRecord
  2
*Paper_Space
340
1D
  0
BLOCK_RECORD
  5
22
330
1
100
AcDbSymbolTableRecord
100
AcDbBlockTableRecord
  2
4441
340
0
  0
BLOCK_RECORD
  5
23
330
1
100
AcDbSymbolTableRecord
100
AcDbBlockTableRecord
  2
*D1
340
0
  0
BLOCK_RECORD
  5
24
330
1
100
AcDbSymbolTableRecord
100
AcDbBlockTableRecord
  2
*D2
340
0
  0
BLOCK_RECORD
  5
246
330
1
100
AcDbSymbolTableRecord
100
AcDbBlockTableRecord
  2
*D3
340
0
  0
BLOCK_RECORD
  5
253
330
1
100
AcDbSymbolTableRecord
100
AcDbBlockTableRecord
  2
*D4
340
0
  0
BLOCK_RECORD
  5
260
330
1
100
AcDbSymbolTableRecord
100
AcDbBlockTableRecord
  2
*D5
340
0
  0
BLOCK_RECORD
  5
27A
330
1
100
AcDbSymbolTableRecord
100
AcDbBlockTableRecord
  2
*D7
340
0
  0
BLOCK_RECORD
  5
287
330
1
100
AcDbSymbolTableRecord
100
AcDbBlockTableRecord
  2
*D8
340
0
  0
BLOCK_RECORD
  5
294
330
1
100
AcDbSymbolTableRecord
100
AcDbBlockTableRecord
  2
*D9
340
0
  0
ENDTAB
  0
ENDSEC
  0
SECTION
  2
BLOCKS
  0
BLOCK
  5
2A
330
1E
100
AcDbEntity
  8
0
100
AcDbBlockBegin
  2
*Model_Space
 70
     0
 10
0.0
 20
0.0
 30
0.0
  3
*Model_Space
  1

  0
ENDBLK
  5
2B
330
1E
100
AcDbEntity
  8
0
100
AcDbBlockEnd
  0
BLOCK
  5
28
330
1A
100
AcDbEntity
 67
     1
  8
0
100
AcDbBlockBegin
  2
*Paper_Space
 70
     0
 10
0.0
 20
0.0
 30
0.0
  3
*Paper_Space
  1

  0
ENDBLK
  5
29
330
1A
100
AcDbEntity
 67
     1
  8
0
100
AcDbBlockEnd
  0
BLOCK
  5
2D
330
22
100
AcDbEntity
  8
0
100
AcDbBlockBegin
  2
4441
 70
     0
 10
0.0
 20
0.0
 30
0.0
  3
4441
  1

  0
ARC
  5
2E
330
22
100
AcDbEntity
  8
0
100
AcDbCircle
 10
2.131128572843903
 20
0.3179684149746849
 30
0.0
 40
0.125
100
AcDbArc
 50
274.0195737565656
 51
90.0
  0
ARC
  5
2F
330
22
100
AcDbEntity
  8
0
100
AcDbCircle
 10
0.3823524555948391
 20
0.161368414974685
 30
0.0
 40
0.016
100
AcDbArc
 50
90.0
 51
174.0
  0
ARC
  5
30
330
22
100
AcDbEntity
  8
0
100
AcDbCircle
 10
0.2717699263779078
 20
1.036718414974684
 30
0.0
 40
0.53125
100
AcDbArc
 50
263.6450457150437
 51
313.0098162713346
  0
ARC
  5
31
330
22
100
AcDbEntity
  8
0
100
AcDbCircle
 10
0.131128572843904
 20
0.3179684149746849
 30
0.0
 40
0.125
100
AcDbArc
 50
90.0
 51
265.9804262434344
  0
ARC
  5
32
330
22
100
AcDbEntity
  8
0
100
AcDbCircle
 10
0.0603972375810239
 20
0.0076011117305739
 30
0.0
 40
0.1957429538942399
100
AcDbArc
 50
359.375727512011
 51
74.0995487402812
  0
LINE
  5
33
330
22
100
AcDbEntity
  8
0
100
AcDbLine
 10
0.349878572843904
 20
0.005468414974685
 30
0.0
 11
0.3664401052689467
 21
0.1630408703869674
 31
0.0
  0
LINE
  5
34
330
22
100
AcDbEntity
  8
0
100
AcDbLine
 10
0.349878572843904
 20
0.005468414974685
 30
0.0
 11
0.2558458548927965
 21
0.005468414974685
 31
0.0
  0
LINE
  5
35
330
22
100
AcDbEntity
  8
0
100
AcDbLine
 10
0.131128572843904
 20
0.442968414974685
 30
0.0
 11
0.1929658099349621
 21
0.442968414974685
 31
0.0
  0
LINE
  5
36
330
22
100
AcDbEntity
  8
0
100
AcDbLine
 10
0.1934816436388733
 20
0.442968414974685
 30
0.0
 11
0.2129671381166458
 21
0.5087328142309704
 31
0.0
  0
LINE
  5
37
330
22
100
AcDbEntity
  8
0
100
AcDbLine
 10
1.787378572843904
 20
0.177368414974685
 30
0.0
 11
1.770817040418861
 21
0.3349408703869674
 31
0.0
  0
LINE
  5
38
330
22
100
AcDbEntity
  8
0
100
AcDbLine
 10
0.474878572843904
 20
0.177368414974685
 30
0.0
 11
0.4914401052689468
 21
0.3349408703869674
 31
0.0
  0
LINE
  5
39
330
22
100
AcDbEntity
  8
0
100
AcDbLine
 10
0.474878572843904
 20
0.177368414974685
 30
0.0
 11
0.3823524555948391
 21
0.177368414974685
 31
0.0
  0
ARC
  5
3A
330
22
100
AcDbEntity
  8
0
100
AcDbCircle
 10
2.201859908106783
 20
0.0076011117305739
 30
0.0
 40
0.1957429538942399
100
AcDbArc
 50
105.9004512597188
 51
180.624272487989
  0
LINE
  5
3B
330
22
100
AcDbEntity
  8
0
100
AcDbLine
 10
1.912378572843904
 20
0.005468414974685
 30
0.0
 11
1.895817040418861
 21
0.1630408703869674
 31
0.0
  0
LINE
  5
3C
330
22
100
AcDbEntity
  8
0
100
AcDbLine
 10
1.912378572843904
 20
0.005468414974685
 30
0.0
 11
2.006411290795011
 21
0.005468414974685
 31
0.0
  0
ARC
  5
3D
330
22
100
AcDbEntity
  8
0
100
AcDbCircle
 10
1.879904690092968
 20
0.161368414974685
 30
0.0
 40
0.016
100
AcDbArc
 50
5.99999999999999
 51
90.0
  0
LINE
  5
3E
330
22
100
AcDbEntity
  8
0
100
AcDbLine
 10
1.787378572843904
 20
0.177368414974685
 30
0.0
 11
1.879904690092968
 21
0.177368414974685
 31
0.0
  0
ARC
  5
3F
330
22
100
AcDbEntity
  8
0
100
AcDbCircle
 10
1.131128572843904
 20
0.005468414974685
 30
0.0
 40
0.625
100
AcDbArc
 50
33.37250147611144
 51
90.0
  0
ARC
  5
40
330
22
100
AcDbEntity
  8
0
100
AcDbCircle
 10
1.131128572843904
 20
0.005468414974685
 30
0.0
 40
0.8125
100
AcDbArc
 50
52.28977333137304
 51
90.0
  0
ARC
  5
41
330
22
100
AcDbEntity
  8
0
100
AcDbCircle
 10
1.131128572843904
 20
0.005468414974685
 30
0.0
 40
0.8125
100
AcDbArc
 50
90.0
 51
127.7102266686269
  0
ARC
  5
42
330
22
100
AcDbEntity
  8
0
100
AcDbCircle
 10
1.131128572843904
 20
0.005468414974685
 30
0.0
 40
0.625
100
AcDbArc
 50
90.0
 51
146.6274985238885
  0
ARC
  5
43
330
22
100
AcDbEntity
  8
0
100
AcDbCircle
 10
0.5073524555948393
 20
0.333268414974685
 30
0.0
 40
0.016
100
AcDbArc
 50
90.0
 51
174.0
  0
LINE
  5
44
330
22
100
AcDbEntity
  8
0
100
AcDbLine
 10
0.6091835949008262
 20
0.349268414974685
 30
0.0
 11
0.5073524555948393
 21
0.349268414974685
 31
0.0
  0
ARC
  5
45
330
22
100
AcDbEntity
  8
0
100
AcDbCircle
 10
1.9904872193099
 20
1.036718414974684
 30
0.0
 40
0.53125
100
AcDbArc
 50
226.9901837286655
 51
276.3549542849563
  0
LINE
  5
46
330
22
100
AcDbEntity
  8
0
100
AcDbLine
 10
1.653073550786981
 20
0.349268414974685
 30
0.0
 11
1.754904690092968
 21
0.349268414974685
 31
0.0
  0
ARC
  5
47
330
22
100
AcDbEntity
  8
0
100
AcDbCircle
 10
1.754904690092968
 20
0.333268414974685
 30
0.0
 40
0.016
100
AcDbArc
 50
5.99999999999999
 51
90.0
  0
LINE
  5
48
330
22
100
AcDbEntity
  8
0
100
AcDbLine
 10
2.068775502048934
 20
0.442968414974685
 30
0.0
 11
2.049290007571161
 21
0.5087328142309704
 31
0.0
  0
LINE
  5
49
330
22
100
AcDbEntity
  8
0
100
AcDbLine
 10
2.131128572843903
 20
0.442968414974685
 30
0.0
 11
2.069291335752845
 21
0.442968414974685
 31
0.0
  0
ENDBLK
  5
4A
330
22
100
AcDbEntity
  8
0
100
AcDbBlockEnd
  0
BLOCK
  5
4B
330
23
100
AcDbEntity
  8
0
100
AcDbBlockBegin
  2
*D1
 70
     1
 10
0.0
 20
0.0
 30
0.0
  3
*D1
  1

  0
LINE
  5
4C
330
23
100
AcDbEntity
  8
0
  6
ByBlock
 62
     0
100
AcDbLine
 10
8.433348310375402
 20
-1.190073457279883
 30
0.0
 11
8.433348310375402
 21
-1.666206746462766
 31
0.0
  0
LINE
  5
4D
330
23
100
AcDbEntity
  8
0
  6
ByBlock
 62
     0
100
AcDbLine
 10
9.952312724277016
 20
-1.190073457279883
 30
0.0
 11
9.952312724277016
 21
-1.666206746462766
 31
0.0
  0
LINE
  5
4E
330
23
100
AcDbEntity
  8
0
  6
ByBlock
 62
     0
100
AcDbLine
 10
8.433348310375402
 20
-1.486206746462766
 30
0.0
 11
8.817830517326209
 21
-1.486206746462766
 31
0.0
  0
LINE
  5
4F
330
23
100
AcDbEntity
  8
0
  6
ByBlock
 62
     0
100
AcDbLine
 10
9.952312724277016
 20
-1.486206746462766
 30
0.0
 11
9.567830517326209
 21
-1.486206746462766
 31
0.0
  0
LINE
  5
50
330
23
100
AcDbEntity
  8
0
  6
ByBlock
 62
     0
100
AcDbLine
 10
8.308348310375402
 20
-1.611206746462766
 30
0.0
 11
8.558348310375402
 21
-1.361206746462766
 31
0.0
  0
LINE
  5
51
330
23
100
AcDbEntity
  8
0
  6
ByBlock
 62
     0
100
AcDbLine
 10
9.827312724277016
 20
-1.611206746462766
 30
0.0
 11
10.07731272427701
 21
-1.361206746462766
 31
0.0
  0
TEXT
  5
52
330
23
100
AcDbEntity
  8
0
  6
ByBlock
 62
     0
100
AcDbText
 10
8.942830517326209
 20
-1.548706746462766
 30
0.0
 40
0.125
  1
1 1/2
 72
     1
 11
9.192830517326209
 21
-1.486206746462766
 31
0.0
100
AcDbText
 73
     2
  0
POINT
  5
54
330
23
100
AcDbEntity
  8
DEFPOINTS
  6
ByBlock
 62
     0
100
AcDbPoint
 10
8.433348310375402
 20
-1.127573457279883
 30
0.0
  0
POINT
  5
55
330
23
100
AcDbEntity
  8
DEFPOINTS
  6
ByBlock
 62
     0
100
AcDbPoint
 10
9.952312724277016
 20
-1.127573457279883
 30
0.0
  0
POINT
  5
56
330
23
100
AcDbEntity
  8
DEFPOINTS
  6
ByBlock
 62
     0
100
AcDbPoint
 10
9.952312724277016
 20
-1.486206746462766
 30
0.0
  0
ENDBLK
  5
57
330
23
100
AcDbEntity
  8
0
100
AcDbBlockEnd
  0
BLOCK
  5
58
330
24
100
AcDbEntity
  8
0
100
AcDbBlockBegin
  2
*D2
 70
     1
 10
0.0
 20
0.0
 30
0.0
  3
*D2
  1

  0
LINE
  5
59
330
24
100
AcDbEntity
  8
0
  6
ByBlock
 62
     0
100
AcDbLine
 10
8.067907410933335
 20
-0.9159799988141156
 30
0.0
 11
8.067907410933335
 21
-0.1459096580626861
 31
0.0
  0
LINE
  5
5A
330
24
100
AcDbEntity
  8
0
  6
ByBlock
 62
     0
100
AcDbLine
 10
10.31775362371908
 20
-0.9159799988141156
 30
0.0
 11
10.31775362371908
 21
-0.1459096580626861
 31
0.0
  0
LINE
  5
5B
330
24
100
AcDbEntity
  8
0
  6
ByBlock
 62
     0
100
AcDbLine
 10
8.067907410933335
 20
-0.325909658062686
 30
0.0
 11
8.796997183992875
 21
-0.325909658062686
 31
0.0
  0
LINE
  5
5C
330
24
100
AcDbEntity
  8
0
  6
ByBlock
 62
     0
100
AcDbLine
 10
10.31775362371908
 20
-0.325909658062686
 30
0.0
 11
9.588663850659543
 21
-0.325909658062686
 31
0.0
  0
LINE
  5
5D
330
24
100
AcDbEntity
  8
0
  6
ByBlock
 62
     0
100
AcDbLine
 10
7.942907410933335
 20
-0.450909658062686
 30
0.0
 11
8.192907410933335
 21
-0.200909658062686
 31
0.0
  0
LINE
  5
5E
330
24
100
AcDbEntity
  8
0
  6
ByBlock
 62
     0
100
AcDbLine
 10
10.19275362371908
 20
-0.450909658062686
 30
0.0
 11
10.44275362371908
 21
-0.200909658062686
 31
0.0
  0
TEXT
  5
5F
330
24
100
AcDbEntity
  8
0
  6
ByBlock
 62
     0
100
AcDbText
 10
8.921997183992875
 20
-0.388409658062686
 30
0.0
 40
0.125
  1
2 1/4
 72
     1
 11
9.192830517326209
 21
-0.325909658062686
 31
0.0
100
AcDbText
 73
     2
  0
POINT
  5
60
330
24
100
AcDbEntity
  8
DEFPOINTS
  6
ByBlock
 62
     0
100
AcDbPoint
 10
8.067907410933335
 20
-0.9784799988141156
 30
0.0
  0
POINT
  5
61
330
24
100
AcDbEntity
  8
DEFPOINTS
  6
ByBlock
 62
     0
100
AcDbPoint
 10
10.31775362371908
 20
-0.9784799988141156
 30
0.0
  0
POINT
  5
62
330
24
100
AcDbEntity
  8
DEFPOINTS
  6
ByBlock
 62
     0
100
AcDbPoint
 10
10.31775362371908
 20
-0.325909658062686
 30
0.0
  0
ENDBLK
  5
63
330
24
100
AcDbEntity
  8
0
100
AcDbBlockEnd
  0
BLOCK
  5
247
330
246
100
AcDbEntity
  8
0
100
AcDbBlockBegin
  2
*D3
 70
     1
 10
0.0
 20
0.0
 30
0.0
  3
*D3
  1

  0
LINE
  5
248
330
246
100
AcDbEntity
  8
0
  6
ByBlock
 62
     0
100
AcDbLine
 10
16.59366176661783
 20
-3.695163504021722
 30
0.0
 11
16.59366176661783
 21
-2.928368029626047
 31
0.0
  0
LINE
  5
249
330
246
100
AcDbEntity
  8
0
  6
ByBlock
 62
     0
100
AcDbLine
 10
18.8375833473702
 20
-3.695163504021722
 30
0.0
 11
18.8375833473702
 21
-2.928368029626047
 31
0.0
  0
LINE
  5
24A
330
246
100
AcDbEntity
  8
0
  6
ByBlock
 62
     0
100
AcDbLine
 10
16.59366176661783
 20
-3.108368029626046
 30
0.0
 11
17.31978922366068
 21
-3.108368029626046
 31
0.0
  0
LINE
  5
24B
330
246
100
AcDbEntity
  8
0
  6
ByBlock
 62
     0
100
AcDbLine
 10
18.8375833473702
 20
-3.108368029626046
 30
0.0
 11
18.11145589032735
 21
-3.108368029626046
 31
0.0
  0
LINE
  5
24C
330
246
100
AcDbEntity
  8
0
  6
ByBlock
 62
     0
100
AcDbLine
 10
16.46866176661783
 20
-3.233368029626046
 30
0.0
 11
16.71866176661783
 21
-2.983368029626046
 31
0.0
  0
LINE
  5
24D
330
246
100
AcDbEntity
  8
0
  6
ByBlock
 62
     0
100
AcDbLine
 10
18.7125833473702
 20
-3.233368029626046
 30
0.0
 11
18.9625833473702
 21
-2.983368029626046
 31
0.0
  0
TEXT
  5
24E
330
246
100
AcDbEntity
  8
0
  6
ByBlock
 62
     0
100
AcDbText
 10
17.44478922366068
 20
-3.170868029626046
 30
0.0
 40
0.125
  1
2 1/4
 72
     1
 11
17.71562255699401
 21
-3.108368029626046
 31
0.0
100
AcDbText
 73
     2
  0
POINT
  5
24F
330
246
100
AcDbEntity
  8
DEFPOINTS
  6
ByBlock
 62
     0
100
AcDbPoint
 10
16.59366176661783
 20
-3.757663504021722
 30
0.0
  0
POINT
  5
250
330
246
100
AcDbEntity
  8
DEFPOINTS
  6
ByBlock
 62
     0
100
AcDbPoint
 10
18.8375833473702
 20
-3.757663504021722
 30
0.0
  0
POINT
  5
251
330
246
100
AcDbEntity
  8
DEFPOINTS
  6
ByBlock
 62
     0
100
AcDbPoint
 10
18.8375833473702
 20
-3.108368029626046
 30
0.0
  0
ENDBLK
  5
252
330
246
100
AcDbEntity
  8
0
100
AcDbBlockEnd
  0
BLOCK
  5
254
330
253
100
AcDbEntity
  8
0
 62
     3
100
AcDbBlockBegin
  2
*D4
 70
     1
 10
0.0
 20
0.0
 30
0.0
  3
*D4
  1

  0
LINE
  5
255
330
253
100
AcDbEntity
  8
ADPDIM
 62
     0
370
    -2
100
AcDbLine
 10
17.07370928770844
 20
-3.926093508194767
 30
0.0
 11
17.07370928770844
 21
-4.243982587535583
 31
0.0
  0
LINE
  5
256
330
253
100
AcDbEntity
  8
ADPDIM
 62
     0
370
    -2
100
AcDbLine
 10
18.38620928770844
 20
-3.926093508194767
 30
0.0
 11
18.38620928770844
 21
-4.243982587535583
 31
0.0
  0
LINE
  5
257
330
253
100
AcDbEntity
  8
ADPDIM
 62
     0
370
    -2
100
AcDbLine
 10
17.07370928770844
 20
-4.063982587535583
 30
0.0
 11
17.47995928770844
 21
-4.063982587535583
 31
0.0
  0
LINE
  5
258
330
253
100
AcDbEntity
  8
ADPDIM
 62
     0
370
    -2
100
AcDbLine
 10
18.38620928770844
 20
-4.063982587535583
 30
0.0
 11
17.97995928770844
 21
-4.063982587535583
 31
0.0
  0
LINE
  5
259
330
253
100
AcDbEntity
  8
ADPDIM
 62
     0
370
    -2
100
AcDbLine
 10
18.26120928770844
 20
-4.188982587535583
 30
0.0
 11
18.51120928770844
 21
-3.938982587535583
 31
0.0
  0
LINE
  5
25A
330
253
100
AcDbEntity
  8
ADPDIM
 62
     0
370
    -2
100
AcDbLine
 10
16.94870928770844
 20
-4.188982587535583
 30
0.0
 11
17.19870928770844
 21
-3.938982587535583
 31
0.0
  0
MTEXT
  5
25B
330
253
100
AcDbEntity
  8
ADPDIM
 62
     0
100
AcDbMText
 10
17.72995928770844
 20
-4.063982587535583
 30
0.0
 40
0.125
 41
0.0
 71
     5
 72
     1
  1
\A1;1{\H1.000000x;\S5/16;}
 73
     1
 44
1.0
1001
ACAD
1000
MTEXTBEGIN
1070
    73
1070
     1
1070
    44
1040
1.0
1070
    74
1070
     0
1000
MTEXTEND
  0
POINT
  5
25C
330
253
100
AcDbEntity
  8
DEFPOINTS
 62
     0
100
AcDbPoint
 10
17.07370928770844
 20
-3.863593508194767
 30
0.0
  0
POINT
  5
25D
330
253
100
AcDbEntity
  8
DEFPOINTS
 62
     0
100
AcDbPoint
 10
18.38620928770844
 20
-3.863593508194767
 30
0.0
  0
POINT
  5
25E
330
253
100
AcDbEntity
  8
DEFPOINTS
 62
     0
100
AcDbPoint
 10
18.38620928770844
 20
-4.063982587535583
 30
0.0
  0
ENDBLK
  5
25F
330
253
100
AcDbEntity
  8
0
 62
     3
100
AcDbBlockEnd
  0
BLOCK
  5
261
330
260
100
AcDbEntity
  8
0
 62
     3
100
AcDbBlockBegin
  2
*D5
 70
     1
 10
0.0
 20
0.0
 30
0.0
  3
*D5
  1

  0
LINE
  5
262
330
260
100
AcDbEntity
  8
ADPDIM
 62
     0
370
    -2
100
AcDbLine
 10
16.94491521906194
 20
-4.112169083259352
 30
0.0
 11
16.94491521906194
 21
-4.601820233388526
 31
0.0
  0
LINE
  5
263
330
260
100
AcDbEntity
  8
ADPDIM
 62
     0
370
    -2
100
AcDbLine
 10
18.50741521906194
 20
-4.112169083259352
 30
0.0
 11
18.50741521906194
 21
-4.601820233388526
 31
0.0
  0
LINE
  5
264
330
260
100
AcDbEntity
  8
ADPDIM
 62
     0
370
    -2
100
AcDbLine
 10
16.94491521906194
 20
-4.421820233388526
 30
0.0
 11
17.47616521906194
 21
-4.421820233388526
 31
0.0
  0
LINE
  5
265
330
260
100
AcDbEntity
  8
ADPDIM
 62
     0
370
    -2
100
AcDbLine
 10
18.50741521906194
 20
-4.421820233388526
 30
0.0
 11
17.97616521906194
 21
-4.421820233388526
 31
0.0
  0
LINE
  5
266
330
260
100
AcDbEntity
  8
ADPDIM
 62
     0
370
    -2
100
AcDbLine
 10
18.38241521906194
 20
-4.546820233388526
 30
0.0
 11
18.63241521906194
 21
-4.296820233388526
 31
0.0
  0
LINE
  5
267
330
260
100
AcDbEntity
  8
ADPDIM
 62
     0
370
    -2
100
AcDbLine
 10
16.81991521906194
 20
-4.546820233388526
 30
0.0
 11
17.06991521906194
 21
-4.296820233388526
 31
0.0
  0
MTEXT
  5
268
330
260
100
AcDbEntity
  8
ADPDIM
 62
     0
100
AcDbMText
 10
17.72616521906194
 20
-4.421820233388526
 30
0.0
 40
0.125
 41
0.0
 71
     5
 72
     1
  1
\A1;1{\H1.000000x;\S9/16;}
 73
     1
 44
1.0
1001
ACAD
1000
MTEXTBEGIN
1070
    73
1070
     1
1070
    44
1040
1.0
1070
    74
1070
     0
1000
MTEXTEND
  0
POINT
  5
269
330
260
100
AcDbEntity
  8
DEFPOINTS
 62
     0
100
AcDbPoint
 10
16.94491521906194
 20
-4.049669083259352
 30
0.0
  0
POINT
  5
26A
330
260
100
AcDbEntity
  8
DEFPOINTS
 62
     0
100
AcDbPoint
 10
18.50741521906194
 20
-4.049669083259352
 30
0.0
  0
POINT
  5
26B
330
260
100
AcDbEntity
  8
DEFPOINTS
 62
     0
100
AcDbPoint
 10
18.50741521906194
 20
-4.421820233388526
 30
0.0
  0
ENDBLK
  5
26C
330
260
100
AcDbEntity
  8
0
 62
     3
100
AcDbBlockEnd
  0
BLOCK
  5
285
330
27A
100
AcDbEntity
  8
0
100
AcDbBlockBegin
  2
*D7
 70
     1
 10
0.0
 20
0.0
 30
0.0
  3
*D7
  1

  0
LINE
  5
2E7
330
27A
100
AcDbEntity
  8
ADPDIM
 62
     0
370
    -2
100
AcDbLine
 10
7.577712676284008
 20
0.7851600137323294
 30
0.0
 11
7.577712676284008
 21
1.551955488128004
 31
0.0
  0
LINE
  5
2E8
330
27A
100
AcDbEntity
  8
ADPDIM
 62
     0
370
    -2
100
AcDbLine
 10
9.821634257036386
 20
0.7851600137323294
 30
0.0
 11
9.821634257036386
 21
1.551955488128004
 31
0.0
  0
LINE
  5
2E9
330
27A
100
AcDbEntity
  8
ADPDIM
 62
     0
370
    -2
100
AcDbLine
 10
7.757712676284008
 20
1.371955488128004
 30
0.0
 11
8.338840133326863
 21
1.371955488128004
 31
0.0
  0
LINE
  5
2EA
330
27A
100
AcDbEntity
  8
ADPDIM
 62
     0
370
    -2
100
AcDbLine
 10
9.641634257036386
 20
1.371955488128004
 30
0.0
 11
9.060506799993531
 21
1.371955488128004
 31
0.0
  0
SOLID
  5
2EB
330
27A
100
AcDbEntity
  8
ADPDIM
 62
     0
100
AcDbTrace
 10
7.757712676284008
 20
1.401955488128004
 30
0.0
 11
7.757712676284008
 21
1.341955488128004
 31
0.0
 12
7.577712676284008
 22
1.371955488128004
 32
0.0
 13
7.577712676284008
 23
1.371955488128004
 33
0.0
  0
SOLID
  5
2EC
330
27A
100
AcDbEntity
  8
ADPDIM
 62
     0
100
AcDbTrace
 10
9.641634257036386
 20
1.401955488128004
 30
0.0
 11
9.641634257036386
 21
1.341955488128004
 31
0.0
 12
9.821634257036386
 22
1.371955488128004
 32
0.0
 13
9.821634257036386
 23
1.371955488128004
 33
0.0
  0
MTEXT
  5
2ED
330
27A
100
AcDbEntity
  8
ADPDIM
 62
     0
100
AcDbMText
 10
8.699673466660197
 20
1.371955488128004
 30
0.0
 40
0.125
 41
0.0
 71
     5
 72
     1
  1
\A1;2 1/4
 73
     1
 44
1.0
1001
ACAD
1000
MTEXTBEGIN
1070
    73
1070
     1
1070
    44
1040
1.0
1070
    74
1070
     0
1000
MTEXTEND
  0
POINT
  5
2EE
330
27A
100
AcDbEntity
  8
DEFPOINTS
 62
     0
100
AcDbPoint
 10
7.577712676284008
 20
0.7226600137323294
 30
0.0
  0
POINT
  5
2EF
330
27A
100
AcDbEntity
  8
DEFPOINTS
 62
     0
100
AcDbPoint
 10
9.821634257036386
 20
0.7226600137323294
 30
0.0
  0
POINT
  5
2F0
330
27A
100
AcDbEntity
  8
DEFPOINTS
 62
     0
100
AcDbPoint
 10
9.821634257036386
 20
1.371955488128004
 30
0.0
  0
ENDBLK
  5
286
330
27A
100
AcDbEntity
  8
0
100
AcDbBlockEnd
  0
BLOCK
  5
292
330
287
100
AcDbEntity
  8
0
100
AcDbBlockBegin
  2
*D8
 70
     1
 10
0.0
 20
0.0
 30
0.0
  3
*D8
  1

  0
LINE
  5
2F1
330
287
100
AcDbEntity
  8
ADPDIM
 62
     0
370
    -2
100
AcDbLine
 10
8.057760197374626
 20
0.5542300095592836
 30
0.0
 11
8.057760197374626
 21
0.2363409302184675
 31
0.0
  0
LINE
  5
2F2
330
287
100
AcDbEntity
  8
ADPDIM
 62
     0
370
    -2
100
AcDbLine
 10
9.370260197374626
 20
0.5542300095592836
 30
0.0
 11
9.370260197374626
 21
0.2363409302184675
 31
0.0
  0
LINE
  5
2F3
330
287
100
AcDbEntity
  8
ADPDIM
 62
     0
370
    -2
100
AcDbLine
 10
8.057760197374626
 20
0.4163409302184676
 30
0.0
 11
8.276510197374626
 21
0.4163409302184676
 31
0.0
  0
LINE
  5
2F4
330
287
100
AcDbEntity
  8
ADPDIM
 62
     0
370
    -2
100
AcDbLine
 10
9.370260197374626
 20
0.4163409302184676
 30
0.0
 11
9.151510197374626
 21
0.4163409302184676
 31
0.0
  0
LINE
  5
2F5
330
287
100
AcDbEntity
  8
ADPDIM
 62
     0
370
    -2
100
AcDbLine
 10
9.245260197374626
 20
0.2913409302184675
 30
0.0
 11
9.495260197374626
 21
0.5413409302184676
 31
0.0
  0
LINE
  5
2F6
330
287
100
AcDbEntity
  8
ADPDIM
 62
     0
370
    -2
100
AcDbLine
 10
7.932760197374626
 20
0.2913409302184675
 30
0.0
 11
8.182760197374626
 21
0.5413409302184676
 31
0.0
  0
MTEXT
  5
2F7
330
287
100
AcDbEntity
  8
ADPDIM
 62
     0
100
AcDbMText
 10
8.714010197374626
 20
0.4163409302184676
 30
0.0
 40
0.125
 41
0.0
 71
     5
 72
     1
  1
\A1;1 5/16
 73
     1
 44
1.0
1001
ACAD
1000
MTEXTBEGIN
1070
    73
1070
     1
1070
    44
1040
1.0
1070
    74
1070
     0
1000
MTEXTEND
  0
POINT
  5
2F8
330
287
100
AcDbEntity
  8
DEFPOINTS
 62
     0
100
AcDbPoint
 10
8.057760197374626
 20
0.6167300095592836
 30
0.0
  0
POINT
  5
2F9
330
287
100
AcDbEntity
  8
DEFPOINTS
 62
     0
100
AcDbPoint
 10
9.370260197374626
 20
0.6167300095592836
 30
0.0
  0
POINT
  5
2FA
330
287
100
AcDbEntity
  8
DEFPOINTS
 62
     0
100
AcDbPoint
 10
9.370260197374626
 20
0.4163409302184676
 30
0.0
  0
ENDBLK
  5
293
330
287
100
AcDbEntity
  8
0
100
AcDbBlockEnd
  0
BLOCK
  5
29F
330
294
100
AcDbEntity
  8
0
100
AcDbBlockBegin
  2
*D9
 70
     1
 10
0.0
 20
0.0
 30
0.0
  3
*D9
  1

  0
LINE
  5
2FB
330
294
100
AcDbEntity
  8
ADPDIM
 62
     0
370
    -2
100
AcDbLine
 10
7.92896612872812
 20
0.3681544344946985
 30
0.0
 11
7.92896612872812
 21
-0.1214967156344751
 31
0.0
  0
LINE
  5
2FC
330
294
100
AcDbEntity
  8
ADPDIM
 62
     0
370
    -2
100
AcDbLine
 10
9.49146612872812
 20
0.3681544344946985
 30
0.0
 11
9.49146612872812
 21
-0.1214967156344751
 31
0.0
  0
LINE
  5
2FD
330
294
100
AcDbEntity
  8
ADPDIM
 62
     0
370
    -2
100
AcDbLine
 10
7.92896612872812
 20
0.0585032843655249
 30
0.0
 11
8.27271612872812
 21
0.0585032843655249
 31
0.0
  0
LINE
  5
2FE
330
294
100
AcDbEntity
  8
ADPDIM
 62
     0
370
    -2
100
AcDbLine
 10
9.49146612872812
 20
0.0585032843655249
 30
0.0
 11
9.14771612872812
 21
0.0585032843655249
 31
0.0
  0
LINE
  5
2FF
330
294
100
AcDbEntity
  8
ADPDIM
 62
     0
370
    -2
100
AcDbLine
 10
9.36646612872812
 20
-0.0664967156344751
 30
0.0
 11
9.61646612872812
 21
0.1835032843655249
 31
0.0
  0
LINE
  5
300
330
294
100
AcDbEntity
  8
ADPDIM
 62
     0
370
    -2
100
AcDbLine
 10
7.80396612872812
 20
-0.0664967156344751
 30
0.0
 11
8.05396612872812
 21
0.1835032843655249
 31
0.0
  0
MTEXT
  5
301
330
294
100
AcDbEntity
  8
ADPDIM
 62
     0
100
AcDbMText
 10
8.71021612872812
 20
0.0585032843655249
 30
0.0
 40
0.125
 41
0.0
 71
     5
 72
     1
  1
\A1;1 9/16
 73
     1
 44
1.0
1001
ACAD
1000
MTEXTBEGIN
1070
    73
1070
     1
1070
    44
1040
1.0
1070
    74
1070
     0
1000
MTEXTEND
  0
POINT
  5
302
330
294
100
AcDbEntity
  8
DEFPOINTS
 62
     0
100
AcDbPoint
 10
7.92896612872812
 20
0.4306544344946986
 30
0.0
  0
POINT
  5
303
330
294
100
AcDbEntity
  8
DEFPOINTS
 62
     0
100
AcDbPoint
 10
9.49146612872812
 20
0.4306544344946986
 30
0.0
  0
POINT
  5
304
330
294
100
AcDbEntity
  8
DEFPOINTS
 62
     0
100
AcDbPoint
 10
9.49146612872812
 20
0.0585032843655249
 30
0.0
  0
ENDBLK
  5
2A0
330
294
100
AcDbEntity
  8
0
100
AcDbBlockEnd
  0
ENDSEC
  0
SECTION
  2
ENTITIES
  0
LWPOLYLINE
  5
64
330
1E
100
AcDbEntity
  8
ADP1DETAIL
100
AcDbPolyline
 90
        7
 70
     0
 43
0.0
 10
10.72285284447706
 20
0.9251363238696246
 10
12.47912521484407
 20
0.9251363238696246
 42
-0.1250486630876161
 10
13.68841594641009
 20
0.7274321170740894
 42
-0.1256815583632025
 10
14.24034019038096
 20
0.1194916811778182
 42
-0.0792366066750611
 10
14.66375669993474
 20
-1.236429670428229
 42
0.2017386908605227
 10
15.14154186635728
 20
-2.168934512480506
 42
0.5207110650115161
 10
15.79279130797415
 20
-1.77040176902755
 42
-32.52174252302538
  0
LWPOLYLINE
  5
6D
330
1E
100
AcDbEntity
  8
ADP1DETAIL
100
AcDbPolyline
 90
        3
 70
     0
 43
0.0
 10
14.18267646339893
 20
0.2035159690659212
 42
0.2118867024815958
 10
12.8613533479821
 20
0.8493497112646704
 10
10.72700646075222
 20
0.8493497112646702
  0
LINE
  5
72
330
1E
100
AcDbEntity
  8
ADP1DETAIL
100
AcDbLine
 10
10.72285284447706
 20
1.254643335195517
 30
0.0
 11
12.98656601228594
 21
1.254643335195517
 31
0.0
  0
LINE
  5
73
330
1E
100
AcDbEntity
  8
ADP1DETAIL
100
AcDbLine
 10
12.95361531115335
 20
0.4341708769940454
 30
0.0
 11
10.73126138474142
 21
0.4341708769940454
 31
0.0
  0
LWPOLYLINE
  5
74
330
1E
100
AcDbEntity
  8
ADP1DETAIL
100
AcDbPolyline
 90
        3
 70
     0
 43
0.0
 10
7.596011791133872
 20
0.7204992905967826
 10
8.221894628513535
 20
-2.146517195497336
 42
0.2617298009733131
 10
8.719450215615632
 20
-2.438130900520751
 42
-1.053430959559987
  0
LWPOLYLINE
  5
79
330
1E
100
AcDbEntity
  8
ADP1DETAIL
100
AcDbPolyline
 90
        3
 70
     0
 43
0.0
 10
9.845858003919619
 20
0.7204992905967826
 10
9.219975166539956
 20
-2.146517195497336
 42
-0.2617298009733131
 10
8.722419579437859
 20
-2.438130900520751
 42
1.053430959559987
  0
LWPOLYLINE
  5
81
330
1E
100
AcDbEntity
  8
ADP1DETAIL
100
AcDbPolyline
 90
        4
 70
     0
 43
0.0
 10
8.87399280464777
 20
-0.7451452270968915
 10
9.364958251523351
 20
-0.3085484370900842
 42
0.1599827257099311
 10
9.470400495147636
 20
0.0769747661612108
 10
9.502184897526745
 20
0.4036155149233768
  0
LWPOLYLINE
  5
87
330
1E
100
AcDbEntity
  8
ADP1DETAIL
100
AcDbPolyline
 90
        4
 70
     0
 43
0.0
 10
8.567876990405721
 20
-0.7451452270968915
 10
8.07691154353014
 20
-0.3085484370900842
 42
-0.1599827257099311
 10
7.971469299905855
 20
0.0769747661612108
 10
7.939684897526745
 20
0.4036155149233768
  0
LINE
  5
8D
330
1E
100
AcDbEntity
  8
ADP1DETAIL
100
AcDbLine
 10
10.73126138474142
 20
0.4341708769940454
 30
0.0
 11
10.72285284447706
 21
1.254643335195517
 31
0.0
  0
ARC
  5
8E
330
1E
100
AcDbEntity
  8
ADP1DETAIL
100
AcDbCircle
 10
15.38380412929865
 20
-1.950083109115048
 30
0.0
 40
0.4971463209082209
100
AcDbArc
 50
242.9887196080763
 51
1.877529730188536
  0
ARC
  5
8F
330
1E
100
AcDbEntity
  8
ADP1DETAIL
100
AcDbCircle
 10
15.8148376376586
 20
-1.350209934955256
 30
0.0
 40
1.232405243259374
100
AcDbArc
 50
200.4978372685565
 51
237.794456020525
  0
ARC
  5
90
330
1E
100
AcDbEntity
  8
ADP1DETAIL
100
AcDbCircle
 10
10.3546581795891
 20
-1.774667605321566
 30
0.0
 40
4.617666572192366
100
AcDbArc
 50
10.54008845759722
 51
23.94859711391901
  0
ARC
  5
91
330
1E
100
AcDbEntity
  8
ADP1DETAIL
100
AcDbCircle
 10
12.85176539333731
 20
-0.6002380525942629
 30
0.0
 40
1.859773150047573
100
AcDbArc
 50
22.10889590577772
 51
85.84342564124193
  0
ARC
  5
92
330
1E
100
AcDbEntity
  8
ADP1DETAIL
100
AcDbCircle
 10
12.94066295720624
 20
-1.437786409975041
 30
0.0
 40
1.577408748370839
100
AcDbArc
 50
33.34031711639943
 51
98.7796692480189
  0
ARC
  5
93
330
1E
100
AcDbEntity
  8
ADP1DETAIL
100
AcDbCircle
 10
12.97999698894807
 20
-0.8576988992595291
 30
0.0
 40
1.292139122432535
100
AcDbArc
 50
15.16150184850449
 51
91.16989247108362
  0
LINE
  5
94
330
1E
100
AcDbEntity
  8
ADP1DETAIL
100
AcDbLine
 10
12.69989491243241
 20
0.1211392162344476
 30
0.0
 11
12.6113010461797
 21
0.4341708769940454
 31
0.0
  0
ARC
  5
95
330
1E
100
AcDbEntity
  8
ADP1DETAIL
100
AcDbCircle
 10
6.54078543464117
 20
-3.864198661016673
 30
0.0
 40
8.382462440865637
100
AcDbArc
 50
14.38448416313278
 51
23.5145173491366
  0
ARC
  5
96
330
1E
100
AcDbEntity
  8
ADP1DETAIL
100
AcDbCircle
 10
15.44243828107338
 20
-1.586601307230763
 30
0.0
 40
0.347244814848223
100
AcDbArc
 50
182.0276393100471
 51
304.3541231570248
  0
ARC
  5
97
330
1E
100
AcDbEntity
  8
ADP1DETAIL
100
AcDbCircle
 10
21.34945395973648
 20
0.6450553642424427
 30
0.0
 40
6.644421256656515
100
AcDbArc
 50
193.7123472745969
 51
199.7379222829643
  0
ARC
  5
98
330
1E
100
AcDbEntity
  8
ADP1DETAIL
100
AcDbCircle
 10
15.76239636554153
 20
-1.89208782007565
 30
0.0
 40
0.1254246688062728
100
AcDbArc
 50
340.5777302160725
 51
171.3733334568203
  0
TEXT
  5
9C
330
1E
100
AcDbEntity
  8
ADPDIM
100
AcDbText
 10
4.991794932489852
 20
-2.948957971468347
 30
0.0
 40
0.125
  1
J U L I U S  B L U M  &  C O . ,  I N C .      ( 8 0 0 )  5 2 6 - 6 2 9 3        W W W . J U L I U S B L U M . C O M        P A R T  N o .  6 9 3 0 - B
 41
1.25
  7
ARIAL_WIDE
 72
     1
 11
11.68730993931113
 21
-2.823957971468347
 31
0.0
100
AcDbText
 73
     3
  0
DIMENSION
  5
276
330
1E
100
AcDbEntity
  8
ADPDIM
100
AcDbDimension
  2
*D7
 10
9.821634257036386
 20
1.371955488128004
 30
0.0
 11
8.699673466660197
 21
1.371955488128004
 31
0.0
 70
    32
 71
     5
 42
2.243921580752378
  3
Standard
100
AcDbAlignedDimension
 13
7.577712676284008
 23
0.7226600137323294
 33
0.0
 14
9.821634257036386
 24
0.7226600137323294
 34
0.0
100
AcDbRotatedDimension
1001
ACAD
1000
DSTYLE
1002
{
1070
   276
1070
     2
1070
   277
1070
     5
1070
   140
1040
0.125
1002
}
  0
SPLINE
  5
277
330
1E
100
AcDbEntity
  8
ADPDIM
 62
     7
100
AcDbSpline
210
0.0
220
0.0
230
1.0
 70
    11
 71
     3
 72
    68
 73
    64
 74
     0
 42
0.0000000001
 43
0.0000000001
 40
0.0
 40
0.0
 40
0.0
 40
0.0
 40
1.0
 40
1.0
 40
1.0
 40
2.0
 40
2.0
 40
2.0
 40
3.0
 40
3.0
 40
3.0
 40
4.0
 40
4.0
 40
4.0
 40
5.0
 40
5.0
 40
5.0
 40
6.0
 40
6.0
 40
6.0
 40
7.0
 40
7.0
 40
7.0
 40
8.0
 40
8.0
 40
8.0
 40
9.0
 40
9.0
 40
9.0
 40
10.0
 40
10.0
 40
10.0
 40
11.0
 40
11.0
 40
11.0
 40
12.0
 40
12.0
 40
12.0
 40
13.0
 40
13.0
 40
13.0
 40
14.0
 40
14.0
 40
14.0
 40
15.0
 40
15.0
 40
15.0
 40
16.0
 40
16.0
 40
16.0
 40
17.0
 40
17.0
 40
17.0
 40
18.0
 40
18.0
 40
18.0
 40
19.0
 40
19.0
 40
19.0
 40
20.0
 40
20.0
 40
20.0
 40
21.0
 40
21.0
 40
21.0
 40
21.0
 10
9.36465389508784
 20
0.804489936448939
 30
0.0
 10
9.36465389508784
 20
0.804489936448939
 30
0.0
 10
9.36465389508784
 20
0.6161864706232239
 30
0.0
 10
9.36465389508784
 20
0.6161864706232239
 30
0.0
 10
9.36465389508784
 20
0.6161864706232239
 30
0.0
 10
9.489602036858286
 20
0.6161864706232239
 30
0.0
 10
9.489602036858286
 20
0.6161864706232239
 30
0.0
 10
9.489602036858286
 20
0.6161864706232239
 30
0.0
 10
9.489602036858286
 20
0.4331569660766706
 30
0.0
 10
9.489602036858286
 20
0.4331569660766706
 30
0.0
 10
9.489602036858286
 20
0.4331569660766706
 30
0.0
 10
9.616312684968804
 20
0.4331569660766706
 30
0.0
 10
9.616312684968804
 20
0.4331569660766706
 30
0.0
 10
9.616312684968804
 20
0.4331569660766706
 30
0.0
 10
9.609276217349602
 20
0.5317081859691842
 30
0.0
 10
9.681430515364159
 20
0.5845020297250585
 30
0.0
 10
9.753584813378719
 20
0.6372958734809338
 30
0.0
 10
9.834538085352644
 20
0.654893821399555
 30
0.0
 10
9.834538085352644
 20
0.756970053972216
 30
0.0
 10
9.834538085352644
 20
0.8590462865448884
 30
0.0
 10
9.755347319718836
 20
0.8783931830625135
 30
0.0
 10
9.6990284632828
 20
0.8783931830625135
 30
0.0
 10
9.6990284632828
 20
0.8783931830625135
 30
0.0
 10
9.6990284632828
 20
0.932949533158462
 30
0.0
 10
9.6990284632828
 20
0.932949533158462
 30
0.0
 10
9.6990284632828
 20
0.932949533158462
 30
0.0
 10
9.344425745400176
 20
0.9232693060291143
 30
0.0
 10
9.211559882840447
 20
1.056148726329904
 30
0.0
 10
9.078694020280764
 20
1.189014588889633
 30
0.0
 10
8.866623834346132
 20
1.242689685815534
 30
0.0
 10
8.710004809418592
 20
1.242689685815534
 30
0.0
 10
8.553385784491052
 20
1.242689685815534
 30
0.0
 10
8.341315598556469
 20
1.189014588889633
 30
0.0
 10
8.208449735996737
 20
1.056148726329904
 30
0.0
 10
8.075583873437008
 20
0.9232693060291143
 30
0.0
 10
7.720981155554426
 20
0.932949533158462
 30
0.0
 10
7.720981155554426
 20
0.932949533158462
 30
0.0
 10
7.720981155554426
 20
0.932949533158462
 30
0.0
 10
7.720981155554426
 20
0.8783931830625135
 30
0.0
 10
7.720981155554426
 20
0.8783931830625135
 30
0.0
 10
7.664662299118393
 20
0.8783931830625135
 30
0.0
 10
7.585471533484586
 20
0.8590462865448884
 30
0.0
 10
7.585471533484586
 20
0.756970053972216
 30
0.0
 10
7.585471533484586
 20
0.654893821399555
 30
0.0
 10
7.666424805458468
 20
0.6372958734809338
 30
0.0
 10
7.738579103473028
 20
0.5845020297250585
 30
0.0
 10
7.810733401487631
 20
0.5317081859691842
 30
0.0
 10
7.80369693386838
 20
0.4331569660766706
 30
0.0
 10
7.80369693386838
 20
0.4331569660766706
 30
0.0
 10
7.80369693386838
 20
0.4331569660766706
 30
0.0
 10
7.930394024237855
 20
0.4331569660766706
 30
0.0
 10
7.930394024237855
 20
0.4331569660766706
 30
0.0
 10
7.930394024237855
 20
0.4331569660766706
 30
0.0
 10
7.930394024237855
 20
0.6161864706232239
 30
0.0
 10
7.930394024237855
 20
0.6161864706232239
 30
0.0
 10
7.930394024237855
 20
0.6161864706232239
 30
0.0
 10
8.055342166008252
 20
0.6161864706232239
 30
0.0
 10
8.055342166008252
 20
0.6161864706232239
 30
0.0
 10
8.055342166008252
 20
0.6161864706232239
 30
0.0
 10
8.055342166008252
 20
0.804489936448939
 30
0.0
 10
8.055342166008252
 20
0.804489936448939
 30
0.0
 10
8.055342166008252
 20
0.804489936448939
 30
0.0
 10
9.36465389508784
 20
0.804489936448939
 30
0.0
 10
9.36465389508784
 20
0.804489936448939
 30
0.0
  0
DIMENSION
  5
278
330
1E
100
AcDbEntity
  8
ADPDIM
 62
     3
100
AcDbDimension
  2
*D8
 10
9.370260197374626
 20
0.4163409302184676
 30
0.0
 11
8.714010197374626
 21
0.4163409302184676
 31
0.0
 70
    32
 71
     5
 42
1.3125
  3
Standard
100
AcDbAlignedDimension
 13
8.057760197374626
 23
0.6167300095592836
 33
0.0
 14
9.370260197374626
 24
0.6167300095592836
 34
0.0
100
AcDbRotatedDimension
1001
ACAD
1000
DSTYLE
1002
{
1070
   276
1070
     2
1070
    41
1040
0.125
1070
    73
1070
     0
1070
    74
1070
     0
1070
    78
1070
     3
1070
   140
1040
0.125
1070
   141
1040
0.1875
1070
   142
1040
0.125
1070
   147
1040
0.125
1070
   171
1070
     1
1070
   273
1070
     5
1070
   274
1070
     1
1070
   277
1070
     5
1070
   279
1070
     2
1070
   284
1070
     3
1070
   285
1070
     3
1070
   286
1070
     3
1002
}
  0
DIMENSION
  5
279
330
1E
100
AcDbEntity
  8
ADPDIM
 62
     3
100
AcDbDimension
  2
*D9
 10
9.49146612872812
 20
0.0585032843655249
 30
0.0
 11
8.71021612872812
 21
0.0585032843655249
 31
0.0
 70
    32
 71
     5
 42
1.5625
  3
Standard
100
AcDbAlignedDimension
 13
7.92896612872812
 23
0.4306544344946986
 33
0.0
 14
9.49146612872812
 24
0.4306544344946986
 34
0.0
100
AcDbRotatedDimension
1001
ACAD
1000
DSTYLE
1002
{
1070
   276
1070
     2
1070
    41
1040
0.125
1070
    73
1070
     0
1070
    74
1070
     0
1070
    78
1070
     3
1070
   140
1040
0.125
1070
   141
1040
0.1875
1070
   142
1040
0.125
1070
   147
1040
0.125
1070
   171
1070
     1
1070
   273
1070
     5
1070
   274
1070
     1
1070
   277
1070
     5
1070
   279
1070
     2
1070
   284
1070
     3
1070
   285
1070
     3
1070
   286
1070
     3
1002
}
  0
ENDSEC
  0
SECTION
  2
OBJECTS
  0
DICTIONARY
  5
C
330
0
100
AcDbDictionary
281
     1
  3
ACAD_COLOR
350
240
  3
ACAD_GROUP
350
D
  3
ACAD_LAYOUT
350
19
  3
ACAD_MATERIAL
350
22B
  3
ACAD_MLINESTYLE
350
16
  3
ACAD_PLOTSETTINGS
350
18
  3
ACAD_PLOTSTYLENAME
350
E
  3
ACAD_TABLESTYLE
350
241
  3
ACAD_VISUALSTYLE
350
22F
  3
AcDbVariableDictionary
350
10D
  3
DWGPROPS
350
322
  0
DICTIONARY
  5
D8
330
1E
100
AcDbDictionary
280
     1
281
     1
  3
ACAD_LAYOUTSELFREF
360
227
  0
DICTIONARY
  5
DA
330
1A
100
AcDbDictionary
280
     1
281
     1
  3
ACAD_LAYOUTSELFREF
360
226
  0
DICTIONARY
  5
240
102
{ACAD_REACTORS
330
C
102
}
330
C
100
AcDbDictionary
281
     1
  0
DICTIONARY
  5
D
102
{ACAD_REACTORS
330
C
102
}
330
C
100
AcDbDictionary
281
     1
  0
DICTIONARY
  5
19
102
{ACAD_REACTORS
330
C
102
}
330
C
100
AcDbDictionary
281
     1
  3
Layout1
350
1D
  3
Model
350
21
  0
DICTIONARY
  5
22B
102
{ACAD_REACTORS
330
C
102
}
330
C
100
AcDbDictionary
281
     1
  3
ByBlock
350
22D
  3
ByLayer
350
22C
  3
Global
350
22E
  0
DICTIONARY
  5
16
102
{ACAD_REACTORS
330
C
102
}
330
C
100
AcDbDictionary
281
     1
  3
Standard
350
17
  0
DICTIONARY
  5
18
102
{ACAD_REACTORS
330
C
102
}
330
C
100
AcDbDictionary
281
     1
  0
ACDBDICTIONARYWDFLT
  5
E
102
{ACAD_REACTORS
330
C
102
}
330
C
100
AcDbDictionary
281
     1
  3
Normal
350
F
100
AcDbDictionaryWithDefault
340
F
  0
DICTIONARY
  5
241
102
{ACAD_REACTORS
330
C
102
}
330
C
100
AcDbDictionary
281
     1
  3
Standard
350
242
  0
DICTIONARY
  5
22F
102
{ACAD_REACTORS
330
C
102
}
330
C
100
AcDbDictionary
281
     1
  3
2dWireframe
350
235
  3
3D Hidden
350
237
  3
3dWireframe
350
236
  3
Basic
350
234
  3
Brighten
350
23B
  3
ColorChange
350
23F
  3
Conceptual
350
238
  3
Dim
350
23A
  3
Facepattern
350
23E
  3
Flat
350
230
  3
FlatWithEdges
350
231
  3
Gouraud
350
232
  3
GouraudWithEdges
350
233
  3
Linepattern
350
23D
  3
Realistic
350
239
  3
Thicken
350
23C
  0
DICTIONARY
  5
10D
102
{ACAD_REACTORS
330
C
102
}
330
C
100
AcDbDictionary
281
     1
  3
CTABLESTYLE
350
31F
  3
DIMASSOC
350
10F
  3
HIDETEXT
350
10E
  3
INDEXCTL
350
321
  3
SORTENTS
350
320
  0
XRECORD
  5
322
102
{ACAD_REACTORS
330
C
102
}
330
C
100
AcDbXrecord
280
     1
  1
DWGPROPS COOKIE
  2

  3

  4

  6

  7

  8
Yu Hu
  9

300
=
301
=
302
=
303
=
304
=
305
=
306
=
307
=
308
=
309
=
 40
0.0446472337962963
 41
2450353.128433253
 42
2453980.436327454
  1

 90
        0
  0
XRECORD
  5
227
102
{ACAD_REACTORS
330
D8
102
}
330
D8
100
AcDbXrecord
280
     1
340
1E
  0
XRECORD
  5
226
102
{ACAD_REACTORS
330
DA
102
}
330
DA
100
AcDbXrecord
280
     1
340
1A
  0
LAYOUT
  5
1D
102
{ACAD_XDICTIONARY
360
323
102
}
102
{ACAD_REACTORS
330
19
102
}
330
19
100
AcDbPlotSettings
  1

  2
Fax
  4

  6

 40
0.0
 41
0.0
 42
0.0
 43
0.0
 44
0.0
 45
0.0
 46
0.0
 47
0.0
 48
0.0
 49
0.0
140
0.0
141
0.0
142
1.0
143
1.0
 70
   688
 72
     0
 73
     0
 74
     5
  7
Default R14 pen assignments.ctb
 75
    16
147
1.0
148
0.0
149
0.0
100
AcDbLayout
  1
Layout1
 70
     1
 71
     1
 10
0.0
 20
0.0
 11
12.0
 21
9.0
 12
0.0
 22
0.0
 32
0.0
 14
1.000000000000000E+20
 24
1.000000000000000E+20
 34
1.000000000000000E+20
 15
-1.000000000000000E+20
 25
-1.000000000000000E+20
 35
-1.000000000000000E+20
146
0.0
 13
0.0
 23
0.0
 33
0.0
 16
1.0
 26
0.0
 36
0.0
 17
0.0
 27
1.0
 37
0.0
 76
     0
330
1A
  0
LAYOUT
  5
21
102
{ACAD_XDICTIONARY
360
325
102
}
102
{ACAD_REACTORS
330
19
102
}
330
19
100
AcDbPlotSettings
  1

  2
Fax
  4

  6

 40
0.0
 41
0.0
 42
0.0
 43
0.0
 44
0.0
 45
0.0
 46
0.0
 47
0.0
 48
0.0
 49
0.0
140
0.0
141
0.0
142
1.0
143
1.0
 70
  1712
 72
     0
 73
     0
 74
     0
  7
Default R14 pen assignments.ctb
 75
     0
147
1.0
148
0.0
149
0.0
100
AcDbLayout
  1
Model
 70
     1
 71
     0
 10
0.0
 20
0.0
 11
12.0
 21
9.0
 12
0.0
 22
0.0
 32
0.0
 14
0.0
 24
0.0
 34
0.0
 15
0.0
 25
0.0
 35
0.0
146
0.0
 13
0.0
 23
0.0
 33
0.0
 16
1.0
 26
0.0
 36
0.0
 17
0.0
 27
1.0
 37
0.0
 76
     0
330
1E
331
1F4
  0
MATERIAL
  5
22D
102
{ACAD_XDICTIONARY
360
329
102
}
102
{ACAD_REACTORS
330
22B
102
}
330
22B
100
AcDbMaterial
  1
ByBlock
  0
MATERIAL
  5
22C
102
{ACAD_XDICTIONARY
360
327
102
}
102
{ACAD_REACTORS
330
22B
102
}
330
22B
100
AcDbMaterial
  1
ByLayer
  0
MATERIAL
  5
22E
102
{ACAD_XDICTIONARY
360
32B
102
}
102
{ACAD_REACTORS
330
22B
102
}
330
22B
100
AcDbMaterial
  1
Global
  0
MLINESTYLE
  5
17
102
{ACAD_REACTORS
330
16
102
}
330
16
100
AcDbMlineStyle
  2
STANDARD
 70
     0
  3

 62
   256
 51
90.0
 52
90.0
 71
     2
 49
0.5
 62
   256
  6
BYLAYER
 49
-0.5
 62
   256
  6
BYLAYER
  0
ACDBPLACEHOLDER
  5
F
102
{ACAD_REACTORS
330
E
102
}
330
E
  0
TABLESTYLE
  5
242
102
{ACAD_XDICTIONARY
360
32D
102
}
102
{ACAD_REACTORS
330
241
102
}
330
241
100
AcDbTableStyle
  3
Standard
 70
     0
 71
     0
 40
0.06
 41
0.06
280
     0
281
     0
  7
STANDARD
140
0.18
170
     2
 62
     0
 63
     7
283
     0
274
    -2
284
     1
 64
     0
275
    -2
285
     1
 65
     0
276
    -2
286
     1
 66
     0
277
    -2
287
     1
 67
     0
278
    -2
288
     1
 68
     0
279
    -2
289
     1
 69
     0
  7
STANDARD
140
0.25
170
     5
 62
     0
 63
     7
283
     0
274
    -2
284
     1
 64
     0
275
    -2
285
     1
 65
     0
276
    -2
286
     1
 66
     0
277
    -2
287
     1
 67
     0
278
    -2
288
     1
 68
     0
279
    -2
289
     1
 69
     0
  7
STANDARD
140
0.18
170
     5
 62
     0
 63
     7
283
     0
274
    -2
284
     1
 64
     0
275
    -2
285
     1
 65
     0
276
    -2
286
     1
 66
     0
277
    -2
287
     1
 67
     0
278
    -2
288
     1
 68
     0
279
    -2
289
     1
 69
     0
  0
VISUALSTYLE
  5
235
102
{ACAD_REACTORS
330
22F
102
}
330
22F
100
AcDbVisualStyle
  2
2dWireframe
 70
     4
 71
     0
 72
     2
 73
     0
 90
        0
 40
-0.6
 41
-30.0
 62
     5
 63
     7
 74
     1
 91
        4
 64
     7
 65
   257
 75
     1
175
     1
 42
1.0
 92
        0
 66
   257
 43
1.0
 76
     1
 77
     6
 78
     2
 67
     7
 79
     5
170
     0
171
     0
290
     0
174
     0
 93
        1
 44
0.0
173
     0
291
     0
 45
0.0
1001
ACAD
1000
AcDbSavedByObjectVersion
1070
     0
  0
VISUALSTYLE
  5
237
102
{ACAD_REACTORS
330
22F
102
}
330
22F
100
AcDbVisualStyle
  2
3D Hidden
 70
     6
 71
     1
 72
     2
 73
     2
 90
        0
 40
-0.6
 41
-30.0
 62
     5
 63
     7
 74
     2
 91
        2
 64
     7
 65
   257
 75
     2
175
     1
 42
40.0
 92
        0
 66
   257
 43
1.0
 76
     1
 77
     6
 78
     2
 67
     7
 79
     3
170
     0
171
     0
290
     0
174
     0
 93
        1
 44
0.0
173
     0
291
     0
 45
0.0
1001
ACAD
1000
AcDbSavedByObjectVersion
1070
     0
  0
VISUALSTYLE
  5
236
102
{ACAD_REACTORS
330
22F
102
}
330
22F
100
AcDbVisualStyle
  2
3dWireframe
 70
     5
 71
     0
 72
     2
 73
     0
 90
        0
 40
-0.6
 41
-30.0
 62
     5
 63
     7
 74
     1
 91
        4
 64
     7
 65
   257
 75
     1
175
     1
 42
1.0
 92
        0
 66
   257
 43
1.0
 76
     1
 77
     6
 78
     2
 67
     7
 79
     5
170
     0
171
     0
290
     0
174
     0
 93
        1
 44
0.0
173
     0
291
     0
 45
0.0
1001
ACAD
1000
AcDbSavedByObjectVersion
1070
     0
  0
VISUALSTYLE
  5
234
102
{ACAD_REACTORS
330
22F
102
}
330
22F
100
AcDbVisualStyle
  2
Basic
 70
     7
 71
     1
 72
     0
 73
     1
 90
        0
 40
-0.6
 41
-30.0
 62
     5
 63
     7
 74
     0
 91
        4
 64
     7
 65
   257
 75
     1
175
     1
 42
1.0
 92
        8
 66
     7
 43
1.0
 76
     1
 77
     6
 78
     2
 67
     7
 79
     5
170
     0
171
     0
290
     0
174
     0
 93
        1
 44
0.0
173
     0
291
     1
 45
0.0
1001
ACAD
1000
AcDbSavedByObjectVersion
1070
     0
  0
VISUALSTYLE
  5
23B
102
{ACAD_REACTORS
330
22F
102
}
330
22F
100
AcDbVisualStyle
  2
Brighten
 70
    12
 71
     2
 72
     2
 73
     0
 90
        0
 40
-0.6
 41
-30.0
 62
     5
 63
     7
 74
     1
 91
        4
 64
     7
 65
   257
 75
     1
175
     1
 42
1.0
 92
        8
 66
     7
 43
1.0
 76
     1
 77
     6
 78
     2
 67
     7
 79
     5
170
     0
171
     0
290
     0
174
     0
 93
        1
 44
50.0
173
     0
291
     1
 45
0.0
1001
ACAD
1000
AcDbSavedByObjectVersion
1070
     0
  0
VISUALSTYLE
  5
23F
102
{ACAD_REACTORS
330
22F
102
}
330
22F
100
AcDbVisualStyle
  2
ColorChange
 70
    16
 71
     2
 72
     2
 73
     3
 90
        0
 40
-0.6
 41
-30.0
 62
     5
 63
     8
 74
     1
 91
        4
 64
     7
 65
   257
 75
     1
175
     1
 42
1.0
 92
        8
 66
     8
 43
1.0
 76
     1
 77
     6
 78
     2
 67
     7
 79
     5
170
     0
171
     0
290
     0
174
     0
 93
        1
 44
0.0
173
     0
291
     1
 45
0.0
1001
ACAD
1000
AcDbSavedByObjectVersion
1070
     0
  0
VISUALSTYLE
  5
238
102
{ACAD_REACTORS
330
22F
102
}
330
22F
100
AcDbVisualStyle
  2
Conceptual
 70
     9
 71
     3
 72
     2
 73
     0
 90
        0
 40
-0.6
 41
-30.0
 62
     5
 63
     7
 74
     2
 91
        2
 64
     7
 65
   257
 75
     1
175
     1
 42
40.0
 92
        8
 66
     7
 43
1.0
 76
     1
 77
     6
 78
     2
 67
     7
 79
     3
170
     0
171
     0
290
     0
174
     0
 93
        1
 44
0.0
173
     0
291
     0
 45
0.0
1001
ACAD
1000
AcDbSavedByObjectVersion
1070
     0
  0
VISUALSTYLE
  5
23A
102
{ACAD_REACTORS
330
22F
102
}
330
22F
100
AcDbVisualStyle
  2
Dim
 70
    11
 71
     2
 72
     2
 73
     0
 90
        0
 40
-0.6
 41
-30.0
 62
     5
 63
     7
 74
     1
 91
        4
 64
     7
 65
   257
 75
     1
175
     1
 42
1.0
 92
        8
 66
     7
 43
1.0
 76
     1
 77
     6
 78
     2
 67
     7
 79
     5
170
     0
171
     0
290
     0
174
     0
 93
        1
 44
-50.0
173
     0
291
     1
 45
0.0
1001
ACAD
1000
AcDbSavedByObjectVersion
1070
     0
  0
VISUALSTYLE
  5
23E
102
{ACAD_REACTORS
330
22F
102
}
330
22F
100
AcDbVisualStyle
  2
Facepattern
 70
    15
 71
     2
 72
     2
 73
     0
 90
        0
 40
-0.6
 41
-30.0
 62
     5
 63
     7
 74
     1
 91
        4
 64
     7
 65
   257
 75
     1
175
     1
 42
1.0
 92
        8
 66
     7
 43
1.0
 76
     1
 77
     6
 78
     2
 67
     7
 79
     5
170
     0
171
     0
290
     0
174
     0
 93
        1
 44
0.0
173
     0
291
     1
 45
0.0
1001
ACAD
1000
AcDbSavedByObjectVersion
1070
     0
  0
VISUALSTYLE
  5
230
102
{ACAD_REACTORS
330
22F
102
}
330
22F
100
AcDbVisualStyle
  2
Flat
 70
     0
 71
     2
 72
     1
 73
     1
 90
        2
 40
-0.6
 41
30.0
 62
     5
 63
     7
 74
     0
 91
        4
 64
     7
 65
   257
 75
     1
175
     1
 42
1.0
 92
        8
 66
     7
 43
1.0
 76
     1
 77
     6
 78
     2
 67
     7
 79
     5
170
     0
171
     0
290
     0
174
     0
 93
       13
 44
0.0
173
     0
291
     1
 45
0.0
1001
ACAD
1000
AcDbSavedByObjectVersion
1070
     0
  0
VISUALSTYLE
  5
231
102
{ACAD_REACTORS
330
22F
102
}
330
22F
100
AcDbVisualStyle
  2
FlatWithEdges
 70
     1
 71
     2
 72
     1
 73
     1
 90
        2
 40
-0.6
 41
30.0
 62
     5
 63
     7
 74
     1
 91
        4
 64
     7
 65
   257
 75
     1
175
     1
 42
1.0
 92
        0
 66
   257
 43
1.0
 76
     1
 77
     6
 78
     2
 67
     7
 79
     5
170
     0
171
     0
290
     0
174
     0
 93
       13
 44
0.0
173
     0
291
     1
 45
0.0
1001
ACAD
1000
AcDbSavedByObjectVersion
1070
     0
  0
VISUALSTYLE
  5
232
102
{ACAD_REACTORS
330
22F
102
}
330
22F
100
AcDbVisualStyle
  2
Gouraud
 70
     2
 71
     2
 72
     2
 73
     1
 90
        2
 40
-0.6
 41
30.0
 62
     5
 63
     7
 74
     0
 91
        4
 64
     7
 65
   257
 75
     1
175
     1
 42
1.0
 92
        0
 66
     7
 43
1.0
 76
     1
 77
     6
 78
     2
 67
     7
 79
     5
170
     0
171
     0
290
     0
174
     0
 93
       13
 44
0.0
173
     0
291
     1
 45
0.0
1001
ACAD
1000
AcDbSavedByObjectVersion
1070
     0
  0
VISUALSTYLE
  5
233
102
{ACAD_REACTORS
330
22F
102
}
330
22F
100
AcDbVisualStyle
  2
GouraudWithEdges
 70
     3
 71
     2
 72
     2
 73
     1
 90
        2
 40
-0.6
 41
30.0
 62
     5
 63
     7
 74
     1
 91
        4
 64
     7
 65
   257
 75
     1
175
     1
 42
1.0
 92
        0
 66
   257
 43
1.0
 76
     1
 77
     6
 78
     2
 67
     7
 79
     5
170
     0
171
     0
290
     0
174
     0
 93
       13
 44
0.0
173
     0
291
     1
 45
0.0
1001
ACAD
1000
AcDbSavedByObjectVersion
1070
     0
  0
VISUALSTYLE
  5
23D
102
{ACAD_REACTORS
330
22F
102
}
330
22F
100
AcDbVisualStyle
  2
Linepattern
 70
    14
 71
     2
 72
     2
 73
     0
 90
        0
 40
-0.6
 41
-30.0
 62
     5
 63
     7
 74
     1
 91
        4
 64
     7
 65
   257
 75
     7
175
     7
 42
1.0
 92
        8
 66
     7
 43
1.0
 76
     1
 77
     6
 78
     2
 67
     7
 79
     5
170
     0
171
     0
290
     0
174
     0
 93
        1
 44
0.0
173
     0
291
     1
 45
0.0
1001
ACAD
1000
AcDbSavedByObjectVersion
1070
     0
  0
VISUALSTYLE
  5
239
102
{ACAD_REACTORS
330
22F
102
}
330
22F
100
AcDbVisualStyle
  2
Realistic
 70
     8
 71
     2
 72
     2
 73
     0
 90
        0
 40
-0.6
 41
-30.0
 62
     5
 63
     7
 74
     1
 91
        0
 64
     7
 65
   257
 75
     1
175
     1
 42
1.0
 92
        8
 66
     8
 43
1.0
 76
     1
 77
     6
 78
     2
 67
     7
 79
     5
170
     0
171
     0
290
     0
174
     0
 93
       13
 44
0.0
173
     0
291
     0
 45
0.0
1001
ACAD
1000
AcDbSavedByObjectVersion
1070
     0
  0
VISUALSTYLE
  5
23C
102
{ACAD_REACTORS
330
22F
102
}
330
22F
100
AcDbVisualStyle
  2
Thicken
 70
    13
 71
     2
 72
     2
 73
     0
 90
        0
 40
-0.6
 41
-30.0
 62
     5
 63
     7
 74
     1
 91
        4
 64
     7
 65
   257
 75
     1
175
     1
 42
1.0
 92
       12
 66
     7
 43
1.0
 76
     1
 77
     6
 78
     2
 67
     7
 79
     5
170
     0
171
     0
290
     0
174
     0
 93
        1
 44
0.0
173
     0
291
     1
 45
0.0
1001
ACAD
1000
AcDbSavedByObjectVersion
1070
     0
  0
DICTIONARYVAR
  5
31F
102
{ACAD_REACTORS
330
10D
102
}
330
10D
100
DictionaryVariables
280
     0
  1
STANDARD
  0
DICTIONARYVAR
  5
10F
102
{ACAD_REACTORS
330
10D
102
}
330
10D
100
DictionaryVariables
280
     0
  1
2
  0
DICTIONARYVAR
  5
10E
102
{ACAD_REACTORS
330
10D
102
}
330
10D
100
DictionaryVariables
280
     0
  1
1
  0
DICTIONARYVAR
  5
321
102
{ACAD_REACTORS
330
10D
102
}
330
10D
100
DictionaryVariables
280
     0
  1
0
  0
DICTIONARYVAR
  5
320
102
{ACAD_REACTORS
330
10D
102
}
330
10D
100
DictionaryVariables
280
     0
  1
127
  0
DICTIONARY
  5
323
330
1D
100
AcDbDictionary
280
     1
281
     1
  3
ACAD_XREC_ROUNDTRIP
360
324
  0
DICTIONARY
  5
325
330
21
100
AcDbDictionary
280
     1
281
     1
  3
ACAD_XREC_ROUNDTRIP
360
326
  0
DICTIONARY
  5
329
330
22D
100
AcDbDictionary
280
     1
281
     1
  3
ACAD_XREC_ROUNDTRIP
360
32A
  0
DICTIONARY
  5
327
330
22C
100
AcDbDictionary
280
     1
281
     1
  3
ACAD_XREC_ROUNDTRIP
360
328
  0
DICTIONARY
  5
32B
330
22E
100
AcDbDictionary
280
     1
281
     1
  3
ACAD_XREC_ROUNDTRIP
360
32C
  0
DICTIONARY
  5
32D
330
242
100
AcDbDictionary
280
     1
281
     1
  3
ACAD_XREC_ROUNDTRIP
360
32E
  0
XRECORD
  5
324
102
{ACAD_REACTORS
330
323
102
}
330
323
100
AcDbXrecord
280
     1
102
SHADEPLOT
 70
     0
102
SHADEPLOTRESLEVEL
 70
     2
102
SHADEPLOTCUSTOMDPI
 70
   300
  0
XRECORD
  5
326
102
{ACAD_REACTORS
330
325
102
}
330
325
100
AcDbXrecord
280
     1
102
SHADEPLOT
 70
     0
102
SHADEPLOTRESLEVEL
 70
     2
102
SHADEPLOTCUSTOMDPI
 70
   300
  0
XRECORD
  5
32A
102
{ACAD_REACTORS
330
329
102
}
330
329
100
AcDbXrecord
280
     1
102
MATERIAL
148
0.0
149
0.0
149
0.0
 93
        0
 94
       63
282
     0
 72
     1
 77
     1
171
     1
175
     1
179
     1
273
     0
  0
XRECORD
  5
328
102
{ACAD_REACTORS
330
327
102
}
330
327
100
AcDbXrecord
280
     1
102
MATERIAL
148
0.0
149
0.0
149
0.0
 93
        0
 94
       63
282
     0
 72
     1
 77
     1
171
     1
175
     1
179
     1
273
     0
  0
XRECORD
  5
32C
102
{ACAD_REACTORS
330
32B
102
}
330
32B
100
AcDbXrecord
280
     1
102
MATERIAL
148
0.0
149
0.0
149
0.0
 93
        0
 94
       63
282
     0
 72
     1
 77
     1
171
     1
175
     1
179
     1
273
     0
  0
XRECORD
  5
32E
102
{ACAD_REACTORS
330
32D
102
}
330
32D
100
AcDbXrecord
280
     1
102
ACAD_ROUNDTRIP_PRE2007_TABLESTYLE
 90
      512
 91
        0
  1

 92
      512
 93
        0
  2

 94
      512
 95
        0
  3

  0
ENDSEC
  0
EOF
