  0
SECTION
  2
HEADER
  9
$ACADVER
  1
AC1015
  9
$ACADMAINTVER
 70
    20
  9
$DWGCODEPAGE
  3
ANSI_1252
  9
$INSBASE
 10
11.77439347429796
 20
0.0878958378030461
 30
0.0
  9
$EXTMIN
 10
5.788696379620461
 20
-0.8177941620520385
 30
-0.0015258207003583
  9
$EXTMAX
 10
19.19201666581446
 20
4.46291723474026
 30
0.0000000349246037
  9
$LIMMIN
 10
0.0
 20
0.0
  9
$LIMMAX
 10
36.0
 20
36.0
  9
$ORTHOMODE
 70
     1
  9
$REGENMODE
 70
     1
  9
$FILLMODE
 70
     1
  9
$QTEXTMODE
 70
     0
  9
$MIRRTEXT
 70
     1
  9
$LTSCALE
 40
1.0
  9
$ATTMODE
 70
     1
  9
$TEXTSIZE
 40
0.2
  9
$TRACEWID
 40
0.05
  9
$TEXTSTYLE
  7
STANDARD
  9
$CLAYER
  8
ADPDIM
  9
$CELTYPE
  6
ByLayer
  9
$CECOLOR
 62
   256
  9
$CELTSCALE
 40
1.0
  9
$DISPSILH
 70
     0
  9
$DIMSCALE
 40
1.0
  9
$DIMASZ
 40
0.125
  9
$DIMEXO
 40
0.0625
  9
$DIMDLI
 40
0.38
  9
$DIMRND
 40
0.0
  9
$DIMDLE
 40
0.0
  9
$DIMEXE
 40
0.18
  9
$DIMTP
 40
0.0
  9
$DIMTM
 40
0.0
  9
$DIMTXT
 40
0.125
  9
$DIMCEN
 40
0.1875
  9
$DIMTSZ
 40
0.125
  9
$DIMTOL
 70
     0
  9
$DIMLIM
 70
     0
  9
$DIMTIH
 70
     0
  9
$DIMTOH
 70
     0
  9
$DIMSE1
 70
     0
  9
$DIMSE2
 70
     0
  9
$DIMTAD
 70
     0
  9
$DIMZIN
 70
     3
  9
$DIMBLK
  1

  9
$DIMASO
 70
     1
  9
$DIMSHO
 70
     1
  9
$DIMPOST
  1

  9
$DIMAPOST
  1

  9
$DIMALT
 70
     0
  9
$DIMALTD
 70
     1
  9
$DIMALTF
 40
25.4
  9
$DIMLFAC
 40
1.0
  9
$DIMTOFL
 70
     0
  9
$DIMTVP
 40
0.0
  9
$DIMTIX
 70
     0
  9
$DIMSOXD
 70
     0
  9
$DIMSAH
 70
     0
  9
$DIMBLK1
  1

  9
$DIMBLK2
  1

  9
$DIMSTYLE
  2
Standard
  9
$DIMCLRD
 70
     0
  9
$DIMCLRE
 70
     0
  9
$DIMCLRT
 70
     0
  9
$DIMTFAC
 40
1.0
  9
$DIMGAP
 40
0.125
  9
$DIMJUST
 70
     0
  9
$DIMSD1
 70
     0
  9
$DIMSD2
 70
     0
  9
$DIMTOLJ
 70
     1
  9
$DIMTZIN
 70
     3
  9
$DIMALTZ
 70
     3
  9
$DIMALTTZ
 70
     3
  9
$DIMUPT
 70
     0
  9
$DIMDEC
 70
     4
  9
$DIMTDEC
 70
     4
  9
$DIMALTU
 70
     5
  9
$DIMALTTD
 70
     1
  9
$DIMTXSTY
  7
STANDARD
  9
$DIMAUNIT
 70
     0
  9
$DIMADEC
 70
     0
  9
$DIMALTRND
 40
0.0
  9
$DIMAZIN
 70
     0
  9
$DIMDSEP
 70
    46
  9
$DIMATFIT
 70
     3
  9
$DIMFRAC
 70
     0
  9
$DIMLDRBLK
  1

  9
$DIMLUNIT
 70
     5
  9
$DIMLWD
 70
    -2
  9
$DIMLWE
 70
    -2
  9
$DIMTMOVE
 70
     2
  9
$LUNITS
 70
     5
  9
$LUPREC
 70
     4
  9
$SKETCHINC
 40
0.1
  9
$FILLETRAD
 40
0.062
  9
$AUNITS
 70
     0
  9
$AUPREC
 70
     0
  9
$MENU
  1
acad
  9
$ELEVATION
 40
0.0
  9
$PELEVATION
 40
0.0
  9
$THICKNESS
 40
0.0
  9
$LIMCHECK
 70
     0
  9
$CHAMFERA
 40
0.0
  9
$CHAMFERB
 40
0.0
  9
$CHAMFERC
 40
0.0
  9
$CHAMFERD
 40
0.0
  9
$SKPOLY
 70
     0
  9
$TDCREATE
 40
2450366.629898530
  9
$TDUCREATE
 40
2450366.796565197
  9
$TDUPDATE
 40
2453980.428420023
  9
$TDUUPDATE
 40
2453980.595086690
  9
$TDINDWG
 40
0.0510370602
  9
$TDUSRTIMER
 40
0.0510370602
  9
$USRTIMER
 70
     1
  9
$ANGBASE
 50
0.0
  9
$ANGDIR
 70
     0
  9
$PDMODE
 70
     0
  9
$PDSIZE
 40
0.0
  9
$PLINEWID
 40
0.0
  9
$SPLFRAME
 70
     0
  9
$SPLINETYPE
 70
     6
  9
$SPLINESEGS
 70
     8
  9
$HANDSEED
  5
344
  9
$SURFTAB1
 70
     6
  9
$SURFTAB2
 70
     6
  9
$SURFTYPE
 70
     6
  9
$SURFU
 70
     6
  9
$SURFV
 70
     6
  9
$UCSBASE
  2

  9
$UCSNAME
  2

  9
$UCSORG
 10
0.0
 20
0.0
 30
0.0
  9
$UCSXDIR
 10
1.0
 20
0.0
 30
0.0
  9
$UCSYDIR
 10
0.0
 20
1.0
 30
0.0
  9
$UCSORTHOREF
  2

  9
$UCSORTHOVIEW
 70
     0
  9
$UCSORGTOP
 10
0.0
 20
0.0
 30
0.0
  9
$UCSORGBOTTOM
 10
0.0
 20
0.0
 30
0.0
  9
$UCSORGLEFT
 10
0.0
 20
0.0
 30
0.0
  9
$UCSORGRIGHT
 10
0.0
 20
0.0
 30
0.0
  9
$UCSORGFRONT
 10
0.0
 20
0.0
 30
0.0
  9
$UCSORGBACK
 10
0.0
 20
0.0
 30
0.0
  9
$PUCSBASE
  2

  9
$PUCSNAME
  2

  9
$PUCSORG
 10
0.0
 20
0.0
 30
0.0
  9
$PUCSXDIR
 10
1.0
 20
0.0
 30
0.0
  9
$PUCSYDIR
 10
0.0
 20
1.0
 30
0.0
  9
$PUCSORTHOREF
  2

  9
$PUCSORTHOVIEW
 70
     0
  9
$PUCSORGTOP
 10
0.0
 20
0.0
 30
0.0
  9
$PUCSORGBOTTOM
 10
0.0
 20
0.0
 30
0.0
  9
$PUCSORGLEFT
 10
0.0
 20
0.0
 30
0.0
  9
$PUCSORGRIGHT
 10
0.0
 20
0.0
 30
0.0
  9
$PUCSORGFRONT
 10
0.0
 20
0.0
 30
0.0
  9
$PUCSORGBACK
 10
0.0
 20
0.0
 30
0.0
  9
$USERI1
 70
     0
  9
$USERI2
 70
     0
  9
$USERI3
 70
     0
  9
$USERI4
 70
     0
  9
$USERI5
 70
     0
  9
$USERR1
 40
0.0
  9
$USERR2
 40
0.0
  9
$USERR3
 40
0.0
  9
$USERR4
 40
0.0
  9
$USERR5
 40
0.0
  9
$WORLDVIEW
 70
     1
  9
$SHADEDGE
 70
     3
  9
$SHADEDIF
 70
    70
  9
$TILEMODE
 70
     1
  9
$MAXACTVP
 70
    15
  9
$PINSBASE
 10
0.1250013113021854
 20
0.0
 30
0.0
  9
$PLIMCHECK
 70
     0
  9
$PEXTMIN
 10
1.000000000000000E+20
 20
1.000000000000000E+20
 30
1.000000000000000E+20
  9
$PEXTMAX
 10
-1.000000000000000E+20
 20
-1.000000000000000E+20
 30
-1.000000000000000E+20
  9
$PLIMMIN
 10
0.0
 20
0.0
  9
$PLIMMAX
 10
12.0
 20
9.0
  9
$UNITMODE
 70
     0
  9
$VISRETAIN
 70
     0
  9
$PLINEGEN
 70
     0
  9
$PSLTSCALE
 70
     1
  9
$TREEDEPTH
 70
  3020
  9
$CMLSTYLE
  2
Standard
  9
$CMLJUST
 70
     0
  9
$CMLSCALE
 40
1.0
  9
$PROXYGRAPHICS
 70
     1
  9
$MEASUREMENT
 70
     0
  9
$CELWEIGHT
370
    -1
  9
$ENDCAPS
280
     0
  9
$JOINSTYLE
280
     0
  9
$LWDISPLAY
290
     0
  9
$INSUNITS
 70
     0
  9
$HYPERLINKBASE
  1

  9
$STYLESHEET
  1

  9
$XEDIT
290
     1
  9
$CEPSNTYPE
380
     0
  9
$PSTYLEMODE
290
     1
  9
$FINGERPRINTGUID
  2
{98E22F9A-6FC3-497B-BB25-D32D380D0D7B}
  9
$VERSIONGUID
  2
{6DBFAFB0-80A2-4461-8BAA-C5D51EFC7359}
  9
$EXTNAMES
290
     1
  9
$PSVPSCALE
 40
0.0
  9
$OLESTARTUP
290
     0
  0
ENDSEC
  0
SECTION
  2
CLASSES
  0
CLASS
  1
ACDBDICTIONARYWDFLT
  2
AcDbDictionaryWithDefault
  3
ObjectDBX Classes
 90
        0
280
     0
281
     0
  0
CLASS
  1
ACDBPLACEHOLDER
  2
AcDbPlaceHolder
  3
ObjectDBX Classes
 90
        0
280
     0
281
     0
  0
CLASS
  1
LAYOUT
  2
AcDbLayout
  3
ObjectDBX Classes
 90
        0
280
     0
281
     0
  0
CLASS
  1
DICTIONARYVAR
  2
AcDbDictionaryVar
  3
ObjectDBX Classes
 90
        0
280
     0
281
     0
  0
CLASS
  1
MATERIAL
  2
AcDbMaterial
  3
ObjectDBX Classes
 90
     1024
280
     0
281
     0
  0
CLASS
  1
VISUALSTYLE
  2
AcDbVisualStyle
  3
ObjectDBX Classes
 90
     4095
280
     0
281
     0
  0
CLASS
  1
TABLESTYLE
  2
AcDbTableStyle
  3
ObjectDBX Classes
 90
     4095
280
     0
281
     0
  0
ENDSEC
  0
SECTION
  2
TABLES
  0
TABLE
  2
VPORT
  5
8
330
0
100
AcDbSymbolTable
 70
     1
  0
VPORT
  5
1F0
330
8
100
AcDbSymbolTableRecord
100
AcDbViewportTableRecord
  2
*Active
 70
     0
 10
0.0
 20
0.0
 11
1.0
 21
1.0
 12
12.49035652271746
 22
1.822561536344111
 13
0.0
 23
0.0
 14
0.5740882589684922
 24
0.5740882589684922
 15
0.5
 25
0.5
 16
0.0
 26
0.0
 36
1.0
 17
0.0
 27
0.0
 37
0.0
 40
7.812043262155827
 41
1.726930320150659
 42
50.0
 43
0.0
 44
0.0
 50
0.0
 51
0.0
 71
     0
 72
   100
 73
     1
 74
     0
 75
     0
 76
     0
 77
     0
 78
     0
281
     0
 65
     1
110
0.0
120
0.0
130
0.0
111
1.0
121
0.0
131
0.0
112
0.0
122
1.0
132
0.0
 79
     0
146
0.0
  0
ENDTAB
  0
TABLE
  2
LTYPE
  5
5
330
0
100
AcDbSymbolTable
 70
     3
  0
LTYPE
  5
13
330
5
100
AcDbSymbolTableRecord
100
AcDbLinetypeTableRecord
  2
ByBlock
 70
     0
  3

 72
    65
 73
     0
 40
0.0
  0
LTYPE
  5
14
330
5
100
AcDbSymbolTableRecord
100
AcDbLinetypeTableRecord
  2
ByLayer
 70
     0
  3

 72
    65
 73
     0
 40
0.0
  0
LTYPE
  5
15
330
5
100
AcDbSymbolTableRecord
100
AcDbLinetypeTableRecord
  2
CONTINUOUS
 70
     0
  3
Solid line
 72
    65
 73
     0
 40
0.0
  0
LTYPE
  5
3F
330
5
100
AcDbSymbolTableRecord
100
AcDbLinetypeTableRecord
  2
HIDDEN2
 70
     0
  3
_ _ _ _ _ _ _ _ _ _ _ _ _ _ _ _ _ _ _ _ _ _ _ _
 72
    65
 73
     2
 40
0.1875
 49
0.125
 74
     0
 49
-0.0625
 74
     0
  0
LTYPE
  5
2B9
330
5
100
AcDbSymbolTableRecord
100
AcDbLinetypeTableRecord
  2
AI9-LType1
 70
     0
  3
Illustrator Dash Style No.1
 72
    65
 73
     2
 40
4.762499999999999
 49
3.174999999999999
 74
     0
 49
-1.587499999999999
 74
     0
  0
ENDTAB
  0
TABLE
  2
LAYER
  5
2
330
0
100
AcDbSymbolTable
 70
     5
  0
LAYER
  5
10
330
2
100
AcDbSymbolTableRecord
100
AcDbLayerTableRecord
  2
0
 70
     0
 62
     7
  6
CONTINUOUS
370
    -3
390
F
  0
LAYER
  5
40
330
2
100
AcDbSymbolTableRecord
100
AcDbLayerTableRecord
  2
ADP2DETAIL
 70
     0
 62
     5
  6
CONTINUOUS
370
    -3
390
F
  0
LAYER
  5
41
330
2
100
AcDbSymbolTableRecord
100
AcDbLayerTableRecord
  2
ADPDIM
 70
     0
 62
     3
  6
CONTINUOUS
370
    -3
390
F
  0
LAYER
  5
43
330
2
100
AcDbSymbolTableRecord
100
AcDbLayerTableRecord
  2
ADP1DETAIL
 70
     0
 62
     7
  6
CONTINUOUS
370
    -3
390
F
  0
LAYER
  5
45
330
2
100
AcDbSymbolTableRecord
100
AcDbLayerTableRecord
  2
DEFPOINTS
 70
     0
 62
     7
  6
CONTINUOUS
290
     0
370
    -3
390
F
  0
ENDTAB
  0
TABLE
  2
STYLE
  5
3
330
0
100
AcDbSymbolTable
 70
     2
  0
STYLE
  5
11
330
3
100
AcDbSymbolTableRecord
100
AcDbTextStyleTableRecord
  2
STANDARD
 70
     0
 40
0.0
 41
1.0
 50
0.0
 71
     0
 42
0.2
  3
txt
  4

  0
STYLE
  5
97
330
3
100
AcDbSymbolTableRecord
100
AcDbTextStyleTableRecord
  2
ARIAL_WIDE
 70
     0
 40
0.0
 41
1.25
 50
0.0
 71
     0
 42
0.2
  3
ARIAL.TTF
  4

1001
ACAD
1000
Arial
1071
       34
  0
ENDTAB
  0
TABLE
  2
VIEW
  5
6
330
0
100
AcDbSymbolTable
 70
     0
  0
ENDTAB
  0
TABLE
  2
UCS
  5
7
330
0
100
AcDbSymbolTable
 70
     0
  0
ENDTAB
  0
TABLE
  2
APPID
  5
9
330
0
100
AcDbSymbolTable
 70
     1
  0
APPID
  5
12
330
9
100
AcDbSymbolTableRecord
100
AcDbRegAppTableRecord
  2
ACAD
 70
     0
  0
ENDTAB
  0
TABLE
  2
DIMSTYLE
  5
A
330
0
100
AcDbSymbolTable
 70
     1
100
AcDbDimStyleTable
 71
     1
340
95
  0
DIMSTYLE
105
95
102
{ACAD_REACTORS
330
242
102
}
330
A
100
AcDbSymbolTableRecord
100
AcDbDimStyleTableRecord
  2
Standard
 70
     0
340
11
  0
ENDTAB
  0
TABLE
  2
BLOCK_RECORD
  5
1
330
0
100
AcDbSymbolTable
 70
     4
  0
BLOCK_RECORD
  5
1E
102
{ACAD_XDICTIONARY
360
D4
102
}
330
1
100
AcDbSymbolTableRecord
100
AcDbBlockTableRecord
  2
*Model_Space
340
21
  0
BLOCK_RECORD
  5
1A
102
{ACAD_XDICTIONARY
360
D6
102
}
330
1
100
AcDbSymbolTableRecord
100
AcDbBlockTableRecord
  2
*Paper_Space
340
1D
  0
BLOCK_RECORD
  5
3C
330
1
100
AcDbSymbolTableRecord
100
AcDbBlockTableRecord
  2
*D0
340
0
  0
BLOCK_RECORD
  5
3D
330
1
100
AcDbSymbolTableRecord
100
AcDbBlockTableRecord
  2
*D1
340
0
  0
BLOCK_RECORD
  5
243
330
1
100
AcDbSymbolTableRecord
100
AcDbBlockTableRecord
  2
*D2
340
0
  0
ENDTAB
  0
ENDSEC
  0
SECTION
  2
BLOCKS
  0
BLOCK
  5
48
330
1E
100
AcDbEntity
  8
0
100
AcDbBlockBegin
  2
*Model_Space
 70
     0
 10
0.0
 20
0.0
 30
0.0
  3
*Model_Space
  1

  0
ENDBLK
  5
49
330
1E
100
AcDbEntity
  8
0
100
AcDbBlockEnd
  0
BLOCK
  5
46
330
1A
100
AcDbEntity
 67
     1
  8
0
100
AcDbBlockBegin
  2
*Paper_Space
 70
     0
 10
0.0
 20
0.0
 30
0.0
  3
*Paper_Space
  1

  0
ENDBLK
  5
47
330
1A
100
AcDbEntity
 67
     1
  8
0
100
AcDbBlockEnd
  0
BLOCK
  5
4B
330
3C
100
AcDbEntity
  8
0
100
AcDbBlockBegin
  2
*D0
 70
     1
 10
0.0
 20
0.0
 30
0.0
  3
*D0
  1
*U
  0
LINE
  5
4C
330
3C
100
AcDbEntity
  8
0
  6
ByBlock
 62
     0
100
AcDbLine
 10
11.77439347429796
 20
0.0253958378030461
 30
0.0
 11
11.77439347429796
 21
-0.3392055089116534
 31
0.0
  0
LINE
  5
4D
330
3C
100
AcDbEntity
  8
0
  6
ByBlock
 62
     0
100
AcDbLine
 10
13.45447822006067
 20
1.622853464921692
 30
0.0
 11
13.45447822006067
 21
-0.3392055089116532
 31
0.0
  0
LINE
  5
4E
330
3C
100
AcDbEntity
  8
0
  6
ByBlock
 62
     0
100
AcDbLine
 10
11.77439347429796
 20
-0.1592055089116534
 30
0.0
 11
12.15610251384598
 21
-0.1592055089116534
 31
0.0
  0
LINE
  5
4F
330
3C
100
AcDbEntity
  8
0
  6
ByBlock
 62
     0
100
AcDbLine
 10
13.45447822006067
 20
-0.1592055089116534
 30
0.0
 11
13.07276918051265
 21
-0.1592055089116534
 31
0.0
  0
LINE
  5
50
330
3C
100
AcDbEntity
  8
0
  6
ByBlock
 62
     0
100
AcDbLine
 10
11.64939347429796
 20
-0.2842055089116534
 30
0.0
 11
11.89939347429796
 21
-0.0342055089116534
 31
0.0
  0
LINE
  5
51
330
3C
100
AcDbEntity
  8
0
  6
ByBlock
 62
     0
100
AcDbLine
 10
13.32947822006067
 20
-0.2842055089116534
 30
0.0
 11
13.57947822006068
 21
-0.0342055089116534
 31
0.0
  0
TEXT
  5
52
330
3C
100
AcDbEntity
  8
0
  6
ByBlock
 62
     0
100
AcDbText
 10
12.28110251384598
 20
-0.2217055089116534
 30
0.0
 40
0.125
  1
1 11/16
 72
     1
 11
12.61443584717932
 21
-0.1592055089116534
 31
0.0
100
AcDbText
 73
     2
  0
POINT
  5
54
330
3C
100
AcDbEntity
  8
DEFPOINTS
  6
ByBlock
 62
     0
100
AcDbPoint
 10
11.77439347429796
 20
0.0878958378030461
 30
0.0
  0
POINT
  5
55
330
3C
100
AcDbEntity
  8
DEFPOINTS
  6
ByBlock
 62
     0
100
AcDbPoint
 10
13.45447822006067
 20
1.685353464921692
 30
0.0
  0
POINT
  5
56
330
3C
100
AcDbEntity
  8
DEFPOINTS
  6
ByBlock
 62
     0
100
AcDbPoint
 10
13.45447822006067
 20
-0.1592055089116534
 30
0.0
  0
ENDBLK
  5
57
330
3C
100
AcDbEntity
  8
0
100
AcDbBlockEnd
  0
BLOCK
  5
58
330
3D
100
AcDbEntity
  8
0
100
AcDbBlockBegin
  2
*D1
 70
     1
 10
0.0
 20
0.0
 30
0.0
  3
*D1
  1
*U
  0
LINE
  5
59
330
3D
100
AcDbEntity
  8
0
  6
ByBlock
 62
     0
100
AcDbLine
 10
11.80829177938271
 20
0.0465822784810106
 30
0.0
 11
11.24680646117179
 21
0.0465822784810106
 31
0.0
  0
LINE
  5
5A
330
3D
100
AcDbEntity
  8
0
  6
ByBlock
 62
     0
100
AcDbLine
 10
11.82206296582339
 20
3.29658227848101
 30
0.0
 11
11.24680646117179
 21
3.29658227848101
 31
0.0
  0
LINE
  5
5B
330
3D
100
AcDbEntity
  8
0
  6
ByBlock
 62
     0
100
AcDbLine
 10
11.42680646117179
 20
0.0465822784810106
 30
0.0
 11
11.42680646117179
 21
1.275748945147677
 31
0.0
  0
LINE
  5
5C
330
3D
100
AcDbEntity
  8
0
  6
ByBlock
 62
     0
100
AcDbLine
 10
11.42680646117179
 20
3.29658227848101
 30
0.0
 11
11.42680646117179
 21
2.067415611814344
 31
0.0
  0
LINE
  5
5D
330
3D
100
AcDbEntity
  8
0
  6
ByBlock
 62
     0
100
AcDbLine
 10
11.55180646117179
 20
-0.0784177215189894
 30
0.0
 11
11.30180646117179
 21
0.1715822784810106
 31
0.0
  0
LINE
  5
5E
330
3D
100
AcDbEntity
  8
0
  6
ByBlock
 62
     0
100
AcDbLine
 10
11.55180646117179
 20
3.17158227848101
 30
0.0
 11
11.30180646117179
 21
3.42158227848101
 31
0.0
  0
TEXT
  5
5F
330
3D
100
AcDbEntity
  8
0
  6
ByBlock
 62
     0
100
AcDbText
 10
11.48930646117179
 20
1.400748945147677
 30
0.0
 40
0.125
  1
3 1/4
 50
90.0
 72
     1
 11
11.42680646117179
 21
1.67158227848101
 31
0.0
100
AcDbText
 73
     2
  0
POINT
  5
60
330
3D
100
AcDbEntity
  8
DEFPOINTS
  6
ByBlock
 62
     0
100
AcDbPoint
 10
11.87079177938271
 20
0.0465822784810106
 30
0.0
  0
POINT
  5
61
330
3D
100
AcDbEntity
  8
DEFPOINTS
  6
ByBlock
 62
     0
100
AcDbPoint
 10
11.88456296582338
 20
3.29658227848101
 30
0.0
  0
POINT
  5
62
330
3D
100
AcDbEntity
  8
DEFPOINTS
  6
ByBlock
 62
     0
100
AcDbPoint
 10
11.42680646117179
 20
3.29658227848101
 30
0.0
  0
ENDBLK
  5
63
330
3D
100
AcDbEntity
  8
0
100
AcDbBlockEnd
  0
BLOCK
  5
24E
330
243
100
AcDbEntity
  8
0
 62
     3
100
AcDbBlockBegin
  2
*D2
 70
     1
 10
0.0
 20
0.0
 30
0.0
  3
*D2
  1

  0
LINE
  5
250
330
243
100
AcDbEntity
  8
ADPDIM
 62
     0
370
    -2
100
AcDbLine
 10
11.77025643226429
 20
0.0056787680891262
 30
0.0
 11
11.77025643226429
 21
-0.435200442619575
 31
0.0
  0
LINE
  5
251
330
243
100
AcDbEntity
  8
ADPDIM
 62
     0
370
    -2
100
AcDbLine
 10
13.39525643226429
 20
1.255098431283208
 30
0.0
 11
13.39525643226429
 21
-0.435200442619575
 31
0.0
  0
LINE
  5
252
330
243
100
AcDbEntity
  8
ADPDIM
 62
     0
370
    -2
100
AcDbLine
 10
11.77025643226429
 20
-0.2552004426195751
 30
0.0
 11
12.37442309893096
 21
-0.2552004426195751
 31
0.0
  0
LINE
  5
253
330
243
100
AcDbEntity
  8
ADPDIM
 62
     0
370
    -2
100
AcDbLine
 10
13.39525643226429
 20
-0.2552004426195751
 30
0.0
 11
12.79108976559763
 21
-0.2552004426195751
 31
0.0
  0
LINE
  5
254
330
243
100
AcDbEntity
  8
ADPDIM
 62
     0
370
    -2
100
AcDbLine
 10
13.2702564322643
 20
-0.3802004426195751
 30
0.0
 11
13.52025643226429
 21
-0.1302004426195751
 31
0.0
  0
LINE
  5
255
330
243
100
AcDbEntity
  8
ADPDIM
 62
     0
370
    -2
100
AcDbLine
 10
11.64525643226429
 20
-0.3802004426195751
 30
0.0
 11
11.8952564322643
 21
-0.1302004426195751
 31
0.0
  0
MTEXT
  5
256
330
243
100
AcDbEntity
  8
ADPDIM
 62
     0
100
AcDbMText
 10
12.58275643226429
 20
-0.2552004426195751
 30
0.0
 40
0.125
 41
0.0
 71
     5
 72
     1
  1
\A1;1{\H1.000000x;\S5/8;}
 73
     1
 44
1.0
1001
ACAD
1000
MTEXTBEGIN
1070
    73
1070
     1
1070
    44
1040
1.0
1070
    74
1070
     0
1000
MTEXTEND
  0
POINT
  5
257
330
243
100
AcDbEntity
  8
DEFPOINTS
 62
     0
100
AcDbPoint
 10
11.77025643226429
 20
0.0681787680891262
 30
0.0
  0
POINT
  5
258
330
243
100
AcDbEntity
  8
DEFPOINTS
 62
     0
100
AcDbPoint
 10
13.39525643226429
 20
1.317598431283208
 30
0.0
  0
POINT
  5
259
330
243
100
AcDbEntity
  8
DEFPOINTS
 62
     0
100
AcDbPoint
 10
13.39525643226429
 20
-0.2552004426195751
 30
0.0
  0
ENDBLK
  5
24F
330
243
100
AcDbEntity
  8
0
 62
     3
100
AcDbBlockEnd
  0
ENDSEC
  0
SECTION
  2
ENTITIES
  0
DIMENSION
  5
70
330
1E
100
AcDbEntity
  8
ADPDIM
100
AcDbDimension
  2
*D1
 10
11.42680646117179
 20
3.29658227848101
 30
0.0
 11
11.42680646117179
 21
1.67158227848101
 31
0.0
 71
     5
 42
-1.0
100
AcDbAlignedDimension
 13
11.87079177938271
 23
0.0465822784810106
 33
0.0
 14
11.88456296582338
 24
3.29658227848101
 34
0.0
 50
90.0
100
AcDbRotatedDimension
  0
TEXT
  5
98
330
1E
100
AcDbEntity
  8
ADPDIM
100
AcDbText
 10
5.788854025674751
 20
-0.7796652351211484
 30
0.0
 40
0.125
  1
J U L I U S  B L U M  &  C O . ,  I N C .      ( 8 0 0 )  5 2 6 - 6 2 9 3        W W W . J U L I U S B L U M . C O M        P A R T  N o .  6 9 0 7 - N
 41
1.25
  7
ARIAL_WIDE
 72
     1
 11
12.49039094586575
 21
-0.6546652351211484
 31
0.0
100
AcDbText
 73
     3
  0
DIMENSION
  5
242
330
1E
100
AcDbEntity
  8
ADPDIM
 62
     3
100
AcDbDimension
  2
*D2
 10
13.39525643226429
 20
-0.2552004426195751
 30
0.0
 11
12.58275643226429
 21
-0.2552004426195751
 31
0.0
 70
    32
 71
     5
 42
1.625
  3
Standard
100
AcDbAlignedDimension
 13
11.77025643226429
 23
0.0681787680891262
 33
0.0
 14
13.39525643226429
 24
1.317598431283208
 34
0.0
100
AcDbRotatedDimension
1001
ACAD
1000
DSTYLE
1002
{
1070
    41
1040
0.125
1070
    73
1070
     0
1070
    74
1070
     0
1070
    78
1070
     3
1070
   140
1040
0.125
1070
   141
1040
0.1875
1070
   142
1040
0.125
1070
   147
1040
0.125
1070
   171
1070
     1
1070
   273
1070
     5
1070
   274
1070
     1
1070
   277
1070
     5
1070
   279
1070
     2
1070
   284
1070
     3
1070
   285
1070
     3
1070
   286
1070
     3
1002
}
  0
LINE
  5
2EB
330
1E
100
AcDbEntity
  8
ADP2DETAIL
  6
AI9-LType1
 62
     5
100
AcDbLine
 10
13.10854373990723
 20
1.268624891430969
 30
0.0
 11
13.10854373990723
 21
2.059995710246198
 31
0.0
  0
LINE
  5
2EC
330
1E
100
AcDbEntity
  8
ADP2DETAIL
  6
AI9-LType1
 62
     5
100
AcDbLine
 10
13.10854373990723
 20
2.059995710246198
 30
0.0
 11
11.77187167491894
 21
2.059995710246198
 31
0.0
  0
LINE
  5
2ED
330
1E
100
AcDbEntity
  8
ADP2DETAIL
  6
AI9-LType1
 62
     5
100
AcDbLine
 10
11.77187167491894
 20
1.268624891430969
 30
0.0
 11
13.10854373990723
 21
1.268624891430969
 31
0.0
  0
LINE
  5
2EE
330
1E
100
AcDbEntity
  8
ADP1DETAIL
 62
     7
100
AcDbLine
 10
13.04033069033418
 20
4.46137457283522
 30
0.0
 11
13.27227656023774
 21
4.297655190851722
 31
0.0
  0
LINE
  5
2EF
330
1E
100
AcDbEntity
  8
ADP1DETAIL
 62
     7
100
AcDbLine
 10
13.14947694498986
 20
4.46137457283522
 30
0.0
 11
13.13583702274467
 21
4.46137457283522
 31
0.0
  0
LINE
  5
2F0
330
1E
100
AcDbEntity
  8
ADP1DETAIL
 62
     7
100
AcDbLine
 10
13.38143625324043
 20
4.297655190851722
 30
0.0
 11
13.14947694498986
 21
4.46137457283522
 31
0.0
  0
LINE
  5
2F1
330
1E
100
AcDbEntity
  8
ADP1DETAIL
 62
     7
100
AcDbLine
 10
13.14947694498986
 20
3.738230241940067
 30
0.0
 11
13.29956984307518
 21
3.861029857187959
 31
0.0
  0
LINE
  5
2F2
330
1E
100
AcDbEntity
  8
ADP1DETAIL
 62
     7
100
AcDbLine
 10
13.34050304815781
 20
2.810419885631744
 30
0.0
 11
13.31320976532037
 21
3.042379193882349
 31
0.0
  0
LINE
  5
2F3
330
1E
100
AcDbEntity
  8
ADP1DETAIL
 62
     7
100
AcDbLine
 10
13.14947694498986
 20
3.001445988799711
 30
0.0
 11
13.19041015007249
 21
2.592113937973385
 31
0.0
  0
LINE
  5
2F4
330
1E
100
AcDbEntity
  8
ADP1DETAIL
 62
     7
100
AcDbLine
 10
13.27227656023774
 20
3.137885526292806
 30
0.0
 11
13.02667732974194
 21
3.178818731375444
 31
0.0
  0
LINE
  5
2F5
330
1E
100
AcDbEntity
  8
ADP1DETAIL
 62
     7
100
AcDbLine
 10
13.14947694498986
 20
3.001445988799711
 30
0.0
 11
13.27227656023774
 21
3.137885526292806
 31
0.0
  0
LINE
  5
2F6
330
1E
100
AcDbEntity
  8
ADP1DETAIL
 62
     7
100
AcDbLine
 10
13.31320976532037
 20
3.042379193882349
 30
0.0
 11
13.27227656023774
 21
3.137885526292806
 31
0.0
  0
LINE
  5
2F7
330
1E
100
AcDbEntity
  8
ADP1DETAIL
 62
     7
100
AcDbLine
 10
12.53594921089674
 20
3.083312398964976
 30
0.0
 11
12.93117099733149
 21
3.028739271637148
 31
0.0
  0
LINE
  5
2F8
330
1E
100
AcDbEntity
  8
ADP1DETAIL
 62
     7
100
AcDbLine
 10
13.02667732974194
 20
3.178818731375444
 30
0.0
 11
12.57688241597937
 21
3.219751936458071
 31
0.0
  0
LINE
  5
2F9
330
1E
100
AcDbEntity
  8
ADP1DETAIL
 62
     7
100
AcDbLine
 10
12.93117099733149
 20
3.028739271637148
 30
0.0
 11
13.14947694498986
 21
3.001445988799711
 31
0.0
  0
LINE
  5
2FA
330
1E
100
AcDbEntity
  8
ADP1DETAIL
 62
     7
100
AcDbLine
 10
13.38143625324043
 20
1.677956942257307
 30
0.0
 11
13.36778289264823
 21
2.373807990315025
 31
0.0
  0
LINE
  5
2FB
330
1E
100
AcDbEntity
  8
ADP1DETAIL
 62
     7
100
AcDbLine
 10
13.19041015007249
 20
2.592113937973385
 30
0.0
 11
13.21770343290992
 21
1.691596864502498
 31
0.0
  0
LINE
  5
2FC
330
1E
100
AcDbEntity
  8
ADP1DETAIL
 62
     7
100
AcDbLine
 10
13.36778289264823
 20
2.373807990315025
 30
0.0
 11
13.34050304815781
 21
2.810419885631744
 31
0.0
  0
LINE
  5
2FD
330
1E
100
AcDbEntity
  8
ADP1DETAIL
 62
     7
100
AcDbLine
 10
13.27227656023774
 20
4.297655190851722
 30
0.0
 11
13.14947694498986
 21
3.738230241940067
 31
0.0
  0
LINE
  5
2FE
330
1E
100
AcDbEntity
  8
ADP1DETAIL
 62
     7
100
AcDbLine
 10
13.29956984307518
 20
3.861029857187959
 30
0.0
 11
13.38143625324043
 21
4.297655190851722
 31
0.0
  0
LINE
  5
2FF
330
1E
100
AcDbEntity
  8
ADP1DETAIL
 62
     7
100
AcDbLine
 10
13.34050304815781
 20
0.5181872776983906
 30
0.0
 11
13.36778289264823
 21
0.9684525336073443
 31
0.0
  0
LINE
  5
300
330
1E
100
AcDbEntity
  8
ADP1DETAIL
 62
     7
100
AcDbLine
 10
13.14947694498986
 20
0.3408145351226578
 30
0.0
 11
13.27227656023774
 21
0.1907350753843614
 31
0.0
  0
LINE
  5
301
330
1E
100
AcDbEntity
  8
ADP1DETAIL
 62
     7
100
AcDbLine
 10
13.27227656023774
 20
0.1907350753843614
 30
0.0
 11
13.29956984307518
 21
0.2726014855496268
 31
0.0
  0
LINE
  5
302
330
1E
100
AcDbEntity
  8
ADP1DETAIL
 62
     7
100
AcDbLine
 10
13.19041015007249
 20
0.7637865081941867
 30
0.0
 11
13.14947694498986
 21
0.3408145351226578
 31
0.0
  0
LINE
  5
303
330
1E
100
AcDbEntity
  8
ADP1DETAIL
 62
     7
100
AcDbLine
 10
13.29956984307518
 20
0.2726014855496268
 30
0.0
 11
13.34050304815781
 21
0.5181872776983906
 31
0.0
  0
LINE
  5
304
330
1E
100
AcDbEntity
  8
ADP1DETAIL
 62
     7
100
AcDbLine
 10
12.93117099733149
 20
0.2998813300400195
 30
0.0
 11
12.53594921089674
 21
0.2589481249573924
 31
0.0
  0
LINE
  5
305
330
1E
100
AcDbEntity
  8
ADP1DETAIL
 62
     7
100
AcDbLine
 10
12.59053577657162
 20
0.1088686652190961
 30
0.0
 11
13.27227656023774
 21
0.1907350753843614
 31
0.0
  0
LINE
  5
306
330
1E
100
AcDbEntity
  8
ADP1DETAIL
 62
     7
100
AcDbLine
 10
13.14947694498986
 20
0.3408145351226578
 30
0.0
 11
12.93117099733149
 21
0.2998813300400195
 31
0.0
  0
LINE
  5
307
330
1E
100
AcDbEntity
  8
ADP1DETAIL
 62
     7
100
AcDbLine
 10
13.36778289264823
 20
0.9684525336073443
 30
0.0
 11
13.38143625324043
 21
1.677956942257307
 31
0.0
  0
LINE
  5
308
330
1E
100
AcDbEntity
  8
ADP1DETAIL
 62
     7
100
AcDbLine
 10
13.21770343290992
 20
1.691596864502498
 30
0.0
 11
13.19041015007249
 21
0.7637865081941867
 31
0.0
  0
LINE
  5
309
330
1E
100
AcDbEntity
  8
ADP1DETAIL
 62
     7
100
AcDbLine
 10
11.88103136792167
 20
4.46137457283522
 30
0.0
 11
11.77187167491894
 21
4.406801445507392
 31
0.0
  0
LINE
  5
30A
330
1E
100
AcDbEntity
  8
ADP1DETAIL
 62
     7
100
AcDbLine
 10
11.86739144567648
 20
3.2743250637859
 30
0.0
 11
11.77187167491894
 21
3.233391858703273
 31
0.0
  0
LINE
  5
30B
330
1E
100
AcDbEntity
  8
ADP1DETAIL
 62
     7
100
AcDbLine
 10
11.77187167491894
 20
3.751883602532301
 30
0.0
 11
11.89467129016686
 21
3.697297036857428
 31
0.0
  0
LINE
  5
30C
330
1E
100
AcDbEntity
  8
ADP1DETAIL
 62
     7
100
AcDbLine
 10
11.88103136792167
 20
3.697297036857428
 30
0.0
 11
11.88103136792167
 21
4.46137457283522
 31
0.0
  0
LINE
  5
30D
330
1E
100
AcDbEntity
  8
ADP1DETAIL
 62
     7
100
AcDbLine
 10
11.77187167491894
 20
4.406801445507392
 30
0.0
 11
11.77187167491894
 21
3.751883602532301
 31
0.0
  0
LINE
  5
30E
330
1E
100
AcDbEntity
  8
ADP1DETAIL
 62
     7
100
AcDbLine
 10
11.77187167491894
 20
0.0952153046268617
 30
0.0
 11
11.86739144567648
 21
0.0542820995442235
 31
0.0
  0
LINE
  5
30F
330
1E
100
AcDbEntity
  8
ADP1DETAIL
 62
     7
100
AcDbLine
 10
11.77187167491894
 20
3.233391858703273
 30
0.0
 11
11.77187167491894
 21
0.0952153046268617
 31
0.0
  0
LINE
  5
310
330
1E
100
AcDbEntity
  8
ADP1DETAIL
 62
     7
100
AcDbLine
 10
11.88103136792167
 20
0.0542820995442235
 30
0.0
 11
11.88103136792167
 21
3.27212117487141
 31
0.0
  0
LINE
  5
311
330
1E
100
AcDbEntity
  8
ADP1DETAIL
 62
     7
100
AcDbLine
 10
11.86739144567648
 20
0.0542820995442235
 30
0.0
 11
12.59053577657162
 21
0.1088686652190961
 31
0.0
  0
LINE
  5
312
330
1E
100
AcDbEntity
  8
ADP1DETAIL
 62
     7
100
AcDbLine
 10
12.57688241597937
 20
3.219751936458071
 30
0.0
 11
11.86739144567648
 21
3.2743250637859
 31
0.0
  0
LINE
  5
313
330
1E
100
AcDbEntity
  8
ADP1DETAIL
 62
     7
100
AcDbLine
 10
11.88103136792167
 20
3.137885526292806
 30
0.0
 11
12.53594921089674
 21
3.083312398964976
 31
0.0
  0
LINE
  5
314
330
1E
100
AcDbEntity
  8
ADP1DETAIL
 62
     7
100
AcDbLine
 10
12.53594921089674
 20
0.2589481249573924
 30
0.0
 11
11.88103136792167
 21
0.2043749976295634
 31
0.0
  0
LINE
  5
315
330
1E
100
AcDbEntity
  8
ADP1DETAIL
 62
     7
100
AcDbLine
 10
11.89467129016686
 20
3.697297036857428
 30
0.0
 11
13.14947694498986
 21
3.738230241940067
 31
0.0
  0
LINE
  5
316
330
1E
100
AcDbEntity
  8
ADP1DETAIL
 62
     7
100
AcDbLine
 10
13.13583702274467
 20
4.46137457283522
 30
0.0
 11
11.88103136792167
 21
4.46137457283522
 31
0.0
  0
LINE
  5
317
330
1E
100
AcDbEntity
  8
ADP1DETAIL
 62
     7
100
AcDbLine
 10
13.38143625324043
 20
4.297655190851722
 30
0.0
 11
11.77187167491894
 21
4.297655190851722
 31
0.0
  0
ENDSEC
  0
SECTION
  2
OBJECTS
  0
DICTIONARY
  5
C
330
0
100
AcDbDictionary
281
     1
  3
ACAD_COLOR
350
23C
  3
ACAD_GROUP
350
D
  3
ACAD_LAYOUT
350
19
  3
ACAD_MATERIAL
350
227
  3
ACAD_MLINESTYLE
350
16
  3
ACAD_PLOTSETTINGS
350
18
  3
ACAD_PLOTSTYLENAME
350
E
  3
ACAD_TABLESTYLE
350
23D
  3
ACAD_VISUALSTYLE
350
22B
  3
AcDbVariableDictionary
350
109
  3
DWGPROPS
350
337
  0
DICTIONARY
  5
D4
330
1E
100
AcDbDictionary
280
     1
281
     1
  3
ACAD_LAYOUTSELFREF
360
223
  0
DICTIONARY
  5
D6
330
1A
100
AcDbDictionary
280
     1
281
     1
  3
ACAD_LAYOUTSELFREF
360
222
  0
DICTIONARY
  5
23C
102
{ACAD_REACTORS
330
C
102
}
330
C
100
AcDbDictionary
281
     1
  0
DICTIONARY
  5
D
102
{ACAD_REACTORS
330
C
102
}
330
C
100
AcDbDictionary
281
     1
  0
DICTIONARY
  5
19
102
{ACAD_REACTORS
330
C
102
}
330
C
100
AcDbDictionary
281
     1
  3
Layout1
350
1D
  3
Model
350
21
  0
DICTIONARY
  5
227
102
{ACAD_REACTORS
330
C
102
}
330
C
100
AcDbDictionary
281
     1
  3
ByBlock
350
229
  3
ByLayer
350
228
  3
Global
350
22A
  0
DICTIONARY
  5
16
102
{ACAD_REACTORS
330
C
102
}
330
C
100
AcDbDictionary
281
     1
  3
Standard
350
17
  0
DICTIONARY
  5
18
102
{ACAD_REACTORS
330
C
102
}
330
C
100
AcDbDictionary
281
     1
  0
ACDBDICTIONARYWDFLT
  5
E
102
{ACAD_REACTORS
330
C
102
}
330
C
100
AcDbDictionary
281
     1
  3
Normal
350
F
100
AcDbDictionaryWithDefault
340
F
  0
DICTIONARY
  5
23D
102
{ACAD_REACTORS
330
C
102
}
330
C
100
AcDbDictionary
281
     1
  3
Standard
350
23E
  0
DICTIONARY
  5
22B
102
{ACAD_REACTORS
330
C
102
}
330
C
100
AcDbDictionary
281
     1
  3
2dWireframe
350
231
  3
3D Hidden
350
233
  3
3dWireframe
350
232
  3
Basic
350
230
  3
Brighten
350
237
  3
ColorChange
350
23B
  3
Conceptual
350
234
  3
Dim
350
236
  3
Facepattern
350
23A
  3
Flat
350
22C
  3
FlatWithEdges
350
22D
  3
Gouraud
350
22E
  3
GouraudWithEdges
350
22F
  3
Linepattern
350
239
  3
Realistic
350
235
  3
Thicken
350
238
  0
DICTIONARY
  5
109
102
{ACAD_REACTORS
330
C
102
}
330
C
100
AcDbDictionary
281
     1
  3
CTABLESTYLE
350
334
  3
DIMASSOC
350
10B
  3
HIDETEXT
350
10A
  3
INDEXCTL
350
336
  3
SORTENTS
350
335
  0
XRECORD
  5
337
102
{ACAD_REACTORS
330
C
102
}
330
C
100
AcDbXrecord
280
     1
  1
DWGPROPS COOKIE
  2

  3

  4

  6

  7

  8
Yu Hu
  9

300
=
301
=
302
=
303
=
304
=
305
=
306
=
307
=
308
=
309
=
 40
0.0510370601851852
 41
2450366.62989853
 42
2453980.428420023
  1

 90
        0
  0
XRECORD
  5
223
102
{ACAD_REACTORS
330
D4
102
}
330
D4
100
AcDbXrecord
280
     1
340
1E
  0
XRECORD
  5
222
102
{ACAD_REACTORS
330
D6
102
}
330
D6
100
AcDbXrecord
280
     1
340
1A
  0
LAYOUT
  5
1D
102
{ACAD_XDICTIONARY
360
338
102
}
102
{ACAD_REACTORS
330
19
102
}
330
19
100
AcDbPlotSettings
  1

  2
Fax
  4

  6

 40
0.0
 41
0.0
 42
0.0
 43
0.0
 44
0.0
 45
0.0
 46
0.0
 47
0.0
 48
0.0
 49
0.0
140
0.0
141
0.0
142
1.0
143
1.0
 70
   688
 72
     0
 73
     0
 74
     5
  7
Default R14 pen assignments.ctb
 75
    16
147
1.0
148
0.0
149
0.0
100
AcDbLayout
  1
Layout1
 70
     1
 71
     1
 10
0.0
 20
0.0
 11
12.0
 21
9.0
 12
0.1250013113021854
 22
0.0
 32
0.0
 14
1.000000000000000E+20
 24
1.000000000000000E+20
 34
1.000000000000000E+20
 15
-1.000000000000000E+20
 25
-1.000000000000000E+20
 35
-1.000000000000000E+20
146
0.0
 13
0.0
 23
0.0
 33
0.0
 16
1.0
 26
0.0
 36
0.0
 17
0.0
 27
1.0
 37
0.0
 76
     0
330
1A
  0
LAYOUT
  5
21
102
{ACAD_XDICTIONARY
360
33A
102
}
102
{ACAD_REACTORS
330
19
102
}
330
19
100
AcDbPlotSettings
  1

  2
Fax
  4

  6

 40
0.0
 41
0.0
 42
0.0
 43
0.0
 44
0.0
 45
0.0
 46
0.0
 47
0.0
 48
0.0
 49
0.0
140
0.0
141
0.0
142
1.0
143
1.0
 70
  1712
 72
     0
 73
     0
 74
     0
  7
Default R14 pen assignments.ctb
 75
     0
147
1.0
148
0.0
149
0.0
100
AcDbLayout
  1
Model
 70
     1
 71
     0
 10
0.0
 20
0.0
 11
12.0
 21
9.0
 12
0.0
 22
0.0
 32
0.0
 14
0.0
 24
0.0
 34
0.0
 15
0.0
 25
0.0
 35
0.0
146
0.0
 13
0.0
 23
0.0
 33
0.0
 16
1.0
 26
0.0
 36
0.0
 17
0.0
 27
1.0
 37
0.0
 76
     0
330
1E
331
1F0
  0
MATERIAL
  5
229
102
{ACAD_XDICTIONARY
360
33E
102
}
102
{ACAD_REACTORS
330
227
102
}
330
227
100
AcDbMaterial
  1
ByBlock
  0
MATERIAL
  5
228
102
{ACAD_XDICTIONARY
360
33C
102
}
102
{ACAD_REACTORS
330
227
102
}
330
227
100
AcDbMaterial
  1
ByLayer
  0
MATERIAL
  5
22A
102
{ACAD_XDICTIONARY
360
340
102
}
102
{ACAD_REACTORS
330
227
102
}
330
227
100
AcDbMaterial
  1
Global
  0
MLINESTYLE
  5
17
102
{ACAD_REACTORS
330
16
102
}
330
16
100
AcDbMlineStyle
  2
STANDARD
 70
     0
  3

 62
   256
 51
90.0
 52
90.0
 71
     2
 49
0.5
 62
   256
  6
BYLAYER
 49
-0.5
 62
   256
  6
BYLAYER
  0
ACDBPLACEHOLDER
  5
F
102
{ACAD_REACTORS
330
E
102
}
330
E
  0
TABLESTYLE
  5
23E
102
{ACAD_XDICTIONARY
360
342
102
}
102
{ACAD_REACTORS
330
23D
102
}
330
23D
100
AcDbTableStyle
  3
Standard
 70
     0
 71
     0
 40
0.06
 41
0.06
280
     0
281
     0
  7
STANDARD
140
0.18
170
     2
 62
     0
 63
     7
283
     0
274
    -2
284
     1
 64
     0
275
    -2
285
     1
 65
     0
276
    -2
286
     1
 66
     0
277
    -2
287
     1
 67
     0
278
    -2
288
     1
 68
     0
279
    -2
289
     1
 69
     0
  7
STANDARD
140
0.25
170
     5
 62
     0
 63
     7
283
     0
274
    -2
284
     1
 64
     0
275
    -2
285
     1
 65
     0
276
    -2
286
     1
 66
     0
277
    -2
287
     1
 67
     0
278
    -2
288
     1
 68
     0
279
    -2
289
     1
 69
     0
  7
STANDARD
140
0.18
170
     5
 62
     0
 63
     7
283
     0
274
    -2
284
     1
 64
     0
275
    -2
285
     1
 65
     0
276
    -2
286
     1
 66
     0
277
    -2
287
     1
 67
     0
278
    -2
288
     1
 68
     0
279
    -2
289
     1
 69
     0
  0
VISUALSTYLE
  5
231
102
{ACAD_REACTORS
330
22B
102
}
330
22B
100
AcDbVisualStyle
  2
2dWireframe
 70
     4
 71
     0
 72
     2
 73
     0
 90
        0
 40
-0.6
 41
-30.0
 62
     5
 63
     7
 74
     1
 91
        4
 64
     7
 65
   257
 75
     1
175
     1
 42
1.0
 92
        0
 66
   257
 43
1.0
 76
     1
 77
     6
 78
     2
 67
     7
 79
     5
170
     0
171
     0
290
     0
174
     0
 93
        1
 44
0.0
173
     0
291
     0
 45
0.0
1001
ACAD
1000
AcDbSavedByObjectVersion
1070
     0
  0
VISUALSTYLE
  5
233
102
{ACAD_REACTORS
330
22B
102
}
330
22B
100
AcDbVisualStyle
  2
3D Hidden
 70
     6
 71
     1
 72
     2
 73
     2
 90
        0
 40
-0.6
 41
-30.0
 62
     5
 63
     7
 74
     2
 91
        2
 64
     7
 65
   257
 75
     2
175
     1
 42
40.0
 92
        0
 66
   257
 43
1.0
 76
     1
 77
     6
 78
     2
 67
     7
 79
     3
170
     0
171
     0
290
     0
174
     0
 93
        1
 44
0.0
173
     0
291
     0
 45
0.0
1001
ACAD
1000
AcDbSavedByObjectVersion
1070
     0
  0
VISUALSTYLE
  5
232
102
{ACAD_REACTORS
330
22B
102
}
330
22B
100
AcDbVisualStyle
  2
3dWireframe
 70
     5
 71
     0
 72
     2
 73
     0
 90
        0
 40
-0.6
 41
-30.0
 62
     5
 63
     7
 74
     1
 91
        4
 64
     7
 65
   257
 75
     1
175
     1
 42
1.0
 92
        0
 66
   257
 43
1.0
 76
     1
 77
     6
 78
     2
 67
     7
 79
     5
170
     0
171
     0
290
     0
174
     0
 93
        1
 44
0.0
173
     0
291
     0
 45
0.0
1001
ACAD
1000
AcDbSavedByObjectVersion
1070
     0
  0
VISUALSTYLE
  5
230
102
{ACAD_REACTORS
330
22B
102
}
330
22B
100
AcDbVisualStyle
  2
Basic
 70
     7
 71
     1
 72
     0
 73
     1
 90
        0
 40
-0.6
 41
-30.0
 62
     5
 63
     7
 74
     0
 91
        4
 64
     7
 65
   257
 75
     1
175
     1
 42
1.0
 92
        8
 66
     7
 43
1.0
 76
     1
 77
     6
 78
     2
 67
     7
 79
     5
170
     0
171
     0
290
     0
174
     0
 93
        1
 44
0.0
173
     0
291
     1
 45
0.0
1001
ACAD
1000
AcDbSavedByObjectVersion
1070
     0
  0
VISUALSTYLE
  5
237
102
{ACAD_REACTORS
330
22B
102
}
330
22B
100
AcDbVisualStyle
  2
Brighten
 70
    12
 71
     2
 72
     2
 73
     0
 90
        0
 40
-0.6
 41
-30.0
 62
     5
 63
     7
 74
     1
 91
        4
 64
     7
 65
   257
 75
     1
175
     1
 42
1.0
 92
        8
 66
     7
 43
1.0
 76
     1
 77
     6
 78
     2
 67
     7
 79
     5
170
     0
171
     0
290
     0
174
     0
 93
        1
 44
50.0
173
     0
291
     1
 45
0.0
1001
ACAD
1000
AcDbSavedByObjectVersion
1070
     0
  0
VISUALSTYLE
  5
23B
102
{ACAD_REACTORS
330
22B
102
}
330
22B
100
AcDbVisualStyle
  2
ColorChange
 70
    16
 71
     2
 72
     2
 73
     3
 90
        0
 40
-0.6
 41
-30.0
 62
     5
 63
     8
 74
     1
 91
        4
 64
     7
 65
   257
 75
     1
175
     1
 42
1.0
 92
        8
 66
     8
 43
1.0
 76
     1
 77
     6
 78
     2
 67
     7
 79
     5
170
     0
171
     0
290
     0
174
     0
 93
        1
 44
0.0
173
     0
291
     1
 45
0.0
1001
ACAD
1000
AcDbSavedByObjectVersion
1070
     0
  0
VISUALSTYLE
  5
234
102
{ACAD_REACTORS
330
22B
102
}
330
22B
100
AcDbVisualStyle
  2
Conceptual
 70
     9
 71
     3
 72
     2
 73
     0
 90
        0
 40
-0.6
 41
-30.0
 62
     5
 63
     7
 74
     2
 91
        2
 64
     7
 65
   257
 75
     1
175
     1
 42
40.0
 92
        8
 66
     7
 43
1.0
 76
     1
 77
     6
 78
     2
 67
     7
 79
     3
170
     0
171
     0
290
     0
174
     0
 93
        1
 44
0.0
173
     0
291
     0
 45
0.0
1001
ACAD
1000
AcDbSavedByObjectVersion
1070
     0
  0
VISUALSTYLE
  5
236
102
{ACAD_REACTORS
330
22B
102
}
330
22B
100
AcDbVisualStyle
  2
Dim
 70
    11
 71
     2
 72
     2
 73
     0
 90
        0
 40
-0.6
 41
-30.0
 62
     5
 63
     7
 74
     1
 91
        4
 64
     7
 65
   257
 75
     1
175
     1
 42
1.0
 92
        8
 66
     7
 43
1.0
 76
     1
 77
     6
 78
     2
 67
     7
 79
     5
170
     0
171
     0
290
     0
174
     0
 93
        1
 44
-50.0
173
     0
291
     1
 45
0.0
1001
ACAD
1000
AcDbSavedByObjectVersion
1070
     0
  0
VISUALSTYLE
  5
23A
102
{ACAD_REACTORS
330
22B
102
}
330
22B
100
AcDbVisualStyle
  2
Facepattern
 70
    15
 71
     2
 72
     2
 73
     0
 90
        0
 40
-0.6
 41
-30.0
 62
     5
 63
     7
 74
     1
 91
        4
 64
     7
 65
   257
 75
     1
175
     1
 42
1.0
 92
        8
 66
     7
 43
1.0
 76
     1
 77
     6
 78
     2
 67
     7
 79
     5
170
     0
171
     0
290
     0
174
     0
 93
        1
 44
0.0
173
     0
291
     1
 45
0.0
1001
ACAD
1000
AcDbSavedByObjectVersion
1070
     0
  0
VISUALSTYLE
  5
22C
102
{ACAD_REACTORS
330
22B
102
}
330
22B
100
AcDbVisualStyle
  2
Flat
 70
     0
 71
     2
 72
     1
 73
     1
 90
        2
 40
-0.6
 41
30.0
 62
     5
 63
     7
 74
     0
 91
        4
 64
     7
 65
   257
 75
     1
175
     1
 42
1.0
 92
        8
 66
     7
 43
1.0
 76
     1
 77
     6
 78
     2
 67
     7
 79
     5
170
     0
171
     0
290
     0
174
     0
 93
       13
 44
0.0
173
     0
291
     1
 45
0.0
1001
ACAD
1000
AcDbSavedByObjectVersion
1070
     0
  0
VISUALSTYLE
  5
22D
102
{ACAD_REACTORS
330
22B
102
}
330
22B
100
AcDbVisualStyle
  2
FlatWithEdges
 70
     1
 71
     2
 72
     1
 73
     1
 90
        2
 40
-0.6
 41
30.0
 62
     5
 63
     7
 74
     1
 91
        4
 64
     7
 65
   257
 75
     1
175
     1
 42
1.0
 92
        0
 66
   257
 43
1.0
 76
     1
 77
     6
 78
     2
 67
     7
 79
     5
170
     0
171
     0
290
     0
174
     0
 93
       13
 44
0.0
173
     0
291
     1
 45
0.0
1001
ACAD
1000
AcDbSavedByObjectVersion
1070
     0
  0
VISUALSTYLE
  5
22E
102
{ACAD_REACTORS
330
22B
102
}
330
22B
100
AcDbVisualStyle
  2
Gouraud
 70
     2
 71
     2
 72
     2
 73
     1
 90
        2
 40
-0.6
 41
30.0
 62
     5
 63
     7
 74
     0
 91
        4
 64
     7
 65
   257
 75
     1
175
     1
 42
1.0
 92
        0
 66
     7
 43
1.0
 76
     1
 77
     6
 78
     2
 67
     7
 79
     5
170
     0
171
     0
290
     0
174
     0
 93
       13
 44
0.0
173
     0
291
     1
 45
0.0
1001
ACAD
1000
AcDbSavedByObjectVersion
1070
     0
  0
VISUALSTYLE
  5
22F
102
{ACAD_REACTORS
330
22B
102
}
330
22B
100
AcDbVisualStyle
  2
GouraudWithEdges
 70
     3
 71
     2
 72
     2
 73
     1
 90
        2
 40
-0.6
 41
30.0
 62
     5
 63
     7
 74
     1
 91
        4
 64
     7
 65
   257
 75
     1
175
     1
 42
1.0
 92
        0
 66
   257
 43
1.0
 76
     1
 77
     6
 78
     2
 67
     7
 79
     5
170
     0
171
     0
290
     0
174
     0
 93
       13
 44
0.0
173
     0
291
     1
 45
0.0
1001
ACAD
1000
AcDbSavedByObjectVersion
1070
     0
  0
VISUALSTYLE
  5
239
102
{ACAD_REACTORS
330
22B
102
}
330
22B
100
AcDbVisualStyle
  2
Linepattern
 70
    14
 71
     2
 72
     2
 73
     0
 90
        0
 40
-0.6
 41
-30.0
 62
     5
 63
     7
 74
     1
 91
        4
 64
     7
 65
   257
 75
     7
175
     7
 42
1.0
 92
        8
 66
     7
 43
1.0
 76
     1
 77
     6
 78
     2
 67
     7
 79
     5
170
     0
171
     0
290
     0
174
     0
 93
        1
 44
0.0
173
     0
291
     1
 45
0.0
1001
ACAD
1000
AcDbSavedByObjectVersion
1070
     0
  0
VISUALSTYLE
  5
235
102
{ACAD_REACTORS
330
22B
102
}
330
22B
100
AcDbVisualStyle
  2
Realistic
 70
     8
 71
     2
 72
     2
 73
     0
 90
        0
 40
-0.6
 41
-30.0
 62
     5
 63
     7
 74
     1
 91
        0
 64
     7
 65
   257
 75
     1
175
     1
 42
1.0
 92
        8
 66
     8
 43
1.0
 76
     1
 77
     6
 78
     2
 67
     7
 79
     5
170
     0
171
     0
290
     0
174
     0
 93
       13
 44
0.0
173
     0
291
     0
 45
0.0
1001
ACAD
1000
AcDbSavedByObjectVersion
1070
     0
  0
VISUALSTYLE
  5
238
102
{ACAD_REACTORS
330
22B
102
}
330
22B
100
AcDbVisualStyle
  2
Thicken
 70
    13
 71
     2
 72
     2
 73
     0
 90
        0
 40
-0.6
 41
-30.0
 62
     5
 63
     7
 74
     1
 91
        4
 64
     7
 65
   257
 75
     1
175
     1
 42
1.0
 92
       12
 66
     7
 43
1.0
 76
     1
 77
     6
 78
     2
 67
     7
 79
     5
170
     0
171
     0
290
     0
174
     0
 93
        1
 44
0.0
173
     0
291
     1
 45
0.0
1001
ACAD
1000
AcDbSavedByObjectVersion
1070
     0
  0
DICTIONARYVAR
  5
334
102
{ACAD_REACTORS
330
109
102
}
330
109
100
DictionaryVariables
280
     0
  1
STANDARD
  0
DICTIONARYVAR
  5
10B
102
{ACAD_REACTORS
330
109
102
}
330
109
100
DictionaryVariables
280
     0
  1
2
  0
DICTIONARYVAR
  5
10A
102
{ACAD_REACTORS
330
109
102
}
330
109
100
DictionaryVariables
280
     0
  1
1
  0
DICTIONARYVAR
  5
336
102
{ACAD_REACTORS
330
109
102
}
330
109
100
DictionaryVariables
280
     0
  1
0
  0
DICTIONARYVAR
  5
335
102
{ACAD_REACTORS
330
109
102
}
330
109
100
DictionaryVariables
280
     0
  1
127
  0
DICTIONARY
  5
338
330
1D
100
AcDbDictionary
280
     1
281
     1
  3
ACAD_XREC_ROUNDTRIP
360
339
  0
DICTIONARY
  5
33A
330
21
100
AcDbDictionary
280
     1
281
     1
  3
ACAD_XREC_ROUNDTRIP
360
33B
  0
DICTIONARY
  5
33E
330
229
100
AcDbDictionary
280
     1
281
     1
  3
ACAD_XREC_ROUNDTRIP
360
33F
  0
DICTIONARY
  5
33C
330
228
100
AcDbDictionary
280
     1
281
     1
  3
ACAD_XREC_ROUNDTRIP
360
33D
  0
DICTIONARY
  5
340
330
22A
100
AcDbDictionary
280
     1
281
     1
  3
ACAD_XREC_ROUNDTRIP
360
341
  0
DICTIONARY
  5
342
330
23E
100
AcDbDictionary
280
     1
281
     1
  3
ACAD_XREC_ROUNDTRIP
360
343
  0
XRECORD
  5
339
102
{ACAD_REACTORS
330
338
102
}
330
338
100
AcDbXrecord
280
     1
102
SHADEPLOT
 70
     0
102
SHADEPLOTRESLEVEL
 70
     2
102
SHADEPLOTCUSTOMDPI
 70
   300
  0
XRECORD
  5
33B
102
{ACAD_REACTORS
330
33A
102
}
330
33A
100
AcDbXrecord
280
     1
102
SHADEPLOT
 70
     0
102
SHADEPLOTRESLEVEL
 70
     2
102
SHADEPLOTCUSTOMDPI
 70
   300
  0
XRECORD
  5
33F
102
{ACAD_REACTORS
330
33E
102
}
330
33E
100
AcDbXrecord
280
     1
102
MATERIAL
148
0.0
149
0.0
149
0.0
 93
        0
 94
       63
282
     0
 72
     1
 77
     1
171
     1
175
     1
179
     1
273
     0
  0
XRECORD
  5
33D
102
{ACAD_REACTORS
330
33C
102
}
330
33C
100
AcDbXrecord
280
     1
102
MATERIAL
148
0.0
149
0.0
149
0.0
 93
        0
 94
       63
282
     0
 72
     1
 77
     1
171
     1
175
     1
179
     1
273
     0
  0
XRECORD
  5
341
102
{ACAD_REACTORS
330
340
102
}
330
340
100
AcDbXrecord
280
     1
102
MATERIAL
148
0.0
149
0.0
149
0.0
 93
        0
 94
       63
282
     0
 72
     1
 77
     1
171
     1
175
     1
179
     1
273
     0
  0
XRECORD
  5
343
102
{ACAD_REACTORS
330
342
102
}
330
342
100
AcDbXrecord
280
     1
102
ACAD_ROUNDTRIP_PRE2007_TABLESTYLE
 90
      512
 91
        0
  1

 92
      512
 93
        0
  2

 94
      512
 95
        0
  3

  0
ENDSEC
  0
EOF
