  0
SECTION
  2
HEADER
  9
$ACADVER
  1
AC1014
  9
$ACADMAINTVER
 70
     9
  9
$DWGCODEPAGE
  3
ANSI_1252
  9
$INSBASE
 10
3.922056693136524
 20
4.942468691622948
 30
0.0
  9
$EXTMIN
 10
-4.197678401278726
 20
3.712575109290273
 30
0.0
  9
$EXTMAX
 10
8.853779647834507
 20
5.806348873237489
 30
0.0
  9
$LIMMIN
 10
0.0
 20
0.0
  9
$LIMMAX
 10
36.0
 20
36.0
  9
$ORTHOMODE
 70
     1
  9
$REGENMODE
 70
     1
  9
$FILLMODE
 70
     1
  9
$QTEXTMODE
 70
     0
  9
$MIRRTEXT
 70
     1
  9
$DRAGMODE
 70
     0
  9
$LTSCALE
 40
1.0
  9
$OSMODE
 70
    37
  9
$ATTMODE
 70
     1
  9
$TEXTSIZE
 40
0.2
  9
$TRACEWID
 40
0.05
  9
$TEXTSTYLE
  7
STANDARD
  9
$CLAYER
  8
0
  9
$CELTYPE
  6
BYLAYER
  9
$CECOLOR
 62
   256
  9
$CELTSCALE
 40
1.0
  9
$DELOBJ
 70
     1
  9
$DISPSILH
 70
     0
  9
$DIMSCALE
 40
1.0
  9
$DIMASZ
 40
0.125
  9
$DIMEXO
 40
0.0625
  9
$DIMDLI
 40
0.38
  9
$DIMRND
 40
0.0
  9
$DIMDLE
 40
0.0
  9
$DIMEXE
 40
0.18
  9
$DIMTP
 40
0.0
  9
$DIMTM
 40
0.0
  9
$DIMTXT
 40
0.125
  9
$DIMCEN
 40
0.1875
  9
$DIMTSZ
 40
0.125
  9
$DIMTOL
 70
     0
  9
$DIMLIM
 70
     0
  9
$DIMTIH
 70
     0
  9
$DIMTOH
 70
     0
  9
$DIMSE1
 70
     0
  9
$DIMSE2
 70
     0
  9
$DIMTAD
 70
     0
  9
$DIMZIN
 70
     3
  9
$DIMBLK
  1

  9
$DIMASO
 70
     1
  9
$DIMSHO
 70
     1
  9
$DIMPOST
  1

  9
$DIMAPOST
  1

  9
$DIMALT
 70
     0
  9
$DIMALTD
 70
     1
  9
$DIMALTF
 40
25.4
  9
$DIMLFAC
 40
1.0
  9
$DIMTOFL
 70
     0
  9
$DIMTVP
 40
0.0
  9
$DIMTIX
 70
     0
  9
$DIMSOXD
 70
     0
  9
$DIMSAH
 70
     0
  9
$DIMBLK1
  1

  9
$DIMBLK2
  1

  9
$DIMSTYLE
  2
STANDARD
  9
$DIMCLRD
 70
     0
  9
$DIMCLRE
 70
     0
  9
$DIMCLRT
 70
     0
  9
$DIMTFAC
 40
1.0
  9
$DIMGAP
 40
0.125
  9
$DIMJUST
 70
     0
  9
$DIMSD1
 70
     0
  9
$DIMSD2
 70
     0
  9
$DIMTOLJ
 70
     1
  9
$DIMTZIN
 70
     3
  9
$DIMALTZ
 70
     3
  9
$DIMALTTZ
 70
     3
  9
$DIMFIT
 70
     5
  9
$DIMUPT
 70
     0
  9
$DIMUNIT
 70
     5
  9
$DIMDEC
 70
     4
  9
$DIMTDEC
 70
     4
  9
$DIMALTU
 70
     5
  9
$DIMALTTD
 70
     1
  9
$DIMTXSTY
  7
STANDARD
  9
$DIMAUNIT
 70
     0
  9
$LUNITS
 70
     5
  9
$LUPREC
 70
     4
  9
$SKETCHINC
 40
0.1
  9
$FILLETRAD
 40
0.187
  9
$AUNITS
 70
     0
  9
$AUPREC
 70
     0
  9
$MENU
  1
acad
  9
$ELEVATION
 40
0.0
  9
$PELEVATION
 40
0.0
  9
$THICKNESS
 40
0.0
  9
$LIMCHECK
 70
     0
  9
$BLIPMODE
 70
     0
  9
$CHAMFERA
 40
0.0
  9
$CHAMFERB
 40
0.0
  9
$CHAMFERC
 40
0.0
  9
$CHAMFERD
 40
0.0
  9
$SKPOLY
 70
     0
  9
$TDCREATE
 40
2450399.650146596
  9
$TDUPDATE
 40
2452297.095407072
  9
$TDINDWG
 40
0.0492290509
  9
$TDUSRTIMER
 40
0.0492290509
  9
$USRTIMER
 70
     1
  9
$ANGBASE
 50
0.0
  9
$ANGDIR
 70
     0
  9
$PDMODE
 70
     0
  9
$PDSIZE
 40
0.0
  9
$PLINEWID
 40
0.0
  9
$COORDS
 70
     2
  9
$SPLFRAME
 70
     0
  9
$SPLINETYPE
 70
     6
  9
$SPLINESEGS
 70
     8
  9
$ATTDIA
 70
     0
  9
$ATTREQ
 70
     1
  9
$HANDLING
 70
 22529
  9
$HANDSEED
  5
26D
  9
$SURFTAB1
 70
     6
  9
$SURFTAB2
 70
     6
  9
$SURFTYPE
 70
     6
  9
$SURFU
 70
     6
  9
$SURFV
 70
     6
  9
$UCSNAME
  2

  9
$UCSORG
 10
0.0
 20
0.0
 30
0.0
  9
$UCSXDIR
 10
1.0
 20
0.0
 30
0.0
  9
$UCSYDIR
 10
0.0
 20
1.0
 30
0.0
  9
$PUCSNAME
  2

  9
$PUCSORG
 10
0.0
 20
0.0
 30
0.0
  9
$PUCSXDIR
 10
1.0
 20
0.0
 30
0.0
  9
$PUCSYDIR
 10
0.0
 20
1.0
 30
0.0
  9
$USERI1
 70
     0
  9
$USERI2
 70
     0
  9
$USERI3
 70
     0
  9
$USERI4
 70
     0
  9
$USERI5
 70
     0
  9
$USERR1
 40
0.0
  9
$USERR2
 40
0.0
  9
$USERR3
 40
0.0
  9
$USERR4
 40
0.0
  9
$USERR5
 40
0.0
  9
$WORLDVIEW
 70
     1
  9
$SHADEDGE
 70
     3
  9
$SHADEDIF
 70
    70
  9
$TILEMODE
 70
     1
  9
$MAXACTVP
 70
    15
  9
$PINSBASE
 10
0.0004882914945483
 20
0.7501408034022604
 30
0.0
  9
$PLIMCHECK
 70
     0
  9
$PEXTMIN
 10
1.000000000000000E+20
 20
1.000000000000000E+20
 30
1.000000000000000E+20
  9
$PEXTMAX
 10
-1.000000000000000E+20
 20
-1.000000000000000E+20
 30
-1.000000000000000E+20
  9
$PLIMMIN
 10
0.0
 20
0.0
  9
$PLIMMAX
 10
12.0
 20
9.0
  9
$UNITMODE
 70
     0
  9
$VISRETAIN
 70
     0
  9
$PLINEGEN
 70
     0
  9
$PSLTSCALE
 70
     1
  9
$TREEDEPTH
 70
  3020
  9
$PICKSTYLE
 70
     1
  9
$CMLSTYLE
  2
STANDARD
  9
$CMLJUST
 70
     0
  9
$CMLSCALE
 40
1.0
  9
$PROXYGRAPHICS
 70
     1
  9
$MEASUREMENT
 70
     0
  0
ENDSEC
  0
SECTION
  2
CLASSES
  0
CLASS
  1
ACDBDICTIONARYWDFLT
  2
AcDbDictionaryWithDefault
  3
AutoCAD 2000
 90
        0
280
     0
281
     0
  0
CLASS
  1
ACDBPLACEHOLDER
  2
AcDbPlaceHolder
  3
AutoCAD 2000
 90
        0
280
     0
281
     0
  0
CLASS
  1
LAYOUT
  2
AcDbLayout
  3
AutoCAD 2000
 90
        0
280
     0
281
     0
  0
CLASS
  1
DICTIONARYVAR
  2
AcDbDictionaryVar
  3
AutoCAD 2000
 90
        0
280
     0
281
     0
  0
CLASS
  1
LONG_TRANSACTION
  2
AcDbLongTransaction
  3
AutoCAD 2000
 90
        0
280
     0
281
     0
  0
CLASS
  1
LWPOLYLINE
  2
AcDbPolyline
  3
AutoCAD 2000
 90
        0
280
     0
281
     1
  0
CLASS
  1
HATCH
  2
AcDbHatch
  3
AutoCAD 2000
 90
        0
280
     0
281
     1
  0
CLASS
  1
XRECORD
  2
AcDbXrecord
  3
AutoCAD 2000
 90
        0
280
     0
281
     0
  0
CLASS
  1
LONG_TRANSACTION
  2
AcDbLongTransaction
  3
AutoCAD 2000
 90
        0
280
     0
281
     0
  0
CLASS
  1
LWPOLYLINE
  2
AcDbPolyline
  3
AutoCAD 2000
 90
        0
280
     0
281
     1
  0
CLASS
  1
HATCH
  2
AcDbHatch
  3
AutoCAD 2000
 90
        0
280
     0
281
     1
  0
CLASS
  1
XRECORD
  2
AcDbXrecord
  3
AutoCAD 2000
 90
        0
280
     0
281
     0
  0
CLASS
  1
LONG_TRANSACTION
  2
AcDbLongTransaction
  3
AutoCAD 2000
 90
        0
280
     0
281
     0
  0
CLASS
  1
LWPOLYLINE
  2
AcDbPolyline
  3
AutoCAD 2000
 90
        0
280
     0
281
     1
  0
CLASS
  1
HATCH
  2
AcDbHatch
  3
AutoCAD 2000
 90
        0
280
     0
281
     1
  0
CLASS
  1
XRECORD
  2
AcDbXrecord
  3
AutoCAD 2000
 90
        0
280
     0
281
     0
  0
CLASS
  1
LONG_TRANSACTION
  2
AcDbLongTransaction
  3
AutoCAD 2000
 90
        0
280
     0
281
     0
  0
CLASS
  1
LWPOLYLINE
  2
AcDbPolyline
  3
AutoCAD 2000
 90
        0
280
     0
281
     1
  0
CLASS
  1
HATCH
  2
AcDbHatch
  3
AutoCAD 2000
 90
        0
280
     0
281
     1
  0
CLASS
  1
XRECORD
  2
AcDbXrecord
  3
AutoCAD 2000
 90
        0
280
     0
281
     0
  0
CLASS
  1
LONG_TRANSACTION
  2
AcDbLongTransaction
  3
AutoCAD 2000
 90
        0
280
     0
281
     0
  0
CLASS
  1
LWPOLYLINE
  2
AcDbPolyline
  3
AutoCAD 2000
 90
        0
280
     0
281
     1
  0
CLASS
  1
HATCH
  2
AcDbHatch
  3
AutoCAD 2000
 90
        0
280
     0
281
     1
  0
CLASS
  1
XRECORD
  2
AcDbXrecord
  3
AutoCAD 2000
 90
        0
280
     0
281
     0
  0
ENDSEC
  0
SECTION
  2
TABLES
  0
TABLE
  2
VPORT
  5
8
330
0
100
AcDbSymbolTable
 70
     2
  0
VPORT
  5
249
330
8
100
AcDbSymbolTableRecord
100
AcDbViewportTableRecord
  2
*ACTIVE
 70
     0
 10
0.0
 20
0.0
 11
1.0
 21
1.0
 12
2.338250989062148
 22
4.760101386765139
 13
0.0
 23
0.0
 14
0.5740882589684922
 24
0.5740882589684922
 15
0.5
 25
0.5
 16
0.0
 26
0.0
 36
1.0
 17
0.0
 27
0.0
 37
0.0
 40
8.366712227542379
 41
1.570528967254408
 42
50.0
 43
0.0
 44
0.0
 50
0.0
 51
0.0
 71
     0
 72
   100
 73
     1
 74
     0
 75
     0
 76
     0
 77
     0
 78
     0
  0
ENDTAB
  0
TABLE
  2
LTYPE
  5
5
330
0
100
AcDbSymbolTable
 70
     1
  0
LTYPE
  5
13
330
5
100
AcDbSymbolTableRecord
100
AcDbLinetypeTableRecord
  2
BYBLOCK
 70
     0
  3

 72
    65
 73
     0
 40
0.0
  0
LTYPE
  5
14
330
5
100
AcDbSymbolTableRecord
100
AcDbLinetypeTableRecord
  2
BYLAYER
 70
     0
  3

 72
    65
 73
     0
 40
0.0
  0
LTYPE
  5
15
330
5
100
AcDbSymbolTableRecord
100
AcDbLinetypeTableRecord
  2
CONTINUOUS
 70
     0
  3
Solid line
 72
    65
 73
     0
 40
0.0
  0
ENDTAB
  0
TABLE
  2
LAYER
  5
2
330
0
100
AcDbSymbolTable
 70
     4
  0
LAYER
  5
10
330
2
100
AcDbSymbolTableRecord
100
AcDbLayerTableRecord
  2
0
 70
     0
 62
     7
  6
CONTINUOUS
  0
LAYER
  5
7C
330
2
100
AcDbSymbolTableRecord
100
AcDbLayerTableRecord
  2
ADP1DETAIL
 70
     0
 62
     7
  6
CONTINUOUS
  0
LAYER
  5
7E
330
2
100
AcDbSymbolTableRecord
100
AcDbLayerTableRecord
  2
DEFPOINTS
 70
     0
 62
     7
  6
CONTINUOUS
  0
LAYER
  5
7F
330
2
100
AcDbSymbolTableRecord
100
AcDbLayerTableRecord
  2
ADPDIM
 70
     0
 62
     3
  6
CONTINUOUS
  0
ENDTAB
  0
TABLE
  2
STYLE
  5
3
330
0
100
AcDbSymbolTable
 70
     2
  0
STYLE
  5
11
330
3
100
AcDbSymbolTableRecord
100
AcDbTextStyleTableRecord
  2
STANDARD
 70
     0
 40
0.0
 41
1.0
 50
0.0
 71
     0
 42
0.2
  3
txt
  4

  0
STYLE
  5
B6
330
3
100
AcDbSymbolTableRecord
100
AcDbTextStyleTableRecord
  2
ARIAL_WIDE
 70
     0
 40
0.0
 41
1.25
 50
0.0
 71
     0
 42
0.2
  3
ARIAL.TTF
  4

1001
ACAD
1000
Arial
1071
       34
  0
ENDTAB
  0
TABLE
  2
VIEW
  5
6
330
0
100
AcDbSymbolTable
 70
     0
  0
ENDTAB
  0
TABLE
  2
UCS
  5
7
330
0
100
AcDbSymbolTable
 70
     0
  0
ENDTAB
  0
TABLE
  2
APPID
  5
9
330
0
100
AcDbSymbolTable
 70
     1
  0
APPID
  5
12
330
9
100
AcDbSymbolTableRecord
100
AcDbRegAppTableRecord
  2
ACAD
 70
     0
  0
ENDTAB
  0
TABLE
  2
DIMSTYLE
  5
A
330
0
100
AcDbSymbolTable
 70
     1
  0
DIMSTYLE
105
B4
330
A
100
AcDbSymbolTableRecord
100
AcDbDimStyleTableRecord
  2
STANDARD
 70
     0
  3

  4

  5

  6

  7

 40
1.0
 41
0.18
 42
0.0625
 43
0.38
 44
0.18
 45
0.0
 46
0.0
 47
0.0
 48
0.0
140
0.18
141
0.09
142
0.0
143
25.4
144
1.0
145
0.0
146
1.0
147
0.09
 71
     0
 72
     0
 73
     1
 74
     1
 75
     0
 76
     0
 77
     0
 78
     0
170
     0
171
     2
172
     0
173
     0
174
     0
175
     0
176
     0
177
     0
178
     0
270
     2
271
     4
272
     4
273
     2
274
     2
340
11
275
     0
280
     0
281
     0
282
     0
283
     1
284
     0
285
     0
286
     0
287
     3
288
     0
  0
ENDTAB
  0
TABLE
  2
BLOCK_RECORD
  5
1
330
0
100
AcDbSymbolTable
 70
     2
  0
BLOCK_RECORD
  5
1E
102
{ACAD_XDICTIONARY
360
F3
102
}
330
1
100
AcDbSymbolTableRecord
100
AcDbBlockTableRecord
  2
*MODEL_SPACE
  0
BLOCK_RECORD
  5
1A
102
{ACAD_XDICTIONARY
360
F5
102
}
330
1
100
AcDbSymbolTableRecord
100
AcDbBlockTableRecord
  2
*PAPER_SPACE
  0
BLOCK_RECORD
  5
77
330
1
100
AcDbSymbolTableRecord
100
AcDbBlockTableRecord
  2
*D0
  0
BLOCK_RECORD
  5
78
330
1
100
AcDbSymbolTableRecord
100
AcDbBlockTableRecord
  2
*D1
  0
ENDTAB
  0
ENDSEC
  0
SECTION
  2
BLOCKS
  0
BLOCK
  5
82
330
1E
100
AcDbEntity
  8
0
100
AcDbBlockBegin
  2
*MODEL_SPACE
 70
     0
 10
0.0
 20
0.0
 30
0.0
  3
*MODEL_SPACE
  1

  0
ENDBLK
  5
83
330
1E
100
AcDbEntity
  8
0
100
AcDbBlockEnd
  0
BLOCK
  5
80
330
1A
100
AcDbEntity
 67
     1
  8
0
100
AcDbBlockBegin
  2
*PAPER_SPACE
 70
     0
 10
0.0
 20
0.0
 30
0.0
  3
*PAPER_SPACE
  1

  0
ENDBLK
  5
81
330
1A
100
AcDbEntity
 67
     1
  8
0
100
AcDbBlockEnd
  0
BLOCK
  5
85
330
77
100
AcDbEntity
  8
0
100
AcDbBlockBegin
  2
*D0
 70
     1
 10
0.0
 20
0.0
 30
0.0
  3
*D0
  1

  0
LINE
  5
86
330
77
100
AcDbEntity
  8
0
  6
BYBLOCK
 62
     0
100
AcDbLine
 10
3.932553194744239
 20
5.058962619212838
 30
0.0
 11
3.932553194744239
 21
5.806348873237489
 31
0.0
  0
LINE
  5
87
330
77
100
AcDbEntity
  8
0
  6
BYBLOCK
 62
     0
100
AcDbLine
 10
0.7257174322072748
 20
5.059068636008378
 30
0.0
 11
0.7257174322072748
 21
5.806348873237489
 31
0.0
  0
LINE
  5
88
330
77
100
AcDbEntity
  8
0
  6
BYBLOCK
 62
     0
100
AcDbLine
 10
3.932553194744239
 20
5.626348873237489
 30
0.0
 11
2.72496864680909
 21
5.626348873237489
 31
0.0
  0
LINE
  5
89
330
77
100
AcDbEntity
  8
0
  6
BYBLOCK
 62
     0
100
AcDbLine
 10
0.7257174322072748
 20
5.626348873237489
 30
0.0
 11
1.933301980142424
 21
5.626348873237489
 31
0.0
  0
LINE
  5
8A
330
77
100
AcDbEntity
  8
0
  6
BYBLOCK
 62
     0
100
AcDbLine
 10
3.807553194744239
 20
5.501348873237489
 30
0.0
 11
4.057553194744239
 21
5.751348873237489
 31
0.0
  0
LINE
  5
8B
330
77
100
AcDbEntity
  8
0
  6
BYBLOCK
 62
     0
100
AcDbLine
 10
0.6007174322072748
 20
5.501348873237489
 30
0.0
 11
0.8507174322072746
 21
5.751348873237489
 31
0.0
  0
TEXT
  5
8C
330
77
100
AcDbEntity
  8
0
  6
BYBLOCK
 62
     0
100
AcDbText
 10
2.058301980142423
 20
5.563848873237489
 30
0.0
 40
0.125
  1
3 1/4
 72
     1
 11
2.329135313475757
 21
5.626348873237489
 31
0.0
100
AcDbText
 73
     2
  0
POINT
  5
8E
330
77
100
AcDbEntity
  8
DEFPOINTS
  6
BYBLOCK
 62
     0
100
AcDbPoint
 10
3.932553194744239
 20
4.996462619212838
 30
0.0
  0
POINT
  5
8F
330
77
100
AcDbEntity
  8
DEFPOINTS
  6
BYBLOCK
 62
     0
100
AcDbPoint
 10
0.7257174322072748
 20
4.996568636008378
 30
0.0
  0
POINT
  5
90
330
77
100
AcDbEntity
  8
DEFPOINTS
  6
BYBLOCK
 62
     0
100
AcDbPoint
 10
0.7257174322072748
 20
5.626348873237489
 30
0.0
  0
ENDBLK
  5
91
330
77
100
AcDbEntity
  8
0
100
AcDbBlockEnd
  0
BLOCK
  5
92
330
78
100
AcDbEntity
  8
0
100
AcDbBlockBegin
  2
*D1
 70
     1
 10
0.0
 20
0.0
 30
0.0
  3
*D1
  1

  0
LINE
  5
93
330
78
100
AcDbEntity
  8
0
  6
BYBLOCK
 62
     0
100
AcDbLine
 10
1.937425623277889
 20
4.669597340099465
 30
0.0
 11
1.937425623277889
 21
4.340016985131635
 31
0.0
  0
LINE
  5
94
330
78
100
AcDbEntity
  8
0
  6
BYBLOCK
 62
     0
100
AcDbLine
 10
2.718675623277889
 20
4.669597340099465
 30
0.0
 11
2.718675623277889
 21
4.340016985131635
 31
0.0
  0
LINE
  5
95
330
78
100
AcDbEntity
  8
0
  6
BYBLOCK
 62
     0
100
AcDbLine
 10
1.937425623277889
 20
4.520016985131634
 30
0.0
 11
1.687425623277889
 21
4.520016985131634
 31
0.0
  0
LINE
  5
96
330
78
100
AcDbEntity
  8
0
  6
BYBLOCK
 62
     0
100
AcDbLine
 10
2.718675623277889
 20
4.520016985131634
 30
0.0
 11
2.968675623277889
 21
4.520016985131634
 31
0.0
  0
LINE
  5
97
330
78
100
AcDbEntity
  8
0
  6
BYBLOCK
 62
     0
100
AcDbLine
 10
1.812425623277889
 20
4.395016985131634
 30
0.0
 11
2.062425623277889
 21
4.645016985131634
 31
0.0
  0
LINE
  5
98
330
78
100
AcDbEntity
  8
0
  6
BYBLOCK
 62
     0
100
AcDbLine
 10
2.593675623277889
 20
4.395016985131634
 30
0.0
 11
2.843675623277889
 21
4.645016985131634
 31
0.0
  0
TEXT
  5
99
330
78
100
AcDbEntity
  8
0
  6
BYBLOCK
 62
     0
100
AcDbText
 10
3.093675623277889
 20
4.457516985131634
 30
0.0
 40
0.125
  1
13/16
 72
     1
 11
3.343675623277889
 21
4.520016985131634
 31
0.0
100
AcDbText
 73
     2
  0
POINT
  5
9A
330
78
100
AcDbEntity
  8
DEFPOINTS
  6
BYBLOCK
 62
     0
100
AcDbPoint
 10
1.937425623277889
 20
4.732097340099465
 30
0.0
  0
POINT
  5
9B
330
78
100
AcDbEntity
  8
DEFPOINTS
  6
BYBLOCK
 62
     0
100
AcDbPoint
 10
2.718675623277889
 20
4.732097340099465
 30
0.0
  0
POINT
  5
9C
330
78
100
AcDbEntity
  8
DEFPOINTS
  6
BYBLOCK
 62
     0
100
AcDbPoint
 10
2.718675623277889
 20
4.520016985131634
 30
0.0
  0
ENDBLK
  5
9D
330
78
100
AcDbEntity
  8
0
100
AcDbBlockEnd
  0
ENDSEC
  0
SECTION
  2
ENTITIES
  0
DIMENSION
  5
9E
330
1E
100
AcDbEntity
  8
ADPDIM
100
AcDbDimension
  2
*D0
 10
0.7257174322072748
 20
5.626348873237489
 30
0.0
 11
2.329135313475757
 21
5.626348873237489
 31
0.0
  1
3 1/4
100
AcDbAlignedDimension
 13
3.932553194744239
 23
4.996462619212838
 33
0.0
 14
0.7257174322072748
 24
4.996568636008378
 34
0.0
100
AcDbRotatedDimension
  0
LINE
  5
9F
330
1E
100
AcDbEntity
  8
ADP1DETAIL
100
AcDbLine
 10
3.932553194744241
 20
4.996462619212837
 30
0.0
 11
3.808074710461071
 21
5.450489982745343
 31
0.0
  0
ARC
  5
A0
330
1E
100
AcDbEntity
  8
ADP1DETAIL
100
AcDbCircle
 10
3.872759716089931
 20
4.980069330634376
 30
0.0
 40
0.062
100
AcDbArc
 50
270.0
 51
15.33177192594802
  0
DIMENSION
  5
A1
330
1E
100
AcDbEntity
  8
ADPDIM
100
AcDbDimension
  2
*D1
 10
2.718675623277889
 20
4.520016985131634
 30
0.0
 11
3.343675623277889
 21
4.520016985131634
 31
0.0
100
AcDbAlignedDimension
 13
1.937425623277889
 23
4.732097340099465
 33
0.0
 14
2.718675623277889
 24
4.732097340099465
 34
0.0
100
AcDbRotatedDimension
  0
ARC
  5
A2
330
1E
100
AcDbEntity
  8
ADP1DETAIL
100
AcDbCircle
 10
2.329045903166695
 20
10.29306933063437
 30
0.0
 40
5.0
100
AcDbArc
 50
253.7287674793836
 51
286.2823168647874
  0
LINE
  5
A3
330
1E
100
AcDbEntity
  8
ADP1DETAIL
100
AcDbLine
 10
2.70867562327789
 20
4.918069330634378
 30
0.0
 11
1.947425623277889
 21
4.918069330634377
 31
0.0
  0
LINE
  5
A4
330
1E
100
AcDbEntity
  8
ADP1DETAIL
100
AcDbLine
 10
1.80242562327789
 20
4.918069330634377
 30
0.0
 11
0.7854817436496022
 21
4.918069330634376
 31
0.0
  0
ARC
  5
A5
330
1E
100
AcDbEntity
  8
ADP1DETAIL
100
AcDbCircle
 10
0.9107506096708817
 20
5.433822222239128
 30
0.0
 40
0.062
100
AcDbArc
 50
73.7287674793837
 51
164.5666150659
  0
LINE
  5
A6
330
1E
100
AcDbEntity
  8
ADP1DETAIL
100
AcDbLine
 10
0.7257174322072765
 20
4.996568636008377
 30
0.0
 11
0.8509862982285561
 21
5.450321527613129
 31
0.0
  0
ARC
  5
A7
330
1E
100
AcDbEntity
  8
ADP1DETAIL
100
AcDbCircle
 10
0.7854817436496022
 20
4.980069330634376
 30
0.0
 40
0.062
100
AcDbArc
 50
164.5666150659001
 51
270.0
  0
LINE
  5
A8
330
1E
100
AcDbEntity
  8
ADP1DETAIL
100
AcDbLine
 10
1.937425623277889
 20
4.732097340099465
 30
0.0
 11
1.812425623277889
 21
4.732097340099465
 31
0.0
  0
ARC
  5
A9
330
1E
100
AcDbEntity
  8
ADP1DETAIL
100
AcDbCircle
 10
1.80242562327789
 20
4.908069330634377
 30
0.0
 40
0.01
100
AcDbArc
 50
0.0
 51
90.00000000000005
  0
LINE
  5
AA
330
1E
100
AcDbEntity
  8
ADP1DETAIL
100
AcDbLine
 10
1.812425623277889
 20
4.732097340099465
 30
0.0
 11
1.812425623277889
 21
4.908069330634377
 31
0.0
  0
LINE
  5
AB
330
1E
100
AcDbEntity
  8
ADP1DETAIL
100
AcDbLine
 10
1.937425623277889
 20
4.908069330634377
 30
0.0
 11
1.937425623277889
 21
4.732097340099465
 31
0.0
  0
ARC
  5
AC
330
1E
100
AcDbEntity
  8
ADP1DETAIL
100
AcDbCircle
 10
1.947425623277889
 20
4.908069330634377
 30
0.0
 40
0.01
100
AcDbArc
 50
90.00000000000007
 51
180.0
  0
LINE
  5
AD
330
1E
100
AcDbEntity
  8
ADP1DETAIL
100
AcDbLine
 10
3.872759716089931
 20
4.918069330634376
 30
0.0
 11
2.853675623277889
 21
4.918069330634376
 31
0.0
  0
LINE
  5
AE
330
1E
100
AcDbEntity
  8
ADP1DETAIL
100
AcDbLine
 10
2.843675623277889
 20
4.732097340099465
 30
0.0
 11
2.718675623277889
 21
4.732097340099465
 31
0.0
  0
LINE
  5
AF
330
1E
100
AcDbEntity
  8
ADP1DETAIL
100
AcDbLine
 10
2.718675623277889
 20
4.732097340099465
 30
0.0
 11
2.718675623277889
 21
4.908069330634378
 31
0.0
  0
ARC
  5
B0
330
1E
100
AcDbEntity
  8
ADP1DETAIL
100
AcDbCircle
 10
2.70867562327789
 20
4.908069330634378
 30
0.0
 40
0.01
100
AcDbArc
 50
0.0
 51
90.00000000000005
  0
LINE
  5
B1
330
1E
100
AcDbEntity
  8
ADP1DETAIL
100
AcDbLine
 10
2.843675623277889
 20
4.908069330634377
 30
0.0
 11
2.843675623277889
 21
4.732097340099465
 31
0.0
  0
ARC
  5
B2
330
1E
100
AcDbEntity
  8
ADP1DETAIL
100
AcDbCircle
 10
2.853675623277889
 20
4.908069330634377
 30
0.0
 40
0.01
100
AcDbArc
 50
90.0
 51
180.0
  0
ARC
  5
B3
330
1E
100
AcDbEntity
  8
ADP1DETAIL
100
AcDbCircle
 10
3.748281231806761
 20
5.434096694166881
 30
0.0
 40
0.062
100
AcDbArc
 50
15.33177192594777
 51
106.2823168647908
  0
TEXT
  5
B7
330
1E
100
AcDbEntity
  8
ADPDIM
100
AcDbText
 10
-4.197678401278726
 20
3.749580566316194
 30
0.0
 40
0.125
  1
J U L I U S  B L U M  &  C O . ,  I N C .      ( 8 0 0 )  5 2 6 - 6 2 9 3        W W W . J U L I U S B L U M . C O M        P A R T  N o .  6 9 0 7
 41
1.25
  7
ARIAL_WIDE
 72
     1
 11
2.328050623277889
 21
3.874580566316194
 31
0.0
100
AcDbText
 73
     3
  0
ENDSEC
  0
SECTION
  2
OBJECTS
  0
DICTIONARY
  5
C
330
0
100
AcDbDictionary
  3
ACAD_GROUP
350
D
  3
ACAD_LAYOUT
350
19
  3
ACAD_MLINESTYLE
350
16
  3
ACAD_PLOTSETTINGS
350
18
  3
ACAD_PLOTSTYLENAME
350
E
  3
ACDBHEADERROUNDTRIPXREC
350
24A
  3
ACDBVARIABLEDICTIONARY
350
128
  0
DICTIONARY
  5
F3
330
1E
100
AcDbDictionary
280
     1
  3
ACAD_LAYOUTSELFREF
360
26C
  0
DICTIONARY
  5
F5
330
1A
100
AcDbDictionary
280
     1
  3
ACAD_LAYOUTSELFREF
360
26B
  0
DICTIONARY
  5
D
102
{ACAD_REACTORS
330
C
102
}
330
C
100
AcDbDictionary
  0
DICTIONARY
  5
19
102
{ACAD_REACTORS
330
C
102
}
330
C
100
AcDbDictionary
  0
DICTIONARY
  5
16
102
{ACAD_REACTORS
330
C
102
}
330
C
100
AcDbDictionary
  3
STANDARD
350
17
  0
DICTIONARY
  5
18
102
{ACAD_REACTORS
330
C
102
}
330
C
100
AcDbDictionary
  0
ACDBDICTIONARYWDFLT
  5
E
102
{ACAD_REACTORS
330
C
102
}
330
C
100
AcDbDictionary
281
     1
  3
Normal
350
F
100
AcDbDictionaryWithDefault
340
F
  0
DICTIONARY
  5
24A
102
{ACAD_REACTORS
330
C
102
}
330
C
100
AcDbDictionary
  3
CEPSNTYPE
350
254
  3
DIMSTYLEDATA
350
258
  3
FINGERPRINTGUID
350
255
  3
HYPERLINKBASE
350
24D
  3
INSUNITS
350
253
  3
LAYOUTDICT
350
24F
  3
LWETCUNION
350
252
  3
PLOTSETDICT
350
250
  3
PLOTSTYLNAMDICT
350
251
  3
PSVPSCALE
350
257
  3
PUCSBASE
350
25B
  3
PUCSORGBACK
350
261
  3
PUCSORGBOTTOM
350
25D
  3
PUCSORGFRONT
350
260
  3
PUCSORGLEFT
350
25E
  3
PUCSORGRIGHT
350
25F
  3
PUCSORGTOP
350
25C
  3
PUCSORTHOREF
350
259
  3
PUCSORTHOVIEW
350
25A
  3
STYLESHEET
350
24E
  3
TSTACKALIGN
350
24B
  3
TSTACKSIZE
350
24C
  3
UCSBASE
350
264
  3
UCSORGBACK
350
26A
  3
UCSORGBOTTOM
350
266
  3
UCSORGFRONT
350
269
  3
UCSORGLEFT
350
267
  3
UCSORGRIGHT
350
268
  3
UCSORGTOP
350
265
  3
UCSORTHOREF
350
262
  3
UCSORTHOVIEW
350
263
  3
VERSIONGUID
350
256
  0
DICTIONARY
  5
128
102
{ACAD_REACTORS
330
C
102
}
330
C
100
AcDbDictionary
  3
DIMASSOC
350
12A
  3
HIDETEXT
350
129
  0
XRECORD
  5
26C
102
{ACAD_REACTORS
330
F3
102
}
330
F3
100
AcDbXrecord
340
1E
  0
XRECORD
  5
26B
102
{ACAD_REACTORS
330
F5
102
}
330
F5
100
AcDbXrecord
340
1A
  0
MLINESTYLE
  5
17
102
{ACAD_REACTORS
330
16
102
}
330
16
100
AcDbMlineStyle
  2
STANDARD
 70
     0
  3

 62
   256
 51
90.0
 52
90.0
 71
     2
 49
0.5
 62
   256
  6
BYLAYER
 49
-0.5
 62
   256
  6
BYLAYER
  0
ACDBPLACEHOLDER
  5
F
102
{ACAD_REACTORS
330
E
102
}
330
E
100
AcDbPlaceHolder
280
     0
  0
XRECORD
  5
254
102
{ACAD_REACTORS
330
24A
102
}
330
24A
100
AcDbXrecord
 90
        0
  0
XRECORD
  5
258
102
{ACAD_REACTORS
330
24A
102
}
330
24A
100
AcDbXrecord
1000
DSTYLE
1002
{
1070
   277
 70
     5
1070
   279
 70
     2
1002
}
  0
XRECORD
  5
255
102
{ACAD_REACTORS
330
24A
102
}
330
24A
100
AcDbXrecord
  1
{6AE8663F-0CAD-468D-8B98-D72C66DF4493}
  0
XRECORD
  5
24D
102
{ACAD_REACTORS
330
24A
102
}
330
24A
100
AcDbXrecord
  1

  0
XRECORD
  5
253
102
{ACAD_REACTORS
330
24A
102
}
330
24A
100
AcDbXrecord
 90
        0
  0
XRECORD
  5
24F
102
{ACAD_REACTORS
330
24A
102
}
330
24A
100
AcDbXrecord
340
19
  0
XRECORD
  5
252
102
{ACAD_REACTORS
330
24A
102
}
330
24A
100
AcDbXrecord
 90
    14877
  0
XRECORD
  5
250
102
{ACAD_REACTORS
330
24A
102
}
330
24A
100
AcDbXrecord
340
18
  0
XRECORD
  5
251
102
{ACAD_REACTORS
330
24A
102
}
330
24A
100
AcDbXrecord
340
E
  0
XRECORD
  5
257
102
{ACAD_REACTORS
330
24A
102
}
330
24A
100
AcDbXrecord
 40
0.0
  0
XRECORD
  5
25B
102
{ACAD_REACTORS
330
24A
102
}
330
24A
100
AcDbXrecord
340
0
  0
XRECORD
  5
261
102
{ACAD_REACTORS
330
24A
102
}
330
24A
100
AcDbXrecord
 10
0.0
 20
0.0
 30
0.0
  0
XRECORD
  5
25D
102
{ACAD_REACTORS
330
24A
102
}
330
24A
100
AcDbXrecord
 10
0.0
 20
0.0
 30
0.0
  0
XRECORD
  5
260
102
{ACAD_REACTORS
330
24A
102
}
330
24A
100
AcDbXrecord
 10
0.0
 20
0.0
 30
0.0
  0
XRECORD
  5
25E
102
{ACAD_REACTORS
330
24A
102
}
330
24A
100
AcDbXrecord
 10
0.0
 20
0.0
 30
0.0
  0
XRECORD
  5
25F
102
{ACAD_REACTORS
330
24A
102
}
330
24A
100
AcDbXrecord
 10
0.0
 20
0.0
 30
0.0
  0
XRECORD
  5
25C
102
{ACAD_REACTORS
330
24A
102
}
330
24A
100
AcDbXrecord
 10
0.0
 20
0.0
 30
0.0
  0
XRECORD
  5
259
102
{ACAD_REACTORS
330
24A
102
}
330
24A
100
AcDbXrecord
340
0
  0
XRECORD
  5
25A
102
{ACAD_REACTORS
330
24A
102
}
330
24A
100
AcDbXrecord
 70
     0
  0
XRECORD
  5
24E
102
{ACAD_REACTORS
330
24A
102
}
330
24A
100
AcDbXrecord
  1

  0
XRECORD
  5
24B
102
{ACAD_REACTORS
330
24A
102
}
330
24A
100
AcDbXrecord
 90
        1
  0
XRECORD
  5
24C
102
{ACAD_REACTORS
330
24A
102
}
330
24A
100
AcDbXrecord
 90
       70
  0
XRECORD
  5
264
102
{ACAD_REACTORS
330
24A
102
}
330
24A
100
AcDbXrecord
340
0
  0
XRECORD
  5
26A
102
{ACAD_REACTORS
330
24A
102
}
330
24A
100
AcDbXrecord
 10
0.0
 20
0.0
 30
0.0
  0
XRECORD
  5
266
102
{ACAD_REACTORS
330
24A
102
}
330
24A
100
AcDbXrecord
 10
0.0
 20
0.0
 30
0.0
  0
XRECORD
  5
269
102
{ACAD_REACTORS
330
24A
102
}
330
24A
100
AcDbXrecord
 10
0.0
 20
0.0
 30
0.0
  0
XRECORD
  5
267
102
{ACAD_REACTORS
330
24A
102
}
330
24A
100
AcDbXrecord
 10
0.0
 20
0.0
 30
0.0
  0
XRECORD
  5
268
102
{ACAD_REACTORS
330
24A
102
}
330
24A
100
AcDbXrecord
 10
0.0
 20
0.0
 30
0.0
  0
XRECORD
  5
265
102
{ACAD_REACTORS
330
24A
102
}
330
24A
100
AcDbXrecord
 10
0.0
 20
0.0
 30
0.0
  0
XRECORD
  5
262
102
{ACAD_REACTORS
330
24A
102
}
330
24A
100
AcDbXrecord
340
0
  0
XRECORD
  5
263
102
{ACAD_REACTORS
330
24A
102
}
330
24A
100
AcDbXrecord
 70
     0
  0
XRECORD
  5
256
102
{ACAD_REACTORS
330
24A
102
}
330
24A
100
AcDbXrecord
  1
{B3C9E3CC-7116-4E00-A13D-9F5ED99FC435}
  0
DICTIONARYVAR
  5
12A
102
{ACAD_REACTORS
330
128
102
}
330
128
100
DictionaryVariables
280
     0
  1
2
  0
DICTIONARYVAR
  5
129
102
{ACAD_REACTORS
330
128
102
}
330
128
100
DictionaryVariables
280
     0
  1
1
  0
ENDSEC
  0
EOF
