  0
SECTION
  2
HEADER
  9
$ACADVER
  1
AC1014
  9
$ACADMAINTVER
 70
     9
  9
$DWGCODEPAGE
  3
ANSI_1252
  9
$INSBASE
 10
-8.173637143402766
 20
8.408739305472561
 30
0.0
  9
$EXTMIN
 10
-18.09489906762624
 20
5.429824255500321
 30
0.0
  9
$EXTMAX
 10
2.009711692946748
 20
16.78574024415824
 30
0.0
  9
$LIMMIN
 10
0.0
 20
0.0
  9
$LIMMAX
 10
36.0
 20
36.0
  9
$ORTHOMODE
 70
     1
  9
$REGENMODE
 70
     1
  9
$FILLMODE
 70
     1
  9
$QTEXTMODE
 70
     0
  9
$MIRRTEXT
 70
     1
  9
$DRAGMODE
 70
     0
  9
$LTSCALE
 40
1.0
  9
$OSMODE
 70
    37
  9
$ATTMODE
 70
     1
  9
$TEXTSIZE
 40
0.2
  9
$TRACEWID
 40
0.05
  9
$TEXTSTYLE
  7
STANDARD
  9
$CLAYER
  8
0
  9
$CELTYPE
  6
BYLAYER
  9
$CECOLOR
 62
   256
  9
$CELTSCALE
 40
1.0
  9
$DELOBJ
 70
     1
  9
$DISPSILH
 70
     0
  9
$DIMSCALE
 40
1.0
  9
$DIMASZ
 40
0.125
  9
$DIMEXO
 40
0.0625
  9
$DIMDLI
 40
0.38
  9
$DIMRND
 40
0.0
  9
$DIMDLE
 40
0.0
  9
$DIMEXE
 40
0.18
  9
$DIMTP
 40
0.0
  9
$DIMTM
 40
0.0
  9
$DIMTXT
 40
0.125
  9
$DIMCEN
 40
0.1875
  9
$DIMTSZ
 40
0.125
  9
$DIMTOL
 70
     0
  9
$DIMLIM
 70
     0
  9
$DIMTIH
 70
     0
  9
$DIMTOH
 70
     0
  9
$DIMSE1
 70
     0
  9
$DIMSE2
 70
     0
  9
$DIMTAD
 70
     0
  9
$DIMZIN
 70
     3
  9
$DIMBLK
  1

  9
$DIMASO
 70
     1
  9
$DIMSHO
 70
     1
  9
$DIMPOST
  1

  9
$DIMAPOST
  1

  9
$DIMALT
 70
     0
  9
$DIMALTD
 70
     1
  9
$DIMALTF
 40
25.4
  9
$DIMLFAC
 40
1.0
  9
$DIMTOFL
 70
     0
  9
$DIMTVP
 40
0.0
  9
$DIMTIX
 70
     0
  9
$DIMSOXD
 70
     0
  9
$DIMSAH
 70
     0
  9
$DIMBLK1
  1

  9
$DIMBLK2
  1

  9
$DIMSTYLE
  2
STANDARD
  9
$DIMCLRD
 70
     0
  9
$DIMCLRE
 70
     0
  9
$DIMCLRT
 70
     0
  9
$DIMTFAC
 40
1.0
  9
$DIMGAP
 40
0.125
  9
$DIMJUST
 70
     0
  9
$DIMSD1
 70
     0
  9
$DIMSD2
 70
     0
  9
$DIMTOLJ
 70
     1
  9
$DIMTZIN
 70
     3
  9
$DIMALTZ
 70
     3
  9
$DIMALTTZ
 70
     3
  9
$DIMFIT
 70
     5
  9
$DIMUPT
 70
     0
  9
$DIMUNIT
 70
     5
  9
$DIMDEC
 70
     4
  9
$DIMTDEC
 70
     4
  9
$DIMALTU
 70
     5
  9
$DIMALTTD
 70
     1
  9
$DIMTXSTY
  7
STANDARD
  9
$DIMAUNIT
 70
     0
  9
$LUNITS
 70
     5
  9
$LUPREC
 70
     4
  9
$SKETCHINC
 40
0.1
  9
$FILLETRAD
 40
0.187
  9
$AUNITS
 70
     0
  9
$AUPREC
 70
     0
  9
$MENU
  1
acad
  9
$ELEVATION
 40
0.0
  9
$PELEVATION
 40
0.0
  9
$THICKNESS
 40
0.0
  9
$LIMCHECK
 70
     0
  9
$BLIPMODE
 70
     0
  9
$CHAMFERA
 40
0.0
  9
$CHAMFERB
 40
0.0
  9
$CHAMFERC
 40
0.0
  9
$CHAMFERD
 40
0.0
  9
$SKPOLY
 70
     0
  9
$TDCREATE
 40
2450399.649973958
  9
$TDUPDATE
 40
2452297.095350289
  9
$TDINDWG
 40
0.0504803241
  9
$TDUSRTIMER
 40
0.0504803241
  9
$USRTIMER
 70
     1
  9
$ANGBASE
 50
0.0
  9
$ANGDIR
 70
     0
  9
$PDMODE
 70
     0
  9
$PDSIZE
 40
0.0
  9
$PLINEWID
 40
0.0
  9
$COORDS
 70
     2
  9
$SPLFRAME
 70
     0
  9
$SPLINETYPE
 70
     6
  9
$SPLINESEGS
 70
     8
  9
$ATTDIA
 70
     0
  9
$ATTREQ
 70
     1
  9
$HANDLING
 70
 22529
  9
$HANDSEED
  5
299
  9
$SURFTAB1
 70
     6
  9
$SURFTAB2
 70
     6
  9
$SURFTYPE
 70
     6
  9
$SURFU
 70
     6
  9
$SURFV
 70
     6
  9
$UCSNAME
  2

  9
$UCSORG
 10
0.0
 20
0.0
 30
0.0
  9
$UCSXDIR
 10
1.0
 20
0.0
 30
0.0
  9
$UCSYDIR
 10
0.0
 20
1.0
 30
0.0
  9
$PUCSNAME
  2

  9
$PUCSORG
 10
0.0
 20
0.0
 30
0.0
  9
$PUCSXDIR
 10
1.0
 20
0.0
 30
0.0
  9
$PUCSYDIR
 10
0.0
 20
1.0
 30
0.0
  9
$USERI1
 70
     0
  9
$USERI2
 70
     0
  9
$USERI3
 70
     0
  9
$USERI4
 70
     0
  9
$USERI5
 70
     0
  9
$USERR1
 40
0.0
  9
$USERR2
 40
0.0
  9
$USERR3
 40
0.0
  9
$USERR4
 40
0.0
  9
$USERR5
 40
0.0
  9
$WORLDVIEW
 70
     1
  9
$SHADEDGE
 70
     3
  9
$SHADEDIF
 70
    70
  9
$TILEMODE
 70
     1
  9
$MAXACTVP
 70
    15
  9
$PINSBASE
 10
0.0004882914945483
 20
0.7501408034022604
 30
0.0
  9
$PLIMCHECK
 70
     0
  9
$PEXTMIN
 10
1.000000000000000E+20
 20
1.000000000000000E+20
 30
1.000000000000000E+20
  9
$PEXTMAX
 10
-1.000000000000000E+20
 20
-1.000000000000000E+20
 30
-1.000000000000000E+20
  9
$PLIMMIN
 10
0.0
 20
0.0
  9
$PLIMMAX
 10
12.0
 20
9.0
  9
$UNITMODE
 70
     0
  9
$VISRETAIN
 70
     0
  9
$PLINEGEN
 70
     0
  9
$PSLTSCALE
 70
     1
  9
$TREEDEPTH
 70
  3020
  9
$PICKSTYLE
 70
     1
  9
$CMLSTYLE
  2
STANDARD
  9
$CMLJUST
 70
     0
  9
$CMLSCALE
 40
1.0
  9
$PROXYGRAPHICS
 70
     1
  9
$MEASUREMENT
 70
     0
  0
ENDSEC
  0
SECTION
  2
CLASSES
  0
CLASS
  1
ACDBDICTIONARYWDFLT
  2
AcDbDictionaryWithDefault
  3
AutoCAD 2000
 90
        0
280
     0
281
     0
  0
CLASS
  1
ACDBPLACEHOLDER
  2
AcDbPlaceHolder
  3
AutoCAD 2000
 90
        0
280
     0
281
     0
  0
CLASS
  1
LAYOUT
  2
AcDbLayout
  3
AutoCAD 2000
 90
        0
280
     0
281
     0
  0
CLASS
  1
DICTIONARYVAR
  2
AcDbDictionaryVar
  3
AutoCAD 2000
 90
        0
280
     0
281
     0
  0
CLASS
  1
LONG_TRANSACTION
  2
AcDbLongTransaction
  3
AutoCAD 2000
 90
        0
280
     0
281
     0
  0
CLASS
  1
LWPOLYLINE
  2
AcDbPolyline
  3
AutoCAD 2000
 90
        0
280
     0
281
     1
  0
CLASS
  1
HATCH
  2
AcDbHatch
  3
AutoCAD 2000
 90
        0
280
     0
281
     1
  0
CLASS
  1
XRECORD
  2
AcDbXrecord
  3
AutoCAD 2000
 90
        0
280
     0
281
     0
  0
CLASS
  1
LONG_TRANSACTION
  2
AcDbLongTransaction
  3
AutoCAD 2000
 90
        0
280
     0
281
     0
  0
CLASS
  1
LWPOLYLINE
  2
AcDbPolyline
  3
AutoCAD 2000
 90
        0
280
     0
281
     1
  0
CLASS
  1
HATCH
  2
AcDbHatch
  3
AutoCAD 2000
 90
        0
280
     0
281
     1
  0
CLASS
  1
XRECORD
  2
AcDbXrecord
  3
AutoCAD 2000
 90
        0
280
     0
281
     0
  0
CLASS
  1
LONG_TRANSACTION
  2
AcDbLongTransaction
  3
AutoCAD 2000
 90
        0
280
     0
281
     0
  0
CLASS
  1
LWPOLYLINE
  2
AcDbPolyline
  3
AutoCAD 2000
 90
        0
280
     0
281
     1
  0
CLASS
  1
HATCH
  2
AcDbHatch
  3
AutoCAD 2000
 90
        0
280
     0
281
     1
  0
CLASS
  1
XRECORD
  2
AcDbXrecord
  3
AutoCAD 2000
 90
        0
280
     0
281
     0
  0
CLASS
  1
LONG_TRANSACTION
  2
AcDbLongTransaction
  3
AutoCAD 2000
 90
        0
280
     0
281
     0
  0
CLASS
  1
LWPOLYLINE
  2
AcDbPolyline
  3
AutoCAD 2000
 90
        0
280
     0
281
     1
  0
CLASS
  1
HATCH
  2
AcDbHatch
  3
AutoCAD 2000
 90
        0
280
     0
281
     1
  0
CLASS
  1
XRECORD
  2
AcDbXrecord
  3
AutoCAD 2000
 90
        0
280
     0
281
     0
  0
CLASS
  1
LONG_TRANSACTION
  2
AcDbLongTransaction
  3
AutoCAD 2000
 90
        0
280
     0
281
     0
  0
CLASS
  1
LWPOLYLINE
  2
AcDbPolyline
  3
AutoCAD 2000
 90
        0
280
     0
281
     1
  0
CLASS
  1
HATCH
  2
AcDbHatch
  3
AutoCAD 2000
 90
        0
280
     0
281
     1
  0
CLASS
  1
XRECORD
  2
AcDbXrecord
  3
AutoCAD 2000
 90
        0
280
     0
281
     0
  0
ENDSEC
  0
SECTION
  2
TABLES
  0
TABLE
  2
VPORT
  5
8
330
0
100
AcDbSymbolTable
 70
     2
  0
VPORT
  5
275
330
8
100
AcDbSymbolTableRecord
100
AcDbViewportTableRecord
  2
*ACTIVE
 70
     0
 10
0.0
 20
0.0
 11
1.0
 21
1.0
 12
-8.025027873279
 22
11.10745246837318
 13
0.0
 23
0.0
 14
0.5740882589684922
 24
0.5740882589684922
 15
0.5
 25
0.5
 16
0.0
 26
0.0
 36
1.0
 17
0.0
 27
0.0
 37
0.0
 40
12.88589636836107
 41
1.570528967254408
 42
50.0
 43
0.0
 44
0.0
 50
0.0
 51
0.0
 71
     0
 72
   100
 73
     1
 74
     0
 75
     0
 76
     0
 77
     0
 78
     0
  0
ENDTAB
  0
TABLE
  2
LTYPE
  5
5
330
0
100
AcDbSymbolTable
 70
     2
  0
LTYPE
  5
13
330
5
100
AcDbSymbolTableRecord
100
AcDbLinetypeTableRecord
  2
BYBLOCK
 70
     0
  3

 72
    65
 73
     0
 40
0.0
  0
LTYPE
  5
14
330
5
100
AcDbSymbolTableRecord
100
AcDbLinetypeTableRecord
  2
BYLAYER
 70
     0
  3

 72
    65
 73
     0
 40
0.0
  0
LTYPE
  5
15
330
5
100
AcDbSymbolTableRecord
100
AcDbLinetypeTableRecord
  2
CONTINUOUS
 70
     0
  3
Solid line
 72
    65
 73
     0
 40
0.0
  0
LTYPE
  5
88
330
5
100
AcDbSymbolTableRecord
100
AcDbLinetypeTableRecord
  2
DASHDOT
 70
     0
  3
__ . __ . __ . __ . __ . __ . __ . __ . __ . __
 72
    65
 73
     4
 40
1.0
 49
0.5
 74
     0
 49
-0.25
 74
     0
 49
0.0
 74
     0
 49
-0.25
 74
     0
  0
ENDTAB
  0
TABLE
  2
LAYER
  5
2
330
0
100
AcDbSymbolTable
 70
     5
  0
LAYER
  5
10
330
2
100
AcDbSymbolTableRecord
100
AcDbLayerTableRecord
  2
0
 70
     0
 62
     7
  6
CONTINUOUS
  0
LAYER
  5
8C
330
2
100
AcDbSymbolTableRecord
100
AcDbLayerTableRecord
  2
ADP1DETAIL
 70
     0
 62
     7
  6
CONTINUOUS
  0
LAYER
  5
8D
330
2
100
AcDbSymbolTableRecord
100
AcDbLayerTableRecord
  2
ADP3DETAIL
 70
     0
 62
     1
  6
CONTINUOUS
  0
LAYER
  5
8E
330
2
100
AcDbSymbolTableRecord
100
AcDbLayerTableRecord
  2
DEFPOINTS
 70
     0
 62
     7
  6
CONTINUOUS
  0
LAYER
  5
8F
330
2
100
AcDbSymbolTableRecord
100
AcDbLayerTableRecord
  2
ADPDIM
 70
     0
 62
     3
  6
CONTINUOUS
  0
ENDTAB
  0
TABLE
  2
STYLE
  5
3
330
0
100
AcDbSymbolTable
 70
     2
  0
STYLE
  5
11
330
3
100
AcDbSymbolTableRecord
100
AcDbTextStyleTableRecord
  2
STANDARD
 70
     0
 40
0.0
 41
1.0
 50
0.0
 71
     0
 42
0.2
  3
txt
  4

  0
STYLE
  5
E2
330
3
100
AcDbSymbolTableRecord
100
AcDbTextStyleTableRecord
  2
ARIAL_WIDE
 70
     0
 40
0.0
 41
1.25
 50
0.0
 71
     0
 42
0.2
  3
ARIAL.TTF
  4

1001
ACAD
1000
Arial
1071
       34
  0
ENDTAB
  0
TABLE
  2
VIEW
  5
6
330
0
100
AcDbSymbolTable
 70
     0
  0
ENDTAB
  0
TABLE
  2
UCS
  5
7
330
0
100
AcDbSymbolTable
 70
     0
  0
ENDTAB
  0
TABLE
  2
APPID
  5
9
330
0
100
AcDbSymbolTable
 70
     1
  0
APPID
  5
12
330
9
100
AcDbSymbolTableRecord
100
AcDbRegAppTableRecord
  2
ACAD
 70
     0
  0
ENDTAB
  0
TABLE
  2
DIMSTYLE
  5
A
330
0
100
AcDbSymbolTable
 70
     1
  0
DIMSTYLE
105
E0
330
A
100
AcDbSymbolTableRecord
100
AcDbDimStyleTableRecord
  2
STANDARD
 70
     0
  3

  4

  5

  6

  7

 40
1.0
 41
0.18
 42
0.0625
 43
0.38
 44
0.18
 45
0.0
 46
0.0
 47
0.0
 48
0.0
140
0.18
141
0.09
142
0.0
143
25.4
144
1.0
145
0.0
146
1.0
147
0.09
 71
     0
 72
     0
 73
     1
 74
     1
 75
     0
 76
     0
 77
     0
 78
     0
170
     0
171
     2
172
     0
173
     0
174
     0
175
     0
176
     0
177
     0
178
     0
270
     2
271
     4
272
     4
273
     2
274
     2
340
11
275
     0
280
     0
281
     0
282
     0
283
     1
284
     0
285
     0
286
     0
287
     3
288
     0
  0
ENDTAB
  0
TABLE
  2
BLOCK_RECORD
  5
1
330
0
100
AcDbSymbolTable
 70
     4
  0
BLOCK_RECORD
  5
1E
102
{ACAD_XDICTIONARY
360
11F
102
}
330
1
100
AcDbSymbolTableRecord
100
AcDbBlockTableRecord
  2
*MODEL_SPACE
  0
BLOCK_RECORD
  5
1A
102
{ACAD_XDICTIONARY
360
121
102
}
330
1
100
AcDbSymbolTableRecord
100
AcDbBlockTableRecord
  2
*PAPER_SPACE
  0
BLOCK_RECORD
  5
7C
330
1
100
AcDbSymbolTableRecord
100
AcDbBlockTableRecord
  2
*D0
  0
BLOCK_RECORD
  5
7D
330
1
100
AcDbSymbolTableRecord
100
AcDbBlockTableRecord
  2
*D1
  0
BLOCK_RECORD
  5
80
330
1
100
AcDbSymbolTableRecord
100
AcDbBlockTableRecord
  2
*D2
  0
BLOCK_RECORD
  5
81
330
1
100
AcDbSymbolTableRecord
100
AcDbBlockTableRecord
  2
*D3
  0
ENDTAB
  0
ENDSEC
  0
SECTION
  2
BLOCKS
  0
BLOCK
  5
92
330
1E
100
AcDbEntity
  8
0
100
AcDbBlockBegin
  2
*MODEL_SPACE
 70
     0
 10
0.0
 20
0.0
 30
0.0
  3
*MODEL_SPACE
  1

  0
ENDBLK
  5
93
330
1E
100
AcDbEntity
  8
0
100
AcDbBlockEnd
  0
BLOCK
  5
90
330
1A
100
AcDbEntity
 67
     1
  8
0
100
AcDbBlockBegin
  2
*PAPER_SPACE
 70
     0
 10
0.0
 20
0.0
 30
0.0
  3
*PAPER_SPACE
  1

  0
ENDBLK
  5
91
330
1A
100
AcDbEntity
 67
     1
  8
0
100
AcDbBlockEnd
  0
BLOCK
  5
95
330
7C
100
AcDbEntity
  8
0
100
AcDbBlockBegin
  2
*D0
 70
     1
 10
0.0
 20
0.0
 30
0.0
  3
*D0
  1

  0
LINE
  5
96
330
7C
100
AcDbEntity
  8
0
  6
BYBLOCK
 62
     0
100
AcDbLine
 10
-9.170813489044739
 20
13.02920330139366
 30
0.0
 11
-7.057196284711832
 21
10.91729154054913
 31
0.0
  0
LINE
  5
97
330
7C
100
AcDbEntity
  8
0
  6
BYBLOCK
 62
     0
100
AcDbLine
 10
-9.347590169943201
 20
13.02913195348863
 30
0.0
 11
-8.994036808146278
 21
13.0292746492987
 31
0.0
  0
TEXT
  5
98
330
7C
100
AcDbEntity
  8
0
  6
BYBLOCK
 62
     0
100
AcDbText
 10
-7.012948603558439
 20
10.78472686685155
 30
0.0
 40
0.125
  1
R3
 50
315.0231248465178
 72
     1
 11
-6.895085591641959
 21
10.75531165197183
 31
0.0
100
AcDbText
 73
     2
  0
POINT
  5
9A
330
7C
100
AcDbEntity
  8
DEFPOINTS
  6
BYBLOCK
 62
     0
100
AcDbPoint
 10
-9.170813489044739
 20
13.02920330139366
 30
0.0
  0
POINT
  5
9B
330
7C
100
AcDbEntity
  8
DEFPOINTS
  6
BYBLOCK
 62
     0
100
AcDbPoint
 10
-7.048637143402767
 20
10.90873930547256
 30
0.0
  0
ENDBLK
  5
9C
330
7C
100
AcDbEntity
  8
0
100
AcDbBlockEnd
  0
BLOCK
  5
9D
330
7D
100
AcDbEntity
  8
0
100
AcDbBlockBegin
  2
*D1
 70
     1
 10
0.0
 20
0.0
 30
0.0
  3
*D1
  1

  0
LINE
  5
9E
330
7D
100
AcDbEntity
  8
0
  6
BYBLOCK
 62
     0
100
AcDbLine
 10
-8.548637143402766
 20
8.408739305472561
 30
0.0
 11
-7.470758005803846
 21
8.408739305472561
 31
0.0
  0
LINE
  5
9F
330
7D
100
AcDbEntity
  8
0
  6
BYBLOCK
 62
     0
100
AcDbLine
 10
-7.369696284711833
 20
10.91729154054913
 30
0.0
 11
-7.830758005803845
 21
10.91729154054913
 31
0.0
  0
LINE
  5
A0
330
7D
100
AcDbEntity
  8
0
  6
BYBLOCK
 62
     0
100
AcDbLine
 10
-7.650758005803846
 20
8.408739305472561
 30
0.0
 11
-7.650758005803846
 21
9.267182089677513
 31
0.0
  0
LINE
  5
A1
330
7D
100
AcDbEntity
  8
0
  6
BYBLOCK
 62
     0
100
AcDbLine
 10
-7.650758005803846
 20
10.91729154054913
 30
0.0
 11
-7.650758005803846
 21
10.05884875634418
 31
0.0
  0
LINE
  5
A2
330
7D
100
AcDbEntity
  8
0
  6
BYBLOCK
 62
     0
100
AcDbLine
 10
-7.525758005803846
 20
8.283739305472561
 30
0.0
 11
-7.775758005803846
 21
8.533739305472561
 31
0.0
  0
LINE
  5
A3
330
7D
100
AcDbEntity
  8
0
  6
BYBLOCK
 62
     0
100
AcDbLine
 10
-7.525758005803846
 20
10.79229154054913
 30
0.0
 11
-7.775758005803846
 21
11.04229154054913
 31
0.0
  0
TEXT
  5
A4
330
7D
100
AcDbEntity
  8
0
  6
BYBLOCK
 62
     0
100
AcDbText
 10
-7.588258005803846
 20
9.392182089677513
 30
0.0
 40
0.125
  1
2 1/2
 50
90.0
 72
     1
 11
-7.650758005803846
 21
9.663015423010847
 31
0.0
100
AcDbText
 73
     2
  0
POINT
  5
A5
330
7D
100
AcDbEntity
  8
DEFPOINTS
  6
BYBLOCK
 62
     0
100
AcDbPoint
 10
-8.611137143402766
 20
8.408739305472561
 30
0.0
  0
POINT
  5
A6
330
7D
100
AcDbEntity
  8
DEFPOINTS
  6
BYBLOCK
 62
     0
100
AcDbPoint
 10
-7.307196284711833
 20
10.91729154054913
 30
0.0
  0
POINT
  5
A7
330
7D
100
AcDbEntity
  8
DEFPOINTS
  6
BYBLOCK
 62
     0
100
AcDbPoint
 10
-7.650758005803846
 20
10.91729154054913
 30
0.0
  0
ENDBLK
  5
A8
330
7D
100
AcDbEntity
  8
0
100
AcDbBlockEnd
  0
BLOCK
  5
A9
330
80
100
AcDbEntity
  8
0
100
AcDbBlockBegin
  2
*D2
 70
     1
 10
0.0
 20
0.0
 30
0.0
  3
*D2
  1

  0
LINE
  5
AA
330
80
100
AcDbEntity
  8
0
  6
BYBLOCK
 62
     0
100
AcDbLine
 10
-11.91285801071501
 20
7.314707890586789
 30
0.0
 11
-11.91285801071501
 21
7.845302413477546
 31
0.0
  0
LINE
  5
AB
330
80
100
AcDbEntity
  8
0
  6
BYBLOCK
 62
     0
100
AcDbLine
 10
-8.176278997495117
 20
7.314707890586789
 30
0.0
 11
-8.176278997495117
 21
7.845302413477546
 31
0.0
  0
LINE
  5
AC
330
80
100
AcDbEntity
  8
0
  6
BYBLOCK
 62
     0
100
AcDbLine
 10
-11.91285801071501
 20
7.665302413477546
 30
0.0
 11
-10.46123517077173
 21
7.665302413477546
 31
0.0
  0
LINE
  5
AD
330
80
100
AcDbEntity
  8
0
  6
BYBLOCK
 62
     0
100
AcDbLine
 10
-8.176278997495117
 20
7.665302413477546
 30
0.0
 11
-9.627901837438402
 21
7.665302413477546
 31
0.0
  0
LINE
  5
AE
330
80
100
AcDbEntity
  8
0
  6
BYBLOCK
 62
     0
100
AcDbLine
 10
-12.03785801071502
 20
7.540302413477546
 30
0.0
 11
-11.78785801071501
 21
7.790302413477546
 31
0.0
  0
LINE
  5
AF
330
80
100
AcDbEntity
  8
0
  6
BYBLOCK
 62
     0
100
AcDbLine
 10
-8.301278997495117
 20
7.540302413477546
 30
0.0
 11
-8.051278997495117
 21
7.790302413477546
 31
0.0
  0
TEXT
  5
B0
330
80
100
AcDbEntity
  8
0
  6
BYBLOCK
 62
     0
100
AcDbText
 10
-10.33623517077173
 20
7.602802413477546
 30
0.0
 40
0.125
  1
3 3/4
 72
     1
 11
-10.04456850410506
 21
7.665302413477546
 31
0.0
100
AcDbText
 73
     2
  0
POINT
  5
B1
330
80
100
AcDbEntity
  8
DEFPOINTS
  6
BYBLOCK
 62
     0
100
AcDbPoint
 10
-11.91285801071501
 20
7.252207890586789
 30
0.0
  0
POINT
  5
B2
330
80
100
AcDbEntity
  8
DEFPOINTS
  6
BYBLOCK
 62
     0
100
AcDbPoint
 10
-8.176278997495117
 20
7.252207890586789
 30
0.0
  0
POINT
  5
B3
330
80
100
AcDbEntity
  8
DEFPOINTS
  6
BYBLOCK
 62
     0
100
AcDbPoint
 10
-8.176278997495117
 20
7.665302413477546
 30
0.0
  0
ENDBLK
  5
B4
330
80
100
AcDbEntity
  8
0
100
AcDbBlockEnd
  0
BLOCK
  5
B5
330
81
100
AcDbEntity
  8
0
100
AcDbBlockBegin
  2
*D3
 70
     1
 10
0.0
 20
0.0
 30
0.0
  3
*D3
  1

  0
LINE
  5
B6
330
81
100
AcDbEntity
  8
0
  6
BYBLOCK
 62
     0
100
AcDbLine
 10
-10.43352770113909
 20
6.720869041882002
 30
0.0
 11
-10.43352770113909
 21
6.368434039446976
 31
0.0
  0
LINE
  5
B7
330
81
100
AcDbEntity
  8
0
  6
BYBLOCK
 62
     0
100
AcDbLine
 10
-9.645609307071042
 20
6.720869041882002
 30
0.0
 11
-9.645609307071042
 21
6.368434039446976
 31
0.0
  0
LINE
  5
B8
330
81
100
AcDbEntity
  8
0
  6
BYBLOCK
 62
     0
100
AcDbLine
 10
-10.43352770113909
 20
6.548434039446976
 30
0.0
 11
-10.68352770113909
 21
6.548434039446976
 31
0.0
  0
LINE
  5
B9
330
81
100
AcDbEntity
  8
0
  6
BYBLOCK
 62
     0
100
AcDbLine
 10
-9.645609307071042
 20
6.548434039446976
 30
0.0
 11
-9.395609307071042
 21
6.548434039446976
 31
0.0
  0
LINE
  5
BA
330
81
100
AcDbEntity
  8
0
  6
BYBLOCK
 62
     0
100
AcDbLine
 10
-10.55852770113909
 20
6.423434039446976
 30
0.0
 11
-10.30852770113909
 21
6.673434039446976
 31
0.0
  0
LINE
  5
BB
330
81
100
AcDbEntity
  8
0
  6
BYBLOCK
 62
     0
100
AcDbLine
 10
-9.770609307071042
 20
6.423434039446976
 30
0.0
 11
-9.520609307071042
 21
6.673434039446976
 31
0.0
  0
TEXT
  5
BC
330
81
100
AcDbEntity
  8
0
  6
BYBLOCK
 62
     0
100
AcDbText
 10
-9.270609307071042
 20
6.485934039446976
 30
0.0
 40
0.125
  1
13/16
 72
     1
 11
-9.020609307071042
 21
6.548434039446976
 31
0.0
100
AcDbText
 73
     2
  0
POINT
  5
BD
330
81
100
AcDbEntity
  8
DEFPOINTS
  6
BYBLOCK
 62
     0
100
AcDbPoint
 10
-10.43352770113909
 20
6.783369041882002
 30
0.0
  0
POINT
  5
BE
330
81
100
AcDbEntity
  8
DEFPOINTS
  6
BYBLOCK
 62
     0
100
AcDbPoint
 10
-9.645609307071042
 20
6.783369041882002
 30
0.0
  0
POINT
  5
BF
330
81
100
AcDbEntity
  8
DEFPOINTS
  6
BYBLOCK
 62
     0
100
AcDbPoint
 10
-9.645609307071042
 20
6.548434039446976
 30
0.0
  0
ENDBLK
  5
C0
330
81
100
AcDbEntity
  8
0
100
AcDbBlockEnd
  0
ENDSEC
  0
SECTION
  2
ENTITIES
  0
DIMENSION
  5
C1
330
1E
100
AcDbEntity
  8
ADPDIM
100
AcDbDimension
  2
*D0
 10
-7.048637143402767
 20
10.90873930547256
 30
0.0
 11
-6.895085591641959
 21
10.75531165197183
 31
0.0
 70
     4
100
AcDbRadialDimension
 15
-9.170813489044739
 25
13.02920330139366
 35
0.0
 40
-2.98790042873679
  0
ARC
  5
C2
330
1E
100
AcDbEntity
  8
ADP3DETAIL
  6
DASHDOT
100
AcDbCircle
 10
-7.048637143402766
 20
10.90873930547256
 30
0.0
 40
3.0
100
AcDbArc
 50
90.0
 51
180.0
  0
ARC
  5
C3
330
1E
100
AcDbEntity
  8
ADP1DETAIL
100
AcDbCircle
 10
-7.048637143402768
 20
10.90109468587382
 30
0.0
 40
4.875
100
AcDbArc
 50
90.0
 51
180.0
  0
LINE
  5
C4
330
1E
100
AcDbEntity
  8
ADP1DETAIL
100
AcDbLine
 10
-4.548637143402768
 20
15.77609468587382
 30
0.0
 11
-4.548637143402768
 21
12.02609468587382
 31
0.0
  0
ARC
  5
C5
330
1E
100
AcDbEntity
  8
ADP1DETAIL
100
AcDbCircle
 10
-10.04302770113909
 20
17.76606906282403
 30
0.0
 40
11.0
100
AcDbArc
 50
260.4856038238338
 51
267.9115521569393
  0
ARC
  5
C6
330
1E
100
AcDbEntity
  8
ADP1DETAIL
100
AcDbCircle
 10
-10.04302770113909
 20
-3.539930937175967
 30
0.0
 40
11.0
100
AcDbArc
 50
90.00802559157275
 51
99.51439617616614
  0
DIMENSION
  5
C7
330
1E
100
AcDbEntity
  8
ADPDIM
100
AcDbDimension
  2
*D2
 10
-8.176278997495117
 20
7.665302413477546
 30
0.0
 11
-10.04456850410506
 21
7.665302413477546
 31
0.0
100
AcDbAlignedDimension
 13
-11.91285801071501
 23
7.252207890586789
 33
0.0
 14
-8.176278997495117
 24
7.252207890586789
 34
0.0
100
AcDbRotatedDimension
  0
LINE
  5
C8
330
1E
100
AcDbEntity
  8
ADP1DETAIL
100
AcDbLine
 10
-8.173637143402766
 20
8.408739305472561
 30
0.0
 11
-11.92363714340276
 21
8.408739305472563
 31
0.0
  0
ARC
  5
C9
330
1E
100
AcDbEntity
  8
ADP1DETAIL
100
AcDbCircle
 10
-11.85102895514504
 20
6.978531092299293
 30
0.0
 40
0.062
100
AcDbArc
 50
184.2556813143385
 51
260.4856038238309
  0
ARC
  5
CA
330
1E
100
AcDbEntity
  8
ADP1DETAIL
100
AcDbCircle
 10
-11.85102895514504
 20
7.247607033348767
 30
0.0
 40
0.062
100
AcDbArc
 50
99.51439617616623
 51
175.7443186856608
  0
ARC
  5
CB
330
1E
100
AcDbEntity
  8
ADP1DETAIL
100
AcDbCircle
 10
-10.04302770113909
 20
7.113069062824031
 30
0.0
 40
1.875
100
AcDbArc
 50
175.7443186856612
 51
184.2556813143388
  0
LINE
  5
CC
330
1E
100
AcDbEntity
  8
ADP1DETAIL
100
AcDbLine
 10
-11.92363714340276
 20
8.408739305472563
 30
0.0
 11
-11.92363714340276
 21
10.90109468587382
 31
0.0
  0
DIMENSION
  5
CD
330
1E
100
AcDbEntity
  8
ADPDIM
100
AcDbDimension
  2
*D1
 10
-7.650758005803846
 20
10.91729154054913
 30
0.0
 11
-7.650758005803846
 21
9.663015423010847
 31
0.0
100
AcDbAlignedDimension
 13
-8.611137143402766
 23
8.408739305472561
 33
0.0
 14
-7.307196284711833
 24
10.91729154054913
 34
0.0
 50
90.0
100
AcDbRotatedDimension
  0
ARC
  5
CE
330
1E
100
AcDbEntity
  8
ADP1DETAIL
100
AcDbCircle
 10
-7.048637143402768
 20
10.90109468587382
 30
0.0
 40
1.125
100
AcDbArc
 50
90.0
 51
180.0
  0
LINE
  5
CF
330
1E
100
AcDbEntity
  8
ADP3DETAIL
  6
DASHDOT
100
AcDbLine
 10
-10.04456850410506
 20
10.90873930547256
 30
0.0
 11
-10.04456850410506
 21
7.928863257400609
 31
0.0
  0
ARC
  5
D0
330
1E
100
AcDbEntity
  8
ADP1DETAIL
100
AcDbCircle
 10
-10.04610930707104
 20
17.76606906282403
 30
0.0
 40
11.0
100
AcDbArc
 50
272.0884478430606
 51
279.5143961761661
  0
ARC
  5
D1
330
1E
100
AcDbEntity
  8
ADP1DETAIL
100
AcDbCircle
 10
-10.04610930707104
 20
-3.539930937175967
 30
0.0
 40
11.0
100
AcDbArc
 50
80.48560382383387
 51
89.99197440842726
  0
LINE
  5
D2
330
1E
100
AcDbEntity
  8
ADP1DETAIL
100
AcDbLine
 10
-10.04610930707104
 20
6.960069062824032
 30
0.0
 11
-9.665609307071044
 21
6.960069062824032
 31
0.0
  0
ARC
  5
D3
330
1E
100
AcDbEntity
  8
ADP1DETAIL
100
AcDbCircle
 10
-10.42352770113909
 20
6.950069062824033
 30
0.0
 40
0.01
100
AcDbArc
 50
90.0
 51
180.0
  0
LINE
  5
D4
330
1E
100
AcDbEntity
  8
ADP1DETAIL
100
AcDbLine
 10
-10.43352770113909
 20
6.950069062824033
 30
0.0
 11
-10.43352770113909
 21
6.783369041882002
 31
0.0
  0
LINE
  5
D5
330
1E
100
AcDbEntity
  8
ADP1DETAIL
100
AcDbLine
 10
-10.04302770113909
 20
6.960069062824032
 30
0.0
 11
-10.42352770113909
 21
6.960069062824032
 31
0.0
  0
ARC
  5
D6
330
1E
100
AcDbEntity
  8
ADP1DETAIL
100
AcDbCircle
 10
-9.665609307071044
 20
6.950069062824033
 30
0.0
 40
0.01
100
AcDbArc
 50
0.000000000000007
 51
90.0
  0
LINE
  5
D7
330
1E
100
AcDbEntity
  8
ADP1DETAIL
100
AcDbLine
 10
-9.655609307071042
 20
6.950069062824033
 30
0.0
 11
-9.655609307071042
 21
6.783369041882002
 31
0.0
  0
ARC
  5
D8
330
1E
100
AcDbEntity
  8
ADP1DETAIL
100
AcDbCircle
 10
-10.04610930707104
 20
7.113069062824031
 30
0.0
 40
1.875
100
AcDbArc
 50
355.7443186856611
 51
4.255681314338739
  0
ARC
  5
D9
330
1E
100
AcDbEntity
  8
ADP1DETAIL
100
AcDbCircle
 10
-8.238108053065094
 20
6.978531092299293
 30
0.0
 40
0.062
100
AcDbArc
 50
279.5143961761691
 51
355.7443186856614
  0
ARC
  5
DA
330
1E
100
AcDbEntity
  8
ADP1DETAIL
100
AcDbCircle
 10
-8.238108053065094
 20
7.247607033348767
 30
0.0
 40
0.062
100
AcDbArc
 50
4.255681314339199
 51
80.48560382383378
  0
LINE
  5
DB
330
1E
100
AcDbEntity
  8
ADP1DETAIL
100
AcDbLine
 10
-8.173637143402768
 20
10.90109468587382
 30
0.0
 11
-8.173637143402766
 21
8.408739305472561
 31
0.0
  0
LINE
  5
DC
330
1E
100
AcDbEntity
  8
ADP1DETAIL
100
AcDbLine
 10
-4.548637143402768
 20
12.02609468587382
 30
0.0
 11
-7.048637143402768
 21
12.02609468587382
 31
0.0
  0
LINE
  5
DD
330
1E
100
AcDbEntity
  8
ADP3DETAIL
  6
DASHDOT
100
AcDbLine
 10
-3.987042633140479
 20
13.90873930547256
 30
0.0
 11
-7.048637143402766
 21
13.90873930547256
 31
0.0
  0
LINE
  5
DE
330
1E
100
AcDbEntity
  8
ADP1DETAIL
100
AcDbLine
 10
-7.048637143402768
 20
15.77609468587382
 30
0.0
 11
-4.548637143402768
 21
15.77609468587382
 31
0.0
  0
DIMENSION
  5
DF
330
1E
100
AcDbEntity
  8
ADPDIM
100
AcDbDimension
  2
*D3
 10
-9.645609307071042
 20
6.548434039446976
 30
0.0
 11
-9.020609307071042
 21
6.548434039446976
 31
0.0
100
AcDbAlignedDimension
 13
-10.43352770113909
 23
6.783369041882002
 33
0.0
 14
-9.645609307071042
 24
6.783369041882002
 34
0.0
100
AcDbRotatedDimension
  0
TEXT
  5
E3
330
1E
100
AcDbEntity
  8
ADPDIM
100
AcDbText
 10
-18.09489906762624
 20
5.485332441039203
 30
0.0
 40
0.1875
  1
J U L I U S  B L U M  &  C O . ,  I N C .      ( 8 0 0 )  5 2 6 - 6 2 9 3        W W W . J U L I U S B L U M . C O M        P A R T  N o .  6 9 0 6 - C
 41
1.25
  7
ARIAL_WIDE
 72
     1
 11
-8.042593687339746
 21
5.672832441039203
 31
0.0
100
AcDbText
 73
     3
  0
ENDSEC
  0
SECTION
  2
OBJECTS
  0
DICTIONARY
  5
C
330
0
100
AcDbDictionary
  3
ACAD_GROUP
350
D
  3
ACAD_LAYOUT
350
19
  3
ACAD_MLINESTYLE
350
16
  3
ACAD_PLOTSETTINGS
350
18
  3
ACAD_PLOTSTYLENAME
350
E
  3
ACDBHEADERROUNDTRIPXREC
350
276
  3
ACDBVARIABLEDICTIONARY
350
154
  0
DICTIONARY
  5
11F
330
1E
100
AcDbDictionary
280
     1
  3
ACAD_LAYOUTSELFREF
360
298
  0
DICTIONARY
  5
121
330
1A
100
AcDbDictionary
280
     1
  3
ACAD_LAYOUTSELFREF
360
297
  0
DICTIONARY
  5
D
102
{ACAD_REACTORS
330
C
102
}
330
C
100
AcDbDictionary
  0
DICTIONARY
  5
19
102
{ACAD_REACTORS
330
C
102
}
330
C
100
AcDbDictionary
  0
DICTIONARY
  5
16
102
{ACAD_REACTORS
330
C
102
}
330
C
100
AcDbDictionary
  3
STANDARD
350
17
  0
DICTIONARY
  5
18
102
{ACAD_REACTORS
330
C
102
}
330
C
100
AcDbDictionary
  0
ACDBDICTIONARYWDFLT
  5
E
102
{ACAD_REACTORS
330
C
102
}
330
C
100
AcDbDictionary
281
     1
  3
Normal
350
F
100
AcDbDictionaryWithDefault
340
F
  0
DICTIONARY
  5
276
102
{ACAD_REACTORS
330
C
102
}
330
C
100
AcDbDictionary
  3
CEPSNTYPE
350
280
  3
DIMSTYLEDATA
350
284
  3
FINGERPRINTGUID
350
281
  3
HYPERLINKBASE
350
279
  3
INSUNITS
350
27F
  3
LAYOUTDICT
350
27B
  3
LWETCUNION
350
27E
  3
PLOTSETDICT
350
27C
  3
PLOTSTYLNAMDICT
350
27D
  3
PSVPSCALE
350
283
  3
PUCSBASE
350
287
  3
PUCSORGBACK
350
28D
  3
PUCSORGBOTTOM
350
289
  3
PUCSORGFRONT
350
28C
  3
PUCSORGLEFT
350
28A
  3
PUCSORGRIGHT
350
28B
  3
PUCSORGTOP
350
288
  3
PUCSORTHOREF
350
285
  3
PUCSORTHOVIEW
350
286
  3
STYLESHEET
350
27A
  3
TSTACKALIGN
350
277
  3
TSTACKSIZE
350
278
  3
UCSBASE
350
290
  3
UCSORGBACK
350
296
  3
UCSORGBOTTOM
350
292
  3
UCSORGFRONT
350
295
  3
UCSORGLEFT
350
293
  3
UCSORGRIGHT
350
294
  3
UCSORGTOP
350
291
  3
UCSORTHOREF
350
28E
  3
UCSORTHOVIEW
350
28F
  3
VERSIONGUID
350
282
  0
DICTIONARY
  5
154
102
{ACAD_REACTORS
330
C
102
}
330
C
100
AcDbDictionary
  3
DIMASSOC
350
156
  3
HIDETEXT
350
155
  0
XRECORD
  5
298
102
{ACAD_REACTORS
330
11F
102
}
330
11F
100
AcDbXrecord
340
1E
  0
XRECORD
  5
297
102
{ACAD_REACTORS
330
121
102
}
330
121
100
AcDbXrecord
340
1A
  0
MLINESTYLE
  5
17
102
{ACAD_REACTORS
330
16
102
}
330
16
100
AcDbMlineStyle
  2
STANDARD
 70
     0
  3

 62
   256
 51
90.0
 52
90.0
 71
     2
 49
0.5
 62
   256
  6
BYLAYER
 49
-0.5
 62
   256
  6
BYLAYER
  0
ACDBPLACEHOLDER
  5
F
102
{ACAD_REACTORS
330
E
102
}
330
E
100
AcDbPlaceHolder
280
     0
  0
XRECORD
  5
280
102
{ACAD_REACTORS
330
276
102
}
330
276
100
AcDbXrecord
 90
        0
  0
XRECORD
  5
284
102
{ACAD_REACTORS
330
276
102
}
330
276
100
AcDbXrecord
1000
DSTYLE
1002
{
1070
   277
 70
     5
1070
   279
 70
     2
1002
}
  0
XRECORD
  5
281
102
{ACAD_REACTORS
330
276
102
}
330
276
100
AcDbXrecord
  1
{27B57F5A-0399-4677-AEC0-A16ACB931790}
  0
XRECORD
  5
279
102
{ACAD_REACTORS
330
276
102
}
330
276
100
AcDbXrecord
  1

  0
XRECORD
  5
27F
102
{ACAD_REACTORS
330
276
102
}
330
276
100
AcDbXrecord
 90
        0
  0
XRECORD
  5
27B
102
{ACAD_REACTORS
330
276
102
}
330
276
100
AcDbXrecord
340
19
  0
XRECORD
  5
27E
102
{ACAD_REACTORS
330
276
102
}
330
276
100
AcDbXrecord
 90
    14877
  0
XRECORD
  5
27C
102
{ACAD_REACTORS
330
276
102
}
330
276
100
AcDbXrecord
340
18
  0
XRECORD
  5
27D
102
{ACAD_REACTORS
330
276
102
}
330
276
100
AcDbXrecord
340
E
  0
XRECORD
  5
283
102
{ACAD_REACTORS
330
276
102
}
330
276
100
AcDbXrecord
 40
0.0
  0
XRECORD
  5
287
102
{ACAD_REACTORS
330
276
102
}
330
276
100
AcDbXrecord
340
0
  0
XRECORD
  5
28D
102
{ACAD_REACTORS
330
276
102
}
330
276
100
AcDbXrecord
 10
0.0
 20
0.0
 30
0.0
  0
XRECORD
  5
289
102
{ACAD_REACTORS
330
276
102
}
330
276
100
AcDbXrecord
 10
0.0
 20
0.0
 30
0.0
  0
XRECORD
  5
28C
102
{ACAD_REACTORS
330
276
102
}
330
276
100
AcDbXrecord
 10
0.0
 20
0.0
 30
0.0
  0
XRECORD
  5
28A
102
{ACAD_REACTORS
330
276
102
}
330
276
100
AcDbXrecord
 10
0.0
 20
0.0
 30
0.0
  0
XRECORD
  5
28B
102
{ACAD_REACTORS
330
276
102
}
330
276
100
AcDbXrecord
 10
0.0
 20
0.0
 30
0.0
  0
XRECORD
  5
288
102
{ACAD_REACTORS
330
276
102
}
330
276
100
AcDbXrecord
 10
0.0
 20
0.0
 30
0.0
  0
XRECORD
  5
285
102
{ACAD_REACTORS
330
276
102
}
330
276
100
AcDbXrecord
340
0
  0
XRECORD
  5
286
102
{ACAD_REACTORS
330
276
102
}
330
276
100
AcDbXrecord
 70
     0
  0
XRECORD
  5
27A
102
{ACAD_REACTORS
330
276
102
}
330
276
100
AcDbXrecord
  1

  0
XRECORD
  5
277
102
{ACAD_REACTORS
330
276
102
}
330
276
100
AcDbXrecord
 90
        1
  0
XRECORD
  5
278
102
{ACAD_REACTORS
330
276
102
}
330
276
100
AcDbXrecord
 90
       70
  0
XRECORD
  5
290
102
{ACAD_REACTORS
330
276
102
}
330
276
100
AcDbXrecord
340
0
  0
XRECORD
  5
296
102
{ACAD_REACTORS
330
276
102
}
330
276
100
AcDbXrecord
 10
0.0
 20
0.0
 30
0.0
  0
XRECORD
  5
292
102
{ACAD_REACTORS
330
276
102
}
330
276
100
AcDbXrecord
 10
0.0
 20
0.0
 30
0.0
  0
XRECORD
  5
295
102
{ACAD_REACTORS
330
276
102
}
330
276
100
AcDbXrecord
 10
0.0
 20
0.0
 30
0.0
  0
XRECORD
  5
293
102
{ACAD_REACTORS
330
276
102
}
330
276
100
AcDbXrecord
 10
0.0
 20
0.0
 30
0.0
  0
XRECORD
  5
294
102
{ACAD_REACTORS
330
276
102
}
330
276
100
AcDbXrecord
 10
0.0
 20
0.0
 30
0.0
  0
XRECORD
  5
291
102
{ACAD_REACTORS
330
276
102
}
330
276
100
AcDbXrecord
 10
0.0
 20
0.0
 30
0.0
  0
XRECORD
  5
28E
102
{ACAD_REACTORS
330
276
102
}
330
276
100
AcDbXrecord
340
0
  0
XRECORD
  5
28F
102
{ACAD_REACTORS
330
276
102
}
330
276
100
AcDbXrecord
 70
     0
  0
XRECORD
  5
282
102
{ACAD_REACTORS
330
276
102
}
330
276
100
AcDbXrecord
  1
{39957FD1-EE99-4342-9A58-0F748364AC1B}
  0
DICTIONARYVAR
  5
156
102
{ACAD_REACTORS
330
154
102
}
330
154
100
DictionaryVariables
280
     0
  1
2
  0
DICTIONARYVAR
  5
155
102
{ACAD_REACTORS
330
154
102
}
330
154
100
DictionaryVariables
280
     0
  1
1
  0
ENDSEC
  0
EOF
