  0
SECTION
  2
HEADER
  9
$ACADVER
  1
AC1014
  9
$ACADMAINTVER
 70
     9
  9
$DWGCODEPAGE
  3
ANSI_1252
  9
$INSBASE
 10
27.24702851905799
 20
-23.41935265947966
 30
0.0
  9
$EXTMIN
 10
18.08673939085871
 20
-26.94231217026898
 30
0.0
  9
$EXTMAX
 10
38.1913501514317
 20
-15.33648379649188
 30
0.0
  9
$LIMMIN
 10
0.0
 20
0.0
  9
$LIMMAX
 10
36.0
 20
36.0
  9
$ORTHOMODE
 70
     1
  9
$REGENMODE
 70
     1
  9
$FILLMODE
 70
     1
  9
$QTEXTMODE
 70
     0
  9
$MIRRTEXT
 70
     1
  9
$DRAGMODE
 70
     0
  9
$LTSCALE
 40
1.0
  9
$OSMODE
 70
    37
  9
$ATTMODE
 70
     1
  9
$TEXTSIZE
 40
0.2
  9
$TRACEWID
 40
0.05
  9
$TEXTSTYLE
  7
STANDARD
  9
$CLAYER
  8
0
  9
$CELTYPE
  6
BYLAYER
  9
$CECOLOR
 62
   256
  9
$CELTSCALE
 40
1.0
  9
$DELOBJ
 70
     1
  9
$DISPSILH
 70
     0
  9
$DIMSCALE
 40
1.0
  9
$DIMASZ
 40
0.125
  9
$DIMEXO
 40
0.0625
  9
$DIMDLI
 40
0.38
  9
$DIMRND
 40
0.0
  9
$DIMDLE
 40
0.0
  9
$DIMEXE
 40
0.18
  9
$DIMTP
 40
0.0
  9
$DIMTM
 40
0.0
  9
$DIMTXT
 40
0.125
  9
$DIMCEN
 40
0.1875
  9
$DIMTSZ
 40
0.125
  9
$DIMTOL
 70
     0
  9
$DIMLIM
 70
     0
  9
$DIMTIH
 70
     0
  9
$DIMTOH
 70
     0
  9
$DIMSE1
 70
     0
  9
$DIMSE2
 70
     0
  9
$DIMTAD
 70
     0
  9
$DIMZIN
 70
     3
  9
$DIMBLK
  1

  9
$DIMASO
 70
     1
  9
$DIMSHO
 70
     1
  9
$DIMPOST
  1

  9
$DIMAPOST
  1

  9
$DIMALT
 70
     0
  9
$DIMALTD
 70
     1
  9
$DIMALTF
 40
25.4
  9
$DIMLFAC
 40
1.0
  9
$DIMTOFL
 70
     0
  9
$DIMTVP
 40
0.0
  9
$DIMTIX
 70
     0
  9
$DIMSOXD
 70
     0
  9
$DIMSAH
 70
     0
  9
$DIMBLK1
  1

  9
$DIMBLK2
  1

  9
$DIMSTYLE
  2
STANDARD
  9
$DIMCLRD
 70
     0
  9
$DIMCLRE
 70
     0
  9
$DIMCLRT
 70
     0
  9
$DIMTFAC
 40
1.0
  9
$DIMGAP
 40
0.125
  9
$DIMJUST
 70
     0
  9
$DIMSD1
 70
     0
  9
$DIMSD2
 70
     0
  9
$DIMTOLJ
 70
     1
  9
$DIMTZIN
 70
     3
  9
$DIMALTZ
 70
     3
  9
$DIMALTTZ
 70
     3
  9
$DIMFIT
 70
     5
  9
$DIMUPT
 70
     0
  9
$DIMUNIT
 70
     5
  9
$DIMDEC
 70
     4
  9
$DIMTDEC
 70
     4
  9
$DIMALTU
 70
     5
  9
$DIMALTTD
 70
     1
  9
$DIMTXSTY
  7
STANDARD
  9
$DIMAUNIT
 70
     0
  9
$LUNITS
 70
     5
  9
$LUPREC
 70
     4
  9
$SKETCHINC
 40
0.1
  9
$FILLETRAD
 40
0.187
  9
$AUNITS
 70
     0
  9
$AUPREC
 70
     0
  9
$MENU
  1
acad
  9
$ELEVATION
 40
0.0
  9
$PELEVATION
 40
0.0
  9
$THICKNESS
 40
0.0
  9
$LIMCHECK
 70
     0
  9
$BLIPMODE
 70
     0
  9
$CHAMFERA
 40
0.0
  9
$CHAMFERB
 40
0.0
  9
$CHAMFERC
 40
0.0
  9
$CHAMFERD
 40
0.0
  9
$SKPOLY
 70
     0
  9
$TDCREATE
 40
2450399.634391585
  9
$TDUPDATE
 40
2452297.095269814
  9
$TDINDWG
 40
0.0514100463
  9
$TDUSRTIMER
 40
0.0514100463
  9
$USRTIMER
 70
     1
  9
$ANGBASE
 50
0.0
  9
$ANGDIR
 70
     0
  9
$PDMODE
 70
     0
  9
$PDSIZE
 40
0.0
  9
$PLINEWID
 40
0.0
  9
$COORDS
 70
     2
  9
$SPLFRAME
 70
     0
  9
$SPLINETYPE
 70
     6
  9
$SPLINESEGS
 70
     8
  9
$ATTDIA
 70
     0
  9
$ATTREQ
 70
     1
  9
$HANDLING
 70
 22529
  9
$HANDSEED
  5
378
  9
$SURFTAB1
 70
     6
  9
$SURFTAB2
 70
     6
  9
$SURFTYPE
 70
     6
  9
$SURFU
 70
     6
  9
$SURFV
 70
     6
  9
$UCSNAME
  2

  9
$UCSORG
 10
0.0
 20
0.0
 30
0.0
  9
$UCSXDIR
 10
1.0
 20
0.0
 30
0.0
  9
$UCSYDIR
 10
0.0
 20
1.0
 30
0.0
  9
$PUCSNAME
  2

  9
$PUCSORG
 10
0.0
 20
0.0
 30
0.0
  9
$PUCSXDIR
 10
1.0
 20
0.0
 30
0.0
  9
$PUCSYDIR
 10
0.0
 20
1.0
 30
0.0
  9
$USERI1
 70
     0
  9
$USERI2
 70
     0
  9
$USERI3
 70
     0
  9
$USERI4
 70
     0
  9
$USERI5
 70
     0
  9
$USERR1
 40
0.0
  9
$USERR2
 40
0.0
  9
$USERR3
 40
0.0
  9
$USERR4
 40
0.0
  9
$USERR5
 40
0.0
  9
$WORLDVIEW
 70
     1
  9
$SHADEDGE
 70
     3
  9
$SHADEDIF
 70
    70
  9
$TILEMODE
 70
     1
  9
$MAXACTVP
 70
    15
  9
$PINSBASE
 10
0.0004882914945483
 20
0.7501408034022604
 30
0.0
  9
$PLIMCHECK
 70
     0
  9
$PEXTMIN
 10
1.000000000000000E+20
 20
1.000000000000000E+20
 30
1.000000000000000E+20
  9
$PEXTMAX
 10
-1.000000000000000E+20
 20
-1.000000000000000E+20
 30
-1.000000000000000E+20
  9
$PLIMMIN
 10
0.0
 20
0.0
  9
$PLIMMAX
 10
12.0
 20
9.0
  9
$UNITMODE
 70
     0
  9
$VISRETAIN
 70
     0
  9
$PLINEGEN
 70
     0
  9
$PSLTSCALE
 70
     1
  9
$TREEDEPTH
 70
  3020
  9
$PICKSTYLE
 70
     1
  9
$CMLSTYLE
  2
STANDARD
  9
$CMLJUST
 70
     0
  9
$CMLSCALE
 40
1.0
  9
$PROXYGRAPHICS
 70
     1
  9
$MEASUREMENT
 70
     0
  0
ENDSEC
  0
SECTION
  2
CLASSES
  0
CLASS
  1
ACDBDICTIONARYWDFLT
  2
AcDbDictionaryWithDefault
  3
AutoCAD 2000
 90
        0
280
     0
281
     0
  0
CLASS
  1
ACDBPLACEHOLDER
  2
AcDbPlaceHolder
  3
AutoCAD 2000
 90
        0
280
     0
281
     0
  0
CLASS
  1
LAYOUT
  2
AcDbLayout
  3
AutoCAD 2000
 90
        0
280
     0
281
     0
  0
CLASS
  1
DICTIONARYVAR
  2
AcDbDictionaryVar
  3
AutoCAD 2000
 90
        0
280
     0
281
     0
  0
CLASS
  1
LONG_TRANSACTION
  2
AcDbLongTransaction
  3
AutoCAD 2000
 90
        0
280
     0
281
     0
  0
CLASS
  1
LWPOLYLINE
  2
AcDbPolyline
  3
AutoCAD 2000
 90
        0
280
     0
281
     1
  0
CLASS
  1
HATCH
  2
AcDbHatch
  3
AutoCAD 2000
 90
        0
280
     0
281
     1
  0
CLASS
  1
XRECORD
  2
AcDbXrecord
  3
AutoCAD 2000
 90
        0
280
     0
281
     0
  0
CLASS
  1
LONG_TRANSACTION
  2
AcDbLongTransaction
  3
AutoCAD 2000
 90
        0
280
     0
281
     0
  0
CLASS
  1
LWPOLYLINE
  2
AcDbPolyline
  3
AutoCAD 2000
 90
        0
280
     0
281
     1
  0
CLASS
  1
HATCH
  2
AcDbHatch
  3
AutoCAD 2000
 90
        0
280
     0
281
     1
  0
CLASS
  1
XRECORD
  2
AcDbXrecord
  3
AutoCAD 2000
 90
        0
280
     0
281
     0
  0
CLASS
  1
LONG_TRANSACTION
  2
AcDbLongTransaction
  3
AutoCAD 2000
 90
        0
280
     0
281
     0
  0
CLASS
  1
LWPOLYLINE
  2
AcDbPolyline
  3
AutoCAD 2000
 90
        0
280
     0
281
     1
  0
CLASS
  1
HATCH
  2
AcDbHatch
  3
AutoCAD 2000
 90
        0
280
     0
281
     1
  0
CLASS
  1
XRECORD
  2
AcDbXrecord
  3
AutoCAD 2000
 90
        0
280
     0
281
     0
  0
CLASS
  1
LONG_TRANSACTION
  2
AcDbLongTransaction
  3
AutoCAD 2000
 90
        0
280
     0
281
     0
  0
CLASS
  1
LWPOLYLINE
  2
AcDbPolyline
  3
AutoCAD 2000
 90
        0
280
     0
281
     1
  0
CLASS
  1
HATCH
  2
AcDbHatch
  3
AutoCAD 2000
 90
        0
280
     0
281
     1
  0
CLASS
  1
XRECORD
  2
AcDbXrecord
  3
AutoCAD 2000
 90
        0
280
     0
281
     0
  0
CLASS
  1
LONG_TRANSACTION
  2
AcDbLongTransaction
  3
AutoCAD 2000
 90
        0
280
     0
281
     0
  0
CLASS
  1
LWPOLYLINE
  2
AcDbPolyline
  3
AutoCAD 2000
 90
        0
280
     0
281
     1
  0
CLASS
  1
HATCH
  2
AcDbHatch
  3
AutoCAD 2000
 90
        0
280
     0
281
     1
  0
CLASS
  1
XRECORD
  2
AcDbXrecord
  3
AutoCAD 2000
 90
        0
280
     0
281
     0
  0
ENDSEC
  0
SECTION
  2
TABLES
  0
TABLE
  2
VPORT
  5
8
330
0
100
AcDbSymbolTable
 70
     2
  0
VPORT
  5
354
330
8
100
AcDbSymbolTableRecord
100
AcDbViewportTableRecord
  2
*ACTIVE
 70
     0
 10
0.0
 20
0.0
 11
1.0
 21
1.0
 12
28.15497403397352
 22
-21.1385947889038
 13
0.0
 23
0.0
 14
0.5740882589684922
 24
0.5740882589684922
 15
0.5
 25
0.5
 16
0.0
 26
0.0
 36
1.0
 17
0.0
 27
0.0
 37
0.0
 40
12.8856554241142
 41
1.570528967254407
 42
50.0
 43
0.0
 44
0.0
 50
0.0
 51
0.0
 71
     0
 72
   100
 73
     1
 74
     0
 75
     0
 76
     0
 77
     0
 78
     0
  0
ENDTAB
  0
TABLE
  2
LTYPE
  5
5
330
0
100
AcDbSymbolTable
 70
     2
  0
LTYPE
  5
13
330
5
100
AcDbSymbolTableRecord
100
AcDbLinetypeTableRecord
  2
BYBLOCK
 70
     0
  3

 72
    65
 73
     0
 40
0.0
  0
LTYPE
  5
14
330
5
100
AcDbSymbolTableRecord
100
AcDbLinetypeTableRecord
  2
BYLAYER
 70
     0
  3

 72
    65
 73
     0
 40
0.0
  0
LTYPE
  5
15
330
5
100
AcDbSymbolTableRecord
100
AcDbLinetypeTableRecord
  2
CONTINUOUS
 70
     0
  3
Solid line
 72
    65
 73
     0
 40
0.0
  0
LTYPE
  5
164
330
5
100
AcDbSymbolTableRecord
100
AcDbLinetypeTableRecord
  2
CENTER2
 70
     0
  3
___ _ ___ _ ___ _ ___ _ ___ _ ___ _ ___ _ ___ _
 72
    65
 73
     4
 40
1.125
 49
0.75
 74
     0
 49
-0.125
 74
     0
 49
0.125
 74
     0
 49
-0.125
 74
     0
  0
ENDTAB
  0
TABLE
  2
LAYER
  5
2
330
0
100
AcDbSymbolTable
 70
     5
  0
LAYER
  5
10
330
2
100
AcDbSymbolTableRecord
100
AcDbLayerTableRecord
  2
0
 70
     0
 62
     7
  6
CONTINUOUS
  0
LAYER
  5
168
330
2
100
AcDbSymbolTableRecord
100
AcDbLayerTableRecord
  2
ADP1DETAIL
 70
     0
 62
     7
  6
CONTINUOUS
  0
LAYER
  5
169
330
2
100
AcDbSymbolTableRecord
100
AcDbLayerTableRecord
  2
ADP3DETAIL
 70
     0
 62
     1
  6
CONTINUOUS
  0
LAYER
  5
16A
330
2
100
AcDbSymbolTableRecord
100
AcDbLayerTableRecord
  2
DEFPOINTS
 70
     0
 62
     7
  6
CONTINUOUS
  0
LAYER
  5
16D
330
2
100
AcDbSymbolTableRecord
100
AcDbLayerTableRecord
  2
ADPDIM
 70
     0
 62
     3
  6
CONTINUOUS
  0
ENDTAB
  0
TABLE
  2
STYLE
  5
3
330
0
100
AcDbSymbolTable
 70
     2
  0
STYLE
  5
11
330
3
100
AcDbSymbolTableRecord
100
AcDbTextStyleTableRecord
  2
STANDARD
 70
     0
 40
0.0
 41
1.0
 50
0.0
 71
     0
 42
0.2
  3
txt
  4

  0
STYLE
  5
1C1
330
3
100
AcDbSymbolTableRecord
100
AcDbTextStyleTableRecord
  2
ARIAL_WIDE
 70
     0
 40
0.0
 41
1.25
 50
0.0
 71
     0
 42
0.2
  3
ARIAL.TTF
  4

1001
ACAD
1000
Arial
1071
       34
  0
ENDTAB
  0
TABLE
  2
VIEW
  5
6
330
0
100
AcDbSymbolTable
 70
     0
  0
ENDTAB
  0
TABLE
  2
UCS
  5
7
330
0
100
AcDbSymbolTable
 70
     0
  0
ENDTAB
  0
TABLE
  2
APPID
  5
9
330
0
100
AcDbSymbolTable
 70
     1
  0
APPID
  5
12
330
9
100
AcDbSymbolTableRecord
100
AcDbRegAppTableRecord
  2
ACAD
 70
     0
  0
ENDTAB
  0
TABLE
  2
DIMSTYLE
  5
A
330
0
100
AcDbSymbolTable
 70
     1
  0
DIMSTYLE
105
1BF
330
A
100
AcDbSymbolTableRecord
100
AcDbDimStyleTableRecord
  2
STANDARD
 70
     0
  3

  4

  5

  6

  7

 40
1.0
 41
0.18
 42
0.0625
 43
0.38
 44
0.18
 45
0.0
 46
0.0
 47
0.0
 48
0.0
140
0.18
141
0.09
142
0.0
143
25.4
144
1.0
145
0.0
146
1.0
147
0.09
 71
     0
 72
     0
 73
     1
 74
     1
 75
     0
 76
     0
 77
     0
 78
     0
170
     0
171
     2
172
     0
173
     0
174
     0
175
     0
176
     0
177
     0
178
     0
270
     2
271
     4
272
     4
273
     2
274
     2
340
11
275
     0
280
     0
281
     0
282
     0
283
     1
284
     0
285
     0
286
     0
287
     3
288
     0
  0
ENDTAB
  0
TABLE
  2
BLOCK_RECORD
  5
1
330
0
100
AcDbSymbolTable
 70
     5
  0
BLOCK_RECORD
  5
1E
102
{ACAD_XDICTIONARY
360
1FE
102
}
330
1
100
AcDbSymbolTableRecord
100
AcDbBlockTableRecord
  2
*MODEL_SPACE
  0
BLOCK_RECORD
  5
1A
102
{ACAD_XDICTIONARY
360
200
102
}
330
1
100
AcDbSymbolTableRecord
100
AcDbBlockTableRecord
  2
*PAPER_SPACE
  0
BLOCK_RECORD
  5
125
330
1
100
AcDbSymbolTableRecord
100
AcDbBlockTableRecord
  2
6905
  0
BLOCK_RECORD
  5
15C
330
1
100
AcDbSymbolTableRecord
100
AcDbBlockTableRecord
  2
*D1
  0
BLOCK_RECORD
  5
15D
330
1
100
AcDbSymbolTableRecord
100
AcDbBlockTableRecord
  2
*D2
  0
BLOCK_RECORD
  5
15E
330
1
100
AcDbSymbolTableRecord
100
AcDbBlockTableRecord
  2
*D3
  0
BLOCK_RECORD
  5
15F
330
1
100
AcDbSymbolTableRecord
100
AcDbBlockTableRecord
  2
*D4
  0
ENDTAB
  0
ENDSEC
  0
SECTION
  2
BLOCKS
  0
BLOCK
  5
170
330
1E
100
AcDbEntity
  8
0
100
AcDbBlockBegin
  2
*MODEL_SPACE
 70
     0
 10
0.0
 20
0.0
 30
0.0
  3
*MODEL_SPACE
  1

  0
ENDBLK
  5
171
330
1E
100
AcDbEntity
  8
0
100
AcDbBlockEnd
  0
BLOCK
  5
16E
330
1A
100
AcDbEntity
 67
     1
  8
0
100
AcDbBlockBegin
  2
*PAPER_SPACE
 70
     0
 10
0.0
 20
0.0
 30
0.0
  3
*PAPER_SPACE
  1

  0
ENDBLK
  5
16F
330
1A
100
AcDbEntity
 67
     1
  8
0
100
AcDbBlockEnd
  0
BLOCK
  5
173
330
125
100
AcDbEntity
  8
0
100
AcDbBlockBegin
  2
6905
 70
     0
 10
0.0
 20
0.0
 30
0.0
  3
6905
  1

  0
ARC
  5
174
330
125
100
AcDbEntity
  8
0
100
AcDbCircle
 10
1.634618960722114
 20
9.997248191540609
 30
0.0
 40
10.0
100
AcDbArc
 50
260.9715146985605
 51
267.7539396610409
  0
ARC
  5
175
330
125
100
AcDbEntity
  8
0
100
AcDbCircle
 10
1.633207874509631
 20
-9.434920534333942
 30
0.0
 40
10.0
100
AcDbArc
 50
89.99191507152275
 51
99.04479737115558
  0
ARC
  5
176
330
125
100
AcDbEntity
  8
0
100
AcDbCircle
 10
0.0727316517293506
 20
0.3792678443412321
 30
0.0
 40
0.062
100
AcDbArc
 50
100.651722970624
 51
180.3271881204949
  0
ARC
  5
177
330
125
100
AcDbEntity
  8
0
100
AcDbCircle
 10
0.0737921731264333
 20
0.1830280550613388
 30
0.0
 40
0.062
100
AcDbArc
 50
188.1337844416086
 51
262.2760689631836
  0
ARC
  5
178
330
125
100
AcDbEntity
  8
0
100
AcDbCircle
 10
1.507727224690757
 20
0.286296390168232
 30
0.0
 40
1.5
100
AcDbArc
 50
176.4607451264481
 51
184.28688279561
  0
ARC
  5
179
330
125
100
AcDbEntity
  8
0
100
AcDbCircle
 10
1.652987764759625
 20
-9.434903763229838
 30
0.0
 40
10.0
100
AcDbArc
 50
81.05236325415784
 51
90.10524555379063
  0
ARC
  5
17A
330
125
100
AcDbEntity
  8
0
100
AcDbCircle
 10
1.618624152907207
 20
9.997234629757222
 30
0.0
 40
10.0
100
AcDbArc
 50
272.3432209642724
 51
279.1256459267529
  0
LINE
  5
17B
330
125
100
AcDbEntity
  8
0
100
AcDbLine
 10
1.636665959237726
 20
0.1900823977297961
 30
0.0
 11
2.027165397768088
 21
0.1907445966966854
 31
0.0
  0
LINE
  5
17C
330
125
100
AcDbEntity
  8
0
100
AcDbLine
 10
1.242707874509632
 20
0.1900794656660594
 30
0.0
 11
1.242707874509632
 21
0.0030794656660582
 31
0.0
  0
LINE
  5
17D
330
125
100
AcDbEntity
  8
0
100
AcDbLine
 10
1.633207874509631
 20
0.1900794656660594
 30
0.0
 11
1.242707874509632
 21
0.1900794656660594
 31
0.0
  0
LINE
  5
17E
330
125
100
AcDbEntity
  8
0
100
AcDbLine
 10
2.027165397768088
 20
0.1907445966966854
 30
0.0
 11
2.027482507132512
 21
0.0037448655694696
 31
0.0
  0
ARC
  5
17F
330
125
100
AcDbEntity
  8
0
100
AcDbCircle
 10
3.196819117974664
 20
0.3819167162744961
 30
0.0
 40
0.062
100
AcDbArc
 50
359.7699725048185
 51
79.44543765468939
  0
ARC
  5
180
330
125
100
AcDbEntity
  8
0
100
AcDbCircle
 10
3.196091376042817
 20
0.1856754107500684
 30
0.0
 40
0.062
100
AcDbArc
 50
277.8210916621297
 51
351.9633761837047
  0
ARC
  5
181
330
125
100
AcDbEntity
  8
0
100
AcDbCircle
 10
1.761983266670998
 20
0.2865119704619126
 30
0.0
 40
1.5
100
AcDbArc
 50
355.8102778297033
 51
3.636415498865305
  0
ENDBLK
  5
182
330
125
100
AcDbEntity
  8
0
100
AcDbBlockEnd
  0
BLOCK
  5
183
330
15C
100
AcDbEntity
  8
0
100
AcDbBlockBegin
  2
*D1
 70
     1
 10
0.0
 20
0.0
 30
0.0
  3
*D1
  1

  0
LINE
  5
184
330
15C
100
AcDbEntity
  8
0
  6
BYBLOCK
 62
     0
100
AcDbLine
 10
27.24525905168767
 20
-25.43238397892201
 30
0.0
 11
27.24525905168767
 21
-24.91033508158678
 31
0.0
  0
LINE
  5
185
330
15C
100
AcDbEntity
  8
0
  6
BYBLOCK
 62
     0
100
AcDbLine
 10
23.99702851905799
 20
-25.43511938924526
 30
0.0
 11
23.99702851905799
 21
-24.91033508158678
 31
0.0
  0
LINE
  5
186
330
15C
100
AcDbEntity
  8
0
  6
BYBLOCK
 62
     0
100
AcDbLine
 10
27.24525905168767
 20
-25.09033508158678
 30
0.0
 11
26.01697711870617
 21
-25.09033508158678
 31
0.0
  0
LINE
  5
187
330
15C
100
AcDbEntity
  8
0
  6
BYBLOCK
 62
     0
100
AcDbLine
 10
23.99702851905799
 20
-25.09033508158678
 30
0.0
 11
25.2253104520395
 21
-25.09033508158678
 31
0.0
  0
LINE
  5
188
330
15C
100
AcDbEntity
  8
0
  6
BYBLOCK
 62
     0
100
AcDbLine
 10
27.12025905168767
 20
-25.21533508158678
 30
0.0
 11
27.37025905168767
 21
-24.96533508158678
 31
0.0
  0
LINE
  5
189
330
15C
100
AcDbEntity
  8
0
  6
BYBLOCK
 62
     0
100
AcDbLine
 10
23.87202851905799
 20
-25.21533508158678
 30
0.0
 11
24.12202851905799
 21
-24.96533508158678
 31
0.0
  0
TEXT
  5
18A
330
15C
100
AcDbEntity
  8
0
  6
BYBLOCK
 62
     0
100
AcDbText
 10
25.3503104520395
 20
-25.15283508158677
 30
0.0
 40
0.125
  1
3 1/4
 72
     1
 11
25.62114378537283
 21
-25.09033508158678
 31
0.0
100
AcDbText
 73
     2
  0
POINT
  5
18C
330
15C
100
AcDbEntity
  8
DEFPOINTS
  6
BYBLOCK
 62
     0
100
AcDbPoint
 10
27.24525905168767
 20
-25.49488397892201
 30
0.0
  0
POINT
  5
18D
330
15C
100
AcDbEntity
  8
DEFPOINTS
  6
BYBLOCK
 62
     0
100
AcDbPoint
 10
23.99702851905799
 20
-25.49761938924526
 30
0.0
  0
POINT
  5
18E
330
15C
100
AcDbEntity
  8
DEFPOINTS
  6
BYBLOCK
 62
     0
100
AcDbPoint
 10
23.99702851905799
 20
-25.09033508158678
 30
0.0
  0
ENDBLK
  5
18F
330
15C
100
AcDbEntity
  8
0
100
AcDbBlockEnd
  0
BLOCK
  5
190
330
15D
100
AcDbEntity
  8
0
100
AcDbBlockBegin
  2
*D2
 70
     1
 10
0.0
 20
0.0
 30
0.0
  3
*D2
  1

  0
LINE
  5
191
330
15D
100
AcDbEntity
  8
0
  6
BYBLOCK
 62
     0
100
AcDbLine
 10
26.49985217341602
 20
-18.79888866355856
 30
0.0
 11
28.61346937774893
 21
-20.91080042440309
 31
0.0
  0
LINE
  5
192
330
15D
100
AcDbEntity
  8
0
  6
BYBLOCK
 62
     0
100
AcDbLine
 10
26.32307549251756
 20
-18.79896001146359
 30
0.0
 11
26.67662885431448
 21
-18.79881731565353
 31
0.0
  0
TEXT
  5
193
330
15D
100
AcDbEntity
  8
0
  6
BYBLOCK
 62
     0
100
AcDbText
 10
28.65771705890232
 20
-21.04336509810068
 30
0.0
 40
0.125
  1
R3
 50
315.0231248465178
 72
     1
 11
28.7755800708188
 21
-21.0727803129804
 31
0.0
100
AcDbText
 73
     2
  0
POINT
  5
194
330
15D
100
AcDbEntity
  8
DEFPOINTS
  6
BYBLOCK
 62
     0
100
AcDbPoint
 10
26.49985217341602
 20
-18.79888866355856
 30
0.0
  0
POINT
  5
195
330
15D
100
AcDbEntity
  8
DEFPOINTS
  6
BYBLOCK
 62
     0
100
AcDbPoint
 10
28.62202851905799
 20
-20.91935265947966
 30
0.0
  0
ENDBLK
  5
196
330
15D
100
AcDbEntity
  8
0
100
AcDbBlockEnd
  0
BLOCK
  5
197
330
15E
100
AcDbEntity
  8
0
100
AcDbBlockBegin
  2
*D3
 70
     1
 10
0.0
 20
0.0
 30
0.0
  3
*D3
  1

  0
LINE
  5
198
330
15E
100
AcDbEntity
  8
0
  6
BYBLOCK
 62
     0
100
AcDbLine
 10
27.30952851905799
 20
-23.41935265947966
 30
0.0
 11
28.44990765665691
 21
-23.41935265947966
 31
0.0
  0
LINE
  5
199
330
15E
100
AcDbEntity
  8
0
  6
BYBLOCK
 62
     0
100
AcDbLine
 10
28.55096937774892
 20
-20.91080042440309
 30
0.0
 11
28.08990765665692
 21
-20.91080042440309
 31
0.0
  0
LINE
  5
19A
330
15E
100
AcDbEntity
  8
0
  6
BYBLOCK
 62
     0
100
AcDbLine
 10
28.26990765665692
 20
-23.41935265947966
 30
0.0
 11
28.26990765665692
 21
-22.56090987527471
 31
0.0
  0
LINE
  5
19B
330
15E
100
AcDbEntity
  8
0
  6
BYBLOCK
 62
     0
100
AcDbLine
 10
28.26990765665692
 20
-20.91080042440309
 30
0.0
 11
28.26990765665692
 21
-21.76924320860805
 31
0.0
  0
LINE
  5
19C
330
15E
100
AcDbEntity
  8
0
  6
BYBLOCK
 62
     0
100
AcDbLine
 10
28.39490765665692
 20
-23.54435265947966
 30
0.0
 11
28.14490765665691
 21
-23.29435265947966
 31
0.0
  0
LINE
  5
19D
330
15E
100
AcDbEntity
  8
0
  6
BYBLOCK
 62
     0
100
AcDbLine
 10
28.39490765665692
 20
-21.03580042440309
 30
0.0
 11
28.14490765665691
 21
-20.78580042440309
 31
0.0
  0
TEXT
  5
19E
330
15E
100
AcDbEntity
  8
0
  6
BYBLOCK
 62
     0
100
AcDbText
 10
28.33240765665692
 20
-22.43590987527471
 30
0.0
 40
0.125
  1
2 1/2
 50
90.0
 72
     1
 11
28.26990765665692
 21
-22.16507654194138
 31
0.0
100
AcDbText
 73
     2
  0
POINT
  5
19F
330
15E
100
AcDbEntity
  8
DEFPOINTS
  6
BYBLOCK
 62
     0
100
AcDbPoint
 10
27.24702851905799
 20
-23.41935265947966
 30
0.0
  0
POINT
  5
1A0
330
15E
100
AcDbEntity
  8
DEFPOINTS
  6
BYBLOCK
 62
     0
100
AcDbPoint
 10
28.61346937774893
 20
-20.91080042440309
 30
0.0
  0
POINT
  5
1A1
330
15E
100
AcDbEntity
  8
DEFPOINTS
  6
BYBLOCK
 62
     0
100
AcDbPoint
 10
28.26990765665692
 20
-20.91080042440309
 30
0.0
  0
ENDBLK
  5
1A2
330
15E
100
AcDbEntity
  8
0
100
AcDbBlockEnd
  0
BLOCK
  5
1A3
330
15F
100
AcDbEntity
  8
0
100
AcDbBlockBegin
  2
*D4
 70
     1
 10
0.0
 20
0.0
 30
0.0
  3
*D4
  1

  0
LINE
  5
1A4
330
15F
100
AcDbEntity
  8
0
  6
BYBLOCK
 62
     0
100
AcDbLine
 10
25.22900373093337
 20
-25.93595371822618
 30
0.0
 11
25.22900373093337
 21
-26.26076549128834
 31
0.0
  0
LINE
  5
1A5
330
15F
100
AcDbEntity
  8
0
  6
BYBLOCK
 62
     0
100
AcDbLine
 10
26.01377836355625
 20
-25.93528831832277
 30
0.0
 11
26.01377836355625
 21
-26.26076549128834
 31
0.0
  0
LINE
  5
1A6
330
15F
100
AcDbEntity
  8
0
  6
BYBLOCK
 62
     0
100
AcDbLine
 10
25.22900373093337
 20
-26.08076549128834
 30
0.0
 11
24.97900373093337
 21
-26.08076549128834
 31
0.0
  0
LINE
  5
1A7
330
15F
100
AcDbEntity
  8
0
  6
BYBLOCK
 62
     0
100
AcDbLine
 10
26.01377836355625
 20
-26.08076549128834
 30
0.0
 11
26.26377836355625
 21
-26.08076549128834
 31
0.0
  0
LINE
  5
1A8
330
15F
100
AcDbEntity
  8
0
  6
BYBLOCK
 62
     0
100
AcDbLine
 10
25.10400373093337
 20
-26.20576549128834
 30
0.0
 11
25.35400373093337
 21
-25.95576549128834
 31
0.0
  0
LINE
  5
1A9
330
15F
100
AcDbEntity
  8
0
  6
BYBLOCK
 62
     0
100
AcDbLine
 10
25.88877836355625
 20
-26.20576549128834
 30
0.0
 11
26.13877836355625
 21
-25.95576549128834
 31
0.0
  0
TEXT
  5
1AA
330
15F
100
AcDbEntity
  8
0
  6
BYBLOCK
 62
     0
100
AcDbText
 10
26.38877836355625
 20
-26.14326549128834
 30
0.0
 40
0.125
  1
25/32
 72
     1
 11
26.68044503022292
 21
-26.08076549128834
 31
0.0
100
AcDbText
 73
     2
  0
POINT
  5
1AB
330
15F
100
AcDbEntity
  8
DEFPOINTS
  6
BYBLOCK
 62
     0
100
AcDbPoint
 10
25.22900373093337
 20
-25.87345371822618
 30
0.0
  0
POINT
  5
1AC
330
15F
100
AcDbEntity
  8
DEFPOINTS
  6
BYBLOCK
 62
     0
100
AcDbPoint
 10
26.01377836355625
 20
-25.87278831832277
 30
0.0
  0
POINT
  5
1AD
330
15F
100
AcDbEntity
  8
DEFPOINTS
  6
BYBLOCK
 62
     0
100
AcDbPoint
 10
26.01377836355625
 20
-26.08076549128834
 30
0.0
  0
ENDBLK
  5
1AE
330
15F
100
AcDbEntity
  8
0
100
AcDbBlockEnd
  0
ENDSEC
  0
SECTION
  2
ENTITIES
  0
DIMENSION
  5
1AF
330
1E
100
AcDbEntity
  8
ADPDIM
100
AcDbDimension
  2
*D3
 10
28.26990765665692
 20
-20.91080042440309
 30
0.0
 11
28.26990765665692
 21
-22.16507654194138
 31
0.0
100
AcDbAlignedDimension
 13
27.24702851905799
 23
-23.41935265947966
 33
0.0
 14
28.61346937774893
 24
-20.91080042440309
 34
0.0
 50
90.0
100
AcDbRotatedDimension
  0
ARC
  5
1B0
330
1E
100
AcDbEntity
  8
ADP3DETAIL
  6
CENTER2
100
AcDbCircle
 10
28.62202851905799
 20
-20.91935265947966
 30
0.0
 40
3.0
100
AcDbArc
 50
90.0
 51
180.0
  0
ARC
  5
1B1
330
1E
100
AcDbEntity
  8
ADP1DETAIL
100
AcDbCircle
 10
28.62202851905799
 20
-20.91935265947966
 30
0.0
 40
1.375
100
AcDbArc
 50
90.0
 51
179.9999999999999
  0
DIMENSION
  5
1B2
330
1E
100
AcDbEntity
  8
ADPDIM
100
AcDbDimension
  2
*D2
 10
28.62202851905799
 20
-20.91935265947966
 30
0.0
 11
28.7755800708188
 21
-21.0727803129804
 31
0.0
 70
     4
100
AcDbRadialDimension
 15
26.49985217341602
 25
-18.79888866355856
 35
0.0
 40
-2.98790042873679
  0
ARC
  5
1B3
330
1E
100
AcDbEntity
  8
ADP1DETAIL
100
AcDbCircle
 10
28.62202851905799
 20
-20.91935265947966
 30
0.0
 40
4.625
100
AcDbArc
 50
90.0
 51
180.0
  0
DIMENSION
  5
1B4
330
1E
100
AcDbEntity
  8
ADPDIM
100
AcDbDimension
  2
*D1
 10
23.99702851905799
 20
-25.09033508158678
 30
0.0
 11
25.62114378537283
 21
-25.09033508158678
 31
0.0
100
AcDbAlignedDimension
 13
27.24525905168767
 23
-25.49488397892201
 33
0.0
 14
23.99702851905799
 24
-25.49761938924526
 34
0.0
100
AcDbRotatedDimension
  0
INSERT
  5
1B5
330
1E
100
AcDbEntity
  8
ADP1DETAIL
100
AcDbBlockReference
  2
6905
 10
23.98629585642374
 20
-25.87653318389224
 30
0.0
  0
DIMENSION
  5
1B6
330
1E
100
AcDbEntity
  8
ADPDIM
100
AcDbDimension
  2
*D4
 10
26.01377836355625
 20
-26.08076549128834
 30
0.0
 11
26.68044503022292
 21
-26.08076549128834
 31
0.0
  1
25/32
100
AcDbAlignedDimension
 13
25.22900373093337
 23
-25.87345371822618
 33
0.0
 14
26.01377836355625
 24
-25.87278831832277
 34
0.0
100
AcDbRotatedDimension
  0
LINE
  5
1B7
330
1E
100
AcDbEntity
  8
ADP1DETAIL
100
AcDbLine
 10
27.24702851905799
 20
-23.41935265947966
 30
0.0
 11
23.99702851905799
 21
-23.41935265947966
 31
0.0
  0
LINE
  5
1B8
330
1E
100
AcDbEntity
  8
ADP1DETAIL
100
AcDbLine
 10
23.99702851905799
 20
-23.41935265947966
 30
0.0
 11
23.99702851905799
 21
-20.91935265947966
 31
0.0
  0
LINE
  5
1B9
330
1E
100
AcDbEntity
  8
ADP3DETAIL
  6
CENTER2
100
AcDbLine
 10
25.62609715835569
 20
-20.91935265947966
 30
0.0
 11
25.62609715835569
 21
-23.89922870755162
 31
0.0
  0
LINE
  5
1BA
330
1E
100
AcDbEntity
  8
ADP1DETAIL
100
AcDbLine
 10
27.24702851905799
 20
-20.91935265947966
 30
0.0
 11
27.24702851905799
 21
-23.41935265947966
 31
0.0
  0
LINE
  5
1BB
330
1E
100
AcDbEntity
  8
ADP3DETAIL
  6
CENTER2
100
AcDbLine
 10
31.68362302932028
 20
-17.91935265947966
 30
0.0
 11
28.62202851905799
 21
-17.91935265947966
 31
0.0
  0
LINE
  5
1BC
330
1E
100
AcDbEntity
  8
ADP1DETAIL
100
AcDbLine
 10
28.62202851905799
 20
-16.3019972790784
 30
0.0
 11
31.12202851905799
 21
-16.3019972790784
 31
0.0
  0
LINE
  5
1BD
330
1E
100
AcDbEntity
  8
ADP1DETAIL
100
AcDbLine
 10
31.12202851905799
 20
-19.5519972790784
 30
0.0
 11
28.62202851905799
 21
-19.5519972790784
 31
0.0
  0
LINE
  5
1BE
330
1E
100
AcDbEntity
  8
ADP1DETAIL
100
AcDbLine
 10
31.12202851905799
 20
-16.3019972790784
 30
0.0
 11
31.12202851905799
 21
-19.5519972790784
 31
0.0
  0
TEXT
  5
1C2
330
1E
100
AcDbEntity
  8
ADPDIM
100
AcDbText
 10
18.08673939085871
 20
-26.88680398473009
 30
0.0
 40
0.1875
  1
J U L I U S  B L U M  &  C O . ,  I N C .      ( 8 0 0 )  5 2 6 - 6 2 9 3        W W W . J U L I U S B L U M . C O M        P A R T  N o .  6 9 0 5 - C
 41
1.25
  7
ARIAL_WIDE
 72
     1
 11
28.13904477114521
 21
-26.6993039847301
 31
0.0
100
AcDbText
 73
     3
  0
ENDSEC
  0
SECTION
  2
OBJECTS
  0
DICTIONARY
  5
C
330
0
100
AcDbDictionary
  3
ACAD_GROUP
350
D
  3
ACAD_LAYOUT
350
19
  3
ACAD_MLINESTYLE
350
16
  3
ACAD_PLOTSETTINGS
350
18
  3
ACAD_PLOTSTYLENAME
350
E
  3
ACDBHEADERROUNDTRIPXREC
350
355
  3
ACDBVARIABLEDICTIONARY
350
233
  0
DICTIONARY
  5
1FE
330
1E
100
AcDbDictionary
280
     1
  3
ACAD_LAYOUTSELFREF
360
377
  0
DICTIONARY
  5
200
330
1A
100
AcDbDictionary
280
     1
  3
ACAD_LAYOUTSELFREF
360
376
  0
DICTIONARY
  5
D
102
{ACAD_REACTORS
330
C
102
}
330
C
100
AcDbDictionary
  0
DICTIONARY
  5
19
102
{ACAD_REACTORS
330
C
102
}
330
C
100
AcDbDictionary
  0
DICTIONARY
  5
16
102
{ACAD_REACTORS
330
C
102
}
330
C
100
AcDbDictionary
  3
STANDARD
350
17
  0
DICTIONARY
  5
18
102
{ACAD_REACTORS
330
C
102
}
330
C
100
AcDbDictionary
  0
ACDBDICTIONARYWDFLT
  5
E
102
{ACAD_REACTORS
330
C
102
}
330
C
100
AcDbDictionary
281
     1
  3
Normal
350
F
100
AcDbDictionaryWithDefault
340
F
  0
DICTIONARY
  5
355
102
{ACAD_REACTORS
330
C
102
}
330
C
100
AcDbDictionary
  3
CEPSNTYPE
350
35F
  3
DIMSTYLEDATA
350
363
  3
FINGERPRINTGUID
350
360
  3
HYPERLINKBASE
350
358
  3
INSUNITS
350
35E
  3
LAYOUTDICT
350
35A
  3
LWETCUNION
350
35D
  3
PLOTSETDICT
350
35B
  3
PLOTSTYLNAMDICT
350
35C
  3
PSVPSCALE
350
362
  3
PUCSBASE
350
366
  3
PUCSORGBACK
350
36C
  3
PUCSORGBOTTOM
350
368
  3
PUCSORGFRONT
350
36B
  3
PUCSORGLEFT
350
369
  3
PUCSORGRIGHT
350
36A
  3
PUCSORGTOP
350
367
  3
PUCSORTHOREF
350
364
  3
PUCSORTHOVIEW
350
365
  3
STYLESHEET
350
359
  3
TSTACKALIGN
350
356
  3
TSTACKSIZE
350
357
  3
UCSBASE
350
36F
  3
UCSORGBACK
350
375
  3
UCSORGBOTTOM
350
371
  3
UCSORGFRONT
350
374
  3
UCSORGLEFT
350
372
  3
UCSORGRIGHT
350
373
  3
UCSORGTOP
350
370
  3
UCSORTHOREF
350
36D
  3
UCSORTHOVIEW
350
36E
  3
VERSIONGUID
350
361
  0
DICTIONARY
  5
233
102
{ACAD_REACTORS
330
C
102
}
330
C
100
AcDbDictionary
  3
DIMASSOC
350
235
  3
HIDETEXT
350
234
  0
XRECORD
  5
377
102
{ACAD_REACTORS
330
1FE
102
}
330
1FE
100
AcDbXrecord
340
1E
  0
XRECORD
  5
376
102
{ACAD_REACTORS
330
200
102
}
330
200
100
AcDbXrecord
340
1A
  0
MLINESTYLE
  5
17
102
{ACAD_REACTORS
330
16
102
}
330
16
100
AcDbMlineStyle
  2
STANDARD
 70
     0
  3

 62
   256
 51
90.0
 52
90.0
 71
     2
 49
0.5
 62
   256
  6
BYLAYER
 49
-0.5
 62
   256
  6
BYLAYER
  0
ACDBPLACEHOLDER
  5
F
102
{ACAD_REACTORS
330
E
102
}
330
E
100
AcDbPlaceHolder
280
     0
  0
XRECORD
  5
35F
102
{ACAD_REACTORS
330
355
102
}
330
355
100
AcDbXrecord
 90
        0
  0
XRECORD
  5
363
102
{ACAD_REACTORS
330
355
102
}
330
355
100
AcDbXrecord
1000
DSTYLE
1002
{
1070
   277
 70
     5
1070
   279
 70
     2
1002
}
  0
XRECORD
  5
360
102
{ACAD_REACTORS
330
355
102
}
330
355
100
AcDbXrecord
  1
{27263CBD-3CA2-4A05-9DDC-FAEF61FDE855}
  0
XRECORD
  5
358
102
{ACAD_REACTORS
330
355
102
}
330
355
100
AcDbXrecord
  1

  0
XRECORD
  5
35E
102
{ACAD_REACTORS
330
355
102
}
330
355
100
AcDbXrecord
 90
        0
  0
XRECORD
  5
35A
102
{ACAD_REACTORS
330
355
102
}
330
355
100
AcDbXrecord
340
19
  0
XRECORD
  5
35D
102
{ACAD_REACTORS
330
355
102
}
330
355
100
AcDbXrecord
 90
    14877
  0
XRECORD
  5
35B
102
{ACAD_REACTORS
330
355
102
}
330
355
100
AcDbXrecord
340
18
  0
XRECORD
  5
35C
102
{ACAD_REACTORS
330
355
102
}
330
355
100
AcDbXrecord
340
E
  0
XRECORD
  5
362
102
{ACAD_REACTORS
330
355
102
}
330
355
100
AcDbXrecord
 40
0.0
  0
XRECORD
  5
366
102
{ACAD_REACTORS
330
355
102
}
330
355
100
AcDbXrecord
340
0
  0
XRECORD
  5
36C
102
{ACAD_REACTORS
330
355
102
}
330
355
100
AcDbXrecord
 10
0.0
 20
0.0
 30
0.0
  0
XRECORD
  5
368
102
{ACAD_REACTORS
330
355
102
}
330
355
100
AcDbXrecord
 10
0.0
 20
0.0
 30
0.0
  0
XRECORD
  5
36B
102
{ACAD_REACTORS
330
355
102
}
330
355
100
AcDbXrecord
 10
0.0
 20
0.0
 30
0.0
  0
XRECORD
  5
369
102
{ACAD_REACTORS
330
355
102
}
330
355
100
AcDbXrecord
 10
0.0
 20
0.0
 30
0.0
  0
XRECORD
  5
36A
102
{ACAD_REACTORS
330
355
102
}
330
355
100
AcDbXrecord
 10
0.0
 20
0.0
 30
0.0
  0
XRECORD
  5
367
102
{ACAD_REACTORS
330
355
102
}
330
355
100
AcDbXrecord
 10
0.0
 20
0.0
 30
0.0
  0
XRECORD
  5
364
102
{ACAD_REACTORS
330
355
102
}
330
355
100
AcDbXrecord
340
0
  0
XRECORD
  5
365
102
{ACAD_REACTORS
330
355
102
}
330
355
100
AcDbXrecord
 70
     0
  0
XRECORD
  5
359
102
{ACAD_REACTORS
330
355
102
}
330
355
100
AcDbXrecord
  1

  0
XRECORD
  5
356
102
{ACAD_REACTORS
330
355
102
}
330
355
100
AcDbXrecord
 90
        1
  0
XRECORD
  5
357
102
{ACAD_REACTORS
330
355
102
}
330
355
100
AcDbXrecord
 90
       70
  0
XRECORD
  5
36F
102
{ACAD_REACTORS
330
355
102
}
330
355
100
AcDbXrecord
340
0
  0
XRECORD
  5
375
102
{ACAD_REACTORS
330
355
102
}
330
355
100
AcDbXrecord
 10
0.0
 20
0.0
 30
0.0
  0
XRECORD
  5
371
102
{ACAD_REACTORS
330
355
102
}
330
355
100
AcDbXrecord
 10
0.0
 20
0.0
 30
0.0
  0
XRECORD
  5
374
102
{ACAD_REACTORS
330
355
102
}
330
355
100
AcDbXrecord
 10
0.0
 20
0.0
 30
0.0
  0
XRECORD
  5
372
102
{ACAD_REACTORS
330
355
102
}
330
355
100
AcDbXrecord
 10
0.0
 20
0.0
 30
0.0
  0
XRECORD
  5
373
102
{ACAD_REACTORS
330
355
102
}
330
355
100
AcDbXrecord
 10
0.0
 20
0.0
 30
0.0
  0
XRECORD
  5
370
102
{ACAD_REACTORS
330
355
102
}
330
355
100
AcDbXrecord
 10
0.0
 20
0.0
 30
0.0
  0
XRECORD
  5
36D
102
{ACAD_REACTORS
330
355
102
}
330
355
100
AcDbXrecord
340
0
  0
XRECORD
  5
36E
102
{ACAD_REACTORS
330
355
102
}
330
355
100
AcDbXrecord
 70
     0
  0
XRECORD
  5
361
102
{ACAD_REACTORS
330
355
102
}
330
355
100
AcDbXrecord
  1
{7BD7D41E-18E9-4367-88BC-8DAB7CACD5FE}
  0
DICTIONARYVAR
  5
235
102
{ACAD_REACTORS
330
233
102
}
330
233
100
DictionaryVariables
280
     0
  1
2
  0
DICTIONARYVAR
  5
234
102
{ACAD_REACTORS
330
233
102
}
330
233
100
DictionaryVariables
280
     0
  1
1
  0
ENDSEC
  0
EOF
