  0
SECTION
  2
HEADER
  9
$ACADVER
  1
AC1014
  9
$ACADMAINTVER
 70
     9
  9
$DWGCODEPAGE
  3
ANSI_1252
  9
$INSBASE
 10
33.22075422184893
 20
-8.26889856309863
 30
0.0
  9
$EXTMIN
 10
23.39311587225732
 20
-11.81275867765836
 30
0.0
  9
$EXTMAX
 10
43.49772663283032
 20
-1.166803959824918
 30
0.0
  9
$LIMMIN
 10
0.0
 20
0.0
  9
$LIMMAX
 10
36.0
 20
36.0
  9
$ORTHOMODE
 70
     1
  9
$REGENMODE
 70
     1
  9
$FILLMODE
 70
     1
  9
$QTEXTMODE
 70
     0
  9
$MIRRTEXT
 70
     1
  9
$DRAGMODE
 70
     0
  9
$LTSCALE
 40
1.0
  9
$OSMODE
 70
    37
  9
$ATTMODE
 70
     1
  9
$TEXTSIZE
 40
0.2
  9
$TRACEWID
 40
0.05
  9
$TEXTSTYLE
  7
STANDARD
  9
$CLAYER
  8
0
  9
$CELTYPE
  6
BYLAYER
  9
$CECOLOR
 62
   256
  9
$CELTSCALE
 40
1.0
  9
$DELOBJ
 70
     1
  9
$DISPSILH
 70
     0
  9
$DIMSCALE
 40
1.0
  9
$DIMASZ
 40
0.125
  9
$DIMEXO
 40
0.0625
  9
$DIMDLI
 40
0.38
  9
$DIMRND
 40
0.0
  9
$DIMDLE
 40
0.0
  9
$DIMEXE
 40
0.18
  9
$DIMTP
 40
0.0
  9
$DIMTM
 40
0.0
  9
$DIMTXT
 40
0.125
  9
$DIMCEN
 40
0.1875
  9
$DIMTSZ
 40
0.125
  9
$DIMTOL
 70
     0
  9
$DIMLIM
 70
     0
  9
$DIMTIH
 70
     0
  9
$DIMTOH
 70
     0
  9
$DIMSE1
 70
     0
  9
$DIMSE2
 70
     0
  9
$DIMTAD
 70
     0
  9
$DIMZIN
 70
     3
  9
$DIMBLK
  1

  9
$DIMASO
 70
     1
  9
$DIMSHO
 70
     1
  9
$DIMPOST
  1

  9
$DIMAPOST
  1

  9
$DIMALT
 70
     0
  9
$DIMALTD
 70
     1
  9
$DIMALTF
 40
25.4
  9
$DIMLFAC
 40
1.0
  9
$DIMTOFL
 70
     0
  9
$DIMTVP
 40
0.0
  9
$DIMTIX
 70
     0
  9
$DIMSOXD
 70
     0
  9
$DIMSAH
 70
     0
  9
$DIMBLK1
  1

  9
$DIMBLK2
  1

  9
$DIMSTYLE
  2
STANDARD
  9
$DIMCLRD
 70
     0
  9
$DIMCLRE
 70
     0
  9
$DIMCLRT
 70
     0
  9
$DIMTFAC
 40
1.0
  9
$DIMGAP
 40
0.125
  9
$DIMJUST
 70
     0
  9
$DIMSD1
 70
     0
  9
$DIMSD2
 70
     0
  9
$DIMTOLJ
 70
     1
  9
$DIMTZIN
 70
     3
  9
$DIMALTZ
 70
     3
  9
$DIMALTTZ
 70
     3
  9
$DIMFIT
 70
     5
  9
$DIMUPT
 70
     0
  9
$DIMUNIT
 70
     5
  9
$DIMDEC
 70
     4
  9
$DIMTDEC
 70
     4
  9
$DIMALTU
 70
     5
  9
$DIMALTTD
 70
     1
  9
$DIMTXSTY
  7
STANDARD
  9
$DIMAUNIT
 70
     0
  9
$LUNITS
 70
     5
  9
$LUPREC
 70
     4
  9
$SKETCHINC
 40
0.1
  9
$FILLETRAD
 40
0.187
  9
$AUNITS
 70
     0
  9
$AUPREC
 70
     0
  9
$MENU
  1
acad
  9
$ELEVATION
 40
0.0
  9
$PELEVATION
 40
0.0
  9
$THICKNESS
 40
0.0
  9
$LIMCHECK
 70
     0
  9
$BLIPMODE
 70
     0
  9
$CHAMFERA
 40
0.0
  9
$CHAMFERB
 40
0.0
  9
$CHAMFERC
 40
0.0
  9
$CHAMFERD
 40
0.0
  9
$SKPOLY
 70
     0
  9
$TDCREATE
 40
2450399.633041273
  9
$TDUPDATE
 40
2452297.095046470
  9
$TDINDWG
 40
0.0539699074
  9
$TDUSRTIMER
 40
0.0539699074
  9
$USRTIMER
 70
     1
  9
$ANGBASE
 50
0.0
  9
$ANGDIR
 70
     0
  9
$PDMODE
 70
     0
  9
$PDSIZE
 40
0.0
  9
$PLINEWID
 40
0.0
  9
$COORDS
 70
     2
  9
$SPLFRAME
 70
     0
  9
$SPLINETYPE
 70
     6
  9
$SPLINESEGS
 70
     8
  9
$ATTDIA
 70
     0
  9
$ATTREQ
 70
     1
  9
$HANDLING
 70
 22529
  9
$HANDSEED
  5
367
  9
$SURFTAB1
 70
     6
  9
$SURFTAB2
 70
     6
  9
$SURFTYPE
 70
     6
  9
$SURFU
 70
     6
  9
$SURFV
 70
     6
  9
$UCSNAME
  2

  9
$UCSORG
 10
0.0
 20
0.0
 30
0.0
  9
$UCSXDIR
 10
1.0
 20
0.0
 30
0.0
  9
$UCSYDIR
 10
0.0
 20
1.0
 30
0.0
  9
$PUCSNAME
  2

  9
$PUCSORG
 10
0.0
 20
0.0
 30
0.0
  9
$PUCSXDIR
 10
1.0
 20
0.0
 30
0.0
  9
$PUCSYDIR
 10
0.0
 20
1.0
 30
0.0
  9
$USERI1
 70
     0
  9
$USERI2
 70
     0
  9
$USERI3
 70
     0
  9
$USERI4
 70
     0
  9
$USERI5
 70
     0
  9
$USERR1
 40
0.0
  9
$USERR2
 40
0.0
  9
$USERR3
 40
0.0
  9
$USERR4
 40
0.0
  9
$USERR5
 40
0.0
  9
$WORLDVIEW
 70
     1
  9
$SHADEDGE
 70
     3
  9
$SHADEDIF
 70
    70
  9
$TILEMODE
 70
     1
  9
$MAXACTVP
 70
    15
  9
$PINSBASE
 10
0.0004882914945483
 20
0.7501408034022604
 30
0.0
  9
$PLIMCHECK
 70
     0
  9
$PEXTMIN
 10
1.000000000000000E+20
 20
1.000000000000000E+20
 30
1.000000000000000E+20
  9
$PEXTMAX
 10
-1.000000000000000E+20
 20
-1.000000000000000E+20
 30
-1.000000000000000E+20
  9
$PLIMMIN
 10
0.0
 20
0.0
  9
$PLIMMAX
 10
12.0
 20
9.0
  9
$UNITMODE
 70
     0
  9
$VISRETAIN
 70
     0
  9
$PLINEGEN
 70
     0
  9
$PSLTSCALE
 70
     1
  9
$TREEDEPTH
 70
  3020
  9
$PICKSTYLE
 70
     1
  9
$CMLSTYLE
  2
STANDARD
  9
$CMLJUST
 70
     0
  9
$CMLSCALE
 40
1.0
  9
$PROXYGRAPHICS
 70
     1
  9
$MEASUREMENT
 70
     0
  0
ENDSEC
  0
SECTION
  2
CLASSES
  0
CLASS
  1
ACDBDICTIONARYWDFLT
  2
AcDbDictionaryWithDefault
  3
AutoCAD 2000
 90
        0
280
     0
281
     0
  0
CLASS
  1
ACDBPLACEHOLDER
  2
AcDbPlaceHolder
  3
AutoCAD 2000
 90
        0
280
     0
281
     0
  0
CLASS
  1
LAYOUT
  2
AcDbLayout
  3
AutoCAD 2000
 90
        0
280
     0
281
     0
  0
CLASS
  1
DICTIONARYVAR
  2
AcDbDictionaryVar
  3
AutoCAD 2000
 90
        0
280
     0
281
     0
  0
CLASS
  1
LONG_TRANSACTION
  2
AcDbLongTransaction
  3
AutoCAD 2000
 90
        0
280
     0
281
     0
  0
CLASS
  1
LWPOLYLINE
  2
AcDbPolyline
  3
AutoCAD 2000
 90
        0
280
     0
281
     1
  0
CLASS
  1
HATCH
  2
AcDbHatch
  3
AutoCAD 2000
 90
        0
280
     0
281
     1
  0
CLASS
  1
XRECORD
  2
AcDbXrecord
  3
AutoCAD 2000
 90
        0
280
     0
281
     0
  0
CLASS
  1
LONG_TRANSACTION
  2
AcDbLongTransaction
  3
AutoCAD 2000
 90
        0
280
     0
281
     0
  0
CLASS
  1
LWPOLYLINE
  2
AcDbPolyline
  3
AutoCAD 2000
 90
        0
280
     0
281
     1
  0
CLASS
  1
HATCH
  2
AcDbHatch
  3
AutoCAD 2000
 90
        0
280
     0
281
     1
  0
CLASS
  1
XRECORD
  2
AcDbXrecord
  3
AutoCAD 2000
 90
        0
280
     0
281
     0
  0
CLASS
  1
LONG_TRANSACTION
  2
AcDbLongTransaction
  3
AutoCAD 2000
 90
        0
280
     0
281
     0
  0
CLASS
  1
LWPOLYLINE
  2
AcDbPolyline
  3
AutoCAD 2000
 90
        0
280
     0
281
     1
  0
CLASS
  1
HATCH
  2
AcDbHatch
  3
AutoCAD 2000
 90
        0
280
     0
281
     1
  0
CLASS
  1
XRECORD
  2
AcDbXrecord
  3
AutoCAD 2000
 90
        0
280
     0
281
     0
  0
CLASS
  1
LONG_TRANSACTION
  2
AcDbLongTransaction
  3
AutoCAD 2000
 90
        0
280
     0
281
     0
  0
CLASS
  1
LWPOLYLINE
  2
AcDbPolyline
  3
AutoCAD 2000
 90
        0
280
     0
281
     1
  0
CLASS
  1
HATCH
  2
AcDbHatch
  3
AutoCAD 2000
 90
        0
280
     0
281
     1
  0
CLASS
  1
XRECORD
  2
AcDbXrecord
  3
AutoCAD 2000
 90
        0
280
     0
281
     0
  0
CLASS
  1
LONG_TRANSACTION
  2
AcDbLongTransaction
  3
AutoCAD 2000
 90
        0
280
     0
281
     0
  0
CLASS
  1
LWPOLYLINE
  2
AcDbPolyline
  3
AutoCAD 2000
 90
        0
280
     0
281
     1
  0
CLASS
  1
HATCH
  2
AcDbHatch
  3
AutoCAD 2000
 90
        0
280
     0
281
     1
  0
CLASS
  1
XRECORD
  2
AcDbXrecord
  3
AutoCAD 2000
 90
        0
280
     0
281
     0
  0
ENDSEC
  0
SECTION
  2
TABLES
  0
TABLE
  2
VPORT
  5
8
330
0
100
AcDbSymbolTable
 70
     2
  0
VPORT
  5
343
330
8
100
AcDbSymbolTableRecord
100
AcDbViewportTableRecord
  2
*ACTIVE
 70
     0
 10
0.0
 20
0.0
 11
1.0
 21
1.0
 12
33.4622199535565
 22
-6.490694869548098
 13
0.0
 23
0.0
 14
0.5740882589684922
 24
0.5740882589684922
 15
0.5
 25
0.5
 16
0.0
 26
0.0
 36
1.0
 17
0.0
 27
0.0
 37
0.0
 40
12.88554668661777
 41
1.570528967254408
 42
50.0
 43
0.0
 44
0.0
 50
0.0
 51
0.0
 71
     0
 72
   100
 73
     1
 74
     0
 75
     0
 76
     0
 77
     0
 78
     0
  0
ENDTAB
  0
TABLE
  2
LTYPE
  5
5
330
0
100
AcDbSymbolTable
 70
     2
  0
LTYPE
  5
13
330
5
100
AcDbSymbolTableRecord
100
AcDbLinetypeTableRecord
  2
BYBLOCK
 70
     0
  3

 72
    65
 73
     0
 40
0.0
  0
LTYPE
  5
14
330
5
100
AcDbSymbolTableRecord
100
AcDbLinetypeTableRecord
  2
BYLAYER
 70
     0
  3

 72
    65
 73
     0
 40
0.0
  0
LTYPE
  5
15
330
5
100
AcDbSymbolTableRecord
100
AcDbLinetypeTableRecord
  2
CONTINUOUS
 70
     0
  3
Solid line
 72
    65
 73
     0
 40
0.0
  0
LTYPE
  5
16A
330
5
100
AcDbSymbolTableRecord
100
AcDbLinetypeTableRecord
  2
CENTER2
 70
     0
  3
___ _ ___ _ ___ _ ___ _ ___ _ ___ _ ___ _ ___ _
 72
    65
 73
     4
 40
1.125
 49
0.75
 74
     0
 49
-0.125
 74
     0
 49
0.125
 74
     0
 49
-0.125
 74
     0
  0
ENDTAB
  0
TABLE
  2
LAYER
  5
2
330
0
100
AcDbSymbolTable
 70
     5
  0
LAYER
  5
10
330
2
100
AcDbSymbolTableRecord
100
AcDbLayerTableRecord
  2
0
 70
     0
 62
     7
  6
CONTINUOUS
  0
LAYER
  5
16E
330
2
100
AcDbSymbolTableRecord
100
AcDbLayerTableRecord
  2
ADP1DETAIL
 70
     0
 62
     7
  6
CONTINUOUS
  0
LAYER
  5
16F
330
2
100
AcDbSymbolTableRecord
100
AcDbLayerTableRecord
  2
ADP3DETAIL
 70
     0
 62
     1
  6
CONTINUOUS
  0
LAYER
  5
170
330
2
100
AcDbSymbolTableRecord
100
AcDbLayerTableRecord
  2
DEFPOINTS
 70
     0
 62
     7
  6
CONTINUOUS
  0
LAYER
  5
173
330
2
100
AcDbSymbolTableRecord
100
AcDbLayerTableRecord
  2
ADPDIM
 70
     0
 62
     3
  6
CONTINUOUS
  0
ENDTAB
  0
TABLE
  2
STYLE
  5
3
330
0
100
AcDbSymbolTable
 70
     2
  0
STYLE
  5
11
330
3
100
AcDbSymbolTableRecord
100
AcDbTextStyleTableRecord
  2
STANDARD
 70
     0
 40
0.0
 41
1.0
 50
0.0
 71
     0
 42
0.2
  3
txt
  4

  0
STYLE
  5
1B0
330
3
100
AcDbSymbolTableRecord
100
AcDbTextStyleTableRecord
  2
ARIAL_WIDE
 70
     0
 40
0.0
 41
1.25
 50
0.0
 71
     0
 42
0.2
  3
ARIAL.TTF
  4

1001
ACAD
1000
Arial
1071
       34
  0
ENDTAB
  0
TABLE
  2
VIEW
  5
6
330
0
100
AcDbSymbolTable
 70
     0
  0
ENDTAB
  0
TABLE
  2
UCS
  5
7
330
0
100
AcDbSymbolTable
 70
     0
  0
ENDTAB
  0
TABLE
  2
APPID
  5
9
330
0
100
AcDbSymbolTable
 70
     1
  0
APPID
  5
12
330
9
100
AcDbSymbolTableRecord
100
AcDbRegAppTableRecord
  2
ACAD
 70
     0
  0
ENDTAB
  0
TABLE
  2
DIMSTYLE
  5
A
330
0
100
AcDbSymbolTable
 70
     1
  0
DIMSTYLE
105
1AE
330
A
100
AcDbSymbolTableRecord
100
AcDbDimStyleTableRecord
  2
STANDARD
 70
     0
  3

  4

  5

  6

  7

 40
1.0
 41
0.18
 42
0.0625
 43
0.38
 44
0.18
 45
0.0
 46
0.0
 47
0.0
 48
0.0
140
0.18
141
0.09
142
0.0
143
25.4
144
1.0
145
0.0
146
1.0
147
0.09
 71
     0
 72
     0
 73
     1
 74
     1
 75
     0
 76
     0
 77
     0
 78
     0
170
     0
171
     2
172
     0
173
     0
174
     0
175
     0
176
     0
177
     0
178
     0
270
     2
271
     4
272
     4
273
     2
274
     2
340
11
275
     0
280
     0
281
     0
282
     0
283
     1
284
     0
285
     0
286
     0
287
     3
288
     0
  0
ENDTAB
  0
TABLE
  2
BLOCK_RECORD
  5
1
330
0
100
AcDbSymbolTable
 70
     3
  0
BLOCK_RECORD
  5
1E
102
{ACAD_XDICTIONARY
360
1ED
102
}
330
1
100
AcDbSymbolTableRecord
100
AcDbBlockTableRecord
  2
*MODEL_SPACE
  0
BLOCK_RECORD
  5
1A
102
{ACAD_XDICTIONARY
360
1EF
102
}
330
1
100
AcDbSymbolTableRecord
100
AcDbBlockTableRecord
  2
*PAPER_SPACE
  0
BLOCK_RECORD
  5
10A
330
1
100
AcDbSymbolTableRecord
100
AcDbBlockTableRecord
  2
6901
  0
BLOCK_RECORD
  5
164
330
1
100
AcDbSymbolTableRecord
100
AcDbBlockTableRecord
  2
*D1
  0
BLOCK_RECORD
  5
165
330
1
100
AcDbSymbolTableRecord
100
AcDbBlockTableRecord
  2
*D2
  0
ENDTAB
  0
ENDSEC
  0
SECTION
  2
BLOCKS
  0
BLOCK
  5
176
330
1E
100
AcDbEntity
  8
0
100
AcDbBlockBegin
  2
*MODEL_SPACE
 70
     0
 10
0.0
 20
0.0
 30
0.0
  3
*MODEL_SPACE
  1

  0
ENDBLK
  5
177
330
1E
100
AcDbEntity
  8
0
100
AcDbBlockEnd
  0
BLOCK
  5
174
330
1A
100
AcDbEntity
 67
     1
  8
0
100
AcDbBlockBegin
  2
*PAPER_SPACE
 70
     0
 10
0.0
 20
0.0
 30
0.0
  3
*PAPER_SPACE
  1

  0
ENDBLK
  5
175
330
1A
100
AcDbEntity
 67
     1
  8
0
100
AcDbBlockEnd
  0
BLOCK
  5
179
330
10A
100
AcDbEntity
  8
0
100
AcDbBlockBegin
  2
6901
 70
     0
 10
0.0
 20
0.0
 30
0.0
  3
6901
  1

  0
LINE
  5
17A
330
10A
100
AcDbEntity
  8
0
100
AcDbLine
 10
1.368859953430117
 20
0.2217944253575497
 30
0.0
 11
0.8533599534301163
 21
0.2217944253575497
 31
0.0
  0
ARC
  5
17B
330
10A
100
AcDbEntity
  8
0
100
AcDbCircle
 10
1.368859953430117
 20
-2.62120557464245
 30
0.0
 40
3.375
100
AcDbArc
 50
90.0
 51
110.2652607969571
  0
ARC
  5
17C
330
10A
100
AcDbEntity
  8
0
100
AcDbCircle
 10
0.279838039473379
 20
0.3365311779297146
 30
0.0
 40
0.222
100
AcDbArc
 50
110.944861109285
 51
256.0363411561846
  0
ARC
  5
17D
330
10A
100
AcDbEntity
  8
0
100
AcDbCircle
 10
1.369887311480525
 20
4.48801448489751
 30
0.0
 40
4.515420799881225
100
AcDbArc
 50
255.3213699842173
 51
263.4312191492925
  0
LINE
  5
17E
330
10A
100
AcDbEntity
  8
0
100
AcDbLine
 10
0.2262680153961192
 20
0.1210915053520725
 30
0.0
 11
0.2256925103701182
 21
0.1199664932756339
 31
0.0
  0
LINE
  5
17F
330
10A
100
AcDbEntity
  8
0
100
AcDbLine
 10
0.8533599534301163
 20
0.2217944253575497
 30
0.0
 11
0.8533418317692387
 21
0.002236317467712
 31
0.0
  0
LINE
  5
180
330
10A
100
AcDbEntity
  8
0
100
AcDbLine
 10
0.1998715540769691
 20
0.5448789349968251
 30
0.0
 11
0.2004798442686351
 21
0.543862499378853
 31
0.0
  0
ARC
  5
181
330
10A
100
AcDbEntity
  8
0
100
AcDbCircle
 10
2.457881867386854
 20
0.3365311779297146
 30
0.0
 40
0.222
100
AcDbArc
 50
283.9636588438153
 51
69.05513889071494
  0
ARC
  5
182
330
10A
100
AcDbEntity
  8
0
100
AcDbCircle
 10
1.367832595379708
 20
4.48801448489751
 30
0.0
 40
4.515420799881225
100
AcDbArc
 50
276.5687808507073
 51
284.6786300157826
  0
LINE
  5
183
330
10A
100
AcDbEntity
  8
0
100
AcDbLine
 10
1.368859953430117
 20
0.2217944253575497
 30
0.0
 11
1.884359953430116
 21
0.2217944253575497
 31
0.0
  0
LINE
  5
184
330
10A
100
AcDbEntity
  8
0
100
AcDbLine
 10
1.884359953430116
 20
0.2217944253575497
 30
0.0
 11
1.884378075090996
 21
0.002236317467712
 31
0.0
  0
ARC
  5
185
330
10A
100
AcDbEntity
  8
0
100
AcDbCircle
 10
1.368859953430117
 20
-2.62120557464245
 30
0.0
 40
3.375
100
AcDbArc
 50
69.73473920304283
 51
90.0
  0
ENDBLK
  5
186
330
10A
100
AcDbEntity
  8
0
100
AcDbBlockEnd
  0
BLOCK
  5
187
330
164
100
AcDbEntity
  8
0
100
AcDbBlockBegin
  2
*D1
 70
     1
 10
0.0
 20
0.0
 30
0.0
  3
*D1
  1

  0
LINE
  5
188
330
164
100
AcDbEntity
  8
0
  6
BYBLOCK
 62
     0
100
AcDbLine
 10
30.59575422184893
 20
-10.2793667348798
 30
0.0
 11
30.59575422184893
 21
-9.51889856309863
 31
0.0
  0
LINE
  5
189
330
164
100
AcDbEntity
  8
0
  6
BYBLOCK
 62
     0
100
AcDbLine
 10
33.21697434072558
 20
-10.2793667348798
 30
0.0
 11
33.21697434072558
 21
-9.51889856309863
 31
0.0
  0
LINE
  5
18A
330
164
100
AcDbEntity
  8
0
  6
BYBLOCK
 62
     0
100
AcDbLine
 10
30.59575422184893
 20
-9.69889856309863
 30
0.0
 11
31.48969761462059
 21
-9.69889856309863
 31
0.0
  0
LINE
  5
18B
330
164
100
AcDbEntity
  8
0
  6
BYBLOCK
 62
     0
100
AcDbLine
 10
33.21697434072558
 20
-9.69889856309863
 30
0.0
 11
32.32303094795392
 21
-9.69889856309863
 31
0.0
  0
LINE
  5
18C
330
164
100
AcDbEntity
  8
0
  6
BYBLOCK
 62
     0
100
AcDbLine
 10
30.47075422184893
 20
-9.82389856309863
 30
0.0
 11
30.72075422184893
 21
-9.57389856309863
 31
0.0
  0
LINE
  5
18D
330
164
100
AcDbEntity
  8
0
  6
BYBLOCK
 62
     0
100
AcDbLine
 10
33.09197434072558
 20
-9.82389856309863
 30
0.0
 11
33.34197434072558
 21
-9.57389856309863
 31
0.0
  0
TEXT
  5
18E
330
164
100
AcDbEntity
  8
0
  6
BYBLOCK
 62
     0
100
AcDbText
 10
31.61469761462059
 20
-9.76139856309863
 30
0.0
 40
0.125
  1
2 5/8
 72
     1
 11
31.90636428128726
 21
-9.69889856309863
 31
0.0
100
AcDbText
 73
     2
  0
POINT
  5
190
330
164
100
AcDbEntity
  8
DEFPOINTS
  6
BYBLOCK
 62
     0
100
AcDbPoint
 10
30.59575422184893
 20
-10.3418667348798
 30
0.0
  0
POINT
  5
191
330
164
100
AcDbEntity
  8
DEFPOINTS
  6
BYBLOCK
 62
     0
100
AcDbPoint
 10
33.21697434072558
 20
-10.3418667348798
 30
0.0
  0
POINT
  5
192
330
164
100
AcDbEntity
  8
DEFPOINTS
  6
BYBLOCK
 62
     0
100
AcDbPoint
 10
33.21697434072558
 20
-9.69889856309863
 30
0.0
  0
ENDBLK
  5
193
330
164
100
AcDbEntity
  8
0
100
AcDbBlockEnd
  0
BLOCK
  5
194
330
165
100
AcDbEntity
  8
0
100
AcDbBlockBegin
  2
*D2
 70
     1
 10
0.0
 20
0.0
 30
0.0
  3
*D2
  1

  0
LINE
  5
195
330
165
100
AcDbEntity
  8
0
  6
BYBLOCK
 62
     0
100
AcDbLine
 10
31.39084615962638
 20
-10.72514516896384
 30
0.0
 11
31.39084615962638
 21
-11.02737639490334
 31
0.0
  0
LINE
  5
196
330
165
100
AcDbEntity
  8
0
  6
BYBLOCK
 62
     0
100
AcDbLine
 10
32.42188240294814
 20
-10.72514516896384
 30
0.0
 11
32.42188240294814
 21
-11.02737639490334
 31
0.0
  0
LINE
  5
197
330
165
100
AcDbEntity
  8
0
  6
BYBLOCK
 62
     0
100
AcDbLine
 10
31.39084615962638
 20
-10.84737639490334
 30
0.0
 11
31.76053094795393
 21
-10.84737639490334
 31
0.0
  0
LINE
  5
198
330
165
100
AcDbEntity
  8
0
  6
BYBLOCK
 62
     0
100
AcDbLine
 10
32.42188240294814
 20
-10.84737639490334
 30
0.0
 11
32.05219761462059
 21
-10.84737639490334
 31
0.0
  0
LINE
  5
199
330
165
100
AcDbEntity
  8
0
  6
BYBLOCK
 62
     0
100
AcDbLine
 10
31.26584615962638
 20
-10.97237639490334
 30
0.0
 11
31.51584615962638
 21
-10.72237639490334
 31
0.0
  0
LINE
  5
19A
330
165
100
AcDbEntity
  8
0
  6
BYBLOCK
 62
     0
100
AcDbLine
 10
32.29688240294814
 20
-10.97237639490334
 30
0.0
 11
32.54688240294814
 21
-10.72237639490334
 31
0.0
  0
TEXT
  5
19B
330
165
100
AcDbEntity
  8
0
  6
BYBLOCK
 62
     0
100
AcDbText
 10
31.88553094795393
 20
-10.90987639490334
 30
0.0
 40
0.125
  1
1
 72
     1
 11
31.90636428128726
 21
-10.84737639490334
 31
0.0
100
AcDbText
 73
     2
  0
POINT
  5
19C
330
165
100
AcDbEntity
  8
DEFPOINTS
  6
BYBLOCK
 62
     0
100
AcDbPoint
 10
31.39084615962638
 20
-10.66264516896384
 30
0.0
  0
POINT
  5
19D
330
165
100
AcDbEntity
  8
DEFPOINTS
  6
BYBLOCK
 62
     0
100
AcDbPoint
 10
32.42188240294814
 20
-10.66264516896384
 30
0.0
  0
POINT
  5
19E
330
165
100
AcDbEntity
  8
DEFPOINTS
  6
BYBLOCK
 62
     0
100
AcDbPoint
 10
32.42188240294814
 20
-10.84737639490334
 30
0.0
  0
ENDBLK
  5
19F
330
165
100
AcDbEntity
  8
0
100
AcDbBlockEnd
  0
ENDSEC
  0
SECTION
  2
ENTITIES
  0
LINE
  5
1A0
330
1E
100
AcDbEntity
  8
ADP1DETAIL
100
AcDbLine
 10
36.90825422184893
 20
-4.58139856309863
 30
0.0
 11
34.40825422184893
 21
-4.58139856309863
 31
0.0
  0
LINE
  5
1A1
330
1E
100
AcDbEntity
  8
ADP1DETAIL
100
AcDbLine
 10
34.40825422184893
 20
-1.95639856309863
 30
0.0
 11
36.90825422184893
 21
-1.95639856309863
 31
0.0
  0
LINE
  5
1A2
330
1E
100
AcDbEntity
  8
ADP3DETAIL
  6
CENTER2
100
AcDbLine
 10
34.40825422184893
 20
-3.26889856309863
 30
0.0
 11
37.4980070783168
 21
-3.26889856309863
 31
0.0
  0
ARC
  5
1A3
330
1E
100
AcDbEntity
  8
ADP1DETAIL
100
AcDbCircle
 10
34.40825422184893
 20
-5.76889856309863
 30
0.0
 40
1.1875
100
AcDbArc
 50
90.0
 51
180.0
  0
ARC
  5
1A4
330
1E
100
AcDbEntity
  8
ADP3DETAIL
  6
CENTER2
100
AcDbCircle
 10
34.40825422184893
 20
-5.76889856309863
 30
0.0
 40
2.5
100
AcDbArc
 50
90.0
 51
180.0
  0
ARC
  5
1A5
330
1E
100
AcDbEntity
  8
ADP1DETAIL
100
AcDbCircle
 10
34.40825422184893
 20
-5.76889856309863
 30
0.0
 40
3.8125
100
AcDbArc
 50
90.0
 51
180.0
  0
DIMENSION
  5
1A6
330
1E
100
AcDbEntity
  8
ADPDIM
100
AcDbDimension
  2
*D2
 10
32.42188240294814
 20
-10.84737639490334
 30
0.0
 11
31.90636428128726
 21
-10.84737639490334
 31
0.0
100
AcDbAlignedDimension
 13
31.39084615962638
 23
-10.66264516896384
 33
0.0
 14
32.42188240294814
 24
-10.66264516896384
 34
0.0
100
AcDbRotatedDimension
  0
DIMENSION
  5
1A7
330
1E
100
AcDbEntity
  8
ADPDIM
100
AcDbDimension
  2
*D1
 10
33.21697434072558
 20
-9.69889856309863
 30
0.0
 11
31.90636428128726
 21
-9.69889856309863
 31
0.0
100
AcDbAlignedDimension
 13
30.59575422184893
 23
-10.3418667348798
 33
0.0
 14
33.21697434072558
 24
-10.3418667348798
 34
0.0
100
AcDbRotatedDimension
  0
LINE
  5
1A8
330
1E
100
AcDbEntity
  8
ADP1DETAIL
100
AcDbLine
 10
33.22075422184893
 20
-8.26889856309863
 30
0.0
 11
30.59575422184893
 21
-8.26889856309863
 31
0.0
  0
INSERT
  5
1A9
330
1E
100
AcDbEntity
  8
ADP1DETAIL
100
AcDbBlockReference
  2
6901
 10
30.53750432785714
 20
-10.66488148643155
 30
0.0
  0
LINE
  5
1AA
330
1E
100
AcDbEntity
  8
ADP1DETAIL
100
AcDbLine
 10
30.59575422184893
 20
-8.26889856309863
 30
0.0
 11
30.59575422184893
 21
-5.76889856309863
 31
0.0
  0
LINE
  5
1AB
330
1E
100
AcDbEntity
  8
ADP1DETAIL
100
AcDbLine
 10
33.22075422184893
 20
-5.76889856309863
 30
0.0
 11
33.22075422184893
 21
-8.26889856309863
 31
0.0
  0
LINE
  5
1AC
330
1E
100
AcDbEntity
  8
ADP3DETAIL
  6
CENTER2
100
AcDbLine
 10
31.90825422184893
 20
-8.646805135852117
 30
0.0
 11
31.90825422184893
 21
-5.76889856309863
 31
0.0
  0
LINE
  5
1AD
330
1E
100
AcDbEntity
  8
ADP1DETAIL
100
AcDbLine
 10
36.90825422184893
 20
-1.95639856309863
 30
0.0
 11
36.90825422184893
 21
-4.58139856309863
 31
0.0
  0
TEXT
  5
1B1
330
1E
100
AcDbEntity
  8
ADPDIM
100
AcDbText
 10
23.39311587225732
 20
-11.75725049211948
 30
0.0
 40
0.1875
  1
J U L I U S  B L U M  &  C O . ,  I N C .      ( 8 0 0 )  5 2 6 - 6 2 9 3        W W W . J U L I U S B L U M . C O M        P A R T  N o .  6 9 0 1 - C
 41
1.25
  7
ARIAL_WIDE
 72
     1
 11
33.44542125254382
 21
-11.56975049211948
 31
0.0
100
AcDbText
 73
     3
  0
ENDSEC
  0
SECTION
  2
OBJECTS
  0
DICTIONARY
  5
C
330
0
100
AcDbDictionary
  3
ACAD_GROUP
350
D
  3
ACAD_LAYOUT
350
19
  3
ACAD_MLINESTYLE
350
16
  3
ACAD_PLOTSETTINGS
350
18
  3
ACAD_PLOTSTYLENAME
350
E
  3
ACDBHEADERROUNDTRIPXREC
350
344
  3
ACDBVARIABLEDICTIONARY
350
222
  0
DICTIONARY
  5
1ED
330
1E
100
AcDbDictionary
280
     1
  3
ACAD_LAYOUTSELFREF
360
366
  0
DICTIONARY
  5
1EF
330
1A
100
AcDbDictionary
280
     1
  3
ACAD_LAYOUTSELFREF
360
365
  0
DICTIONARY
  5
D
102
{ACAD_REACTORS
330
C
102
}
330
C
100
AcDbDictionary
  0
DICTIONARY
  5
19
102
{ACAD_REACTORS
330
C
102
}
330
C
100
AcDbDictionary
  0
DICTIONARY
  5
16
102
{ACAD_REACTORS
330
C
102
}
330
C
100
AcDbDictionary
  3
STANDARD
350
17
  0
DICTIONARY
  5
18
102
{ACAD_REACTORS
330
C
102
}
330
C
100
AcDbDictionary
  0
ACDBDICTIONARYWDFLT
  5
E
102
{ACAD_REACTORS
330
C
102
}
330
C
100
AcDbDictionary
281
     1
  3
Normal
350
F
100
AcDbDictionaryWithDefault
340
F
  0
DICTIONARY
  5
344
102
{ACAD_REACTORS
330
C
102
}
330
C
100
AcDbDictionary
  3
CEPSNTYPE
350
34E
  3
DIMSTYLEDATA
350
352
  3
FINGERPRINTGUID
350
34F
  3
HYPERLINKBASE
350
347
  3
INSUNITS
350
34D
  3
LAYOUTDICT
350
349
  3
LWETCUNION
350
34C
  3
PLOTSETDICT
350
34A
  3
PLOTSTYLNAMDICT
350
34B
  3
PSVPSCALE
350
351
  3
PUCSBASE
350
355
  3
PUCSORGBACK
350
35B
  3
PUCSORGBOTTOM
350
357
  3
PUCSORGFRONT
350
35A
  3
PUCSORGLEFT
350
358
  3
PUCSORGRIGHT
350
359
  3
PUCSORGTOP
350
356
  3
PUCSORTHOREF
350
353
  3
PUCSORTHOVIEW
350
354
  3
STYLESHEET
350
348
  3
TSTACKALIGN
350
345
  3
TSTACKSIZE
350
346
  3
UCSBASE
350
35E
  3
UCSORGBACK
350
364
  3
UCSORGBOTTOM
350
360
  3
UCSORGFRONT
350
363
  3
UCSORGLEFT
350
361
  3
UCSORGRIGHT
350
362
  3
UCSORGTOP
350
35F
  3
UCSORTHOREF
350
35C
  3
UCSORTHOVIEW
350
35D
  3
VERSIONGUID
350
350
  0
DICTIONARY
  5
222
102
{ACAD_REACTORS
330
C
102
}
330
C
100
AcDbDictionary
  3
DIMASSOC
350
224
  3
HIDETEXT
350
223
  0
XRECORD
  5
366
102
{ACAD_REACTORS
330
1ED
102
}
330
1ED
100
AcDbXrecord
340
1E
  0
XRECORD
  5
365
102
{ACAD_REACTORS
330
1EF
102
}
330
1EF
100
AcDbXrecord
340
1A
  0
MLINESTYLE
  5
17
102
{ACAD_REACTORS
330
16
102
}
330
16
100
AcDbMlineStyle
  2
STANDARD
 70
     0
  3

 62
   256
 51
90.0
 52
90.0
 71
     2
 49
0.5
 62
   256
  6
BYLAYER
 49
-0.5
 62
   256
  6
BYLAYER
  0
ACDBPLACEHOLDER
  5
F
102
{ACAD_REACTORS
330
E
102
}
330
E
100
AcDbPlaceHolder
280
     0
  0
XRECORD
  5
34E
102
{ACAD_REACTORS
330
344
102
}
330
344
100
AcDbXrecord
 90
        0
  0
XRECORD
  5
352
102
{ACAD_REACTORS
330
344
102
}
330
344
100
AcDbXrecord
1000
DSTYLE
1002
{
1070
   277
 70
     5
1070
   279
 70
     2
1002
}
  0
XRECORD
  5
34F
102
{ACAD_REACTORS
330
344
102
}
330
344
100
AcDbXrecord
  1
{23459BDA-74B6-40C2-B379-977DE0F947FC}
  0
XRECORD
  5
347
102
{ACAD_REACTORS
330
344
102
}
330
344
100
AcDbXrecord
  1

  0
XRECORD
  5
34D
102
{ACAD_REACTORS
330
344
102
}
330
344
100
AcDbXrecord
 90
        0
  0
XRECORD
  5
349
102
{ACAD_REACTORS
330
344
102
}
330
344
100
AcDbXrecord
340
19
  0
XRECORD
  5
34C
102
{ACAD_REACTORS
330
344
102
}
330
344
100
AcDbXrecord
 90
    14877
  0
XRECORD
  5
34A
102
{ACAD_REACTORS
330
344
102
}
330
344
100
AcDbXrecord
340
18
  0
XRECORD
  5
34B
102
{ACAD_REACTORS
330
344
102
}
330
344
100
AcDbXrecord
340
E
  0
XRECORD
  5
351
102
{ACAD_REACTORS
330
344
102
}
330
344
100
AcDbXrecord
 40
0.0
  0
XRECORD
  5
355
102
{ACAD_REACTORS
330
344
102
}
330
344
100
AcDbXrecord
340
0
  0
XRECORD
  5
35B
102
{ACAD_REACTORS
330
344
102
}
330
344
100
AcDbXrecord
 10
0.0
 20
0.0
 30
0.0
  0
XRECORD
  5
357
102
{ACAD_REACTORS
330
344
102
}
330
344
100
AcDbXrecord
 10
0.0
 20
0.0
 30
0.0
  0
XRECORD
  5
35A
102
{ACAD_REACTORS
330
344
102
}
330
344
100
AcDbXrecord
 10
0.0
 20
0.0
 30
0.0
  0
XRECORD
  5
358
102
{ACAD_REACTORS
330
344
102
}
330
344
100
AcDbXrecord
 10
0.0
 20
0.0
 30
0.0
  0
XRECORD
  5
359
102
{ACAD_REACTORS
330
344
102
}
330
344
100
AcDbXrecord
 10
0.0
 20
0.0
 30
0.0
  0
XRECORD
  5
356
102
{ACAD_REACTORS
330
344
102
}
330
344
100
AcDbXrecord
 10
0.0
 20
0.0
 30
0.0
  0
XRECORD
  5
353
102
{ACAD_REACTORS
330
344
102
}
330
344
100
AcDbXrecord
340
0
  0
XRECORD
  5
354
102
{ACAD_REACTORS
330
344
102
}
330
344
100
AcDbXrecord
 70
     0
  0
XRECORD
  5
348
102
{ACAD_REACTORS
330
344
102
}
330
344
100
AcDbXrecord
  1

  0
XRECORD
  5
345
102
{ACAD_REACTORS
330
344
102
}
330
344
100
AcDbXrecord
 90
        1
  0
XRECORD
  5
346
102
{ACAD_REACTORS
330
344
102
}
330
344
100
AcDbXrecord
 90
       70
  0
XRECORD
  5
35E
102
{ACAD_REACTORS
330
344
102
}
330
344
100
AcDbXrecord
340
0
  0
XRECORD
  5
364
102
{ACAD_REACTORS
330
344
102
}
330
344
100
AcDbXrecord
 10
0.0
 20
0.0
 30
0.0
  0
XRECORD
  5
360
102
{ACAD_REACTORS
330
344
102
}
330
344
100
AcDbXrecord
 10
0.0
 20
0.0
 30
0.0
  0
XRECORD
  5
363
102
{ACAD_REACTORS
330
344
102
}
330
344
100
AcDbXrecord
 10
0.0
 20
0.0
 30
0.0
  0
XRECORD
  5
361
102
{ACAD_REACTORS
330
344
102
}
330
344
100
AcDbXrecord
 10
0.0
 20
0.0
 30
0.0
  0
XRECORD
  5
362
102
{ACAD_REACTORS
330
344
102
}
330
344
100
AcDbXrecord
 10
0.0
 20
0.0
 30
0.0
  0
XRECORD
  5
35F
102
{ACAD_REACTORS
330
344
102
}
330
344
100
AcDbXrecord
 10
0.0
 20
0.0
 30
0.0
  0
XRECORD
  5
35C
102
{ACAD_REACTORS
330
344
102
}
330
344
100
AcDbXrecord
340
0
  0
XRECORD
  5
35D
102
{ACAD_REACTORS
330
344
102
}
330
344
100
AcDbXrecord
 70
     0
  0
XRECORD
  5
350
102
{ACAD_REACTORS
330
344
102
}
330
344
100
AcDbXrecord
  1
{2160D621-A0D0-4FFF-8FC1-62C11D5006F7}
  0
DICTIONARYVAR
  5
224
102
{ACAD_REACTORS
330
222
102
}
330
222
100
DictionaryVariables
280
     0
  1
2
  0
DICTIONARYVAR
  5
223
102
{ACAD_REACTORS
330
222
102
}
330
222
100
DictionaryVariables
280
     0
  1
1
  0
ENDSEC
  0
EOF
