  0
SECTION
  2
HEADER
  9
$ACADVER
  1
AC1015
  9
$ACADMAINTVER
 70
    20
  9
$DWGCODEPAGE
  3
ANSI_936
  9
$INSBASE
 10
10.27637575954505
 20
2.398372149616883
 30
0.0
  9
$EXTMIN
 10
3.220642177412102
 20
1.465576257400186
 30
-0.000000000000013
  9
$EXTMAX
 10
16.27514654523128
 20
3.536499069464042
 30
0.0000000000000023
  9
$LIMMIN
 10
0.0
 20
0.0
  9
$LIMMAX
 10
36.0
 20
36.0
  9
$ORTHOMODE
 70
     1
  9
$REGENMODE
 70
     1
  9
$FILLMODE
 70
     1
  9
$QTEXTMODE
 70
     0
  9
$MIRRTEXT
 70
     1
  9
$LTSCALE
 40
1.0
  9
$ATTMODE
 70
     1
  9
$TEXTSIZE
 40
0.2
  9
$TRACEWID
 40
0.05
  9
$TEXTSTYLE
  7
STANDARD
  9
$CLAYER
  8
ADP1DETAIL
  9
$CELTYPE
  6
BYLAYER
  9
$CECOLOR
 62
   256
  9
$CELTSCALE
 40
1.0
  9
$DISPSILH
 70
     0
  9
$DIMSCALE
 40
1.0
  9
$DIMASZ
 40
0.125
  9
$DIMEXO
 40
0.0625
  9
$DIMDLI
 40
0.38
  9
$DIMRND
 40
0.0
  9
$DIMDLE
 40
0.0
  9
$DIMEXE
 40
0.18
  9
$DIMTP
 40
0.0
  9
$DIMTM
 40
0.0
  9
$DIMTXT
 40
0.125
  9
$DIMCEN
 40
0.1875
  9
$DIMTSZ
 40
0.125
  9
$DIMTOL
 70
     0
  9
$DIMLIM
 70
     0
  9
$DIMTIH
 70
     0
  9
$DIMTOH
 70
     0
  9
$DIMSE1
 70
     0
  9
$DIMSE2
 70
     0
  9
$DIMTAD
 70
     0
  9
$DIMZIN
 70
     3
  9
$DIMBLK
  1

  9
$DIMASO
 70
     1
  9
$DIMSHO
 70
     1
  9
$DIMPOST
  1

  9
$DIMAPOST
  1

  9
$DIMALT
 70
     0
  9
$DIMALTD
 70
     1
  9
$DIMALTF
 40
25.4
  9
$DIMLFAC
 40
1.0
  9
$DIMTOFL
 70
     0
  9
$DIMTVP
 40
0.0
  9
$DIMTIX
 70
     0
  9
$DIMSOXD
 70
     0
  9
$DIMSAH
 70
     0
  9
$DIMBLK1
  1

  9
$DIMBLK2
  1

  9
$DIMSTYLE
  2
STANDARD
  9
$DIMCLRD
 70
     0
  9
$DIMCLRE
 70
     0
  9
$DIMCLRT
 70
     0
  9
$DIMTFAC
 40
1.0
  9
$DIMGAP
 40
0.125
  9
$DIMJUST
 70
     0
  9
$DIMSD1
 70
     0
  9
$DIMSD2
 70
     0
  9
$DIMTOLJ
 70
     1
  9
$DIMTZIN
 70
     0
  9
$DIMALTZ
 70
     0
  9
$DIMALTTZ
 70
     0
  9
$DIMUPT
 70
     0
  9
$DIMDEC
 70
     4
  9
$DIMTDEC
 70
     4
  9
$DIMALTU
 70
     2
  9
$DIMALTTD
 70
     2
  9
$DIMTXSTY
  7
STANDARD
  9
$DIMAUNIT
 70
     0
  9
$DIMADEC
 70
     0
  9
$DIMALTRND
 40
0.0
  9
$DIMAZIN
 70
     0
  9
$DIMDSEP
 70
    46
  9
$DIMATFIT
 70
     3
  9
$DIMFRAC
 70
     0
  9
$DIMLDRBLK
  1

  9
$DIMLUNIT
 70
     2
  9
$DIMLWD
 70
    -2
  9
$DIMLWE
 70
    -2
  9
$DIMTMOVE
 70
     0
  9
$LUNITS
 70
     5
  9
$LUPREC
 70
     5
  9
$SKETCHINC
 40
0.1
  9
$FILLETRAD
 40
0.078125
  9
$AUNITS
 70
     0
  9
$AUPREC
 70
     0
  9
$MENU
  1
acad
  9
$ELEVATION
 40
0.0
  9
$PELEVATION
 40
0.0
  9
$THICKNESS
 40
0.0
  9
$LIMCHECK
 70
     0
  9
$CHAMFERA
 40
0.03125
  9
$CHAMFERB
 40
0.03125
  9
$CHAMFERC
 40
0.0
  9
$CHAMFERD
 40
0.0
  9
$SKPOLY
 70
     0
  9
$TDCREATE
 40
2450277.499608021
  9
$TDUCREATE
 40
2450277.707941355
  9
$TDUPDATE
 40
2455209.623820347
  9
$TDUUPDATE
 40
2455209.832153681
  9
$TDINDWG
 40
0.0595169444
  9
$TDUSRTIMER
 40
0.0595169444
  9
$USRTIMER
 70
     1
  9
$ANGBASE
 50
0.0
  9
$ANGDIR
 70
     0
  9
$PDMODE
 70
     0
  9
$PDSIZE
 40
0.0
  9
$PLINEWID
 40
0.0
  9
$SPLFRAME
 70
     0
  9
$SPLINETYPE
 70
     6
  9
$SPLINESEGS
 70
     8
  9
$HANDSEED
  5
7A9
  9
$SURFTAB1
 70
     6
  9
$SURFTAB2
 70
     6
  9
$SURFTYPE
 70
     6
  9
$SURFU
 70
     6
  9
$SURFV
 70
     6
  9
$UCSBASE
  2

  9
$UCSNAME
  2

  9
$UCSORG
 10
0.0
 20
0.0
 30
0.0
  9
$UCSXDIR
 10
1.0
 20
0.0
 30
0.0
  9
$UCSYDIR
 10
0.0
 20
1.0
 30
0.0
  9
$UCSORTHOREF
  2

  9
$UCSORTHOVIEW
 70
     0
  9
$UCSORGTOP
 10
0.0
 20
0.0
 30
0.0
  9
$UCSORGBOTTOM
 10
0.0
 20
0.0
 30
0.0
  9
$UCSORGLEFT
 10
0.0
 20
0.0
 30
0.0
  9
$UCSORGRIGHT
 10
0.0
 20
0.0
 30
0.0
  9
$UCSORGFRONT
 10
0.0
 20
0.0
 30
0.0
  9
$UCSORGBACK
 10
0.0
 20
0.0
 30
0.0
  9
$PUCSBASE
  2

  9
$PUCSNAME
  2

  9
$PUCSORG
 10
0.0
 20
0.0
 30
0.0
  9
$PUCSXDIR
 10
1.0
 20
0.0
 30
0.0
  9
$PUCSYDIR
 10
0.0
 20
1.0
 30
0.0
  9
$PUCSORTHOREF
  2

  9
$PUCSORTHOVIEW
 70
     0
  9
$PUCSORGTOP
 10
0.0
 20
0.0
 30
0.0
  9
$PUCSORGBOTTOM
 10
0.0
 20
0.0
 30
0.0
  9
$PUCSORGLEFT
 10
0.0
 20
0.0
 30
0.0
  9
$PUCSORGRIGHT
 10
0.0
 20
0.0
 30
0.0
  9
$PUCSORGFRONT
 10
0.0
 20
0.0
 30
0.0
  9
$PUCSORGBACK
 10
0.0
 20
0.0
 30
0.0
  9
$USERI1
 70
     0
  9
$USERI2
 70
     0
  9
$USERI3
 70
     0
  9
$USERI4
 70
     0
  9
$USERI5
 70
     0
  9
$USERR1
 40
0.0
  9
$USERR2
 40
0.0
  9
$USERR3
 40
0.0
  9
$USERR4
 40
0.0
  9
$USERR5
 40
0.0
  9
$WORLDVIEW
 70
     1
  9
$SHADEDGE
 70
     3
  9
$SHADEDIF
 70
    70
  9
$TILEMODE
 70
     1
  9
$MAXACTVP
 70
    15
  9
$PINSBASE
 10
0.1875029802322391
 20
0.0
 30
0.0
  9
$PLIMCHECK
 70
     0
  9
$PEXTMIN
 10
1.000000000000000E+20
 20
1.000000000000000E+20
 30
1.000000000000000E+20
  9
$PEXTMAX
 10
-1.000000000000000E+20
 20
-1.000000000000000E+20
 30
-1.000000000000000E+20
  9
$PLIMMIN
 10
0.0
 20
0.0
  9
$PLIMMAX
 10
12.0
 20
9.0
  9
$UNITMODE
 70
     0
  9
$VISRETAIN
 70
     0
  9
$PLINEGEN
 70
     0
  9
$PSLTSCALE
 70
     1
  9
$TREEDEPTH
 70
  3020
  9
$CMLSTYLE
  2
STANDARD
  9
$CMLJUST
 70
     0
  9
$CMLSCALE
 40
1.0
  9
$PROXYGRAPHICS
 70
     1
  9
$MEASUREMENT
 70
     0
  9
$CELWEIGHT
370
    -1
  9
$ENDCAPS
280
     0
  9
$JOINSTYLE
280
     0
  9
$LWDISPLAY
290
     0
  9
$INSUNITS
 70
     0
  9
$HYPERLINKBASE
  1

  9
$STYLESHEET
  1

  9
$XEDIT
290
     1
  9
$CEPSNTYPE
380
     0
  9
$PSTYLEMODE
290
     1
  9
$FINGERPRINTGUID
  2
{3352D0D9-50F4-4974-A086-28708CA7B4BD}
  9
$VERSIONGUID
  2
{94F7B798-D0C7-411B-9643-B469DE0AB14A}
  9
$EXTNAMES
290
     1
  9
$PSVPSCALE
 40
0.0
  9
$OLESTARTUP
290
     0
  0
ENDSEC
  0
SECTION
  2
CLASSES
  0
CLASS
  1
ACDBDICTIONARYWDFLT
  2
AcDbDictionaryWithDefault
  3
ObjectDBX Classes
 90
        0
280
     0
281
     0
  0
CLASS
  1
ACDBPLACEHOLDER
  2
AcDbPlaceHolder
  3
ObjectDBX Classes
 90
        0
280
     0
281
     0
  0
CLASS
  1
LAYOUT
  2
AcDbLayout
  3
ObjectDBX Classes
 90
        0
280
     0
281
     0
  0
CLASS
  1
DICTIONARYVAR
  2
AcDbDictionaryVar
  3
ObjectDBX Classes
 90
        0
280
     0
281
     0
  0
CLASS
  1
MATERIAL
  2
AcDbMaterial
  3
ObjectDBX Classes
 90
     1024
280
     0
281
     0
  0
CLASS
  1
VISUALSTYLE
  2
AcDbVisualStyle
  3
ObjectDBX Classes
 90
     4095
280
     0
281
     0
  0
CLASS
  1
TABLESTYLE
  2
AcDbTableStyle
  3
ObjectDBX Classes
 90
     4095
280
     0
281
     0
  0
CLASS
  1
ACAD_EVALUATION_GRAPH
  2
AcDbEvalGraph
  3
ObjectDBX Classes
 90
    33921
280
     0
281
     0
  0
CLASS
  1
ACDB_DYNAMICBLOCKPURGEPREVENTER_VERSION
  2
AcDbDynamicBlockPurgePreventer
  3
ObjectDBX Classes
 90
    33921
280
     0
281
     0
  0
ENDSEC
  0
SECTION
  2
TABLES
  0
TABLE
  2
VPORT
  5
8
102
{ACAD_XDICTIONARY
360
27C
102
}
330
0
100
AcDbSymbolTable
 70
     1
  0
VPORT
  5
1B0
330
8
100
AcDbSymbolTableRecord
100
AcDbViewportTableRecord
  2
*Active
 70
     0
 10
0.0
 20
0.0
 11
1.0
 21
1.0
 12
9.747894361321691
 22
2.501037663432114
 13
0.0
 23
0.0
 14
0.5740882589684922
 24
0.5740882589684922
 15
0.5
 25
0.5
 16
0.0
 26
0.0
 36
1.0
 17
0.0
 27
0.0
 37
0.0
 40
5.404826890037277
 41
2.426443202979515
 42
50.0
 43
0.0
 44
0.0
 50
0.0
 51
0.0
 71
     0
 72
   100
 73
     1
 74
     0
 75
     0
 76
     0
 77
     0
 78
     0
281
     0
 65
     1
110
0.0
120
0.0
130
0.0
111
1.0
121
0.0
131
0.0
112
0.0
122
1.0
132
0.0
 79
     0
146
0.0
  0
ENDTAB
  0
TABLE
  2
LTYPE
  5
5
330
0
100
AcDbSymbolTable
 70
     4
  0
LTYPE
  5
12
330
5
100
AcDbSymbolTableRecord
100
AcDbLinetypeTableRecord
  2
BYBLOCK
 70
     0
  3

 72
    65
 73
     0
 40
0.0
  0
LTYPE
  5
13
330
5
100
AcDbSymbolTableRecord
100
AcDbLinetypeTableRecord
  2
BYLAYER
 70
     0
  3

 72
    65
 73
     0
 40
0.0
  0
LTYPE
  5
14
330
5
100
AcDbSymbolTableRecord
100
AcDbLinetypeTableRecord
  2
CONTINUOUS
 70
     0
  3
Solid line
 72
    65
 73
     0
 40
0.0
  0
LTYPE
  5
24
330
5
100
AcDbSymbolTableRecord
100
AcDbLinetypeTableRecord
  2
HIDDEN2
 70
     0
  3
_ _ _ _ _ _ _ _ _ _ _ _ _ _ _ _ _ _ _ _ _ _ _ _
 72
    65
 73
     2
 40
0.1875
 49
0.125
 74
     0
 49
-0.0625
 74
     0
  0
LTYPE
  5
5E6
330
5
100
AcDbSymbolTableRecord
100
AcDbLinetypeTableRecord
  2
AI-Linetype-1
 70
     0
  3
Adobe Illustrator Linetype No. 1
 72
    65
 73
     2
 40
0.0422222495356311
 49
0.0211111247678155
 74
     0
 49
-0.0211111247678155
 74
     0
  0
LTYPE
  5
601
330
5
100
AcDbSymbolTableRecord
100
AcDbLinetypeTableRecord
  2
AI9-LTYPE1
 70
     0
  3
Illustrator Dash Style No.1
 72
    65
 73
     1
 40
0.7055555555555556
 49
0.7055555555555556
 74
     0
  0
ENDTAB
  0
TABLE
  2
LAYER
  5
2
330
0
100
AcDbSymbolTable
 70
     7
  0
LAYER
  5
F
330
2
100
AcDbSymbolTableRecord
100
AcDbLayerTableRecord
  2
0
 70
     0
 62
     7
  6
CONTINUOUS
370
    -3
390
94
  0
LAYER
  5
25
330
2
100
AcDbSymbolTableRecord
100
AcDbLayerTableRecord
  2
ADP2DETAIL
 70
     0
 62
     5
  6
CONTINUOUS
370
    -3
390
94
  0
LAYER
  5
26
330
2
100
AcDbSymbolTableRecord
100
AcDbLayerTableRecord
  2
ADPDIM
 70
     0
 62
     3
  6
CONTINUOUS
370
    -3
390
94
  0
LAYER
  5
27
330
2
100
AcDbSymbolTableRecord
100
AcDbLayerTableRecord
  2
ADP1DETAIL
 70
     0
 62
     7
  6
CONTINUOUS
370
    -3
390
94
  0
LAYER
  5
28
330
2
100
AcDbSymbolTableRecord
100
AcDbLayerTableRecord
  2
DEFPOINTS
 70
     0
 62
     7
  6
CONTINUOUS
290
     0
370
    -3
390
94
  0
LAYER
  5
2EB
330
2
100
AcDbSymbolTableRecord
100
AcDbLayerTableRecord
  2
LAYER_1
 70
     0
 62
   160
  6
CONTINUOUS
370
    -3
390
94
  0
LAYER
  5
5E7
330
2
100
AcDbSymbolTableRecord
100
AcDbLayerTableRecord
  2
Layer 1
 70
     0
 62
     7
  6
CONTINUOUS
370
    -3
390
94
  0
ENDTAB
  0
TABLE
  2
STYLE
  5
3
330
0
100
AcDbSymbolTable
 70
     2
  0
STYLE
  5
10
330
3
100
AcDbSymbolTableRecord
100
AcDbTextStyleTableRecord
  2
STANDARD
 70
     0
 40
0.0
 41
1.0
 50
0.0
 71
     0
 42
0.2
  3
txt
  4

  0
STYLE
  5
9B
330
3
100
AcDbSymbolTableRecord
100
AcDbTextStyleTableRecord
  2
ARIAL_WIDE
 70
     0
 40
0.0
 41
1.25
 50
0.0
 71
     0
 42
0.2
  3
arial.ttf
  4

1001
ACAD
1000
Arial
1071
       34
  0
ENDTAB
  0
TABLE
  2
VIEW
  5
6
330
0
100
AcDbSymbolTable
 70
     0
  0
ENDTAB
  0
TABLE
  2
UCS
  5
7
330
0
100
AcDbSymbolTable
 70
     0
  0
ENDTAB
  0
TABLE
  2
APPID
  5
9
330
0
100
AcDbSymbolTable
 70
     7
  0
APPID
  5
11
330
9
100
AcDbSymbolTableRecord
100
AcDbRegAppTableRecord
  2
ACAD
 70
     0
  0
APPID
  5
221
330
9
100
AcDbSymbolTableRecord
100
AcDbRegAppTableRecord
  2
ACAD_EXEMPT_FROM_CAD_STANDARDS
 70
     0
  0
APPID
  5
279
330
9
100
AcDbSymbolTableRecord
100
AcDbRegAppTableRecord
  2
DCO15
 70
     0
  0
APPID
  5
5E8
330
9
100
AcDbSymbolTableRecord
100
AcDbRegAppTableRecord
  2
ACAUTHENVIRON
 70
     0
  0
APPID
  5
5E9
330
9
100
AcDbSymbolTableRecord
100
AcDbRegAppTableRecord
  2
AcDbDynamicBlockGUID
 70
     0
  0
APPID
  5
5EA
330
9
100
AcDbSymbolTableRecord
100
AcDbRegAppTableRecord
  2
AcDbBlockRepETag
 70
     0
  0
APPID
  5
5F7
330
9
100
AcDbSymbolTableRecord
100
AcDbRegAppTableRecord
  2
AcDbDynamicBlockTrueName
 70
     0
  0
ENDTAB
  0
TABLE
  2
DIMSTYLE
  5
A
330
0
100
AcDbSymbolTable
 70
     1
100
AcDbDimStyleTable
 71
     1
340
8F
  0
DIMSTYLE
105
8F
102
{ACAD_REACTORS
330
62A
330
638
330
664
330
672
330
68A
102
}
330
A
100
AcDbSymbolTableRecord
100
AcDbDimStyleTableRecord
  2
STANDARD
 70
     0
340
10
  0
ENDTAB
  0
TABLE
  2
BLOCK_RECORD
  5
1
330
0
100
AcDbSymbolTable
 70
     7
  0
BLOCK_RECORD
  5
18
102
{ACAD_XDICTIONARY
360
F0
102
}
330
1
100
AcDbSymbolTableRecord
100
AcDbBlockTableRecord
  2
*MODEL_SPACE
340
97
  0
BLOCK_RECORD
  5
15
102
{ACAD_XDICTIONARY
360
EE
102
}
330
1
100
AcDbSymbolTableRecord
100
AcDbBlockTableRecord
  2
*PAPER_SPACE
340
98
  0
BLOCK_RECORD
  5
2D1
330
1
100
AcDbSymbolTableRecord
100
AcDbBlockTableRecord
  2
AI9-BLK6
340
0
  0
BLOCK_RECORD
  5
2D5
330
1
100
AcDbSymbolTableRecord
100
AcDbBlockTableRecord
  2
AI9-BLK7
340
0
102
{BLKREFS
331
2D3
102
}
  0
BLOCK_RECORD
  5
62B
330
1
100
AcDbSymbolTableRecord
100
AcDbBlockTableRecord
  2
*D2
340
0
  0
BLOCK_RECORD
  5
639
330
1
100
AcDbSymbolTableRecord
100
AcDbBlockTableRecord
  2
*D3
340
0
  0
BLOCK_RECORD
  5
665
330
1
100
AcDbSymbolTableRecord
100
AcDbBlockTableRecord
  2
*D4
340
0
  0
BLOCK_RECORD
  5
673
330
1
100
AcDbSymbolTableRecord
100
AcDbBlockTableRecord
  2
*D5
340
0
  0
BLOCK_RECORD
  5
68B
330
1
100
AcDbSymbolTableRecord
100
AcDbBlockTableRecord
  2
*D6
340
0
  0
ENDTAB
  0
ENDSEC
  0
SECTION
  2
BLOCKS
  0
BLOCK
  5
2B
330
18
100
AcDbEntity
  8
0
100
AcDbBlockBegin
  2
*MODEL_SPACE
 70
     0
 10
0.0
 20
0.0
 30
0.0
  3
*MODEL_SPACE
  1

  0
ENDBLK
  5
2C
330
18
100
AcDbEntity
  8
0
100
AcDbBlockEnd
  0
BLOCK
  5
29
330
15
100
AcDbEntity
 67
     1
  8
0
100
AcDbBlockBegin
  2
*PAPER_SPACE
 70
     0
 10
0.0
 20
0.0
 30
0.0
  3
*PAPER_SPACE
  1

  0
ENDBLK
  5
2A
330
15
100
AcDbEntity
 67
     1
  8
0
100
AcDbBlockEnd
  0
BLOCK
  5
2D2
330
2D1
100
AcDbEntity
  8
LAYER_1
 62
     7
100
AcDbBlockBegin
  2
AI9-BLK6
 70
     0
 10
0.0
 20
0.0
 30
0.0
  3
AI9-BLK6
  1

  0
INSERT
  5
2D3
330
2D1
100
AcDbEntity
  8
LAYER_1
 62
     7
100
AcDbBlockReference
  2
AI9-BLK7
 10
0.0
 20
0.0
 30
0.0
  0
ENDBLK
  5
2D4
330
2D1
100
AcDbEntity
  8
LAYER_1
100
AcDbBlockEnd
  0
BLOCK
  5
2D6
330
2D5
100
AcDbEntity
  8
LAYER_1
 62
     7
100
AcDbBlockBegin
  2
AI9-BLK7
 70
     0
 10
0.0
 20
0.0
 30
0.0
  3
AI9-BLK7
  1

  0
POLYLINE
  5
2D7
330
2D5
100
AcDbEntity
  8
LAYER_1
 62
     7
100
AcDb2dPolyline
 66
     1
 10
0.0
 20
0.0
 30
0.0
 70
     1
  0
VERTEX
  5
2D8
330
2D7
100
AcDbEntity
  8
LAYER_1
 62
     7
100
AcDbVertex
100
AcDb2dVertex
 10
12.32319268120659
 20
10.25329318576388
 30
0.0
  0
VERTEX
  5
2D9
330
2D7
100
AcDbEntity
  8
LAYER_1
 62
     7
100
AcDbVertex
100
AcDb2dVertex
 10
12.32319268120659
 20
10.21780870225694
 30
0.0
  0
VERTEX
  5
2DA
330
2D7
100
AcDbEntity
  8
LAYER_1
 62
     7
100
AcDbVertex
100
AcDb2dVertex
 10
12.50164862738715
 20
10.21711968315972
 30
0.0
  0
SEQEND
  5
2DB
330
2D7
100
AcDbEntity
  8
LAYER_1
 62
     7
  0
SPLINE
  5
2DC
330
2D5
100
AcDbEntity
  8
LAYER_1
 62
     7
100
AcDbSpline
210
0.0
220
0.0
230
1.0
 70
    11
 71
     3
 72
   173
 73
   169
 74
     0
 42
0.0000000001
 43
0.0000000001
 40
0.0
 40
0.0
 40
0.0
 40
0.0
 40
1.0
 40
1.0
 40
1.0
 40
2.0
 40
2.0
 40
2.0
 40
3.0
 40
3.0
 40
3.0
 40
4.0
 40
4.0
 40
4.0
 40
5.0
 40
5.0
 40
5.0
 40
6.0
 40
6.0
 40
6.0
 40
7.0
 40
7.0
 40
7.0
 40
8.0
 40
8.0
 40
8.0
 40
9.0
 40
9.0
 40
9.0
 40
10.0
 40
10.0
 40
10.0
 40
11.0
 40
11.0
 40
11.0
 40
12.0
 40
12.0
 40
12.0
 40
13.0
 40
13.0
 40
13.0
 40
14.0
 40
14.0
 40
14.0
 40
15.0
 40
15.0
 40
15.0
 40
16.0
 40
16.0
 40
16.0
 40
17.0
 40
17.0
 40
17.0
 40
18.0
 40
18.0
 40
18.0
 40
19.0
 40
19.0
 40
19.0
 40
20.0
 40
20.0
 40
20.0
 40
21.0
 40
21.0
 40
21.0
 40
22.0
 40
22.0
 40
22.0
 40
23.0
 40
23.0
 40
23.0
 40
24.0
 40
24.0
 40
24.0
 40
25.0
 40
25.0
 40
25.0
 40
26.0
 40
26.0
 40
26.0
 40
27.0
 40
27.0
 40
27.0
 40
28.0
 40
28.0
 40
28.0
 40
29.0
 40
29.0
 40
29.0
 40
30.0
 40
30.0
 40
30.0
 40
31.0
 40
31.0
 40
31.0
 40
32.0
 40
32.0
 40
32.0
 40
33.0
 40
33.0
 40
33.0
 40
34.0
 40
34.0
 40
34.0
 40
35.0
 40
35.0
 40
35.0
 40
36.0
 40
36.0
 40
36.0
 40
37.0
 40
37.0
 40
37.0
 40
38.0
 40
38.0
 40
38.0
 40
39.0
 40
39.0
 40
39.0
 40
40.0
 40
40.0
 40
40.0
 40
41.0
 40
41.0
 40
41.0
 40
42.0
 40
42.0
 40
42.0
 40
43.0
 40
43.0
 40
43.0
 40
44.0
 40
44.0
 40
44.0
 40
45.0
 40
45.0
 40
45.0
 40
46.0
 40
46.0
 40
46.0
 40
47.0
 40
47.0
 40
47.0
 40
48.0
 40
48.0
 40
48.0
 40
49.0
 40
49.0
 40
49.0
 40
50.0
 40
50.0
 40
50.0
 40
51.0
 40
51.0
 40
51.0
 40
52.0
 40
52.0
 40
52.0
 40
53.0
 40
53.0
 40
53.0
 40
54.0
 40
54.0
 40
54.0
 40
55.0
 40
55.0
 40
55.0
 40
56.0
 40
56.0
 40
56.0
 40
56.0
 10
7.83182169596354
 20
3.931026204427082
 30
0.0
 10
7.83182169596354
 20
3.931026204427082
 30
0.0
 10
7.827687581380208
 20
-5.619122992621527
 30
0.0
 10
7.827687581380208
 20
-5.619122992621527
 30
0.0
 10
7.827687581380208
 20
-5.619122992621527
 30
0.0
 10
5.139479573567707
 20
-5.600863986545138
 30
0.0
 10
5.139479573567707
 20
-5.600863986545138
 30
0.0
 10
5.139479573567707
 20
-5.600863986545138
 30
0.0
 10
5.139479573567707
 20
-9.050610351562498
 30
0.0
 10
5.139479573567707
 20
-9.050610351562498
 30
0.0
 10
5.139479573567707
 20
-9.880189344618054
 30
0.0
 10
5.475720893012152
 20
-10.21608615451389
 30
0.0
 10
6.305299886067707
 20
-10.21608615451389
 30
0.0
 10
6.305299886067707
 20
-10.21608615451389
 30
0.0
 10
28.71099514431423
 20
-10.21608615451389
 30
0.0
 10
28.71099514431423
 20
-10.21608615451389
 30
0.0
 10
29.5407463921441
 20
-10.21608615451389
 30
0.0
 10
29.87664320203993
 20
-9.880189344618054
 30
0.0
 10
29.87664320203993
 20
-9.050610351562498
 30
0.0
 10
29.87664320203993
 20
-9.050610351562498
 30
0.0
 10
29.87664320203993
 20
3.868669976128471
 30
0.0
 10
29.87664320203993
 20
3.868669976128471
 30
0.0
 10
29.87664320203993
 20
3.868669976128471
 30
0.0
 10
29.87664320203993
 20
3.964271375868055
 30
0.0
 10
29.87664320203993
 20
3.964271375868055
 30
0.0
 10
29.87664320203993
 20
3.964271375868055
 30
0.0
 10
50.79991387261284
 20
3.964271375868055
 30
0.0
 10
50.79991387261284
 20
3.964271375868055
 30
0.0
 10
50.79991387261284
 20
3.964271375868055
 30
0.0
 10
50.79991387261284
 20
10.26500651041666
 30
0.0
 10
50.79991387261284
 20
10.26500651041666
 30
0.0
 10
50.79991387261284
 20
10.26500651041666
 30
0.0
 10
41.18430786132812
 20
10.25329318576388
 30
0.0
 10
41.18430786132812
 20
10.25329318576388
 30
0.0
 10
40.80982598198784
 20
8.916596137152776
 30
0.0
 10
39.58302747938367
 20
7.936466471354165
 30
0.0
 10
38.12730238172743
 20
7.936466471354165
 30
0.0
 10
36.66830444335938
 20
7.936466471354165
 30
0.0
 10
35.43943888346354
 20
8.920557996961804
 30
0.0
 10
35.06788533528645
 20
10.26121690538194
 30
0.0
 10
35.06788533528645
 20
10.26121690538194
 30
0.0
 10
25.29638875325521
 20
10.25587700737847
 30
0.0
 10
25.29638875325521
 20
10.25587700737847
 30
0.0
 10
25.29638875325521
 20
10.25587700737847
 30
0.0
 10
25.29638875325521
 20
3.913111707899305
 30
0.0
 10
25.29638875325521
 20
3.913111707899305
 30
0.0
 10
25.29638875325521
 20
3.913111707899305
 30
0.0
 10
26.51112942165799
 20
3.913111707899305
 30
0.0
 10
26.51112942165799
 20
3.913111707899305
 30
0.0
 10
26.51112942165799
 20
3.913111707899305
 30
0.0
 10
26.51112942165799
 20
-6.179123263888888
 30
0.0
 10
26.51112942165799
 20
-6.179123263888888
 30
0.0
 10
26.51112942165799
 20
-6.179123263888888
 30
0.0
 10
11.19750773111979
 20
-6.179123263888888
 30
0.0
 10
11.19750773111979
 20
-6.179123263888888
 30
0.0
 10
11.19750773111979
 20
-6.179123263888888
 30
0.0
 10
11.19750773111979
 20
3.910355631510416
 30
0.0
 10
11.19750773111979
 20
3.910355631510416
 30
0.0
 10
11.19750773111979
 20
3.910355631510416
 30
0.0
 10
12.32319268120659
 20
3.910355631510416
 30
0.0
 10
12.32319268120659
 20
3.910355631510416
 30
0.0
 10
12.32319268120659
 20
3.910355631510416
 30
0.0
 10
12.32319268120659
 20
10.21780870225694
 30
0.0
 10
12.32319268120659
 20
10.21780870225694
 30
0.0
 10
12.32319268120659
 20
10.21780870225694
 30
0.0
 10
3.336833360460069
 20
10.25329318576388
 30
0.0
 10
3.336833360460069
 20
10.25329318576388
 30
0.0
 10
2.962523735894096
 20
8.916596137152776
 30
0.0
 10
1.735552978515624
 20
7.936466471354165
 30
0.0
 10
0.279827880859375
 20
7.936466471354165
 30
0.0
 10
-1.17917005750868
 20
7.936466471354165
 30
0.0
 10
-2.408035617404513
 20
8.920557996961804
 30
0.0
 10
-2.779416910807291
 20
10.26121690538194
 30
0.0
 10
-2.779416910807291
 20
10.26121690538194
 30
0.0
 10
-15.96259155273437
 20
10.24502495659722
 30
0.0
 10
-15.96259155273437
 20
10.24502495659722
 30
0.0
 10
-16.33690117730034
 20
8.90867241753472
 30
0.0
 10
-17.5635274251302
 20
7.92854275173611
 30
0.0
 10
-19.01994154188368
 20
7.92854275173611
 30
0.0
 10
-20.47859497070312
 20
7.92854275173611
 30
0.0
 10
-21.70746053059896
 20
8.912634277343748
 30
0.0
 10
-22.07884182400174
 20
10.25329318576388
 30
0.0
 10
-22.07884182400174
 20
10.25329318576388
 30
0.0
 10
-34.57454766167535
 20
10.25725504557291
 30
0.0
 10
-34.57454766167535
 20
10.25725504557291
 30
0.0
 10
-34.99812215169271
 20
9.002379014756943
 30
0.0
 10
-36.17686157226562
 20
8.094940863715276
 30
0.0
 10
-37.57470906575521
 20
8.094940863715276
 30
0.0
 10
-38.97376234266493
 20
8.094940863715276
 30
0.0
 10
-40.15319078233506
 20
9.004273817274304
 30
0.0
 10
-40.57573174370658
 20
10.26121690538194
 30
0.0
 10
-40.57573174370658
 20
10.26121690538194
 30
0.0
 10
-47.87830064561631
 20
10.26500651041666
 30
0.0
 10
-47.87830064561631
 20
10.26500651041666
 30
0.0
 10
-47.87830064561631
 20
10.26500651041666
 30
0.0
 10
-47.81215481228298
 20
10.26965738932291
 30
0.0
 10
-47.81215481228298
 20
10.26965738932291
 30
0.0
 10
-47.81215481228298
 20
10.26965738932291
 30
0.0
 10
-50.02872924804687
 20
10.27654758029513
 30
0.0
 10
-50.02872924804687
 20
10.27654758029513
 30
0.0
 10
-50.02872924804687
 20
10.27654758029513
 30
0.0
 10
-49.66320461697048
 20
10.26965738932291
 30
0.0
 10
-49.66320461697048
 20
10.26965738932291
 30
0.0
 10
-50.49312811957465
 20
10.26965738932291
 30
0.0
 10
-50.79991387261284
 20
10.04624294704861
 30
0.0
 10
-50.79991387261284
 20
9.215974934895832
 30
0.0
 10
-50.79991387261284
 20
9.215974934895832
 30
0.0
 10
-50.79991387261284
 20
7.192842610677082
 30
0.0
 10
-50.79991387261284
 20
7.192842610677082
 30
0.0
 10
-50.79991387261284
 20
6.535173882378471
 30
0.0
 10
-50.80025838216145
 20
6.531556532118054
 30
0.0
 10
-49.97067938910589
 20
6.531556532118054
 30
0.0
 10
-49.97067938910589
 20
6.531556532118054
 30
0.0
 10
-46.83495347764757
 20
6.531556532118054
 30
0.0
 10
-46.83495347764757
 20
6.531556532118054
 30
0.0
 10
-46.83495347764757
 20
6.531556532118054
 30
0.0
 10
-46.83495347764757
 20
-1.388890245225694
 30
0.0
 10
-46.83495347764757
 20
-1.388890245225694
 30
0.0
 10
-46.83495347764757
 20
-1.388890245225694
 30
0.0
 10
-37.9497077094184
 20
-1.388890245225694
 30
0.0
 10
-37.9497077094184
 20
-1.388890245225694
 30
0.0
 10
-37.9497077094184
 20
-1.388890245225694
 30
0.0
 10
-37.93230997721354
 20
-6.011002604166666
 30
0.0
 10
-37.93230997721354
 20
-6.011002604166666
 30
0.0
 10
-37.93230997721354
 20
-6.011002604166666
 30
0.0
 10
-46.83495347764757
 20
-6.011002604166666
 30
0.0
 10
-46.83495347764757
 20
-6.011002604166666
 30
0.0
 10
-46.83495347764757
 20
-6.011002604166666
 30
0.0
 10
-46.83495347764757
 20
-10.27654758029513
 30
0.0
 10
-46.83495347764757
 20
-10.27654758029513
 30
0.0
 10
-46.83495347764757
 20
-10.27654758029513
 30
0.0
 10
-33.95890909830729
 20
-10.27654758029513
 30
0.0
 10
-33.95890909830729
 20
-10.27654758029513
 30
0.0
 10
-33.95890909830729
 20
-10.27654758029513
 30
0.0
 10
-32.95931464301215
 20
-10.30927598741319
 30
0.0
 10
-32.95931464301215
 20
-7.72235378689236
 30
0.0
 10
-32.95931464301215
 20
-5.135431586371526
 30
0.0
 10
-32.95931464301215
 20
3.953074815538194
 30
0.0
 10
-32.95931464301215
 20
3.953074815538194
 30
0.0
 10
-32.95931464301215
 20
3.953074815538194
 30
0.0
 10
-11.36270005967882
 20
3.931026204427082
 30
0.0
 10
-11.36270005967882
 20
3.931026204427082
 30
0.0
 10
-11.36270005967882
 20
3.931026204427082
 30
0.0
 10
-11.36959025065104
 20
-9.330352105034721
 30
0.0
 10
-11.36959025065104
 20
-9.330352105034721
 30
0.0
 10
-11.36959025065104
 20
-9.330352105034721
 30
0.0
 10
-11.36270005967882
 20
-8.964482964409722
 30
0.0
 10
-11.36270005967882
 20
-8.964482964409722
 30
0.0
 10
-11.36270005967882
 20
-9.794061957465276
 30
0.0
 10
-11.02680324978298
 20
-10.13030327690972
 30
0.0
 10
-10.19653523763021
 20
-10.13030327690972
 30
0.0
 10
-10.19653523763021
 20
-10.13030327690972
 30
0.0
 10
-6.47031995985243
 20
-10.13030327690972
 30
0.0
 10
-6.47031995985243
 20
-10.13030327690972
 30
0.0
 10
-5.640740966796874
 20
-10.13030327690972
 30
0.0
 10
-5.304155137803818
 20
-9.794061957465276
 30
0.0
 10
-5.304155137803818
 20
-8.964482964409722
 30
0.0
 10
-5.304155137803818
 20
-8.964482964409722
 30
0.0
 10
-5.304155137803818
 20
-5.514908854166666
 30
0.0
 10
-5.304155137803818
 20
-5.514908854166666
 30
0.0
 10
-5.304155137803818
 20
-5.514908854166666
 30
0.0
 10
-7.992707655164929
 20
-5.53334011501736
 30
0.0
 10
-7.992707655164929
 20
-5.53334011501736
 30
0.0
 10
-7.992707655164929
 20
-5.53334011501736
 30
0.0
 10
-7.997014024522568
 20
4.016809082031249
 30
0.0
 10
-7.997014024522568
 20
4.016809082031249
 30
0.0
 10
-7.997014024522568
 20
4.016809082031249
 30
0.0
 10
7.83182169596354
 20
3.931026204427082
 30
0.0
 10
7.83182169596354
 20
3.931026204427082
 30
0.0
  0
ENDBLK
  5
2DD
330
2D5
100
AcDbEntity
  8
LAYER_1
100
AcDbBlockEnd
  0
BLOCK
  5
636
330
62B
100
AcDbEntity
  8
0
100
AcDbBlockBegin
  2
*D2
 70
     1
 10
0.0
 20
0.0
 30
0.0
  3
*D2
  1

  0
LINE
  5
72E
330
62B
100
AcDbEntity
  8
ADPDIM
 62
     0
370
    -2
100
AcDbLine
 10
7.017943749964718
 20
3.022776168188707
 30
0.0
 11
6.367901506166912
 21
3.022776168188708
 31
0.0
  0
LINE
  5
72F
330
62B
100
AcDbEntity
  8
ADPDIM
 62
     0
370
    -2
100
AcDbLine
 10
7.017943749964718
 20
2.205739020891215
 30
0.0
 11
6.367901506166912
 21
2.205739020891215
 31
0.0
  0
LINE
  5
730
330
62B
100
AcDbEntity
  8
ADPDIM
 62
     0
370
    -2
100
AcDbLine
 10
6.547901506166912
 20
3.022776168188708
 30
0.0
 11
6.547901506166912
 21
3.272776168188708
 31
0.0
  0
LINE
  5
731
330
62B
100
AcDbEntity
  8
ADPDIM
 62
     0
370
    -2
100
AcDbLine
 10
6.547901506166912
 20
2.205739020891215
 30
0.0
 11
6.547901506166911
 21
1.955739020891215
 31
0.0
  0
LINE
  5
732
330
62B
100
AcDbEntity
  8
ADPDIM
 62
     0
370
    -2
100
AcDbLine
 10
6.672901506166912
 20
2.080739020891215
 30
0.0
 11
6.422901506166912
 21
2.330739020891215
 31
0.0
  0
LINE
  5
733
330
62B
100
AcDbEntity
  8
ADPDIM
 62
     0
370
    -2
100
AcDbLine
 10
6.672901506166912
 20
2.897776168188708
 30
0.0
 11
6.422901506166912
 21
3.147776168188708
 31
0.0
  0
MTEXT
  5
734
330
62B
100
AcDbEntity
  8
ADPDIM
 62
     0
100
AcDbMText
 10
6.547901506166911
 20
2.614257594539962
 30
0.0
 40
0.125
 41
0.0
 71
     5
 72
     1
  1
\A1;13/16
 11
0.0000000000000001
 21
1.0
 31
0.0
 73
     1
 44
1.0
1001
ACAD
1000
MTEXTBEGIN
1070
    73
1070
     1
1070
    44
1040
1.0
1070
    74
1070
     0
1000
MTEXTEND
  0
POINT
  5
735
330
62B
100
AcDbEntity
  8
DEFPOINTS
 62
     0
100
AcDbPoint
 10
7.080443749964718
 20
3.022776168188707
 30
0.0
  0
POINT
  5
736
330
62B
100
AcDbEntity
  8
DEFPOINTS
 62
     0
100
AcDbPoint
 10
7.080443749964718
 20
2.205739020891215
 30
0.0
  0
POINT
  5
737
330
62B
100
AcDbEntity
  8
DEFPOINTS
 62
     0
100
AcDbPoint
 10
6.547901506166912
 20
2.205739020891215
 30
0.0
  0
ENDBLK
  5
637
330
62B
100
AcDbEntity
  8
0
100
AcDbBlockEnd
  0
BLOCK
  5
644
330
639
100
AcDbEntity
  8
0
100
AcDbBlockBegin
  2
*D3
 70
     1
 10
0.0
 20
0.0
 30
0.0
  3
*D3
  1

  0
LINE
  5
738
330
639
100
AcDbEntity
  8
ADPDIM
 62
     0
370
    -2
100
AcDbLine
 10
7.02102016380531
 20
3.048683251842456
 30
0.0
 11
7.02102016380531
 21
3.533072457089408
 31
0.0
  0
LINE
  5
739
330
639
100
AcDbEntity
  8
ADPDIM
 62
     0
370
    -2
100
AcDbLine
 10
8.270699327136611
 20
2.459829146742668
 30
0.0
 11
8.270699327136611
 21
3.533072457089408
 31
0.0
  0
LINE
  5
73A
330
639
100
AcDbEntity
  8
ADPDIM
 62
     0
370
    -2
100
AcDbLine
 10
7.02102016380531
 20
3.353072457089409
 30
0.0
 11
7.270859745470961
 21
3.353072457089409
 31
0.0
  0
LINE
  5
73B
330
639
100
AcDbEntity
  8
ADPDIM
 62
     0
370
    -2
100
AcDbLine
 10
8.270699327136611
 20
3.353072457089409
 30
0.0
 11
8.020859745470961
 21
3.353072457089409
 31
0.0
  0
LINE
  5
73C
330
639
100
AcDbEntity
  8
ADPDIM
 62
     0
370
    -2
100
AcDbLine
 10
8.145699327136611
 20
3.228072457089409
 30
0.0
 11
8.395699327136611
 21
3.478072457089409
 31
0.0
  0
LINE
  5
73D
330
639
100
AcDbEntity
  8
ADPDIM
 62
     0
370
    -2
100
AcDbLine
 10
6.89602016380531
 20
3.228072457089409
 30
0.0
 11
7.14602016380531
 21
3.478072457089409
 31
0.0
  0
MTEXT
  5
73E
330
639
100
AcDbEntity
  8
ADPDIM
 62
     0
100
AcDbMText
 10
7.645859745470961
 20
3.353072457089409
 30
0.0
 40
0.125
 41
0.0
 71
     5
 72
     1
  1
\A1;1 1/4
 73
     1
 44
1.0
1001
ACAD
1000
MTEXTBEGIN
1070
    73
1070
     1
1070
    44
1040
1.0
1070
    74
1070
     0
1000
MTEXTEND
  0
POINT
  5
73F
330
639
100
AcDbEntity
  8
DEFPOINTS
 62
     0
100
AcDbPoint
 10
7.02102016380531
 20
2.986183251842456
 30
0.0
  0
POINT
  5
740
330
639
100
AcDbEntity
  8
DEFPOINTS
 62
     0
100
AcDbPoint
 10
8.270699327136611
 20
2.397329146742668
 30
0.0
  0
POINT
  5
741
330
639
100
AcDbEntity
  8
DEFPOINTS
 62
     0
100
AcDbPoint
 10
8.270699327136611
 20
3.353072457089409
 30
0.0
  0
ENDBLK
  5
645
330
639
100
AcDbEntity
  8
0
100
AcDbBlockEnd
  0
BLOCK
  5
670
330
665
100
AcDbEntity
  8
0
100
AcDbBlockBegin
  2
*D4
 70
     1
 10
0.0
 20
0.0
 30
0.0
  3
*D4
  1

  0
LINE
  5
742
330
665
100
AcDbEntity
  8
ADPDIM
 62
     0
370
    -2
100
AcDbLine
 10
8.270699327136611
 20
2.459829146742668
 30
0.0
 11
8.270699327136611
 21
3.532824763698608
 31
0.0
  0
LINE
  5
743
330
665
100
AcDbEntity
  8
ADPDIM
 62
     0
370
    -2
100
AcDbLine
 10
9.773756729634826
 20
2.459829146742668
 30
0.0
 11
9.773756729634826
 21
3.532824763698608
 31
0.0
  0
LINE
  5
744
330
665
100
AcDbEntity
  8
ADPDIM
 62
     0
370
    -2
100
AcDbLine
 10
8.270699327136611
 20
3.352824763698608
 30
0.0
 11
8.647228028385718
 21
3.352824763698608
 31
0.0
  0
LINE
  5
745
330
665
100
AcDbEntity
  8
ADPDIM
 62
     0
370
    -2
100
AcDbLine
 10
9.773756729634826
 20
3.352824763698608
 30
0.0
 11
9.397228028385718
 21
3.352824763698608
 31
0.0
  0
LINE
  5
746
330
665
100
AcDbEntity
  8
ADPDIM
 62
     0
370
    -2
100
AcDbLine
 10
9.648756729634826
 20
3.227824763698608
 30
0.0
 11
9.898756729634826
 21
3.477824763698608
 31
0.0
  0
LINE
  5
747
330
665
100
AcDbEntity
  8
ADPDIM
 62
     0
370
    -2
100
AcDbLine
 10
8.145699327136611
 20
3.227824763698608
 30
0.0
 11
8.395699327136611
 21
3.477824763698608
 31
0.0
  0
MTEXT
  5
748
330
665
100
AcDbEntity
  8
ADPDIM
 62
     0
100
AcDbMText
 10
9.022228028385718
 20
3.352824763698608
 30
0.0
 40
0.125
 41
0.0
 71
     5
 72
     1
  1
\A1;1 1/2
 73
     1
 44
1.0
1001
ACAD
1000
MTEXTBEGIN
1070
    73
1070
     1
1070
    44
1040
1.0
1070
    74
1070
     0
1000
MTEXTEND
  0
POINT
  5
749
330
665
100
AcDbEntity
  8
DEFPOINTS
 62
     0
100
AcDbPoint
 10
8.270699327136611
 20
2.397329146742668
 30
0.0
  0
POINT
  5
74A
330
665
100
AcDbEntity
  8
DEFPOINTS
 62
     0
100
AcDbPoint
 10
9.773756729634826
 20
2.397329146742668
 30
0.0
  0
POINT
  5
74B
330
665
100
AcDbEntity
  8
DEFPOINTS
 62
     0
100
AcDbPoint
 10
9.773756729634826
 20
3.352824763698608
 30
0.0
  0
ENDBLK
  5
671
330
665
100
AcDbEntity
  8
0
100
AcDbBlockEnd
  0
BLOCK
  5
67E
330
673
100
AcDbEntity
  8
0
100
AcDbBlockBegin
  2
*D5
 70
     1
 10
0.0
 20
0.0
 30
0.0
  3
*D5
  1

  0
LINE
  5
74C
330
673
100
AcDbEntity
  8
ADPDIM
 62
     0
370
    -2
100
AcDbLine
 10
9.775905247959848
 20
2.457997535693364
 30
0.0
 11
9.775905247959848
 21
3.534360136418902
 31
0.0
  0
LINE
  5
74D
330
673
100
AcDbEntity
  8
ADPDIM
 62
     0
370
    -2
100
AcDbLine
 10
12.51934602988219
 20
3.048246288070815
 30
0.0
 11
12.51934602988219
 21
3.534360136418902
 31
0.0
  0
LINE
  5
74E
330
673
100
AcDbEntity
  8
ADPDIM
 62
     0
370
    -2
100
AcDbLine
 10
9.775905247959848
 20
3.354360136418902
 30
0.0
 11
10.73095897225435
 21
3.354360136418902
 31
0.0
  0
LINE
  5
74F
330
673
100
AcDbEntity
  8
ADPDIM
 62
     0
370
    -2
100
AcDbLine
 10
12.51934602988219
 20
3.354360136418902
 30
0.0
 11
11.56429230558768
 21
3.354360136418902
 31
0.0
  0
LINE
  5
750
330
673
100
AcDbEntity
  8
ADPDIM
 62
     0
370
    -2
100
AcDbLine
 10
12.39434602988218
 20
3.229360136418902
 30
0.0
 11
12.64434602988218
 21
3.479360136418902
 31
0.0
  0
LINE
  5
751
330
673
100
AcDbEntity
  8
ADPDIM
 62
     0
370
    -2
100
AcDbLine
 10
9.650905247959848
 20
3.229360136418902
 30
0.0
 11
9.900905247959848
 21
3.479360136418902
 31
0.0
  0
MTEXT
  5
752
330
673
100
AcDbEntity
  8
ADPDIM
 62
     0
100
AcDbMText
 10
11.14762563892101
 20
3.354360136418902
 30
0.0
 40
0.125
 41
0.0
 71
     5
 72
     1
  1
\A1;2 3/4
 73
     1
 44
1.0
1001
ACAD
1000
MTEXTBEGIN
1070
    73
1070
     1
1070
    44
1040
1.0
1070
    74
1070
     0
1000
MTEXTEND
  0
POINT
  5
753
330
673
100
AcDbEntity
  8
DEFPOINTS
 62
     0
100
AcDbPoint
 10
9.775905247959848
 20
2.395497535693364
 30
0.0
  0
POINT
  5
754
330
673
100
AcDbEntity
  8
DEFPOINTS
 62
     0
100
AcDbPoint
 10
12.51934602988219
 20
2.985746288070815
 30
0.0
  0
POINT
  5
755
330
673
100
AcDbEntity
  8
DEFPOINTS
 62
     0
100
AcDbPoint
 10
12.51934602988219
 20
3.354360136418902
 30
0.0
  0
ENDBLK
  5
67F
330
673
100
AcDbEntity
  8
0
100
AcDbBlockEnd
  0
BLOCK
  5
696
330
68B
100
AcDbEntity
  8
0
100
AcDbBlockBegin
  2
*D6
 70
     1
 10
0.0
 20
0.0
 30
0.0
  3
*D6
  1

  0
LINE
  5
756
330
68B
100
AcDbEntity
  8
ADPDIM
 62
     0
370
    -2
100
AcDbLine
 10
12.51483005438347
 20
3.027431602548661
 30
0.0
 11
12.8868279763607
 21
3.027431602548661
 31
0.0
  0
LINE
  5
757
330
68B
100
AcDbEntity
  8
ADPDIM
 62
     0
370
    -2
100
AcDbLine
 10
12.51483005438347
 20
2.777431602548661
 30
0.0
 11
12.8868279763607
 21
2.777431602548661
 31
0.0
  0
LINE
  5
758
330
68B
100
AcDbEntity
  8
ADPDIM
 62
     0
370
    -2
100
AcDbLine
 10
12.7068279763607
 20
3.027431602548661
 30
0.0
 11
12.7068279763607
 21
2.777431602548661
 31
0.0
  0
LINE
  5
759
330
68B
100
AcDbEntity
  8
ADPDIM
 62
     0
370
    -2
100
AcDbLine
 10
12.7068279763607
 20
2.777431602548661
 30
0.0
 11
12.7068279763607
 21
2.527431602548662
 31
0.0
  0
LINE
  5
75A
330
68B
100
AcDbEntity
  8
ADPDIM
 62
     0
370
    -2
100
AcDbLine
 10
12.8318279763607
 20
2.652431602548661
 30
0.0
 11
12.5818279763607
 21
2.902431602548661
 31
0.0
  0
LINE
  5
75B
330
68B
100
AcDbEntity
  8
ADPDIM
 62
     0
370
    -2
100
AcDbLine
 10
12.8318279763607
 20
2.902431602548661
 30
0.0
 11
12.5818279763607
 21
3.152431602548661
 31
0.0
  0
MTEXT
  5
75C
330
68B
100
AcDbEntity
  8
ADPDIM
 62
     0
100
AcDbMText
 10
12.7068279763607
 20
2.25659826921533
 30
0.0
 40
0.125
 41
0.0
 71
     5
 72
     1
  1
\A1;1/4
 11
0.0000000000000001
 21
1.0
 31
0.0
 73
     1
 44
1.0
1001
ACAD
1000
MTEXTBEGIN
1070
    73
1070
     1
1070
    44
1040
1.0
1070
    74
1070
     0
1000
MTEXTEND
  0
POINT
  5
75D
330
68B
100
AcDbEntity
  8
DEFPOINTS
 62
     0
100
AcDbPoint
 10
12.45233005438347
 20
3.027431602548661
 30
0.0
  0
POINT
  5
75E
330
68B
100
AcDbEntity
  8
DEFPOINTS
 62
     0
100
AcDbPoint
 10
12.45233005438347
 20
2.777431602548661
 30
0.0
  0
POINT
  5
75F
330
68B
100
AcDbEntity
  8
DEFPOINTS
 62
     0
100
AcDbPoint
 10
12.7068279763607
 20
2.777431602548661
 30
0.0
  0
ENDBLK
  5
697
330
68B
100
AcDbEntity
  8
0
100
AcDbBlockEnd
  0
ENDSEC
  0
SECTION
  2
ENTITIES
  0
TEXT
  5
9C
330
18
100
AcDbEntity
  8
ADPDIM
100
AcDbText
 10
3.22197796897784
 20
1.50526075473874
 30
0.0
 40
0.125
  1
J U L I U S  B L U M  &  C O . ,  I N C .      ( 8 0 0 )  5 2 6 - 6 2 9 3        W W W . J U L I U S B L U M . C O M        P A R T  N o .  6 5 9 9
 41
1.25
  7
ARIAL_WIDE
 72
     1
 11
9.747706993534457
 21
1.63026075473874
 31
0.0
100
AcDbText
 73
     3
  0
SPLINE
  5
608
330
18
100
AcDbEntity
  8
LAYER_1
 62
     7
100
AcDbSpline
210
0.0
220
0.0
230
1.0
 70
    11
 71
     3
 72
   260
 73
   256
 74
     0
 42
0.0000000001
 43
0.0000000001
 40
0.0
 40
0.0
 40
0.0
 40
0.0
 40
1.0
 40
1.0
 40
1.0
 40
2.0
 40
2.0
 40
2.0
 40
3.0
 40
3.0
 40
3.0
 40
4.0
 40
4.0
 40
4.0
 40
5.0
 40
5.0
 40
5.0
 40
6.0
 40
6.0
 40
6.0
 40
7.0
 40
7.0
 40
7.0
 40
8.0
 40
8.0
 40
8.0
 40
9.0
 40
9.0
 40
9.0
 40
10.0
 40
10.0
 40
10.0
 40
11.0
 40
11.0
 40
11.0
 40
12.0
 40
12.0
 40
12.0
 40
13.0
 40
13.0
 40
13.0
 40
14.0
 40
14.0
 40
14.0
 40
15.0
 40
15.0
 40
15.0
 40
16.0
 40
16.0
 40
16.0
 40
17.0
 40
17.0
 40
17.0
 40
18.0
 40
18.0
 40
18.0
 40
19.0
 40
19.0
 40
19.0
 40
20.0
 40
20.0
 40
20.0
 40
21.0
 40
21.0
 40
21.0
 40
22.0
 40
22.0
 40
22.0
 40
23.0
 40
23.0
 40
23.0
 40
24.0
 40
24.0
 40
24.0
 40
25.0
 40
25.0
 40
25.0
 40
26.0
 40
26.0
 40
26.0
 40
27.0
 40
27.0
 40
27.0
 40
28.0
 40
28.0
 40
28.0
 40
29.0
 40
29.0
 40
29.0
 40
30.0
 40
30.0
 40
30.0
 40
31.0
 40
31.0
 40
31.0
 40
32.0
 40
32.0
 40
32.0
 40
33.0
 40
33.0
 40
33.0
 40
34.0
 40
34.0
 40
34.0
 40
35.0
 40
35.0
 40
35.0
 40
36.0
 40
36.0
 40
36.0
 40
37.0
 40
37.0
 40
37.0
 40
38.0
 40
38.0
 40
38.0
 40
39.0
 40
39.0
 40
39.0
 40
40.0
 40
40.0
 40
40.0
 40
41.0
 40
41.0
 40
41.0
 40
42.0
 40
42.0
 40
42.0
 40
43.0
 40
43.0
 40
43.0
 40
44.0
 40
44.0
 40
44.0
 40
45.0
 40
45.0
 40
45.0
 40
46.0
 40
46.0
 40
46.0
 40
47.0
 40
47.0
 40
47.0
 40
48.0
 40
48.0
 40
48.0
 40
49.0
 40
49.0
 40
49.0
 40
50.0
 40
50.0
 40
50.0
 40
51.0
 40
51.0
 40
51.0
 40
52.0
 40
52.0
 40
52.0
 40
53.0
 40
53.0
 40
53.0
 40
54.0
 40
54.0
 40
54.0
 40
55.0
 40
55.0
 40
55.0
 40
56.0
 40
56.0
 40
56.0
 40
57.0
 40
57.0
 40
57.0
 40
58.0
 40
58.0
 40
58.0
 40
59.0
 40
59.0
 40
59.0
 40
60.0
 40
60.0
 40
60.0
 40
61.0
 40
61.0
 40
61.0
 40
62.0
 40
62.0
 40
62.0
 40
63.0
 40
63.0
 40
63.0
 40
64.0
 40
64.0
 40
64.0
 40
65.0
 40
65.0
 40
65.0
 40
66.0
 40
66.0
 40
66.0
 40
67.0
 40
67.0
 40
67.0
 40
68.0
 40
68.0
 40
68.0
 40
69.0
 40
69.0
 40
69.0
 40
70.0
 40
70.0
 40
70.0
 40
71.0
 40
71.0
 40
71.0
 40
72.0
 40
72.0
 40
72.0
 40
73.0
 40
73.0
 40
73.0
 40
74.0
 40
74.0
 40
74.0
 40
75.0
 40
75.0
 40
75.0
 40
76.0
 40
76.0
 40
76.0
 40
77.0
 40
77.0
 40
77.0
 40
78.0
 40
78.0
 40
78.0
 40
79.0
 40
79.0
 40
79.0
 40
80.0
 40
80.0
 40
80.0
 40
81.0
 40
81.0
 40
81.0
 40
82.0
 40
82.0
 40
82.0
 40
83.0
 40
83.0
 40
83.0
 40
84.0
 40
84.0
 40
84.0
 40
85.0
 40
85.0
 40
85.0
 40
85.0
 10
7.020646892786491
 20
2.981561746811165
 30
0.0
 10
7.020646892786491
 20
2.948002027817038
 30
0.0
 10
7.020646892786491
 20
2.85140427504359
 30
0.0
 10
7.020646892786491
 20
2.814942826811174
 30
0.0
 10
7.020646892786491
 20
2.778481378578744
 30
0.0
 10
7.046979407649775
 20
2.770969425317032
 30
0.0
 10
7.065772850286496
 20
2.770969425317032
 30
0.0
 10
7.084566292923216
 20
2.770969425317032
 30
0.0
 10
7.420414333289418
 20
2.770969425317032
 30
0.0
 10
7.539595404036493
 20
2.770969425317032
 30
0.0
 10
7.63852538778649
 20
2.770969425317032
 30
0.0
 10
7.701590540530634
 20
2.681287008578747
 30
0.0
 10
7.701590540530634
 20
2.632133884799456
 30
0.0
 10
7.701590540530634
 20
2.593367324555314
 30
0.0
 10
7.701590540530634
 20
2.301214716293598
 30
0.0
 10
7.701590540530634
 20
2.251451415805318
 30
0.0
 10
7.701590540530634
 20
2.201688115317038
 30
0.0
 10
7.739123187874387
 20
2.204020346293587
 30
0.0
 10
7.739123187874387
 20
2.204020346293587
 30
0.0
 10
7.739123187874387
 20
2.204020346293587
 30
0.0
 10
8.687134401399777
 20
2.204020346293587
 30
0.0
 10
8.747657151189816
 20
2.204020346293587
 30
0.0
 10
8.808179900979855
 20
2.204020346293587
 30
0.0
 10
8.805000202351923
 20
2.25722775531703
 30
0.0
 10
8.805000202351923
 20
2.25722775531703
 30
0.0
 10
8.805000202351923
 20
2.25722775531703
 30
0.0
 10
8.805000202351923
 20
2.451345305668594
 30
0.0
 10
8.805000202351923
 20
2.591346961674458
 30
0.0
 10
8.805000202351923
 20
2.684758236078748
 30
0.0
 10
8.877021393235711
 20
2.770969425317032
 30
0.0
 10
9.033369005301143
 20
2.770969425317032
 30
0.0
 10
9.279310897469105
 20
2.770969425317032
 30
0.0
 10
9.276748155291375
 20
2.605516620805316
 30
0.0
 10
9.276748155291375
 20
2.605516620805316
 30
0.0
 10
9.276748155291375
 20
2.605516620805316
 30
0.0
 10
9.276748155291375
 20
2.317987796049449
 30
0.0
 10
9.276748155291375
 20
2.258393870805319
 30
0.0
 10
9.276748155291375
 20
2.198799945561175
 30
0.0
 10
9.325847041140978
 20
2.204020346293587
 30
0.0
 10
9.325847041140978
 20
2.204020346293587
 30
0.0
 10
9.325847041140978
 20
2.204020346293587
 30
0.0
 10
10.20344386244958
 20
2.204020346293587
 30
0.0
 10
10.21654232246911
 20
2.204020346293587
 30
0.0
 10
10.22964078248863
 20
2.204020346293587
 30
0.0
 10
10.28084138811364
 20
2.207491573793587
 30
0.0
 10
10.28084138811364
 20
2.30351982830531
 30
0.0
 10
10.28084138811364
 20
2.399548082817032
 30
0.0
 10
10.21835929311364
 20
2.389147959799457
 30
0.0
 10
10.21835929311364
 20
2.477081203305315
 30
0.0
 10
10.21835929311364
 20
2.565014446811174
 30
0.0
 10
10.21835929311364
 20
2.465501405317025
 30
0.0
 10
10.21835929311364
 20
2.599726721811178
 30
0.0
 10
10.21835929311364
 20
2.713111113822888
 30
0.0
 10
10.34158786936364
 20
2.773274537328743
 30
0.0
 10
10.40348690661949
 20
2.773274537328743
 30
0.0
 10
10.46538594387536
 20
2.773274537328743
 30
0.0
 10
10.48846418295739
 20
2.773274537328743
 30
0.0
 10
10.61631654271325
 20
2.773274537328743
 30
0.0
 10
10.7441689024691
 20
2.773274537328743
 30
0.0
 10
10.7806167912191
 20
2.644269621567032
 30
0.0
 10
10.7806167912191
 20
2.600879277817027
 30
0.0
 10
10.7806167912191
 20
2.557488934067036
 30
0.0
 10
10.7806167912191
 20
2.574831512084612
 30
0.0
 10
10.7806167912191
 20
2.496742452817029
 30
0.0
 10
10.7806167912191
 20
2.418653393549446
 30
0.0
 10
10.70772101371911
 20
2.393785302787732
 30
0.0
 10
10.70772101371911
 20
2.298882485317035
 30
0.0
 10
10.70772101371911
 20
2.28210940556117
 30
0.0
 10
10.70772101371911
 20
2.295411257817034
 30
0.0
 10
10.70772101371911
 20
2.275166950561169
 30
0.0
 10
10.70772101371911
 20
2.223098538061178
 30
0.0
 10
10.74458924642418
 20
2.204020346293587
 30
0.0
 10
10.76838613807458
 20
2.204020346293587
 30
0.0
 10
10.79218302972497
 20
2.204020346293587
 30
0.0
 10
10.87288906909997
 20
2.204020346293587
 30
0.0
 10
10.91975064034996
 20
2.204020346293587
 30
0.0
 10
10.96661221159997
 20
2.204020346293587
 30
0.0
 10
10.98223273534997
 20
2.231776606811164
 30
0.0
 10
10.98223273534997
 20
2.265336325805305
 30
0.0
 10
10.98223273534997
 20
2.298896044799446
 30
0.0
 10
10.98223273534997
 20
2.531346251957655
 30
0.0
 10
10.98223273534997
 20
2.61118448445765
 30
0.0
 10
10.98223273534997
 20
2.691009157475233
 30
0.0
 10
11.0609184118441
 20
2.773274537328743
 30
0.0
 10
11.15117032684411
 20
2.773274537328743
 30
0.0
 10
11.2067099668441
 20
2.773274537328743
 30
0.0
 10
11.54044950769372
 20
2.773274537328743
 30
0.0
 10
11.68689191784996
 20
2.773274537328743
 30
0.0
 10
11.83333432800622
 20
2.773274537328743
 30
0.0
 10
11.85185658099449
 20
2.617665917055317
 30
0.0
 10
11.85185658099449
 20
2.559007596098281
 30
0.0
 10
11.85185658099449
 20
2.517352866098276
 30
0.0
 10
11.85185658099449
 20
2.392632746781869
 30
0.0
 10
11.85185658099449
 20
2.295424817299446
 30
0.0
 10
11.85185658099449
 20
2.198216887817038
 30
0.0
 10
11.91250814586755
 20
2.204020346293587
 30
0.0
 10
11.91250814586755
 20
2.204020346293587
 30
0.0
 10
11.91250814586755
 20
2.204020346293587
 30
0.0
 10
12.15686357859215
 20
2.204020346293587
 30
0.0
 10
12.26773946635582
 20
2.204020346293587
 30
0.0
 10
12.37861535411949
 20
2.204020346293587
 30
0.0
 10
12.37137459050621
 20
2.295424817299446
 30
0.0
 10
12.37137459050621
 20
2.295424817299446
 30
0.0
 10
12.37137459050621
 20
2.295424817299446
 30
0.0
 10
12.37137459050621
 20
2.587007927299451
 30
0.0
 10
12.37137459050621
 20
2.661639318549459
 30
0.0
 10
12.37137459050621
 20
2.736257150317028
 30
0.0
 10
12.3939240097738
 20
2.788881501596334
 30
0.0
 10
12.44195169651208
 20
2.819553050834612
 30
0.0
 10
12.48997938325036
 20
2.850224600072889
 30
0.0
 10
12.52063737300621
 20
2.864679008334602
 30
0.0
 10
12.52063737300621
 20
2.915594864828745
 30
0.0
 10
12.52063737300621
 20
2.966510721322888
 30
0.0
 10
12.52063737300621
 20
2.940449396108048
 30
0.0
 10
12.52063737300621
 20
2.987324526840465
 30
0.0
 10
12.52063737300621
 20
3.023216476811169
 30
0.0
 10
12.48246742998863
 20
3.026674144828744
 30
0.0
 10
12.46047394950036
 20
3.026674144828744
 30
0.0
 10
12.43848046901208
 20
3.026674144828744
 30
0.0
 10
12.31161795147301
 20
3.026674144828744
 30
0.0
 10
12.24806465736168
 20
3.026674144828744
 30
0.0
 10
12.17409768075035
 20
3.026674144828744
 30
0.0
 10
12.14920247102379
 20
2.941046013334611
 30
0.0
 10
12.05317421651208
 20
2.941046013334611
 30
0.0
 10
11.9178099034945
 20
2.941046013334611
 30
0.0
 10
11.94045423913903
 20
3.025521588822895
 30
0.0
 10
11.84500904237145
 20
3.025521588822895
 30
0.0
 10
11.74956384560387
 20
3.025521588822895
 30
0.0
 10
11.53225958031091
 20
3.025521588822895
 30
0.0
 10
11.47333006970544
 20
3.025521588822895
 30
0.0
 10
11.41440055909996
 20
3.025521588822895
 30
0.0
 10
11.41671923059411
 20
3.003528108334604
 30
0.0
 10
11.38374256934411
 20
2.97783288914516
 30
0.0
 10
11.35225745116051
 20
2.95330378544399
 30
0.0
 10
11.32772834745934
 20
2.939893457328748
 30
0.0
 10
11.26919206184411
 20
2.939893457328748
 30
0.0
 10
11.14249225809411
 20
2.939893457328748
 30
0.0
 10
11.15869583958825
 20
3.026674144828744
 30
0.0
 10
11.05975229635583
 20
3.026674144828744
 30
0.0
 10
10.97819200958824
 20
3.026674144828744
 30
0.0
 10
10.74538925588708
 20
3.026674144828744
 30
0.0
 10
10.70199891213707
 20
3.026674144828744
 30
0.0
 10
10.65860856838708
 20
3.026674144828744
 30
0.0
 10
10.65554412535973
 20
3.00354166781703
 30
0.0
 10
10.62903533722496
 20
2.981548187328753
 30
0.0
 10
10.60531980246911
 20
2.961873378334614
 30
0.0
 10
10.56605154137536
 20
2.936422229828748
 30
0.0
 10
10.49951516113122
 20
2.936422229828748
 30
0.0
 10
10.43182622488122
 20
2.936422229828748
 30
0.0
 10
10.41503958564293
 20
2.950876638090475
 30
0.0
 10
10.38496465363122
 20
2.979229515834616
 30
0.0
 10
10.3548897216195
 20
3.007582393578756
 30
0.0
 10
10.33983869613121
 20
3.025521588822895
 30
0.0
 10
10.29356018262536
 20
3.025521588822895
 30
0.0
 10
10.2472816691195
 20
3.025521588822895
 30
0.0
 10
10.17075195033043
 20
3.025521588822895
 30
0.0
 10
10.10082569948082
 20
3.025521588822895
 30
0.0
 10
10.03089944863122
 20
3.025521588822895
 30
0.0
 10
10.02395699363122
 20
2.972856559096326
 30
0.0
 10
10.02395699363122
 20
2.944517240834612
 30
0.0
 10
10.02395699363122
 20
2.916177922572897
 30
0.0
 10
10.02395699363122
 20
2.677829340561173
 30
0.0
 10
10.02395699363122
 20
2.589313039311177
 30
0.0
 10
10.02395699363122
 20
2.500796738061167
 30
0.0
 10
9.971603832000358
 20
2.393785302787732
 30
0.0
 10
9.812713816980821
 20
2.393785302787732
 30
0.0
 10
9.776916783387083
 20
2.393785302787732
 30
0.0
 10
9.738706161922227
 20
2.393785302787732
 30
0.0
 10
9.695600567303092
 20
2.393785302787732
 30
0.0
 10
9.558202331922235
 20
2.393785302787732
 30
0.0
 10
9.503530498797235
 20
2.503101850072892
 30
0.0
 10
9.503530498797235
 20
2.559224547817036
 30
0.0
 10
9.503530498797235
 20
2.615347245561165
 30
0.0
 10
9.503530498797235
 20
2.889560658578743
 30
0.0
 10
9.503530498797235
 20
2.950307139828749
 30
0.0
 10
9.503530498797235
 20
3.011053621078756
 30
0.0
 10
9.487503190574575
 20
3.023216476811169
 30
0.0
 10
9.427678754129264
 20
3.023216476811169
 30
0.0
 10
9.367827198719115
 20
3.023216476811169
 30
0.0
 10
9.218713570525753
 20
3.023216476811169
 30
0.0
 10
9.184936899812857
 20
3.023216476811169
 30
0.0
 10
9.156082321219106
 20
3.023216476811169
 30
0.0
 10
9.128312501219102
 20
2.988504201811165
 30
0.0
 10
9.114997089480826
 20
2.975771847817027
 30
0.0
 10
9.101695237224962
 20
2.963039493822888
 30
0.0
 10
9.076244088719111
 20
2.932951002328747
 30
0.0
 10
9.009707708474966
 20
2.932951002328747
 30
0.0
 10
8.942683186863636
 20
2.932951002328747
 30
0.0
 10
8.914906587122434
 20
2.95551398107875
 30
0.0
 10
8.889455438616568
 20
2.973453176322889
 30
0.0
 10
8.864004290110717
 20
2.991392371567028
 30
0.0
 10
8.85069565811364
 20
3.026674144828744
 30
0.0
 10
8.80152219511071
 20
3.026674144828744
 30
0.0
 10
8.75234873210778
 20
3.026674144828744
 30
0.0
 10
8.637066012557003
 20
3.026674144828744
 30
0.0
 10
8.58615015606286
 20
3.026674144828744
 30
0.0
 10
8.535234299568717
 20
3.026674144828744
 30
0.0
 10
8.519037497815791
 20
2.996599212817029
 30
0.0
 10
8.519037497815791
 20
2.979243075317027
 30
0.0
 10
8.519037497815791
 20
2.961886937817025
 30
0.0
 10
8.519037497815791
 20
2.90227945309047
 30
0.0
 10
8.519037497815791
 20
2.848488986322889
 30
0.0
 10
8.519037497815791
 20
2.806264758061173
 30
0.0
 10
8.526556230818716
 20
2.798142628090472
 30
0.0
 10
8.543336090315793
 20
2.779064436322896
 30
0.0
 10
8.560115949812857
 20
2.759986244555305
 30
0.0
 10
8.605818185315786
 20
2.720609507602189
 30
0.0
 10
8.605818185315786
 20
2.665680044311171
 30
0.0
 10
8.605818185315786
 20
2.610737021537728
 30
0.0
 10
8.605818185315786
 20
2.592770707328751
 30
0.0
 10
8.605818185315786
 20
2.565014446811174
 30
0.0
 10
8.605818185315786
 20
2.467250578549451
 30
0.0
 10
8.504000031809926
 20
2.397256530287732
 30
0.0
 10
8.433416146062857
 20
2.397256530287732
 30
0.0
 10
8.362832260315787
 20
2.397256530287732
 30
0.0
 10
8.173094422786494
 20
2.397256530287732
 30
0.0
 10
8.078788222542346
 20
2.397256530287732
 30
0.0
 10
7.974068339798211
 20
2.397256530287732
 30
0.0
 10
7.897125056795278
 20
2.484606716049453
 30
0.0
 10
7.897125056795278
 20
2.554614323793598
 30
0.0
 10
7.897125056795278
 20
2.61826253428188
 30
0.0
 10
7.897125056795278
 20
2.617693036020154
 30
0.0
 10
7.897125056795278
 20
2.659917264281871
 30
0.0
 10
7.897125056795278
 20
2.721219684311177
 30
0.0
 10
7.943403570301146
 20
2.757667573061167
 30
0.0
 10
7.968861498548211
 20
2.787173006811171
 30
0.0
 10
7.994319426795275
 20
2.816678440561174
 30
0.0
 10
7.995478762542351
 20
2.856597556811179
 30
0.0
 10
7.995478762542351
 20
2.856597556811179
 30
0.0
 10
7.995478762542351
 20
2.856597556811179
 30
0.0
 10
7.995478762542351
 20
2.927771280043598
 30
0.0
 10
7.995478762542351
 20
2.973466735805315
 30
0.0
 10
7.995478762542351
 20
3.019162191567032
 30
0.0
 10
7.951518920530634
 20
3.02668770431117
 30
0.0
 10
7.909857410789417
 20
3.02668770431117
 30
0.0
 10
7.868195901048213
 20
3.02668770431117
 30
0.0
 10
7.71822802546227
 20
3.02668770431117
 30
0.0
 10
7.691678558880244
 20
3.02668770431117
 30
0.0
 10
7.665129092298204
 20
3.02668770431117
 30
0.0
 10
7.637366052039428
 20
2.994294100805317
 30
0.0
 10
7.61711496504235
 20
2.974619291811178
 30
0.0
 10
7.596863878045287
 20
2.954944482817024
 30
0.0
 10
7.566782166292345
 20
2.932964561811173
 30
0.0
 10
7.506035685042352
 20
2.932964561811173
 30
0.0
 10
7.445289203792345
 20
2.932964561811173
 30
0.0
 10
7.416936326048205
 20
2.956110598305313
 30
0.0
 10
7.393797069295278
 20
2.971148064311178
 30
0.0
 10
7.370657812542351
 20
2.986185530317028
 30
0.0
 10
7.350874527688834
 20
3.023216476811169
 30
0.0
 10
7.293653511868516
 20
3.023216476811169
 30
0.0
 10
7.236432496048212
 20
3.023216476811169
 30
0.0
 10
7.121305710545275
 20
3.023216476811169
 30
0.0
 10
7.084857821795285
 20
3.023216476811169
 30
0.0
 10
7.048409933045281
 20
3.023216476811169
 30
0.0
 10
7.020646892786491
 20
3.015121465805306
 30
0.0
 10
7.020646892786491
 20
2.981561746811165
 30
0.0
  0
LWPOLYLINE
  5
609
330
18
100
AcDbEntity
  8
LAYER_1
  6
AI9-LTYPE1
 62
     7
100
AcDbPolyline
 90
        4
 70
     0
 43
0.0
 10
12.37022203450036
 20
2.569367040668593
 10
12.01447545368004
 20
2.569367040668593
 10
12.01447545368004
 20
2.396971781156876
 10
12.37022203450036
 20
2.396971781156876
  0
DIMENSION
  5
62A
330
18
100
AcDbEntity
  8
ADPDIM
100
AcDbDimension
  2
*D2
 10
6.547901506166912
 20
2.205739020891215
 30
0.0
 11
6.547901506166911
 21
2.614257594539962
 31
0.0
 70
    33
 71
     5
 42
0.8170371472974924
  3
STANDARD
100
AcDbAlignedDimension
 13
7.080443749964718
 23
3.022776168188707
 33
0.0
 14
7.080443749964718
 24
2.205739020891215
 34
0.0
1001
ACAD
1000
DSTYLE
1002
{
1070
   276
1070
     2
1070
   277
1070
     5
1070
    41
1040
0.125
1070
    73
1070
     0
1070
    74
1070
     0
1070
    78
1070
     3
1070
   140
1040
0.125
1070
   141
1040
0.1875
1070
   142
1040
0.125
1070
   147
1040
0.125
1070
   171
1070
     1
1002
}
  0
DIMENSION
  5
638
330
18
100
AcDbEntity
  8
ADPDIM
100
AcDbDimension
  2
*D3
 10
8.270699327136611
 20
3.353072457089409
 30
0.0
 11
7.645859745470961
 21
3.353072457089409
 31
0.0
 70
    32
 71
     5
 42
1.2496791633313
  3
STANDARD
100
AcDbAlignedDimension
 13
7.02102016380531
 23
2.986183251842456
 33
0.0
 14
8.270699327136611
 24
2.397329146742668
 34
0.0
100
AcDbRotatedDimension
1001
ACAD
1000
DSTYLE
1002
{
1070
   276
1070
     2
1070
   277
1070
     5
1070
    41
1040
0.125
1070
    73
1070
     0
1070
    74
1070
     0
1070
    78
1070
     3
1070
   140
1040
0.125
1070
   141
1040
0.1875
1070
   142
1040
0.125
1070
   147
1040
0.125
1070
   171
1070
     1
1002
}
  0
DIMENSION
  5
664
330
18
100
AcDbEntity
  8
ADPDIM
100
AcDbDimension
  2
*D4
 10
9.773756729634826
 20
3.352824763698608
 30
0.0
 11
9.022228028385718
 21
3.352824763698608
 31
0.0
 70
    32
 71
     5
 42
1.503057402498214
  3
STANDARD
100
AcDbAlignedDimension
 13
8.270699327136611
 23
2.397329146742668
 33
0.0
 14
9.773756729634826
 24
2.397329146742668
 34
0.0
100
AcDbRotatedDimension
1001
ACAD
1000
DSTYLE
1002
{
1070
   276
1070
     2
1070
   277
1070
     5
1070
    41
1040
0.125
1070
    73
1070
     0
1070
    74
1070
     0
1070
    78
1070
     3
1070
   140
1040
0.125
1070
   141
1040
0.1875
1070
   142
1040
0.125
1070
   147
1040
0.125
1070
   171
1070
     1
1002
}
  0
DIMENSION
  5
672
330
18
100
AcDbEntity
  8
ADPDIM
100
AcDbDimension
  2
*D5
 10
12.51934602988219
 20
3.354360136418902
 30
0.0
 11
11.14762563892101
 21
3.354360136418902
 31
0.0
 70
    32
 71
     5
 42
2.743440781922338
  3
STANDARD
100
AcDbAlignedDimension
 13
9.775905247959848
 23
2.395497535693364
 33
0.0
 14
12.51934602988219
 24
2.985746288070815
 34
0.0
100
AcDbRotatedDimension
1001
ACAD
1000
DSTYLE
1002
{
1070
   276
1070
     2
1070
   277
1070
     5
1070
    41
1040
0.125
1070
    73
1070
     0
1070
    74
1070
     0
1070
    78
1070
     3
1070
   140
1040
0.125
1070
   141
1040
0.1875
1070
   142
1040
0.125
1070
   147
1040
0.125
1070
   171
1070
     1
1002
}
  0
DIMENSION
  5
68A
330
18
100
AcDbEntity
  8
ADPDIM
100
AcDbDimension
  2
*D6
 10
12.7068279763607
 20
2.777431602548661
 30
0.0
 11
12.7068279763607
 21
2.25659826921533
 31
0.0
 70
    32
 71
     5
 42
0.25
  3
STANDARD
100
AcDbAlignedDimension
 13
12.45233005438347
 23
3.027431602548661
 33
0.0
 14
12.45233005438347
 24
2.777431602548661
 34
0.0
 50
90.0
100
AcDbRotatedDimension
1001
ACAD
1000
DSTYLE
1002
{
1070
   276
1070
     2
1070
   277
1070
     5
1070
    41
1040
0.125
1070
    73
1070
     0
1070
    74
1070
     0
1070
    78
1070
     3
1070
   140
1040
0.125
1070
   141
1040
0.1875
1070
   142
1040
0.125
1070
   147
1040
0.125
1070
   171
1070
     1
1002
}
  0
ENDSEC
  0
SECTION
  2
OBJECTS
  0
DICTIONARY
  5
C
330
0
100
AcDbDictionary
281
     1
  3
ACAD_COLOR
350
1F1
  3
ACAD_GROUP
350
D
  3
ACAD_LAYOUT
350
95
  3
ACAD_MATERIAL
350
1DC
  3
ACAD_MLINESTYLE
350
E
  3
ACAD_PLOTSETTINGS
350
96
  3
ACAD_PLOTSTYLENAME
350
93
  3
ACAD_TABLESTYLE
350
1F2
  3
ACAD_VISUALSTYLE
350
1E0
  3
AcDbVariableDictionary
350
F6
  3
ASE_INDEX_DICTIONARY
350
5C6
  3
DWGPROPS
350
79C
  0
DICTIONARY
  5
27C
330
8
100
AcDbDictionary
280
     1
281
     1
  0
DICTIONARY
  5
F0
330
18
100
AcDbDictionary
280
     1
281
     1
  3
ACAD_LAYOUTSELFREF
360
1D6
  0
DICTIONARY
  5
EE
330
15
100
AcDbDictionary
280
     1
281
     1
  3
ACAD_LAYOUTSELFREF
360
1D5
  0
DICTIONARY
  5
1F1
102
{ACAD_REACTORS
330
C
102
}
330
C
100
AcDbDictionary
281
     1
  0
DICTIONARY
  5
D
102
{ACAD_REACTORS
330
C
102
}
330
C
100
AcDbDictionary
281
     1
  0
DICTIONARY
  5
95
102
{ACAD_REACTORS
330
C
102
}
330
C
100
AcDbDictionary
281
     1
  3
Layout1
350
98
  3
Model
350
97
  0
DICTIONARY
  5
1DC
102
{ACAD_REACTORS
330
C
102
}
330
C
100
AcDbDictionary
281
     1
  3
ByBlock
350
1DE
  3
ByLayer
350
1DD
  3
Global
350
1DF
  0
DICTIONARY
  5
E
102
{ACAD_REACTORS
330
C
102
}
330
C
100
AcDbDictionary
281
     1
  3
STANDARD
350
1B
  0
DICTIONARY
  5
96
102
{ACAD_REACTORS
330
C
102
}
330
C
100
AcDbDictionary
281
     1
  0
ACDBDICTIONARYWDFLT
  5
93
102
{ACAD_REACTORS
330
C
102
}
330
C
100
AcDbDictionary
281
     1
  3
Normal
350
94
100
AcDbDictionaryWithDefault
340
94
  0
DICTIONARY
  5
1F2
102
{ACAD_REACTORS
330
C
102
}
330
C
100
AcDbDictionary
281
     1
  3
Standard
350
1F3
  0
DICTIONARY
  5
1E0
102
{ACAD_REACTORS
330
C
102
}
330
C
100
AcDbDictionary
281
     1
  3
2dWireframe
350
1E6
  3
3D Hidden
350
1E8
  3
3dWireframe
350
1E7
  3
Basic
350
1E5
  3
Brighten
350
1EC
  3
ColorChange
350
1F0
  3
Conceptual
350
1E9
  3
Dim
350
1EB
  3
Facepattern
350
1EF
  3
Flat
350
1E1
  3
FlatWithEdges
350
1E2
  3
Gouraud
350
1E3
  3
GouraudWithEdges
350
1E4
  3
Linepattern
350
1EE
  3
Realistic
350
1EA
  3
Thicken
350
1ED
  0
DICTIONARY
  5
F6
102
{ACAD_REACTORS
330
C
102
}
330
C
100
AcDbDictionary
281
     1
  3
CTABLESTYLE
350
294
  3
DIMASSOC
350
F7
  3
INDEXCTL
350
296
  3
SORTENTS
350
295
  0
DICTIONARY
  5
5C6
102
{ACAD_REACTORS
330
C
102
}
330
C
100
AcDbDictionary
281
     1
  3
ASEBlockHierarchyIndexRecord
350
5C7
1001
DCO15
1040
1660302126.02
  0
XRECORD
  5
79C
102
{ACAD_REACTORS
330
C
102
}
330
C
100
AcDbXrecord
280
     1
  1
DWGPROPS COOKIE
  2

  3

  4

  6

  7

  8
John
  9

300
=
301
=
302
=
303
=
304
=
305
=
306
=
307
=
308
=
309
=
 40
0.0595169097222222
 41
2450277.499608021
 42
2455209.623820347
  1

 90
        0
  0
XRECORD
  5
1D6
102
{ACAD_REACTORS
330
F0
102
}
330
F0
100
AcDbXrecord
280
     1
340
18
  0
XRECORD
  5
1D5
102
{ACAD_REACTORS
330
EE
102
}
330
EE
100
AcDbXrecord
280
     1
340
15
  0
LAYOUT
  5
98
102
{ACAD_XDICTIONARY
360
79F
102
}
102
{ACAD_REACTORS
330
95
102
}
330
95
100
AcDbPlotSettings
  1

  2
Fax
  4

  6

 40
0.0
 41
0.0
 42
0.0
 43
0.0
 44
0.0
 45
0.0
 46
0.0
 47
0.0
 48
0.0
 49
0.0
140
0.0
141
0.0
142
1.0
143
1.0
 70
   688
 72
     0
 73
     0
 74
     5
  7
Default R14 pen assignments.ctb
 75
    16
147
1.0
148
0.0
149
0.0
100
AcDbLayout
  1
Layout1
 70
     1
 71
     1
 10
0.0
 20
0.0
 11
12.0
 21
9.0
 12
0.1875029802322391
 22
0.0
 32
0.0
 14
1.000000000000000E+20
 24
1.000000000000000E+20
 34
1.000000000000000E+20
 15
-1.000000000000000E+20
 25
-1.000000000000000E+20
 35
-1.000000000000000E+20
146
0.0
 13
0.0
 23
0.0
 33
0.0
 16
1.0
 26
0.0
 36
0.0
 17
0.0
 27
1.0
 37
0.0
 76
     0
330
15
  0
LAYOUT
  5
97
102
{ACAD_XDICTIONARY
360
79D
102
}
102
{ACAD_REACTORS
330
95
102
}
330
95
100
AcDbPlotSettings
  1

  2
Fax
  4

  6

 40
0.0
 41
0.0
 42
0.0
 43
0.0
 44
0.0
 45
0.0
 46
0.0
 47
0.0
 48
0.0
 49
0.0
140
0.0
141
0.0
142
1.0
143
1.0
 70
  1712
 72
     0
 73
     0
 74
     0
  7
Default R14 pen assignments.ctb
 75
     0
147
1.0
148
0.0
149
0.0
100
AcDbLayout
  1
Model
 70
     1
 71
     0
 10
0.0
 20
0.0
 11
12.0
 21
9.0
 12
0.0
 22
0.0
 32
0.0
 14
0.0
 24
0.0
 34
0.0
 15
0.0
 25
0.0
 35
0.0
146
0.0
 13
0.0
 23
0.0
 33
0.0
 16
1.0
 26
0.0
 36
0.0
 17
0.0
 27
1.0
 37
0.0
 76
     0
330
18
331
1B0
  0
MATERIAL
  5
1DE
102
{ACAD_XDICTIONARY
360
7A3
102
}
102
{ACAD_REACTORS
330
1DC
102
}
330
1DC
100
AcDbMaterial
  1
ByBlock
  0
MATERIAL
  5
1DD
102
{ACAD_XDICTIONARY
360
7A1
102
}
102
{ACAD_REACTORS
330
1DC
102
}
330
1DC
100
AcDbMaterial
  1
ByLayer
  0
MATERIAL
  5
1DF
102
{ACAD_XDICTIONARY
360
7A5
102
}
102
{ACAD_REACTORS
330
1DC
102
}
330
1DC
100
AcDbMaterial
  1
Global
  0
MLINESTYLE
  5
1B
102
{ACAD_REACTORS
330
E
102
}
330
E
100
AcDbMlineStyle
  2
STANDARD
 70
     0
  3

 62
     0
 51
90.0
 52
90.0
 71
     2
 49
0.5
 62
   256
  6
BYLAYER
 49
-0.5
 62
   256
  6
BYLAYER
  0
ACDBPLACEHOLDER
  5
94
102
{ACAD_REACTORS
330
93
102
}
330
93
  0
TABLESTYLE
  5
1F3
102
{ACAD_XDICTIONARY
360
7A7
102
}
102
{ACAD_REACTORS
330
1F2
102
}
330
1F2
100
AcDbTableStyle
  3
Standard
 70
     0
 71
     0
 40
0.06
 41
0.06
280
     0
281
     0
  7
STANDARD
140
0.18
170
     2
 62
     0
 63
     7
283
     0
274
    -2
284
     1
 64
     0
275
    -2
285
     1
 65
     0
276
    -2
286
     1
 66
     0
277
    -2
287
     1
 67
     0
278
    -2
288
     1
 68
     0
279
    -2
289
     1
 69
     0
  7
STANDARD
140
0.25
170
     5
 62
     0
 63
     7
283
     0
274
    -2
284
     1
 64
     0
275
    -2
285
     1
 65
     0
276
    -2
286
     1
 66
     0
277
    -2
287
     1
 67
     0
278
    -2
288
     1
 68
     0
279
    -2
289
     1
 69
     0
  7
STANDARD
140
0.18
170
     5
 62
     0
 63
     7
283
     0
274
    -2
284
     1
 64
     0
275
    -2
285
     1
 65
     0
276
    -2
286
     1
 66
     0
277
    -2
287
     1
 67
     0
278
    -2
288
     1
 68
     0
279
    -2
289
     1
 69
     0
  0
VISUALSTYLE
  5
1E6
102
{ACAD_REACTORS
330
1E0
102
}
330
1E0
100
AcDbVisualStyle
  2
2dWireframe
 70
     4
 71
     0
 72
     2
 73
     0
 90
        0
 40
-0.6
 41
-30.0
 62
     5
 63
     7
 74
     1
 91
        4
 64
     7
 65
   257
 75
     1
175
     1
 42
1.0
 92
        0
 66
   257
 43
1.0
 76
     1
 77
     6
 78
     2
 67
     7
 79
     5
170
     0
171
     0
290
     0
174
     0
 93
        1
 44
0.0
173
     0
291
     0
 45
0.0
1001
ACAD
1000
AcDbSavedByObjectVersion
1070
     0
  0
VISUALSTYLE
  5
1E8
102
{ACAD_REACTORS
330
1E0
102
}
330
1E0
100
AcDbVisualStyle
  2
3D Hidden
 70
     6
 71
     1
 72
     2
 73
     2
 90
        0
 40
-0.6
 41
-30.0
 62
     5
 63
     7
 74
     2
 91
        2
 64
     7
 65
   257
 75
     2
175
     1
 42
40.0
 92
        0
 66
   257
 43
1.0
 76
     1
 77
     6
 78
     2
 67
     7
 79
     3
170
     0
171
     0
290
     0
174
     0
 93
        1
 44
0.0
173
     0
291
     0
 45
0.0
1001
ACAD
1000
AcDbSavedByObjectVersion
1070
     0
  0
VISUALSTYLE
  5
1E7
102
{ACAD_REACTORS
330
1E0
102
}
330
1E0
100
AcDbVisualStyle
  2
3dWireframe
 70
     5
 71
     0
 72
     2
 73
     0
 90
        0
 40
-0.6
 41
-30.0
 62
     5
 63
     7
 74
     1
 91
        4
 64
     7
 65
   257
 75
     1
175
     1
 42
1.0
 92
        0
 66
   257
 43
1.0
 76
     1
 77
     6
 78
     2
 67
     7
 79
     5
170
     0
171
     0
290
     0
174
     0
 93
        1
 44
0.0
173
     0
291
     0
 45
0.0
1001
ACAD
1000
AcDbSavedByObjectVersion
1070
     0
  0
VISUALSTYLE
  5
1E5
102
{ACAD_REACTORS
330
1E0
102
}
330
1E0
100
AcDbVisualStyle
  2
Basic
 70
     7
 71
     1
 72
     0
 73
     1
 90
        0
 40
-0.6
 41
-30.0
 62
     5
 63
     7
 74
     0
 91
        4
 64
     7
 65
   257
 75
     1
175
     1
 42
1.0
 92
        8
 66
     7
 43
1.0
 76
     1
 77
     6
 78
     2
 67
     7
 79
     5
170
     0
171
     0
290
     0
174
     0
 93
        1
 44
0.0
173
     0
291
     1
 45
0.0
1001
ACAD
1000
AcDbSavedByObjectVersion
1070
     0
  0
VISUALSTYLE
  5
1EC
102
{ACAD_REACTORS
330
1E0
102
}
330
1E0
100
AcDbVisualStyle
  2
Brighten
 70
    12
 71
     2
 72
     2
 73
     0
 90
        0
 40
-0.6
 41
-30.0
 62
     5
 63
     7
 74
     1
 91
        4
 64
     7
 65
   257
 75
     1
175
     1
 42
1.0
 92
        8
 66
     7
 43
1.0
 76
     1
 77
     6
 78
     2
 67
     7
 79
     5
170
     0
171
     0
290
     0
174
     0
 93
        1
 44
50.0
173
     0
291
     1
 45
0.0
1001
ACAD
1000
AcDbSavedByObjectVersion
1070
     0
  0
VISUALSTYLE
  5
1F0
102
{ACAD_REACTORS
330
1E0
102
}
330
1E0
100
AcDbVisualStyle
  2
ColorChange
 70
    16
 71
     2
 72
     2
 73
     3
 90
        0
 40
-0.6
 41
-30.0
 62
     5
 63
     8
 74
     1
 91
        4
 64
     7
 65
   257
 75
     1
175
     1
 42
1.0
 92
        8
 66
     8
 43
1.0
 76
     1
 77
     6
 78
     2
 67
     7
 79
     5
170
     0
171
     0
290
     0
174
     0
 93
        1
 44
0.0
173
     0
291
     1
 45
0.0
1001
ACAD
1000
AcDbSavedByObjectVersion
1070
     0
  0
VISUALSTYLE
  5
1E9
102
{ACAD_REACTORS
330
1E0
102
}
330
1E0
100
AcDbVisualStyle
  2
Conceptual
 70
     9
 71
     3
 72
     2
 73
     0
 90
        0
 40
-0.6
 41
-30.0
 62
     5
 63
     7
 74
     2
 91
        2
 64
     7
 65
   257
 75
     1
175
     1
 42
40.0
 92
        8
 66
     7
 43
1.0
 76
     1
 77
     6
 78
     2
 67
     7
 79
     3
170
     0
171
     0
290
     0
174
     0
 93
        1
 44
0.0
173
     0
291
     0
 45
0.0
1001
ACAD
1000
AcDbSavedByObjectVersion
1070
     0
  0
VISUALSTYLE
  5
1EB
102
{ACAD_REACTORS
330
1E0
102
}
330
1E0
100
AcDbVisualStyle
  2
Dim
 70
    11
 71
     2
 72
     2
 73
     0
 90
        0
 40
-0.6
 41
-30.0
 62
     5
 63
     7
 74
     1
 91
        4
 64
     7
 65
   257
 75
     1
175
     1
 42
1.0
 92
        8
 66
     7
 43
1.0
 76
     1
 77
     6
 78
     2
 67
     7
 79
     5
170
     0
171
     0
290
     0
174
     0
 93
        1
 44
-50.0
173
     0
291
     1
 45
0.0
1001
ACAD
1000
AcDbSavedByObjectVersion
1070
     0
  0
VISUALSTYLE
  5
1EF
102
{ACAD_REACTORS
330
1E0
102
}
330
1E0
100
AcDbVisualStyle
  2
Facepattern
 70
    15
 71
     2
 72
     2
 73
     0
 90
        0
 40
-0.6
 41
-30.0
 62
     5
 63
     7
 74
     1
 91
        4
 64
     7
 65
   257
 75
     1
175
     1
 42
1.0
 92
        8
 66
     7
 43
1.0
 76
     1
 77
     6
 78
     2
 67
     7
 79
     5
170
     0
171
     0
290
     0
174
     0
 93
        1
 44
0.0
173
     0
291
     1
 45
0.0
1001
ACAD
1000
AcDbSavedByObjectVersion
1070
     0
  0
VISUALSTYLE
  5
1E1
102
{ACAD_REACTORS
330
1E0
102
}
330
1E0
100
AcDbVisualStyle
  2
Flat
 70
     0
 71
     2
 72
     1
 73
     1
 90
        2
 40
-0.6
 41
30.0
 62
     5
 63
     7
 74
     0
 91
        4
 64
     7
 65
   257
 75
     1
175
     1
 42
1.0
 92
        8
 66
     7
 43
1.0
 76
     1
 77
     6
 78
     2
 67
     7
 79
     5
170
     0
171
     0
290
     0
174
     0
 93
       13
 44
0.0
173
     0
291
     1
 45
0.0
1001
ACAD
1000
AcDbSavedByObjectVersion
1070
     0
  0
VISUALSTYLE
  5
1E2
102
{ACAD_REACTORS
330
1E0
102
}
330
1E0
100
AcDbVisualStyle
  2
FlatWithEdges
 70
     1
 71
     2
 72
     1
 73
     1
 90
        2
 40
-0.6
 41
30.0
 62
     5
 63
     7
 74
     1
 91
        4
 64
     7
 65
   257
 75
     1
175
     1
 42
1.0
 92
        0
 66
   257
 43
1.0
 76
     1
 77
     6
 78
     2
 67
     7
 79
     5
170
     0
171
     0
290
     0
174
     0
 93
       13
 44
0.0
173
     0
291
     1
 45
0.0
1001
ACAD
1000
AcDbSavedByObjectVersion
1070
     0
  0
VISUALSTYLE
  5
1E3
102
{ACAD_REACTORS
330
1E0
102
}
330
1E0
100
AcDbVisualStyle
  2
Gouraud
 70
     2
 71
     2
 72
     2
 73
     1
 90
        2
 40
-0.6
 41
30.0
 62
     5
 63
     7
 74
     0
 91
        4
 64
     7
 65
   257
 75
     1
175
     1
 42
1.0
 92
        0
 66
     7
 43
1.0
 76
     1
 77
     6
 78
     2
 67
     7
 79
     5
170
     0
171
     0
290
     0
174
     0
 93
       13
 44
0.0
173
     0
291
     1
 45
0.0
1001
ACAD
1000
AcDbSavedByObjectVersion
1070
     0
  0
VISUALSTYLE
  5
1E4
102
{ACAD_REACTORS
330
1E0
102
}
330
1E0
100
AcDbVisualStyle
  2
GouraudWithEdges
 70
     3
 71
     2
 72
     2
 73
     1
 90
        2
 40
-0.6
 41
30.0
 62
     5
 63
     7
 74
     1
 91
        4
 64
     7
 65
   257
 75
     1
175
     1
 42
1.0
 92
        0
 66
   257
 43
1.0
 76
     1
 77
     6
 78
     2
 67
     7
 79
     5
170
     0
171
     0
290
     0
174
     0
 93
       13
 44
0.0
173
     0
291
     1
 45
0.0
1001
ACAD
1000
AcDbSavedByObjectVersion
1070
     0
  0
VISUALSTYLE
  5
1EE
102
{ACAD_REACTORS
330
1E0
102
}
330
1E0
100
AcDbVisualStyle
  2
Linepattern
 70
    14
 71
     2
 72
     2
 73
     0
 90
        0
 40
-0.6
 41
-30.0
 62
     5
 63
     7
 74
     1
 91
        4
 64
     7
 65
   257
 75
     7
175
     7
 42
1.0
 92
        8
 66
     7
 43
1.0
 76
     1
 77
     6
 78
     2
 67
     7
 79
     5
170
     0
171
     0
290
     0
174
     0
 93
        1
 44
0.0
173
     0
291
     1
 45
0.0
1001
ACAD
1000
AcDbSavedByObjectVersion
1070
     0
  0
VISUALSTYLE
  5
1EA
102
{ACAD_REACTORS
330
1E0
102
}
330
1E0
100
AcDbVisualStyle
  2
Realistic
 70
     8
 71
     2
 72
     2
 73
     0
 90
        0
 40
-0.6
 41
-30.0
 62
     5
 63
     7
 74
     1
 91
        0
 64
     7
 65
   257
 75
     1
175
     1
 42
1.0
 92
        8
 66
     8
 43
1.0
 76
     1
 77
     6
 78
     2
 67
     7
 79
     5
170
     0
171
     0
290
     0
174
     0
 93
       13
 44
0.0
173
     0
291
     0
 45
0.0
1001
ACAD
1000
AcDbSavedByObjectVersion
1070
     0
  0
VISUALSTYLE
  5
1ED
102
{ACAD_REACTORS
330
1E0
102
}
330
1E0
100
AcDbVisualStyle
  2
Thicken
 70
    13
 71
     2
 72
     2
 73
     0
 90
        0
 40
-0.6
 41
-30.0
 62
     5
 63
     7
 74
     1
 91
        4
 64
     7
 65
   257
 75
     1
175
     1
 42
1.0
 92
       12
 66
     7
 43
1.0
 76
     1
 77
     6
 78
     2
 67
     7
 79
     5
170
     0
171
     0
290
     0
174
     0
 93
        1
 44
0.0
173
     0
291
     1
 45
0.0
1001
ACAD
1000
AcDbSavedByObjectVersion
1070
     0
  0
DICTIONARYVAR
  5
294
102
{ACAD_REACTORS
330
F6
102
}
330
F6
100
DictionaryVariables
280
     0
  1
STANDARD
  0
DICTIONARYVAR
  5
F7
102
{ACAD_REACTORS
330
F6
102
}
330
F6
100
DictionaryVariables
280
     0
  1
1
  0
DICTIONARYVAR
  5
296
102
{ACAD_REACTORS
330
F6
102
}
330
F6
100
DictionaryVariables
280
     0
  1
0
  0
DICTIONARYVAR
  5
295
102
{ACAD_REACTORS
330
F6
102
}
330
F6
100
DictionaryVariables
280
     0
  1
127
  0
XRECORD
  5
5C7
102
{ACAD_REACTORS
330
5C6
102
}
330
5C6
100
AcDbXrecord
280
     1
330
2D3
  0
DICTIONARY
  5
79F
330
98
100
AcDbDictionary
280
     1
281
     1
  3
ACAD_XREC_ROUNDTRIP
360
7A0
  0
DICTIONARY
  5
79D
330
97
100
AcDbDictionary
280
     1
281
     1
  3
ACAD_XREC_ROUNDTRIP
360
79E
  0
DICTIONARY
  5
7A3
330
1DE
100
AcDbDictionary
280
     1
281
     1
  3
ACAD_XREC_ROUNDTRIP
360
7A4
  0
DICTIONARY
  5
7A1
330
1DD
100
AcDbDictionary
280
     1
281
     1
  3
ACAD_XREC_ROUNDTRIP
360
7A2
  0
DICTIONARY
  5
7A5
330
1DF
100
AcDbDictionary
280
     1
281
     1
  3
ACAD_XREC_ROUNDTRIP
360
7A6
  0
DICTIONARY
  5
7A7
330
1F3
100
AcDbDictionary
280
     1
281
     1
  3
ACAD_XREC_ROUNDTRIP
360
7A8
  0
XRECORD
  5
7A0
102
{ACAD_REACTORS
330
79F
102
}
330
79F
100
AcDbXrecord
280
     1
102
SHADEPLOT
 70
     0
102
SHADEPLOTRESLEVEL
 70
     2
102
SHADEPLOTCUSTOMDPI
 70
   300
  0
XRECORD
  5
79E
102
{ACAD_REACTORS
330
79D
102
}
330
79D
100
AcDbXrecord
280
     1
102
SHADEPLOT
 70
     0
102
SHADEPLOTRESLEVEL
 70
     2
102
SHADEPLOTCUSTOMDPI
 70
   300
  0
XRECORD
  5
7A4
102
{ACAD_REACTORS
330
7A3
102
}
330
7A3
100
AcDbXrecord
280
     1
102
MATERIAL
148
0.0
149
0.0
149
0.0
 93
        0
 94
       63
282
     0
 72
     1
 77
     1
171
     1
175
     1
179
     1
273
     0
  0
XRECORD
  5
7A2
102
{ACAD_REACTORS
330
7A1
102
}
330
7A1
100
AcDbXrecord
280
     1
102
MATERIAL
148
0.0
149
0.0
149
0.0
 93
        0
 94
       63
282
     0
 72
     1
 77
     1
171
     1
175
     1
179
     1
273
     0
  0
XRECORD
  5
7A6
102
{ACAD_REACTORS
330
7A5
102
}
330
7A5
100
AcDbXrecord
280
     1
102
MATERIAL
148
0.0
149
0.0
149
0.0
 93
        0
 94
       63
282
     0
 72
     1
 77
     1
171
     1
175
     1
179
     1
273
     0
  0
XRECORD
  5
7A8
102
{ACAD_REACTORS
330
7A7
102
}
330
7A7
100
AcDbXrecord
280
     1
102
ACAD_ROUNDTRIP_PRE2007_TABLESTYLE
 90
      512
 91
        0
  1

 92
      512
 93
        0
  2

 94
      512
 95
        0
  3

  0
ENDSEC
  0
EOF
