  0
SECTION
  2
HEADER
  9
$ACADVER
  1
AC1014
  9
$ACADMAINTVER
 70
     9
  9
$DWGCODEPAGE
  3
ANSI_1252
  9
$INSBASE
 10
8.346810197571867
 20
-8.513260739726758
 30
0.0
  9
$EXTMIN
 10
3.212513429154403
 20
-9.125570041648829
 30
0.0
  9
$EXTMAX
 10
13.00110696598933
 20
-6.282289008418223
 30
0.0
  9
$LIMMIN
 10
0.0
 20
0.0
  9
$LIMMAX
 10
36.0
 20
36.0
  9
$ORTHOMODE
 70
     1
  9
$REGENMODE
 70
     1
  9
$FILLMODE
 70
     1
  9
$QTEXTMODE
 70
     0
  9
$MIRRTEXT
 70
     1
  9
$DRAGMODE
 70
     0
  9
$LTSCALE
 40
1.0
  9
$OSMODE
 70
    37
  9
$ATTMODE
 70
     1
  9
$TEXTSIZE
 40
0.2
  9
$TRACEWID
 40
0.05
  9
$TEXTSTYLE
  7
STANDARD
  9
$CLAYER
  8
0
  9
$CELTYPE
  6
BYLAYER
  9
$CECOLOR
 62
   256
  9
$CELTSCALE
 40
1.0
  9
$DELOBJ
 70
     1
  9
$DISPSILH
 70
     0
  9
$DIMSCALE
 40
1.0
  9
$DIMASZ
 40
0.125
  9
$DIMEXO
 40
0.0625
  9
$DIMDLI
 40
0.38
  9
$DIMRND
 40
0.0
  9
$DIMDLE
 40
0.0
  9
$DIMEXE
 40
0.18
  9
$DIMTP
 40
0.0
  9
$DIMTM
 40
0.0
  9
$DIMTXT
 40
0.125
  9
$DIMCEN
 40
0.1875
  9
$DIMTSZ
 40
0.125
  9
$DIMTOL
 70
     0
  9
$DIMLIM
 70
     0
  9
$DIMTIH
 70
     0
  9
$DIMTOH
 70
     0
  9
$DIMSE1
 70
     0
  9
$DIMSE2
 70
     0
  9
$DIMTAD
 70
     0
  9
$DIMZIN
 70
     3
  9
$DIMBLK
  1

  9
$DIMASO
 70
     1
  9
$DIMSHO
 70
     1
  9
$DIMPOST
  1

  9
$DIMAPOST
  1

  9
$DIMALT
 70
     0
  9
$DIMALTD
 70
     1
  9
$DIMALTF
 40
25.4
  9
$DIMLFAC
 40
1.0
  9
$DIMTOFL
 70
     0
  9
$DIMTVP
 40
0.0
  9
$DIMTIX
 70
     0
  9
$DIMSOXD
 70
     0
  9
$DIMSAH
 70
     0
  9
$DIMBLK1
  1

  9
$DIMBLK2
  1

  9
$DIMSTYLE
  2
STANDARD
  9
$DIMCLRD
 70
     0
  9
$DIMCLRE
 70
     0
  9
$DIMCLRT
 70
     0
  9
$DIMTFAC
 40
1.0
  9
$DIMGAP
 40
0.125
  9
$DIMJUST
 70
     0
  9
$DIMSD1
 70
     0
  9
$DIMSD2
 70
     0
  9
$DIMTOLJ
 70
     1
  9
$DIMTZIN
 70
     0
  9
$DIMALTZ
 70
     0
  9
$DIMALTTZ
 70
     0
  9
$DIMFIT
 70
     3
  9
$DIMUPT
 70
     0
  9
$DIMUNIT
 70
     2
  9
$DIMDEC
 70
     4
  9
$DIMTDEC
 70
     4
  9
$DIMALTU
 70
     2
  9
$DIMALTTD
 70
     2
  9
$DIMTXSTY
  7
STANDARD
  9
$DIMAUNIT
 70
     0
  9
$LUNITS
 70
     5
  9
$LUPREC
 70
     4
  9
$SKETCHINC
 40
0.1
  9
$FILLETRAD
 40
0.187
  9
$AUNITS
 70
     0
  9
$AUPREC
 70
     0
  9
$MENU
  1
acad
  9
$ELEVATION
 40
0.0
  9
$PELEVATION
 40
0.0
  9
$THICKNESS
 40
0.0
  9
$LIMCHECK
 70
     0
  9
$BLIPMODE
 70
     0
  9
$CHAMFERA
 40
0.0
  9
$CHAMFERB
 40
0.0
  9
$CHAMFERC
 40
0.0
  9
$CHAMFERD
 40
0.0
  9
$SKPOLY
 70
     0
  9
$TDCREATE
 40
2450399.630244595
  9
$TDUPDATE
 40
2452297.094140081
  9
$TDINDWG
 40
0.0083267593
  9
$TDUSRTIMER
 40
0.0083267593
  9
$USRTIMER
 70
     1
  9
$ANGBASE
 50
0.0
  9
$ANGDIR
 70
     0
  9
$PDMODE
 70
     0
  9
$PDSIZE
 40
0.0
  9
$PLINEWID
 40
0.0
  9
$COORDS
 70
     2
  9
$SPLFRAME
 70
     0
  9
$SPLINETYPE
 70
     6
  9
$SPLINESEGS
 70
     8
  9
$ATTDIA
 70
     0
  9
$ATTREQ
 70
     1
  9
$HANDLING
 70
 22529
  9
$HANDSEED
  5
306
  9
$SURFTAB1
 70
     6
  9
$SURFTAB2
 70
     6
  9
$SURFTYPE
 70
     6
  9
$SURFU
 70
     6
  9
$SURFV
 70
     6
  9
$UCSNAME
  2

  9
$UCSORG
 10
0.0
 20
0.0
 30
0.0
  9
$UCSXDIR
 10
1.0
 20
0.0
 30
0.0
  9
$UCSYDIR
 10
0.0
 20
1.0
 30
0.0
  9
$PUCSNAME
  2

  9
$PUCSORG
 10
0.0
 20
0.0
 30
0.0
  9
$PUCSXDIR
 10
1.0
 20
0.0
 30
0.0
  9
$PUCSYDIR
 10
0.0
 20
1.0
 30
0.0
  9
$USERI1
 70
     0
  9
$USERI2
 70
     0
  9
$USERI3
 70
     0
  9
$USERI4
 70
     0
  9
$USERI5
 70
     0
  9
$USERR1
 40
0.0
  9
$USERR2
 40
0.0
  9
$USERR3
 40
0.0
  9
$USERR4
 40
0.0
  9
$USERR5
 40
0.0
  9
$WORLDVIEW
 70
     1
  9
$SHADEDGE
 70
     3
  9
$SHADEDIF
 70
    70
  9
$TILEMODE
 70
     1
  9
$MAXACTVP
 70
    15
  9
$PINSBASE
 10
0.0004882914945483
 20
0.7501408034022604
 30
0.0
  9
$PLIMCHECK
 70
     0
  9
$PEXTMIN
 10
1.000000000000000E+20
 20
1.000000000000000E+20
 30
1.000000000000000E+20
  9
$PEXTMAX
 10
-1.000000000000000E+20
 20
-1.000000000000000E+20
 30
-1.000000000000000E+20
  9
$PLIMMIN
 10
0.0
 20
0.0
  9
$PLIMMAX
 10
12.0
 20
9.0
  9
$UNITMODE
 70
     0
  9
$VISRETAIN
 70
     0
  9
$PLINEGEN
 70
     0
  9
$PSLTSCALE
 70
     1
  9
$TREEDEPTH
 70
  3020
  9
$PICKSTYLE
 70
     1
  9
$CMLSTYLE
  2
STANDARD
  9
$CMLJUST
 70
     0
  9
$CMLSCALE
 40
1.0
  9
$PROXYGRAPHICS
 70
     1
  9
$MEASUREMENT
 70
     0
  0
ENDSEC
  0
SECTION
  2
CLASSES
  0
CLASS
  1
ACDBDICTIONARYWDFLT
  2
AcDbDictionaryWithDefault
  3
AutoCAD 2000
 90
        0
280
     0
281
     0
  0
CLASS
  1
ACDBPLACEHOLDER
  2
AcDbPlaceHolder
  3
AutoCAD 2000
 90
        0
280
     0
281
     0
  0
CLASS
  1
LAYOUT
  2
AcDbLayout
  3
AutoCAD 2000
 90
        0
280
     0
281
     0
  0
CLASS
  1
DICTIONARYVAR
  2
AcDbDictionaryVar
  3
AutoCAD 2000
 90
        0
280
     0
281
     0
  0
CLASS
  1
LONG_TRANSACTION
  2
AcDbLongTransaction
  3
AutoCAD 2000
 90
        0
280
     0
281
     0
  0
CLASS
  1
LWPOLYLINE
  2
AcDbPolyline
  3
AutoCAD 2000
 90
        0
280
     0
281
     1
  0
CLASS
  1
HATCH
  2
AcDbHatch
  3
AutoCAD 2000
 90
        0
280
     0
281
     1
  0
CLASS
  1
XRECORD
  2
AcDbXrecord
  3
AutoCAD 2000
 90
        0
280
     0
281
     0
  0
CLASS
  1
LONG_TRANSACTION
  2
AcDbLongTransaction
  3
AutoCAD 2000
 90
        0
280
     0
281
     0
  0
CLASS
  1
LWPOLYLINE
  2
AcDbPolyline
  3
AutoCAD 2000
 90
        0
280
     0
281
     1
  0
CLASS
  1
HATCH
  2
AcDbHatch
  3
AutoCAD 2000
 90
        0
280
     0
281
     1
  0
CLASS
  1
XRECORD
  2
AcDbXrecord
  3
AutoCAD 2000
 90
        0
280
     0
281
     0
  0
CLASS
  1
LONG_TRANSACTION
  2
AcDbLongTransaction
  3
AutoCAD 2000
 90
        0
280
     0
281
     0
  0
CLASS
  1
LWPOLYLINE
  2
AcDbPolyline
  3
AutoCAD 2000
 90
        0
280
     0
281
     1
  0
CLASS
  1
HATCH
  2
AcDbHatch
  3
AutoCAD 2000
 90
        0
280
     0
281
     1
  0
CLASS
  1
XRECORD
  2
AcDbXrecord
  3
AutoCAD 2000
 90
        0
280
     0
281
     0
  0
CLASS
  1
LONG_TRANSACTION
  2
AcDbLongTransaction
  3
AutoCAD 2000
 90
        0
280
     0
281
     0
  0
CLASS
  1
LWPOLYLINE
  2
AcDbPolyline
  3
AutoCAD 2000
 90
        0
280
     0
281
     1
  0
CLASS
  1
HATCH
  2
AcDbHatch
  3
AutoCAD 2000
 90
        0
280
     0
281
     1
  0
CLASS
  1
XRECORD
  2
AcDbXrecord
  3
AutoCAD 2000
 90
        0
280
     0
281
     0
  0
CLASS
  1
LONG_TRANSACTION
  2
AcDbLongTransaction
  3
AutoCAD 2000
 90
        0
280
     0
281
     0
  0
CLASS
  1
LWPOLYLINE
  2
AcDbPolyline
  3
AutoCAD 2000
 90
        0
280
     0
281
     1
  0
CLASS
  1
HATCH
  2
AcDbHatch
  3
AutoCAD 2000
 90
        0
280
     0
281
     1
  0
CLASS
  1
XRECORD
  2
AcDbXrecord
  3
AutoCAD 2000
 90
        0
280
     0
281
     0
  0
ENDSEC
  0
SECTION
  2
TABLES
  0
TABLE
  2
VPORT
  5
8
330
0
100
AcDbSymbolTable
 70
     2
  0
VPORT
  5
2E3
330
8
100
AcDbSymbolTableRecord
100
AcDbViewportTableRecord
  2
*ACTIVE
 70
     0
 10
0.0
 20
0.0
 11
1.0
 21
1.0
 12
8.114711944347616
 22
-7.704928537172501
 13
0.0
 23
0.0
 14
0.5740882589684922
 24
0.5740882589684922
 15
0.5
 25
0.5
 16
0.0
 26
0.0
 36
1.0
 17
0.0
 27
0.0
 37
0.0
 40
6.272876794965066
 41
1.570528967254408
 42
50.0
 43
0.0
 44
0.0
 50
0.0
 51
0.0
 71
     0
 72
   100
 73
     1
 74
     0
 75
     0
 76
     0
 77
     0
 78
     0
  0
ENDTAB
  0
TABLE
  2
LTYPE
  5
5
330
0
100
AcDbSymbolTable
 70
     1
  0
LTYPE
  5
12
330
5
100
AcDbSymbolTableRecord
100
AcDbLinetypeTableRecord
  2
BYBLOCK
 70
     0
  3

 72
    65
 73
     0
 40
0.0
  0
LTYPE
  5
13
330
5
100
AcDbSymbolTableRecord
100
AcDbLinetypeTableRecord
  2
BYLAYER
 70
     0
  3

 72
    65
 73
     0
 40
0.0
  0
LTYPE
  5
14
330
5
100
AcDbSymbolTableRecord
100
AcDbLinetypeTableRecord
  2
CONTINUOUS
 70
     0
  3
Solid line
 72
    65
 73
     0
 40
0.0
  0
ENDTAB
  0
TABLE
  2
LAYER
  5
2
330
0
100
AcDbSymbolTable
 70
     4
  0
LAYER
  5
F
330
2
100
AcDbSymbolTableRecord
100
AcDbLayerTableRecord
  2
0
 70
     0
 62
     7
  6
CONTINUOUS
  0
LAYER
  5
14C
330
2
100
AcDbSymbolTableRecord
100
AcDbLayerTableRecord
  2
ADP1DETAIL
 70
     0
 62
     7
  6
CONTINUOUS
  0
LAYER
  5
14E
330
2
100
AcDbSymbolTableRecord
100
AcDbLayerTableRecord
  2
DEFPOINTS
 70
     0
 62
     7
  6
CONTINUOUS
  0
LAYER
  5
151
330
2
100
AcDbSymbolTableRecord
100
AcDbLayerTableRecord
  2
ADPDIM
 70
     0
 62
     3
  6
CONTINUOUS
  0
ENDTAB
  0
TABLE
  2
STYLE
  5
3
330
0
100
AcDbSymbolTable
 70
     2
  0
STYLE
  5
10
330
3
100
AcDbSymbolTableRecord
100
AcDbTextStyleTableRecord
  2
STANDARD
 70
     0
 40
0.0
 41
1.0
 50
0.0
 71
     0
 42
0.2
  3
txt
  4

  0
STYLE
  5
19F
330
3
100
AcDbSymbolTableRecord
100
AcDbTextStyleTableRecord
  2
ARIAL_WIDE
 70
     0
 40
0.0
 41
1.25
 50
0.0
 71
     0
 42
0.2
  3
ARIAL.TTF
  4

1001
ACAD
1000
Arial
1071
       34
  0
ENDTAB
  0
TABLE
  2
VIEW
  5
6
330
0
100
AcDbSymbolTable
 70
     0
  0
ENDTAB
  0
TABLE
  2
UCS
  5
7
330
0
100
AcDbSymbolTable
 70
     0
  0
ENDTAB
  0
TABLE
  2
APPID
  5
9
330
0
100
AcDbSymbolTable
 70
     1
  0
APPID
  5
11
330
9
100
AcDbSymbolTableRecord
100
AcDbRegAppTableRecord
  2
ACAD
 70
     0
  0
ENDTAB
  0
TABLE
  2
DIMSTYLE
  5
A
330
0
100
AcDbSymbolTable
 70
     1
  0
DIMSTYLE
105
193
330
A
100
AcDbSymbolTableRecord
100
AcDbDimStyleTableRecord
  2
STANDARD
 70
     0
  3

  4

  5

  6

  7

 40
1.0
 41
0.18
 42
0.0625
 43
0.38
 44
0.18
 45
0.0
 46
0.0
 47
0.0
 48
0.0
140
0.18
141
0.09
142
0.0
143
25.4
144
1.0
145
0.0
146
1.0
147
0.09
 71
     0
 72
     0
 73
     1
 74
     1
 75
     0
 76
     0
 77
     0
 78
     0
170
     0
171
     2
172
     0
173
     0
174
     0
175
     0
176
     0
177
     0
178
     0
270
     2
271
     4
272
     4
273
     2
274
     2
340
10
275
     0
280
     0
281
     0
282
     0
283
     1
284
     0
285
     0
286
     0
287
     3
288
     0
  0
ENDTAB
  0
TABLE
  2
BLOCK_RECORD
  5
1
330
0
100
AcDbSymbolTable
 70
     2
  0
BLOCK_RECORD
  5
18
102
{ACAD_XDICTIONARY
360
1F4
102
}
330
1
100
AcDbSymbolTableRecord
100
AcDbBlockTableRecord
  2
*MODEL_SPACE
  0
BLOCK_RECORD
  5
15
102
{ACAD_XDICTIONARY
360
1F2
102
}
330
1
100
AcDbSymbolTableRecord
100
AcDbBlockTableRecord
  2
*PAPER_SPACE
  0
BLOCK_RECORD
  5
147
330
1
100
AcDbSymbolTableRecord
100
AcDbBlockTableRecord
  2
*D0
  0
BLOCK_RECORD
  5
148
330
1
100
AcDbSymbolTableRecord
100
AcDbBlockTableRecord
  2
*D1
  0
ENDTAB
  0
ENDSEC
  0
SECTION
  2
BLOCKS
  0
BLOCK
  5
154
330
18
100
AcDbEntity
  8
0
100
AcDbBlockBegin
  2
*MODEL_SPACE
 70
     0
 10
0.0
 20
0.0
 30
0.0
  3
*MODEL_SPACE
  1

  0
ENDBLK
  5
155
330
18
100
AcDbEntity
  8
0
100
AcDbBlockEnd
  0
BLOCK
  5
152
330
15
100
AcDbEntity
 67
     1
  8
0
100
AcDbBlockBegin
  2
*PAPER_SPACE
 70
     0
 10
0.0
 20
0.0
 30
0.0
  3
*PAPER_SPACE
  1

  0
ENDBLK
  5
153
330
15
100
AcDbEntity
 67
     1
  8
0
100
AcDbBlockEnd
  0
BLOCK
  5
157
330
147
100
AcDbEntity
  8
0
100
AcDbBlockBegin
  2
*D0
 70
     1
 10
0.0
 20
0.0
 30
0.0
  3
*D0
  1

  0
LINE
  5
158
330
147
100
AcDbEntity
  8
0
  6
BYBLOCK
 62
     0
100
AcDbLine
 10
7.609310197571868
 20
-6.638260739726758
 30
0.0
 11
7.609310197571868
 21
-6.282289008418223
 31
0.0
  0
LINE
  5
159
330
147
100
AcDbEntity
  8
0
  6
BYBLOCK
 62
     0
100
AcDbLine
 10
8.604310197571868
 20
-6.638260739726758
 30
0.0
 11
8.604310197571868
 21
-6.282289008418223
 31
0.0
  0
LINE
  5
15A
330
147
100
AcDbEntity
  8
0
  6
BYBLOCK
 62
     0
100
AcDbLine
 10
7.609310197571868
 20
-6.462289008418222
 30
0.0
 11
7.960976864238534
 21
-6.462289008418222
 31
0.0
  0
LINE
  5
15B
330
147
100
AcDbEntity
  8
0
  6
BYBLOCK
 62
     0
100
AcDbLine
 10
8.604310197571868
 20
-6.462289008418222
 30
0.0
 11
8.252643530905201
 21
-6.462289008418222
 31
0.0
  0
LINE
  5
15C
330
147
100
AcDbEntity
  8
0
  6
BYBLOCK
 62
     0
100
AcDbLine
 10
7.484310197571868
 20
-6.587289008418222
 30
0.0
 11
7.734310197571868
 21
-6.337289008418222
 31
0.0
  0
LINE
  5
15D
330
147
100
AcDbEntity
  8
0
  6
BYBLOCK
 62
     0
100
AcDbLine
 10
8.479310197571868
 20
-6.587289008418222
 30
0.0
 11
8.729310197571868
 21
-6.337289008418222
 31
0.0
  0
TEXT
  5
15E
330
147
100
AcDbEntity
  8
0
  6
BYBLOCK
 62
     0
100
AcDbText
 10
8.085976864238533
 20
-6.524789008418222
 30
0.0
 40
0.125
  1
1
 72
     1
 11
8.106810197571867
 21
-6.462289008418222
 31
0.0
100
AcDbText
 73
     2
  0
POINT
  5
15F
330
147
100
AcDbEntity
  8
DEFPOINTS
  6
BYBLOCK
 62
     0
100
AcDbPoint
 10
7.609310197571868
 20
-6.700760739726758
 30
0.0
  0
POINT
  5
160
330
147
100
AcDbEntity
  8
DEFPOINTS
  6
BYBLOCK
 62
     0
100
AcDbPoint
 10
8.604310197571868
 20
-6.700760739726758
 30
0.0
  0
POINT
  5
161
330
147
100
AcDbEntity
  8
DEFPOINTS
  6
BYBLOCK
 62
     0
100
AcDbPoint
 10
8.604310197571868
 20
-6.462289008418222
 30
0.0
  0
ENDBLK
  5
162
330
147
100
AcDbEntity
  8
0
100
AcDbBlockEnd
  0
BLOCK
  5
163
330
148
100
AcDbEntity
  8
0
100
AcDbBlockBegin
  2
*D1
 70
     1
 10
0.0
 20
0.0
 30
0.0
  3
*D1
  1

  0
LINE
  5
164
330
148
100
AcDbEntity
  8
0
  6
BYBLOCK
 62
     0
100
AcDbLine
 10
8.604810197571866
 20
-6.638760739726759
 30
0.0
 11
9.156370314929715
 21
-6.638760739726759
 31
0.0
  0
LINE
  5
165
330
148
100
AcDbEntity
  8
0
  6
BYBLOCK
 62
     0
100
AcDbLine
 10
8.289310197571866
 20
-8.513260739726758
 30
0.0
 11
9.156370314929715
 21
-8.513260739726758
 31
0.0
  0
LINE
  5
166
330
148
100
AcDbEntity
  8
0
  6
BYBLOCK
 62
     0
100
AcDbLine
 10
8.976370314929715
 20
-6.638760739726759
 30
0.0
 11
8.976370314929715
 21
-7.180177406393426
 31
0.0
  0
LINE
  5
167
330
148
100
AcDbEntity
  8
0
  6
BYBLOCK
 62
     0
100
AcDbLine
 10
8.976370314929715
 20
-8.513260739726758
 30
0.0
 11
8.976370314929715
 21
-7.971844073060092
 31
0.0
  0
LINE
  5
168
330
148
100
AcDbEntity
  8
0
  6
BYBLOCK
 62
     0
100
AcDbLine
 10
9.101370314929715
 20
-6.763760739726759
 30
0.0
 11
8.851370314929715
 21
-6.513760739726759
 31
0.0
  0
LINE
  5
169
330
148
100
AcDbEntity
  8
0
  6
BYBLOCK
 62
     0
100
AcDbLine
 10
9.101370314929715
 20
-8.638260739726758
 30
0.0
 11
8.851370314929715
 21
-8.388260739726758
 31
0.0
  0
TEXT
  5
16A
330
148
100
AcDbEntity
  8
0
  6
BYBLOCK
 62
     0
100
AcDbText
 10
9.038870314929715
 20
-7.846844073060092
 30
0.0
 40
0.125
  1
1 7/8
 50
90.0
 72
     1
 11
8.976370314929715
 21
-7.576010739726759
 31
0.0
100
AcDbText
 73
     2
  0
POINT
  5
16B
330
148
100
AcDbEntity
  8
DEFPOINTS
  6
BYBLOCK
 62
     0
100
AcDbPoint
 10
8.542310197571866
 20
-6.638760739726759
 30
0.0
  0
POINT
  5
16C
330
148
100
AcDbEntity
  8
DEFPOINTS
  6
BYBLOCK
 62
     0
100
AcDbPoint
 10
8.226810197571866
 20
-8.513260739726758
 30
0.0
  0
POINT
  5
16D
330
148
100
AcDbEntity
  8
DEFPOINTS
  6
BYBLOCK
 62
     0
100
AcDbPoint
 10
8.976370314929715
 20
-8.513260739726758
 30
0.0
  0
ENDBLK
  5
16E
330
148
100
AcDbEntity
  8
0
100
AcDbBlockEnd
  0
ENDSEC
  0
SECTION
  2
ENTITIES
  0
DIMENSION
  5
16F
330
18
100
AcDbEntity
  8
ADPDIM
100
AcDbDimension
  2
*D0
 10
8.604310197571868
 20
-6.462289008418222
 30
0.0
 11
8.106810197571867
 21
-6.462289008418222
 31
0.0
100
AcDbAlignedDimension
 13
7.609310197571868
 23
-6.700760739726758
 33
0.0
 14
8.604310197571868
 24
-6.700760739726758
 34
0.0
100
AcDbRotatedDimension
  0
DIMENSION
  5
170
330
18
100
AcDbEntity
  8
ADPDIM
100
AcDbDimension
  2
*D1
 10
8.976370314929715
 20
-8.513260739726758
 30
0.0
 11
8.976370314929715
 21
-7.576010739726759
 31
0.0
100
AcDbAlignedDimension
 13
8.542310197571866
 23
-6.638760739726759
 33
0.0
 14
8.226810197571866
 24
-8.513260739726758
 34
0.0
 50
90.0
100
AcDbRotatedDimension
  0
LINE
  5
171
330
18
100
AcDbEntity
  8
ADP1DETAIL
100
AcDbLine
 10
8.044310197571865
 20
-7.065760739726758
 30
0.0
 11
8.044310197571865
 21
-8.040618604103029
 31
0.0
  0
LINE
  5
172
330
18
100
AcDbEntity
  8
ADP1DETAIL
100
AcDbLine
 10
8.169310197571865
 20
-7.065760739726758
 30
0.0
 11
8.169310197571865
 21
-8.040618604103029
 31
0.0
  0
LINE
  5
173
330
18
100
AcDbEntity
  8
ADP1DETAIL
100
AcDbLine
 10
8.346810197571867
 20
-8.513260739726758
 30
0.0
 11
8.106810197571865
 21
-8.513260739726758
 31
0.0
  0
ARC
  5
174
330
18
100
AcDbEntity
  8
ADP1DETAIL
100
AcDbCircle
 10
8.034310197571867
 20
-8.040618604103029
 30
0.0
 40
0.01
100
AcDbArc
 50
315.0
 51
0.0
  0
ARC
  5
175
330
18
100
AcDbEntity
  8
ADP1DETAIL
100
AcDbCircle
 10
7.866810197571867
 20
-8.503260739726758
 30
0.0
 40
0.01
100
AcDbArc
 50
180.0
 51
270.0
  0
ARC
  5
176
330
18
100
AcDbEntity
  8
ADP1DETAIL
100
AcDbCircle
 10
7.866810197571867
 20
-8.23640287535049
 30
0.0
 40
0.01
100
AcDbArc
 50
135.0
 51
180.0
  0
LINE
  5
177
330
18
100
AcDbEntity
  8
ADP1DETAIL
100
AcDbLine
 10
7.856810197571865
 20
-8.23640287535049
 30
0.0
 11
7.856810197571865
 21
-8.503260739726758
 31
0.0
  0
LINE
  5
178
330
18
100
AcDbEntity
  8
ADP1DETAIL
100
AcDbLine
 10
8.041381265383732
 20
-8.047689671914893
 30
0.0
 11
7.859739129760002
 21
-8.229331807538624
 31
0.0
  0
LINE
  5
179
330
18
100
AcDbEntity
  8
ADP1DETAIL
100
AcDbLine
 10
7.866810197571867
 20
-8.513260739726758
 30
0.0
 11
8.106810197571865
 21
-8.513260739726758
 31
0.0
  0
LINE
  5
17A
330
18
100
AcDbEntity
  8
ADP1DETAIL
100
AcDbLine
 10
8.172239129760002
 20
-8.047689671914893
 30
0.0
 11
8.353881265383732
 21
-8.229331807538624
 31
0.0
  0
ARC
  5
17B
330
18
100
AcDbEntity
  8
ADP1DETAIL
100
AcDbCircle
 10
8.346810197571867
 20
-8.503260739726758
 30
0.0
 40
0.01
100
AcDbArc
 50
270.0
 51
0.000000000000007
  0
ARC
  5
17C
330
18
100
AcDbEntity
  8
ADP1DETAIL
100
AcDbCircle
 10
8.346810197571867
 20
-8.23640287535049
 30
0.0
 40
0.01
100
AcDbArc
 50
0.000000000000007
 51
45.0
  0
LINE
  5
17D
330
18
100
AcDbEntity
  8
ADP1DETAIL
100
AcDbLine
 10
8.356810197571865
 20
-8.23640287535049
 30
0.0
 11
8.356810197571865
 21
-8.503260739726758
 31
0.0
  0
ARC
  5
17E
330
18
100
AcDbEntity
  8
ADP1DETAIL
100
AcDbCircle
 10
8.179310197571867
 20
-8.040618604103029
 30
0.0
 40
0.01
100
AcDbArc
 50
180.0
 51
225.0
  0
LINE
  5
17F
330
18
100
AcDbEntity
  8
ADP1DETAIL
100
AcDbLine
 10
8.106810197571865
 20
-6.638760739726759
 30
0.0
 11
8.542310197571866
 21
-6.638760739726759
 31
0.0
  0
ARC
  5
180
330
18
100
AcDbEntity
  8
ADP1DETAIL
100
AcDbCircle
 10
7.982310197571868
 20
-7.065760739726758
 30
0.0
 40
0.062
100
AcDbArc
 50
0.0
 51
90.0
  0
ARC
  5
181
330
18
100
AcDbEntity
  8
ADP1DETAIL
100
AcDbCircle
 10
7.671310197571868
 20
-6.700760739726758
 30
0.0
 40
0.062
100
AcDbArc
 50
90.0
 51
180.0
  0
ARC
  5
182
330
18
100
AcDbEntity
  8
ADP1DETAIL
100
AcDbCircle
 10
7.671310197571868
 20
-6.82676073972676
 30
0.0
 40
0.062
100
AcDbArc
 50
180.0
 51
270.0
  0
LINE
  5
183
330
18
100
AcDbEntity
  8
ADP1DETAIL
100
AcDbLine
 10
7.609310197571867
 20
-6.700760739726758
 30
0.0
 11
7.609310197571867
 21
-6.82676073972676
 31
0.0
  0
ARC
  5
184
330
18
100
AcDbEntity
  8
ADP1DETAIL
100
AcDbCircle
 10
7.849310197571865
 20
-6.898760739726759
 30
0.0
 40
0.01
100
AcDbArc
 50
0.0
 51
90.0
  0
LINE
  5
185
330
18
100
AcDbEntity
  8
ADP1DETAIL
100
AcDbLine
 10
7.859310197571867
 20
-6.898760739726759
 30
0.0
 11
7.859310197571867
 21
-6.993760739726759
 31
0.0
  0
ARC
  5
186
330
18
100
AcDbEntity
  8
ADP1DETAIL
100
AcDbCircle
 10
7.869310197571868
 20
-6.993760739726759
 30
0.0
 40
0.01
100
AcDbArc
 50
180.0
 51
270.0
  0
LINE
  5
187
330
18
100
AcDbEntity
  8
ADP1DETAIL
100
AcDbLine
 10
7.671310197571868
 20
-6.888760739726759
 30
0.0
 11
7.849310197571865
 21
-6.888760739726759
 31
0.0
  0
LINE
  5
188
330
18
100
AcDbEntity
  8
ADP1DETAIL
100
AcDbLine
 10
7.869310197571868
 20
-7.003760739726759
 30
0.0
 11
7.982310197571868
 21
-7.003760739726759
 31
0.0
  0
LINE
  5
189
330
18
100
AcDbEntity
  8
ADP1DETAIL
100
AcDbLine
 10
8.106810197571865
 20
-6.638760739726759
 30
0.0
 11
7.671310197571868
 21
-6.638760739726759
 31
0.0
  0
ARC
  5
18A
330
18
100
AcDbEntity
  8
ADP1DETAIL
100
AcDbCircle
 10
8.542310197571866
 20
-6.700760739726758
 30
0.0
 40
0.062
100
AcDbArc
 50
0.000000000000007
 51
90.0
  0
ARC
  5
18B
330
18
100
AcDbEntity
  8
ADP1DETAIL
100
AcDbCircle
 10
8.542310197571866
 20
-6.82676073972676
 30
0.0
 40
0.062
100
AcDbArc
 50
270.0
 51
0.000000000000007
  0
LINE
  5
18C
330
18
100
AcDbEntity
  8
ADP1DETAIL
100
AcDbLine
 10
8.604310197571868
 20
-6.700760739726758
 30
0.0
 11
8.604310197571868
 21
-6.82676073972676
 31
0.0
  0
ARC
  5
18D
330
18
100
AcDbEntity
  8
ADP1DETAIL
100
AcDbCircle
 10
8.231310197571866
 20
-7.065760739726758
 30
0.0
 40
0.062
100
AcDbArc
 50
90.0
 51
180.0
  0
LINE
  5
18E
330
18
100
AcDbEntity
  8
ADP1DETAIL
100
AcDbLine
 10
8.344310197571866
 20
-7.003760739726759
 30
0.0
 11
8.231310197571866
 21
-7.003760739726759
 31
0.0
  0
LINE
  5
18F
330
18
100
AcDbEntity
  8
ADP1DETAIL
100
AcDbLine
 10
8.354310197571868
 20
-6.898760739726759
 30
0.0
 11
8.354310197571868
 21
-6.993760739726759
 31
0.0
  0
ARC
  5
190
330
18
100
AcDbEntity
  8
ADP1DETAIL
100
AcDbCircle
 10
8.344310197571866
 20
-6.993760739726759
 30
0.0
 40
0.01
100
AcDbArc
 50
270.0
 51
0.000000000000007
  0
ARC
  5
191
330
18
100
AcDbEntity
  8
ADP1DETAIL
100
AcDbCircle
 10
8.364310197571866
 20
-6.898760739726759
 30
0.0
 40
0.01
100
AcDbArc
 50
90.0
 51
180.0
  0
LINE
  5
192
330
18
100
AcDbEntity
  8
ADP1DETAIL
100
AcDbLine
 10
8.542310197571866
 20
-6.888760739726759
 30
0.0
 11
8.364310197571866
 21
-6.888760739726759
 31
0.0
  0
TEXT
  5
1A0
330
18
100
AcDbEntity
  8
ADPDIM
100
AcDbText
 10
3.212513429154403
 20
-9.097815948879389
 30
0.0
 40
0.09375
  1
J U L I U S  B L U M  &  C O . ,  I N C .      ( 8 0 0 )  5 2 6 - 6 2 9 3        W W W . J U L I U S B L U M . C O M        P A R T  N o .  6 5 4 0
 41
1.25
  7
ARIAL_WIDE
 72
     1
 11
8.106810197571865
 21
-9.004065948879389
 31
0.0
100
AcDbText
 73
     3
  0
ENDSEC
  0
SECTION
  2
OBJECTS
  0
DICTIONARY
  5
C
330
0
100
AcDbDictionary
  3
ACAD_GROUP
350
D
  3
ACAD_LAYOUT
350
199
  3
ACAD_MLINESTYLE
350
E
  3
ACAD_PLOTSETTINGS
350
19A
  3
ACAD_PLOTSTYLENAME
350
197
  3
ACDBHEADERROUNDTRIPXREC
350
2E4
  3
ACDBVARIABLEDICTIONARY
350
1FA
  0
DICTIONARY
  5
1F4
330
18
100
AcDbDictionary
280
     1
  3
ACAD_LAYOUTSELFREF
360
305
  0
DICTIONARY
  5
1F2
330
15
100
AcDbDictionary
280
     1
  3
ACAD_LAYOUTSELFREF
360
304
  0
DICTIONARY
  5
D
102
{ACAD_REACTORS
330
C
102
}
330
C
100
AcDbDictionary
  0
DICTIONARY
  5
199
102
{ACAD_REACTORS
330
C
102
}
330
C
100
AcDbDictionary
  0
DICTIONARY
  5
E
102
{ACAD_REACTORS
330
C
102
}
330
C
100
AcDbDictionary
  3
STANDARD
350
1B
  0
DICTIONARY
  5
19A
102
{ACAD_REACTORS
330
C
102
}
330
C
100
AcDbDictionary
  0
ACDBDICTIONARYWDFLT
  5
197
102
{ACAD_REACTORS
330
C
102
}
330
C
100
AcDbDictionary
281
     1
  3
Normal
350
198
100
AcDbDictionaryWithDefault
340
198
  0
DICTIONARY
  5
2E4
102
{ACAD_REACTORS
330
C
102
}
330
C
100
AcDbDictionary
  3
CEPSNTYPE
350
2EE
  3
FINGERPRINTGUID
350
2EF
  3
HYPERLINKBASE
350
2E7
  3
INSUNITS
350
2ED
  3
LAYOUTDICT
350
2E9
  3
LWETCUNION
350
2EC
  3
PLOTSETDICT
350
2EA
  3
PLOTSTYLNAMDICT
350
2EB
  3
PSVPSCALE
350
2F1
  3
PUCSBASE
350
2F4
  3
PUCSORGBACK
350
2FA
  3
PUCSORGBOTTOM
350
2F6
  3
PUCSORGFRONT
350
2F9
  3
PUCSORGLEFT
350
2F7
  3
PUCSORGRIGHT
350
2F8
  3
PUCSORGTOP
350
2F5
  3
PUCSORTHOREF
350
2F2
  3
PUCSORTHOVIEW
350
2F3
  3
STYLESHEET
350
2E8
  3
TSTACKALIGN
350
2E5
  3
TSTACKSIZE
350
2E6
  3
UCSBASE
350
2FD
  3
UCSORGBACK
350
303
  3
UCSORGBOTTOM
350
2FF
  3
UCSORGFRONT
350
302
  3
UCSORGLEFT
350
300
  3
UCSORGRIGHT
350
301
  3
UCSORGTOP
350
2FE
  3
UCSORTHOREF
350
2FB
  3
UCSORTHOVIEW
350
2FC
  3
VERSIONGUID
350
2F0
  0
DICTIONARY
  5
1FA
102
{ACAD_REACTORS
330
C
102
}
330
C
100
AcDbDictionary
  3
DIMASSOC
350
1FB
  0
XRECORD
  5
305
102
{ACAD_REACTORS
330
1F4
102
}
330
1F4
100
AcDbXrecord
340
18
  0
XRECORD
  5
304
102
{ACAD_REACTORS
330
1F2
102
}
330
1F2
100
AcDbXrecord
340
15
  0
MLINESTYLE
  5
1B
102
{ACAD_REACTORS
330
E
102
}
330
E
100
AcDbMlineStyle
  2
STANDARD
 70
     0
  3

 62
     0
 51
90.0
 52
90.0
 71
     2
 49
0.5
 62
   256
  6
BYLAYER
 49
-0.5
 62
   256
  6
BYLAYER
  0
ACDBPLACEHOLDER
  5
198
102
{ACAD_REACTORS
330
197
102
}
330
197
100
AcDbPlaceHolder
280
     0
  0
XRECORD
  5
2EE
102
{ACAD_REACTORS
330
2E4
102
}
330
2E4
100
AcDbXrecord
 90
        0
  0
XRECORD
  5
2EF
102
{ACAD_REACTORS
330
2E4
102
}
330
2E4
100
AcDbXrecord
  1
{D77F1F99-6F95-4326-A58A-380F29780085}
  0
XRECORD
  5
2E7
102
{ACAD_REACTORS
330
2E4
102
}
330
2E4
100
AcDbXrecord
  1

  0
XRECORD
  5
2ED
102
{ACAD_REACTORS
330
2E4
102
}
330
2E4
100
AcDbXrecord
 90
        0
  0
XRECORD
  5
2E9
102
{ACAD_REACTORS
330
2E4
102
}
330
2E4
100
AcDbXrecord
340
199
  0
XRECORD
  5
2EC
102
{ACAD_REACTORS
330
2E4
102
}
330
2E4
100
AcDbXrecord
 90
    14877
  0
XRECORD
  5
2EA
102
{ACAD_REACTORS
330
2E4
102
}
330
2E4
100
AcDbXrecord
340
19A
  0
XRECORD
  5
2EB
102
{ACAD_REACTORS
330
2E4
102
}
330
2E4
100
AcDbXrecord
340
197
  0
XRECORD
  5
2F1
102
{ACAD_REACTORS
330
2E4
102
}
330
2E4
100
AcDbXrecord
 40
0.0
  0
XRECORD
  5
2F4
102
{ACAD_REACTORS
330
2E4
102
}
330
2E4
100
AcDbXrecord
340
0
  0
XRECORD
  5
2FA
102
{ACAD_REACTORS
330
2E4
102
}
330
2E4
100
AcDbXrecord
 10
0.0
 20
0.0
 30
0.0
  0
XRECORD
  5
2F6
102
{ACAD_REACTORS
330
2E4
102
}
330
2E4
100
AcDbXrecord
 10
0.0
 20
0.0
 30
0.0
  0
XRECORD
  5
2F9
102
{ACAD_REACTORS
330
2E4
102
}
330
2E4
100
AcDbXrecord
 10
0.0
 20
0.0
 30
0.0
  0
XRECORD
  5
2F7
102
{ACAD_REACTORS
330
2E4
102
}
330
2E4
100
AcDbXrecord
 10
0.0
 20
0.0
 30
0.0
  0
XRECORD
  5
2F8
102
{ACAD_REACTORS
330
2E4
102
}
330
2E4
100
AcDbXrecord
 10
0.0
 20
0.0
 30
0.0
  0
XRECORD
  5
2F5
102
{ACAD_REACTORS
330
2E4
102
}
330
2E4
100
AcDbXrecord
 10
0.0
 20
0.0
 30
0.0
  0
XRECORD
  5
2F2
102
{ACAD_REACTORS
330
2E4
102
}
330
2E4
100
AcDbXrecord
340
0
  0
XRECORD
  5
2F3
102
{ACAD_REACTORS
330
2E4
102
}
330
2E4
100
AcDbXrecord
 70
     0
  0
XRECORD
  5
2E8
102
{ACAD_REACTORS
330
2E4
102
}
330
2E4
100
AcDbXrecord
  1

  0
XRECORD
  5
2E5
102
{ACAD_REACTORS
330
2E4
102
}
330
2E4
100
AcDbXrecord
 90
        1
  0
XRECORD
  5
2E6
102
{ACAD_REACTORS
330
2E4
102
}
330
2E4
100
AcDbXrecord
 90
       70
  0
XRECORD
  5
2FD
102
{ACAD_REACTORS
330
2E4
102
}
330
2E4
100
AcDbXrecord
340
0
  0
XRECORD
  5
303
102
{ACAD_REACTORS
330
2E4
102
}
330
2E4
100
AcDbXrecord
 10
0.0
 20
0.0
 30
0.0
  0
XRECORD
  5
2FF
102
{ACAD_REACTORS
330
2E4
102
}
330
2E4
100
AcDbXrecord
 10
0.0
 20
0.0
 30
0.0
  0
XRECORD
  5
302
102
{ACAD_REACTORS
330
2E4
102
}
330
2E4
100
AcDbXrecord
 10
0.0
 20
0.0
 30
0.0
  0
XRECORD
  5
300
102
{ACAD_REACTORS
330
2E4
102
}
330
2E4
100
AcDbXrecord
 10
0.0
 20
0.0
 30
0.0
  0
XRECORD
  5
301
102
{ACAD_REACTORS
330
2E4
102
}
330
2E4
100
AcDbXrecord
 10
0.0
 20
0.0
 30
0.0
  0
XRECORD
  5
2FE
102
{ACAD_REACTORS
330
2E4
102
}
330
2E4
100
AcDbXrecord
 10
0.0
 20
0.0
 30
0.0
  0
XRECORD
  5
2FB
102
{ACAD_REACTORS
330
2E4
102
}
330
2E4
100
AcDbXrecord
340
0
  0
XRECORD
  5
2FC
102
{ACAD_REACTORS
330
2E4
102
}
330
2E4
100
AcDbXrecord
 70
     0
  0
XRECORD
  5
2F0
102
{ACAD_REACTORS
330
2E4
102
}
330
2E4
100
AcDbXrecord
  1
{DC59565E-C342-4A85-85A1-B5D911D8A049}
  0
DICTIONARYVAR
  5
1FB
102
{ACAD_REACTORS
330
1FA
102
}
330
1FA
100
DictionaryVariables
280
     0
  1
1
  0
ENDSEC
  0
EOF
