  0
SECTION
  2
HEADER
  9
$ACADVER
  1
AC1014
  9
$ACADMAINTVER
 70
     9
  9
$DWGCODEPAGE
  3
ANSI_1252
  9
$INSBASE
 10
-10.40695594588298
 20
-6.314001320986186
 30
0.0
  9
$EXTMIN
 10
-18.68204520298907
 20
-9.31371797541041
 30
0.0
  9
$EXTMAX
 10
1.422565557583912
 20
2.523309280243188
 30
0.0
  9
$LIMMIN
 10
0.0
 20
0.0
  9
$LIMMAX
 10
36.0
 20
36.0
  9
$ORTHOMODE
 70
     1
  9
$REGENMODE
 70
     1
  9
$FILLMODE
 70
     1
  9
$QTEXTMODE
 70
     0
  9
$MIRRTEXT
 70
     1
  9
$DRAGMODE
 70
     0
  9
$LTSCALE
 40
1.0
  9
$OSMODE
 70
    37
  9
$ATTMODE
 70
     1
  9
$TEXTSIZE
 40
0.2
  9
$TRACEWID
 40
0.05
  9
$TEXTSTYLE
  7
STANDARD
  9
$CLAYER
  8
0
  9
$CELTYPE
  6
BYLAYER
  9
$CECOLOR
 62
   256
  9
$CELTSCALE
 40
1.0
  9
$DELOBJ
 70
     1
  9
$DISPSILH
 70
     0
  9
$DIMSCALE
 40
1.0
  9
$DIMASZ
 40
0.125
  9
$DIMEXO
 40
0.0625
  9
$DIMDLI
 40
0.38
  9
$DIMRND
 40
0.0
  9
$DIMDLE
 40
0.0
  9
$DIMEXE
 40
0.18
  9
$DIMTP
 40
0.0
  9
$DIMTM
 40
0.0
  9
$DIMTXT
 40
0.125
  9
$DIMCEN
 40
0.1875
  9
$DIMTSZ
 40
0.125
  9
$DIMTOL
 70
     0
  9
$DIMLIM
 70
     0
  9
$DIMTIH
 70
     0
  9
$DIMTOH
 70
     0
  9
$DIMSE1
 70
     0
  9
$DIMSE2
 70
     0
  9
$DIMTAD
 70
     0
  9
$DIMZIN
 70
     3
  9
$DIMBLK
  1

  9
$DIMASO
 70
     1
  9
$DIMSHO
 70
     1
  9
$DIMPOST
  1

  9
$DIMAPOST
  1

  9
$DIMALT
 70
     0
  9
$DIMALTD
 70
     1
  9
$DIMALTF
 40
25.4
  9
$DIMLFAC
 40
1.0
  9
$DIMTOFL
 70
     0
  9
$DIMTVP
 40
0.0
  9
$DIMTIX
 70
     0
  9
$DIMSOXD
 70
     0
  9
$DIMSAH
 70
     0
  9
$DIMBLK1
  1

  9
$DIMBLK2
  1

  9
$DIMSTYLE
  2
STANDARD
  9
$DIMCLRD
 70
     0
  9
$DIMCLRE
 70
     0
  9
$DIMCLRT
 70
     0
  9
$DIMTFAC
 40
1.0
  9
$DIMGAP
 40
0.125
  9
$DIMJUST
 70
     0
  9
$DIMSD1
 70
     0
  9
$DIMSD2
 70
     0
  9
$DIMTOLJ
 70
     1
  9
$DIMTZIN
 70
     0
  9
$DIMALTZ
 70
     0
  9
$DIMALTTZ
 70
     0
  9
$DIMFIT
 70
     3
  9
$DIMUPT
 70
     0
  9
$DIMUNIT
 70
     2
  9
$DIMDEC
 70
     4
  9
$DIMTDEC
 70
     4
  9
$DIMALTU
 70
     2
  9
$DIMALTTD
 70
     2
  9
$DIMTXSTY
  7
STANDARD
  9
$DIMAUNIT
 70
     0
  9
$LUNITS
 70
     5
  9
$LUPREC
 70
     4
  9
$SKETCHINC
 40
0.1
  9
$FILLETRAD
 40
0.187
  9
$AUNITS
 70
     0
  9
$AUPREC
 70
     0
  9
$MENU
  1
acad
  9
$ELEVATION
 40
0.0
  9
$PELEVATION
 40
0.0
  9
$THICKNESS
 40
0.0
  9
$LIMCHECK
 70
     0
  9
$BLIPMODE
 70
     0
  9
$CHAMFERA
 40
0.0
  9
$CHAMFERB
 40
0.0
  9
$CHAMFERC
 40
0.0
  9
$CHAMFERD
 40
0.0
  9
$SKPOLY
 70
     0
  9
$TDCREATE
 40
2450399.630429201
  9
$TDUPDATE
 40
2452297.094083831
  9
$TDINDWG
 40
0.0083433912
  9
$TDUSRTIMER
 40
0.0083433912
  9
$USRTIMER
 70
     1
  9
$ANGBASE
 50
0.0
  9
$ANGDIR
 70
     0
  9
$PDMODE
 70
     0
  9
$PDSIZE
 40
0.0
  9
$PLINEWID
 40
0.0
  9
$COORDS
 70
     2
  9
$SPLFRAME
 70
     0
  9
$SPLINETYPE
 70
     6
  9
$SPLINESEGS
 70
     8
  9
$ATTDIA
 70
     0
  9
$ATTREQ
 70
     1
  9
$HANDLING
 70
 22529
  9
$HANDSEED
  5
328
  9
$SURFTAB1
 70
     6
  9
$SURFTAB2
 70
     6
  9
$SURFTYPE
 70
     6
  9
$SURFU
 70
     6
  9
$SURFV
 70
     6
  9
$UCSNAME
  2

  9
$UCSORG
 10
0.0
 20
0.0
 30
0.0
  9
$UCSXDIR
 10
1.0
 20
0.0
 30
0.0
  9
$UCSYDIR
 10
0.0
 20
1.0
 30
0.0
  9
$PUCSNAME
  2

  9
$PUCSORG
 10
0.0
 20
0.0
 30
0.0
  9
$PUCSXDIR
 10
1.0
 20
0.0
 30
0.0
  9
$PUCSYDIR
 10
0.0
 20
1.0
 30
0.0
  9
$USERI1
 70
     0
  9
$USERI2
 70
     0
  9
$USERI3
 70
     0
  9
$USERI4
 70
     0
  9
$USERI5
 70
     0
  9
$USERR1
 40
0.0
  9
$USERR2
 40
0.0
  9
$USERR3
 40
0.0
  9
$USERR4
 40
0.0
  9
$USERR5
 40
0.0
  9
$WORLDVIEW
 70
     1
  9
$SHADEDGE
 70
     3
  9
$SHADEDIF
 70
    70
  9
$TILEMODE
 70
     1
  9
$MAXACTVP
 70
    15
  9
$PINSBASE
 10
0.0004882914945483
 20
0.7501408034022604
 30
0.0
  9
$PLIMCHECK
 70
     0
  9
$PEXTMIN
 10
1.000000000000000E+20
 20
1.000000000000000E+20
 30
1.000000000000000E+20
  9
$PEXTMAX
 10
-1.000000000000000E+20
 20
-1.000000000000000E+20
 30
-1.000000000000000E+20
  9
$PLIMMIN
 10
0.0
 20
0.0
  9
$PLIMMAX
 10
12.0
 20
9.0
  9
$UNITMODE
 70
     0
  9
$VISRETAIN
 70
     0
  9
$PLINEGEN
 70
     0
  9
$PSLTSCALE
 70
     1
  9
$TREEDEPTH
 70
  3020
  9
$PICKSTYLE
 70
     1
  9
$CMLSTYLE
  2
STANDARD
  9
$CMLJUST
 70
     0
  9
$CMLSCALE
 40
1.0
  9
$PROXYGRAPHICS
 70
     1
  9
$MEASUREMENT
 70
     0
  0
ENDSEC
  0
SECTION
  2
CLASSES
  0
CLASS
  1
ACDBDICTIONARYWDFLT
  2
AcDbDictionaryWithDefault
  3
AutoCAD 2000
 90
        0
280
     0
281
     0
  0
CLASS
  1
ACDBPLACEHOLDER
  2
AcDbPlaceHolder
  3
AutoCAD 2000
 90
        0
280
     0
281
     0
  0
CLASS
  1
LAYOUT
  2
AcDbLayout
  3
AutoCAD 2000
 90
        0
280
     0
281
     0
  0
CLASS
  1
DICTIONARYVAR
  2
AcDbDictionaryVar
  3
AutoCAD 2000
 90
        0
280
     0
281
     0
  0
CLASS
  1
LONG_TRANSACTION
  2
AcDbLongTransaction
  3
AutoCAD 2000
 90
        0
280
     0
281
     0
  0
CLASS
  1
LWPOLYLINE
  2
AcDbPolyline
  3
AutoCAD 2000
 90
        0
280
     0
281
     1
  0
CLASS
  1
HATCH
  2
AcDbHatch
  3
AutoCAD 2000
 90
        0
280
     0
281
     1
  0
CLASS
  1
XRECORD
  2
AcDbXrecord
  3
AutoCAD 2000
 90
        0
280
     0
281
     0
  0
CLASS
  1
LONG_TRANSACTION
  2
AcDbLongTransaction
  3
AutoCAD 2000
 90
        0
280
     0
281
     0
  0
CLASS
  1
LWPOLYLINE
  2
AcDbPolyline
  3
AutoCAD 2000
 90
        0
280
     0
281
     1
  0
CLASS
  1
HATCH
  2
AcDbHatch
  3
AutoCAD 2000
 90
        0
280
     0
281
     1
  0
CLASS
  1
XRECORD
  2
AcDbXrecord
  3
AutoCAD 2000
 90
        0
280
     0
281
     0
  0
CLASS
  1
LONG_TRANSACTION
  2
AcDbLongTransaction
  3
AutoCAD 2000
 90
        0
280
     0
281
     0
  0
CLASS
  1
LWPOLYLINE
  2
AcDbPolyline
  3
AutoCAD 2000
 90
        0
280
     0
281
     1
  0
CLASS
  1
HATCH
  2
AcDbHatch
  3
AutoCAD 2000
 90
        0
280
     0
281
     1
  0
CLASS
  1
XRECORD
  2
AcDbXrecord
  3
AutoCAD 2000
 90
        0
280
     0
281
     0
  0
CLASS
  1
LONG_TRANSACTION
  2
AcDbLongTransaction
  3
AutoCAD 2000
 90
        0
280
     0
281
     0
  0
CLASS
  1
LWPOLYLINE
  2
AcDbPolyline
  3
AutoCAD 2000
 90
        0
280
     0
281
     1
  0
CLASS
  1
HATCH
  2
AcDbHatch
  3
AutoCAD 2000
 90
        0
280
     0
281
     1
  0
CLASS
  1
XRECORD
  2
AcDbXrecord
  3
AutoCAD 2000
 90
        0
280
     0
281
     0
  0
CLASS
  1
LONG_TRANSACTION
  2
AcDbLongTransaction
  3
AutoCAD 2000
 90
        0
280
     0
281
     0
  0
CLASS
  1
LWPOLYLINE
  2
AcDbPolyline
  3
AutoCAD 2000
 90
        0
280
     0
281
     1
  0
CLASS
  1
HATCH
  2
AcDbHatch
  3
AutoCAD 2000
 90
        0
280
     0
281
     1
  0
CLASS
  1
XRECORD
  2
AcDbXrecord
  3
AutoCAD 2000
 90
        0
280
     0
281
     0
  0
ENDSEC
  0
SECTION
  2
TABLES
  0
TABLE
  2
VPORT
  5
8
330
0
100
AcDbSymbolTable
 70
     2
  0
VPORT
  5
305
330
8
100
AcDbSymbolTableRecord
100
AcDbViewportTableRecord
  2
*ACTIVE
 70
     0
 10
0.0
 20
0.0
 11
1.0
 21
1.0
 12
-8.6143852036019
 22
-3.396752204986237
 13
0.0
 23
0.0
 14
0.5740882589684922
 24
0.5740882589684922
 15
0.5
 25
0.5
 16
0.0
 26
0.0
 36
1.0
 17
0.0
 27
0.0
 37
0.0
 40
12.88635355866815
 41
1.570528967254408
 42
50.0
 43
0.0
 44
0.0
 50
0.0
 51
0.0
 71
     0
 72
   100
 73
     1
 74
     0
 75
     0
 76
     0
 77
     0
 78
     0
  0
ENDTAB
  0
TABLE
  2
LTYPE
  5
5
330
0
100
AcDbSymbolTable
 70
     2
  0
LTYPE
  5
12
330
5
100
AcDbSymbolTableRecord
100
AcDbLinetypeTableRecord
  2
BYBLOCK
 70
     0
  3

 72
    65
 73
     0
 40
0.0
  0
LTYPE
  5
13
330
5
100
AcDbSymbolTableRecord
100
AcDbLinetypeTableRecord
  2
BYLAYER
 70
     0
  3

 72
    65
 73
     0
 40
0.0
  0
LTYPE
  5
14
330
5
100
AcDbSymbolTableRecord
100
AcDbLinetypeTableRecord
  2
CONTINUOUS
 70
     0
  3
Solid line
 72
    65
 73
     0
 40
0.0
  0
LTYPE
  5
13F
330
5
100
AcDbSymbolTableRecord
100
AcDbLinetypeTableRecord
  2
CENTER2
 70
     0
  3
___ _ ___ _ ___ _ ___ _ ___ _ ___ _ ___ _ ___ _
 72
    65
 73
     4
 40
1.125
 49
0.75
 74
     0
 49
-0.125
 74
     0
 49
0.125
 74
     0
 49
-0.125
 74
     0
  0
ENDTAB
  0
TABLE
  2
LAYER
  5
2
330
0
100
AcDbSymbolTable
 70
     5
  0
LAYER
  5
F
330
2
100
AcDbSymbolTableRecord
100
AcDbLayerTableRecord
  2
0
 70
     0
 62
     7
  6
CONTINUOUS
  0
LAYER
  5
143
330
2
100
AcDbSymbolTableRecord
100
AcDbLayerTableRecord
  2
ADP1DETAIL
 70
     0
 62
     7
  6
CONTINUOUS
  0
LAYER
  5
144
330
2
100
AcDbSymbolTableRecord
100
AcDbLayerTableRecord
  2
ADP3DETAIL
 70
     0
 62
     1
  6
CONTINUOUS
  0
LAYER
  5
145
330
2
100
AcDbSymbolTableRecord
100
AcDbLayerTableRecord
  2
DEFPOINTS
 70
     0
 62
     7
  6
CONTINUOUS
  0
LAYER
  5
148
330
2
100
AcDbSymbolTableRecord
100
AcDbLayerTableRecord
  2
ADPDIM
 70
     0
 62
     3
  6
CONTINUOUS
  0
ENDTAB
  0
TABLE
  2
STYLE
  5
3
330
0
100
AcDbSymbolTable
 70
     2
  0
STYLE
  5
10
330
3
100
AcDbSymbolTableRecord
100
AcDbTextStyleTableRecord
  2
STANDARD
 70
     0
 40
0.0
 41
1.0
 50
0.0
 71
     0
 42
0.2
  3
txt
  4

  0
STYLE
  5
1C1
330
3
100
AcDbSymbolTableRecord
100
AcDbTextStyleTableRecord
  2
ARIAL_WIDE
 70
     0
 40
0.0
 41
1.25
 50
0.0
 71
     0
 42
0.2
  3
ARIAL.TTF
  4

1001
ACAD
1000
Arial
1071
       34
  0
ENDTAB
  0
TABLE
  2
VIEW
  5
6
330
0
100
AcDbSymbolTable
 70
     0
  0
ENDTAB
  0
TABLE
  2
UCS
  5
7
330
0
100
AcDbSymbolTable
 70
     0
  0
ENDTAB
  0
TABLE
  2
APPID
  5
9
330
0
100
AcDbSymbolTable
 70
     1
  0
APPID
  5
11
330
9
100
AcDbSymbolTableRecord
100
AcDbRegAppTableRecord
  2
ACAD
 70
     0
  0
ENDTAB
  0
TABLE
  2
DIMSTYLE
  5
A
330
0
100
AcDbSymbolTable
 70
     1
  0
DIMSTYLE
105
1B5
330
A
100
AcDbSymbolTableRecord
100
AcDbDimStyleTableRecord
  2
STANDARD
 70
     0
  3

  4

  5

  6

  7

 40
1.0
 41
0.18
 42
0.0625
 43
0.38
 44
0.18
 45
0.0
 46
0.0
 47
0.0
 48
0.0
140
0.18
141
0.09
142
0.0
143
25.4
144
1.0
145
0.0
146
1.0
147
0.09
 71
     0
 72
     0
 73
     1
 74
     1
 75
     0
 76
     0
 77
     0
 78
     0
170
     0
171
     2
172
     0
173
     0
174
     0
175
     0
176
     0
177
     0
178
     0
270
     2
271
     4
272
     4
273
     2
274
     2
340
10
275
     0
280
     0
281
     0
282
     0
283
     1
284
     0
285
     0
286
     0
287
     3
288
     0
  0
ENDTAB
  0
TABLE
  2
BLOCK_RECORD
  5
1
330
0
100
AcDbSymbolTable
 70
     5
  0
BLOCK_RECORD
  5
18
102
{ACAD_XDICTIONARY
360
216
102
}
330
1
100
AcDbSymbolTableRecord
100
AcDbBlockTableRecord
  2
*MODEL_SPACE
  0
BLOCK_RECORD
  5
15
102
{ACAD_XDICTIONARY
360
214
102
}
330
1
100
AcDbSymbolTableRecord
100
AcDbBlockTableRecord
  2
*PAPER_SPACE
  0
BLOCK_RECORD
  5
EE
330
1
100
AcDbSymbolTableRecord
100
AcDbBlockTableRecord
  2
6532
  0
BLOCK_RECORD
  5
137
330
1
100
AcDbSymbolTableRecord
100
AcDbBlockTableRecord
  2
*D1
  0
BLOCK_RECORD
  5
138
330
1
100
AcDbSymbolTableRecord
100
AcDbBlockTableRecord
  2
*D2
  0
BLOCK_RECORD
  5
139
330
1
100
AcDbSymbolTableRecord
100
AcDbBlockTableRecord
  2
*D3
  0
BLOCK_RECORD
  5
13A
330
1
100
AcDbSymbolTableRecord
100
AcDbBlockTableRecord
  2
*D4
  0
ENDTAB
  0
ENDSEC
  0
SECTION
  2
BLOCKS
  0
BLOCK
  5
14B
330
18
100
AcDbEntity
  8
0
100
AcDbBlockBegin
  2
*MODEL_SPACE
 70
     0
 10
0.0
 20
0.0
 30
0.0
  3
*MODEL_SPACE
  1

  0
ENDBLK
  5
14C
330
18
100
AcDbEntity
  8
0
100
AcDbBlockEnd
  0
BLOCK
  5
149
330
15
100
AcDbEntity
 67
     1
  8
0
100
AcDbBlockBegin
  2
*PAPER_SPACE
 70
     0
 10
0.0
 20
0.0
 30
0.0
  3
*PAPER_SPACE
  1

  0
ENDBLK
  5
14A
330
15
100
AcDbEntity
 67
     1
  8
0
100
AcDbBlockEnd
  0
BLOCK
  5
14E
330
EE
100
AcDbEntity
  8
0
100
AcDbBlockBegin
  2
6532
 70
     0
 10
0.0
 20
0.0
 30
0.0
  3
6532
  1

  0
ARC
  5
14F
330
EE
100
AcDbEntity
  8
0
100
AcDbCircle
 10
1.270109949038719
 20
-3.201375254464382
 30
0.0
 40
4.0
100
AcDbArc
 50
72.51103358626273
 51
107.4532757862992
  0
ARC
  5
150
330
EE
100
AcDbEntity
  8
0
100
AcDbCircle
 10
1.266539500563137
 20
4.073133327673135
 30
0.0
 40
4.0
100
AcDbArc
 50
277.5545693115373
 51
287.3132336517538
  0
LINE
  5
151
330
EE
100
AcDbEntity
  8
0
100
AcDbLine
 10
0.7927358005505383
 20
0.6207657083862177
 30
0.0
 11
1.787735800550535
 21
0.6207657083862177
 31
0.0
  0
LINE
  5
152
330
EE
100
AcDbEntity
  8
0
100
AcDbLine
 10
1.024735800550537
 20
0.3557657083862171
 30
0.0
 11
0.7927358005505383
 21
0.3557657083862171
 31
0.0
  0
LINE
  5
153
330
EE
100
AcDbEntity
  8
0
100
AcDbLine
 10
0.9087358005505379
 20
0.2307657083862171
 30
0.0
 11
1.024735800550537
 21
0.2307657083862171
 31
0.0
  0
ARC
  5
154
330
EE
100
AcDbEntity
  8
0
100
AcDbCircle
 10
1.266539500563137
 20
4.073133327673135
 30
0.0
 40
4.0
100
AcDbArc
 50
252.8400344923382
 51
263.1279928574136
  0
ARC
  5
155
330
EE
100
AcDbEntity
  8
0
100
AcDbCircle
 10
0.9745179758808681
 20
0.4890640793338097
 30
0.0
 40
0.95
100
AcDbArc
 50
175.720617910706
 51
191.604775675111
  0
ARC
  5
156
330
EE
100
AcDbEntity
  8
0
100
AcDbCircle
 10
0.1046700402244411
 20
0.3104343818189381
 30
0.0
 40
0.062
100
AcDbArc
 50
191.604775675111
 51
252.8400344923369
  0
ARC
  5
157
330
EE
100
AcDbEntity
  8
0
100
AcDbCircle
 10
0.0889936754032022
 20
0.5553265367553255
 30
0.0
 40
0.062
100
AcDbArc
 50
107.4532757862985
 51
175.720617910706
  0
LINE
  5
158
330
EE
100
AcDbEntity
  8
0
100
AcDbLine
 10
0.7827358005505367
 20
0.3657657083862222
 30
0.0
 11
0.7827358005505367
 21
0.6107657083862197
 31
0.0
  0
ARC
  5
159
330
EE
100
AcDbEntity
  8
0
100
AcDbCircle
 10
0.7927358005505383
 20
0.3657657083862222
 30
0.0
 40
0.01
100
AcDbArc
 50
180.0
 51
270.0
  0
LINE
  5
15A
330
EE
100
AcDbEntity
  8
0
100
AcDbLine
 10
0.8067358005505376
 20
0.0427657083862219
 30
0.0
 11
0.8887358005505383
 21
0.0427657083862219
 31
0.0
  0
ARC
  5
15B
330
EE
100
AcDbEntity
  8
0
100
AcDbCircle
 10
0.7867358005505381
 20
0.0919414948855906
 30
0.0
 40
0.01
100
AcDbArc
 50
0.0
 51
83.12799285742803
  0
LINE
  5
15C
330
EE
100
AcDbEntity
  8
0
100
AcDbLine
 10
0.7967358005505361
 20
0.0919414948855906
 30
0.0
 11
0.7967358005505361
 21
0.0527657083862199
 31
0.0
  0
ARC
  5
15D
330
EE
100
AcDbEntity
  8
0
100
AcDbCircle
 10
0.8067358005505376
 20
0.0527657083862199
 30
0.0
 40
0.01
100
AcDbArc
 50
180.0
 51
270.0
  0
LINE
  5
15E
330
EE
100
AcDbEntity
  8
0
100
AcDbLine
 10
0.8987358005505363
 20
0.0527657083862199
 30
0.0
 11
0.8987358005505363
 21
0.2207657083862191
 31
0.0
  0
ARC
  5
15F
330
EE
100
AcDbEntity
  8
0
100
AcDbCircle
 10
0.8887358005505383
 20
0.0527657083862199
 30
0.0
 40
0.01
100
AcDbArc
 50
270.0
 51
0.0
  0
ARC
  5
160
330
EE
100
AcDbEntity
  8
0
100
AcDbCircle
 10
0.9087358005505379
 20
0.2207657083862191
 30
0.0
 40
0.01
100
AcDbArc
 50
90.00000000000019
 51
180.0
  0
ARC
  5
161
330
EE
100
AcDbEntity
  8
0
100
AcDbCircle
 10
0.7927358005505383
 20
0.6107657083862197
 30
0.0
 40
0.01
100
AcDbArc
 50
90.0
 51
180.0
  0
ARC
  5
162
330
EE
100
AcDbEntity
  8
0
100
AcDbCircle
 10
0.7927358005505383
 20
0.6107657083862197
 30
0.0
 40
0.01
100
AcDbArc
 50
89.99999999999994
 51
180.0
  0
ARC
  5
163
330
EE
100
AcDbEntity
  8
0
100
AcDbCircle
 10
1.024735800550537
 20
0.3457657083862191
 30
0.0
 40
0.01
100
AcDbArc
 50
0.0
 51
90.0
  0
ARC
  5
164
330
EE
100
AcDbEntity
  8
0
100
AcDbCircle
 10
1.024735800550537
 20
0.2407657083862222
 30
0.0
 40
0.01
100
AcDbArc
 50
270.0
 51
0.0
  0
LINE
  5
165
330
EE
100
AcDbEntity
  8
0
100
AcDbLine
 10
1.034735800550539
 20
0.2407657083862222
 30
0.0
 11
1.034735800550535
 21
0.3457657083862191
 31
0.0
  0
LINE
  5
166
330
EE
100
AcDbEntity
  8
0
100
AcDbLine
 10
1.797735800550537
 20
0.6107657083862197
 30
0.0
 11
1.797735800550537
 21
0.3657657083862222
 31
0.0
  0
LINE
  5
167
330
EE
100
AcDbEntity
  8
0
100
AcDbLine
 10
1.691735800550535
 20
0.0427657083862219
 30
0.0
 11
1.773735800550539
 21
0.0427657083862219
 31
0.0
  0
LINE
  5
168
330
EE
100
AcDbEntity
  8
0
100
AcDbLine
 10
1.787735800550535
 20
0.3557657083862171
 30
0.0
 11
1.555735800550536
 21
0.3557657083862171
 31
0.0
  0
ARC
  5
169
330
EE
100
AcDbEntity
  8
0
100
AcDbCircle
 10
1.671735800550536
 20
0.2207657083862191
 30
0.0
 40
0.01
100
AcDbArc
 50
0.0
 51
90.00000000000019
  0
LINE
  5
16A
330
EE
100
AcDbEntity
  8
0
100
AcDbLine
 10
1.681735800550537
 20
0.2207657083862191
 30
0.0
 11
1.681735800550537
 21
0.0527657083862199
 31
0.0
  0
ARC
  5
16B
330
EE
100
AcDbEntity
  8
0
100
AcDbCircle
 10
1.691735800550535
 20
0.0527657083862199
 30
0.0
 40
0.01
100
AcDbArc
 50
180.0000000000002
 51
270.0
  0
ARC
  5
16C
330
EE
100
AcDbEntity
  8
0
100
AcDbCircle
 10
1.555735800550536
 20
0.3457657083862191
 30
0.0
 40
0.01
100
AcDbArc
 50
90.0
 51
180.0
  0
ARC
  5
16D
330
EE
100
AcDbEntity
  8
0
100
AcDbCircle
 10
1.555735800550536
 20
0.2407657083862222
 30
0.0
 40
0.01
100
AcDbArc
 50
180.0
 51
270.0
  0
LINE
  5
16E
330
EE
100
AcDbEntity
  8
0
100
AcDbLine
 10
1.545735800550538
 20
0.3457657083862191
 30
0.0
 11
1.545735800550538
 21
0.2407657083862222
 31
0.0
  0
LINE
  5
16F
330
EE
100
AcDbEntity
  8
0
100
AcDbLine
 10
1.555735800550536
 20
0.2307657083862171
 30
0.0
 11
1.671735800550536
 21
0.2307657083862171
 31
0.0
  0
ARC
  5
170
330
EE
100
AcDbEntity
  8
0
100
AcDbCircle
 10
1.787735800550535
 20
0.3657657083862222
 30
0.0
 40
0.01
100
AcDbArc
 50
270.0
 51
0.0
  0
LINE
  5
171
330
EE
100
AcDbEntity
  8
0
100
AcDbLine
 10
1.783735800550537
 20
0.0527657083862199
 30
0.0
 11
1.783735800550537
 21
0.0979397397733468
 31
0.0
  0
ARC
  5
172
330
EE
100
AcDbEntity
  8
0
100
AcDbCircle
 10
1.773735800550539
 20
0.0527657083862199
 30
0.0
 40
0.01
100
AcDbArc
 50
270.0
 51
0.0
  0
ARC
  5
173
330
EE
100
AcDbEntity
  8
0
100
AcDbCircle
 10
1.793735800550535
 20
0.0979397397733468
 30
0.0
 40
0.01
100
AcDbArc
 50
97.55456931154062
 51
180.0
  0
ARC
  5
174
330
EE
100
AcDbEntity
  8
0
100
AcDbCircle
 10
1.787735800550535
 20
0.6107657083862197
 30
0.0
 40
0.01
100
AcDbArc
 50
0.0
 51
89.99999999999994
  0
ARC
  5
175
330
EE
100
AcDbEntity
  8
0
100
AcDbCircle
 10
1.567987012778175
 20
0.4890640793338097
 30
0.0
 40
0.95
100
AcDbArc
 50
348.6007582301338
 51
4.231732092270497
  0
ARC
  5
176
330
EE
100
AcDbEntity
  8
0
100
AcDbCircle
 10
2.438470138525946
 20
0.313555880697999
 30
0.0
 40
0.062
100
AcDbArc
 50
287.3132336517529
 51
348.6007582301338
  0
ARC
  5
177
330
EE
100
AcDbEntity
  8
0
100
AcDbCircle
 10
2.453566114145978
 20
0.5545900682282597
 30
0.0
 40
0.062
100
AcDbArc
 50
4.231732092270809
 51
72.51103358626299
  0
ARC
  5
178
330
EE
100
AcDbEntity
  8
0
100
AcDbCircle
 10
2.502151323821852
 20
0.5936443832743326
 30
0.0
 40
0.01
100
AcDbArc
 50
6.387702909980526
 51
72.01413847635982
  0
ENDBLK
  5
179
330
EE
100
AcDbEntity
  8
0
100
AcDbBlockEnd
  0
BLOCK
  5
17A
330
137
100
AcDbEntity
  8
0
100
AcDbBlockBegin
  2
*D1
 70
     1
 10
0.0
 20
0.0
 30
0.0
  3
*D1
  1

  0
LINE
  5
17B
330
137
100
AcDbEntity
  8
0
  6
BYBLOCK
 62
     0
100
AcDbLine
 10
-12.02937058556268
 20
-8.374372702333232
 30
0.0
 11
-12.02937058556268
 21
-8.758277740342961
 31
0.0
  0
LINE
  5
17C
330
137
100
AcDbEntity
  8
0
  6
BYBLOCK
 62
     0
100
AcDbLine
 10
-11.24637058556268
 20
-8.374372702333232
 30
0.0
 11
-11.24637058556268
 21
-8.758277740342961
 31
0.0
  0
LINE
  5
17D
330
137
100
AcDbEntity
  8
0
  6
BYBLOCK
 62
     0
100
AcDbLine
 10
-12.02937058556268
 20
-8.578277740342961
 30
0.0
 11
-12.27937058556268
 21
-8.578277740342961
 31
0.0
  0
LINE
  5
17E
330
137
100
AcDbEntity
  8
0
  6
BYBLOCK
 62
     0
100
AcDbLine
 10
-11.24637058556268
 20
-8.578277740342961
 30
0.0
 11
-10.99637058556268
 21
-8.578277740342961
 31
0.0
  0
LINE
  5
17F
330
137
100
AcDbEntity
  8
0
  6
BYBLOCK
 62
     0
100
AcDbLine
 10
-12.15437058556268
 20
-8.703277740342961
 30
0.0
 11
-11.90437058556268
 21
-8.453277740342961
 31
0.0
  0
LINE
  5
180
330
137
100
AcDbEntity
  8
0
  6
BYBLOCK
 62
     0
100
AcDbLine
 10
-11.37137058556268
 20
-8.703277740342961
 30
0.0
 11
-11.12137058556268
 21
-8.453277740342961
 31
0.0
  0
TEXT
  5
181
330
137
100
AcDbEntity
  8
0
  6
BYBLOCK
 62
     0
100
AcDbText
 10
-10.87137058556268
 20
-8.640777740342961
 30
0.0
 40
0.125
  1
13/16
 72
     1
 11
-10.62137058556268
 21
-8.578277740342961
 31
0.0
100
AcDbText
 73
     2
  0
POINT
  5
182
330
137
100
AcDbEntity
  8
DEFPOINTS
  6
BYBLOCK
 62
     0
100
AcDbPoint
 10
-12.02937058556268
 20
-8.311872702333232
 30
0.0
  0
POINT
  5
183
330
137
100
AcDbEntity
  8
DEFPOINTS
  6
BYBLOCK
 62
     0
100
AcDbPoint
 10
-11.24637058556268
 20
-8.311872702333232
 30
0.0
  0
POINT
  5
184
330
137
100
AcDbEntity
  8
DEFPOINTS
  6
BYBLOCK
 62
     0
100
AcDbPoint
 10
-11.24637058556268
 20
-8.578277740342961
 30
0.0
  0
ENDBLK
  5
185
330
137
100
AcDbEntity
  8
0
100
AcDbBlockEnd
  0
BLOCK
  5
186
330
138
100
AcDbEntity
  8
0
100
AcDbBlockBegin
  2
*D2
 70
     1
 10
0.0
 20
0.0
 30
0.0
  3
*D2
  1

  0
LINE
  5
187
330
138
100
AcDbEntity
  8
0
  6
BYBLOCK
 62
     0
100
AcDbLine
 10
-12.90093985781544
 20
-7.742185441126142
 30
0.0
 11
-12.90093985781544
 21
-7.177428312802998
 31
0.0
  0
LINE
  5
188
330
138
100
AcDbEntity
  8
0
  6
BYBLOCK
 62
     0
100
AcDbLine
 10
-10.41270929867354
 20
-7.74297332975307
 30
0.0
 11
-10.41270929867354
 21
-7.177428312802998
 31
0.0
  0
LINE
  5
189
330
138
100
AcDbEntity
  8
0
  6
BYBLOCK
 62
     0
100
AcDbLine
 10
-12.90093985781544
 20
-7.357428312802998
 30
0.0
 11
-12.05265791157782
 21
-7.357428312802998
 31
0.0
  0
LINE
  5
18A
330
138
100
AcDbEntity
  8
0
  6
BYBLOCK
 62
     0
100
AcDbLine
 10
-10.41270929867354
 20
-7.357428312802998
 30
0.0
 11
-11.26099124491115
 21
-7.357428312802998
 31
0.0
  0
LINE
  5
18B
330
138
100
AcDbEntity
  8
0
  6
BYBLOCK
 62
     0
100
AcDbLine
 10
-13.02593985781544
 20
-7.482428312802998
 30
0.0
 11
-12.77593985781544
 21
-7.232428312802998
 31
0.0
  0
LINE
  5
18C
330
138
100
AcDbEntity
  8
0
  6
BYBLOCK
 62
     0
100
AcDbLine
 10
-10.53770929867354
 20
-7.482428312802998
 30
0.0
 11
-10.28770929867354
 21
-7.232428312802998
 31
0.0
  0
TEXT
  5
18D
330
138
100
AcDbEntity
  8
0
  6
BYBLOCK
 62
     0
100
AcDbText
 10
-11.92765791157782
 20
-7.419928312802998
 30
0.0
 40
0.125
  1
2 1/2
 72
     1
 11
-11.65682457824449
 21
-7.357428312802998
 31
0.0
100
AcDbText
 73
     2
  0
POINT
  5
18E
330
138
100
AcDbEntity
  8
DEFPOINTS
  6
BYBLOCK
 62
     0
100
AcDbPoint
 10
-12.90093985781544
 20
-7.804685441126142
 30
0.0
  0
POINT
  5
18F
330
138
100
AcDbEntity
  8
DEFPOINTS
  6
BYBLOCK
 62
     0
100
AcDbPoint
 10
-10.41270929867354
 20
-7.80547332975307
 30
0.0
  0
POINT
  5
190
330
138
100
AcDbEntity
  8
DEFPOINTS
  6
BYBLOCK
 62
     0
100
AcDbPoint
 10
-10.41270929867354
 20
-7.357428312802998
 30
0.0
  0
ENDBLK
  5
191
330
138
100
AcDbEntity
  8
0
100
AcDbBlockEnd
  0
BLOCK
  5
192
330
139
100
AcDbEntity
  8
0
100
AcDbBlockBegin
  2
*D3
 70
     1
 10
0.0
 20
0.0
 30
0.0
  3
*D3
  1

  0
LINE
  5
193
330
139
100
AcDbEntity
  8
0
  6
BYBLOCK
 62
     0
100
AcDbLine
 10
-7.727599853056869
 20
-3.805936609947924
 30
0.0
 11
-9.30599455215685
 21
-3.805936609947924
 31
0.0
  0
LINE
  5
194
330
139
100
AcDbEntity
  8
0
  6
BYBLOCK
 62
     0
100
AcDbLine
 10
-10.34445594588298
 20
-6.314001320986186
 30
0.0
 11
-8.94599455215685
 21
-6.314001320986186
 31
0.0
  0
LINE
  5
195
330
139
100
AcDbEntity
  8
0
  6
BYBLOCK
 62
     0
100
AcDbLine
 10
-9.12599455215685
 20
-3.805936609947924
 30
0.0
 11
-9.12599455215685
 21
-4.664135632133722
 31
0.0
  0
LINE
  5
196
330
139
100
AcDbEntity
  8
0
  6
BYBLOCK
 62
     0
100
AcDbLine
 10
-9.12599455215685
 20
-6.314001320986186
 30
0.0
 11
-9.12599455215685
 21
-5.455802298800388
 31
0.0
  0
LINE
  5
197
330
139
100
AcDbEntity
  8
0
  6
BYBLOCK
 62
     0
100
AcDbLine
 10
-9.00099455215685
 20
-3.930936609947924
 30
0.0
 11
-9.25099455215685
 21
-3.680936609947924
 31
0.0
  0
LINE
  5
198
330
139
100
AcDbEntity
  8
0
  6
BYBLOCK
 62
     0
100
AcDbLine
 10
-9.00099455215685
 20
-6.439001320986186
 30
0.0
 11
-9.25099455215685
 21
-6.189001320986186
 31
0.0
  0
TEXT
  5
199
330
139
100
AcDbEntity
  8
0
  6
BYBLOCK
 62
     0
100
AcDbText
 10
-9.06349455215685
 20
-5.330802298800388
 30
0.0
 40
0.125
  1
2 1/2
 50
90.0
 72
     1
 11
-9.12599455215685
 21
-5.059968965467055
 31
0.0
100
AcDbText
 73
     2
  0
POINT
  5
19A
330
139
100
AcDbEntity
  8
DEFPOINTS
  6
BYBLOCK
 62
     0
100
AcDbPoint
 10
-7.665099853056869
 20
-3.805936609947924
 30
0.0
  0
POINT
  5
19B
330
139
100
AcDbEntity
  8
DEFPOINTS
  6
BYBLOCK
 62
     0
100
AcDbPoint
 10
-10.40695594588298
 20
-6.314001320986186
 30
0.0
  0
POINT
  5
19C
330
139
100
AcDbEntity
  8
DEFPOINTS
  6
BYBLOCK
 62
     0
100
AcDbPoint
 10
-9.12599455215685
 20
-6.314001320986186
 30
0.0
  0
ENDBLK
  5
19D
330
139
100
AcDbEntity
  8
0
100
AcDbBlockEnd
  0
BLOCK
  5
19E
330
13A
100
AcDbEntity
  8
0
100
AcDbBlockBegin
  2
*D4
 70
     1
 10
0.0
 20
0.0
 30
0.0
  3
*D4
  1

  0
LINE
  5
19F
330
13A
100
AcDbEntity
  8
0
  6
BYBLOCK
 62
     0
100
AcDbLine
 10
-10.53377740910166
 20
-1.035023678947503
 30
0.0
 11
-7.665099853056869
 21
-3.805936609947924
 31
0.0
  0
LINE
  5
1A0
330
13A
100
AcDbEntity
  8
0
  6
BYBLOCK
 62
     0
100
AcDbLine
 10
-10.71052754822564
 20
-1.038087715444069
 30
0.0
 11
-10.35702726997767
 21
-1.031959642450936
 31
0.0
  0
TEXT
  5
1A1
330
13A
100
AcDbEntity
  8
0
  6
BYBLOCK
 62
     0
100
AcDbText
 10
-7.618614290903447
 20
-3.937733205166771
 30
0.0
 40
0.125
  1
R4
 50
315.9931464705258
 72
     1
 11
-7.500270192071364
 21
-3.965148870689723
 31
0.0
100
AcDbText
 73
     2
  0
POINT
  5
1A2
330
13A
100
AcDbEntity
  8
DEFPOINTS
  6
BYBLOCK
 62
     0
100
AcDbPoint
 10
-10.53377740910166
 20
-1.035023678947503
 30
0.0
  0
POINT
  5
1A3
330
13A
100
AcDbEntity
  8
DEFPOINTS
  6
BYBLOCK
 62
     0
100
AcDbPoint
 10
-7.656750599172848
 20
-3.814001320986182
 30
0.0
  0
ENDBLK
  5
1A4
330
13A
100
AcDbEntity
  8
0
100
AcDbBlockEnd
  0
ENDSEC
  0
SECTION
  2
ENTITIES
  0
DIMENSION
  5
1A5
330
18
100
AcDbEntity
  8
ADPDIM
100
AcDbDimension
  2
*D2
 10
-10.41270929867354
 20
-7.357428312802998
 30
0.0
 11
-11.65682457824449
 21
-7.357428312802998
 31
0.0
100
AcDbAlignedDimension
 13
-12.90093985781544
 23
-7.804685441126142
 33
0.0
 14
-10.41270929867354
 24
-7.80547332975307
 34
0.0
100
AcDbRotatedDimension
  0
ARC
  5
1A6
330
18
100
AcDbEntity
  8
ADP1DETAIL
100
AcDbCircle
 10
-7.656955945882987
 20
-3.814001320986186
 30
0.0
 40
5.25
100
AcDbArc
 50
90.00000000000003
 51
180.0
  0
LINE
  5
1A7
330
18
100
AcDbEntity
  8
ADP1DETAIL
100
AcDbLine
 10
-10.40695594588298
 20
-6.314001320986186
 30
0.0
 11
-12.96061747008365
 21
-6.314001320986186
 31
0.0
  0
INSERT
  5
1A8
330
18
100
AcDbEntity
  8
ADP1DETAIL
100
AcDbBlockReference
  2
6532
 10
-12.92810638611322
 20
-8.364638410719454
 30
0.0
  0
LINE
  5
1A9
330
18
100
AcDbEntity
  8
ADP1DETAIL
100
AcDbLine
 10
-12.90695594588298
 20
-6.314001320986186
 30
0.0
 11
-12.90695594588298
 21
-3.814001320986186
 31
0.0
  0
DIMENSION
  5
1AA
330
18
100
AcDbEntity
  8
ADPDIM
100
AcDbDimension
  2
*D3
 10
-9.12599455215685
 20
-6.314001320986186
 30
0.0
 11
-9.12599455215685
 21
-5.059968965467055
 31
0.0
100
AcDbAlignedDimension
 13
-7.665099853056869
 23
-3.805936609947924
 33
0.0
 14
-10.40695594588298
 24
-6.314001320986186
 34
0.0
 50
90.0
100
AcDbRotatedDimension
  0
LINE
  5
1AB
330
18
100
AcDbEntity
  8
ADP3DETAIL
  6
CENTER2
100
AcDbLine
 10
-11.65675059917284
 20
-3.814001320986186
 30
0.0
 11
-11.65675059917284
 21
-6.458738043809653
 31
0.0
  0
LINE
  5
1AC
330
18
100
AcDbEntity
  8
ADP1DETAIL
100
AcDbLine
 10
-10.40695594588298
 20
-3.814001320986186
 30
0.0
 11
-10.40695594588298
 21
-6.314001320986186
 31
0.0
  0
DIMENSION
  5
1AD
330
18
100
AcDbEntity
  8
ADPDIM
100
AcDbDimension
  2
*D1
 10
-11.24637058556268
 20
-8.578277740342961
 30
0.0
 11
-10.62137058556268
 21
-8.578277740342961
 31
0.0
100
AcDbAlignedDimension
 13
-12.02937058556268
 23
-8.311872702333232
 33
0.0
 14
-11.24637058556268
 24
-8.311872702333232
 34
0.0
100
AcDbRotatedDimension
  0
DIMENSION
  5
1AE
330
18
100
AcDbEntity
  8
ADPDIM
100
AcDbDimension
  2
*D4
 10
-7.656750599172848
 20
-3.814001320986182
 30
0.0
 11
-7.500270192071364
 21
-3.965148870689723
 31
0.0
 70
     4
100
AcDbRadialDimension
 15
-10.53377740910166
 25
-1.035023678947503
 35
0.0
 40
-3.988391830266988
  0
ARC
  5
1AF
330
18
100
AcDbEntity
  8
ADP3DETAIL
  6
CENTER2
100
AcDbCircle
 10
-7.656750599172848
 20
-3.814001320986186
 30
0.0
 40
4.0
100
AcDbArc
 50
90.0
 51
180.0
  0
ARC
  5
1B0
330
18
100
AcDbEntity
  8
ADP1DETAIL
100
AcDbCircle
 10
-7.656955945882987
 20
-3.814001320986186
 30
0.0
 40
2.75
100
AcDbArc
 50
90.00000000000005
 51
180.0
  0
LINE
  5
1B1
330
18
100
AcDbEntity
  8
ADP1DETAIL
100
AcDbLine
 10
-5.15675059917285
 20
1.436212186622476
 30
0.0
 11
-5.15675059917285
 21
-1.063787813377523
 31
0.0
  0
LINE
  5
1B2
330
18
100
AcDbEntity
  8
ADP1DETAIL
100
AcDbLine
 10
-5.15675059917285
 20
-1.063787813377523
 30
0.0
 11
-7.656750599172848
 21
-1.063787813377523
 31
0.0
  0
LINE
  5
1B3
330
18
100
AcDbEntity
  8
ADP3DETAIL
  6
CENTER2
100
AcDbLine
 10
-4.925408179596329
 20
0.1859986790138137
 30
0.0
 11
-7.656750599172848
 21
0.1859986790138137
 31
0.0
  0
LINE
  5
1B4
330
18
100
AcDbEntity
  8
ADP1DETAIL
100
AcDbLine
 10
-7.656750599172848
 20
1.436212186622476
 30
0.0
 11
-5.15675059917285
 21
1.436212186622476
 31
0.0
  0
TEXT
  5
1C2
330
18
100
AcDbEntity
  8
ADPDIM
100
AcDbText
 10
-18.68204520298907
 20
-9.258209789871528
 30
0.0
 40
0.1875
  1
J U L I U S  B L U M  &  C O . ,  I N C .      ( 8 0 0 )  5 2 6 - 6 2 9 3        W W W . J U L I U S B L U M . C O M        P A R T  N o .  6 5 3 2 - C
 41
1.25
  7
ARIAL_WIDE
 72
     1
 11
-8.629739822702582
 21
-9.070709789871528
 31
0.0
100
AcDbText
 73
     3
  0
ENDSEC
  0
SECTION
  2
OBJECTS
  0
DICTIONARY
  5
C
330
0
100
AcDbDictionary
  3
ACAD_GROUP
350
D
  3
ACAD_LAYOUT
350
1BB
  3
ACAD_MLINESTYLE
350
E
  3
ACAD_PLOTSETTINGS
350
1BC
  3
ACAD_PLOTSTYLENAME
350
1B9
  3
ACDBHEADERROUNDTRIPXREC
350
306
  3
ACDBVARIABLEDICTIONARY
350
21C
  0
DICTIONARY
  5
216
330
18
100
AcDbDictionary
280
     1
  3
ACAD_LAYOUTSELFREF
360
327
  0
DICTIONARY
  5
214
330
15
100
AcDbDictionary
280
     1
  3
ACAD_LAYOUTSELFREF
360
326
  0
DICTIONARY
  5
D
102
{ACAD_REACTORS
330
C
102
}
330
C
100
AcDbDictionary
  0
DICTIONARY
  5
1BB
102
{ACAD_REACTORS
330
C
102
}
330
C
100
AcDbDictionary
  0
DICTIONARY
  5
E
102
{ACAD_REACTORS
330
C
102
}
330
C
100
AcDbDictionary
  3
STANDARD
350
1B
  0
DICTIONARY
  5
1BC
102
{ACAD_REACTORS
330
C
102
}
330
C
100
AcDbDictionary
  0
ACDBDICTIONARYWDFLT
  5
1B9
102
{ACAD_REACTORS
330
C
102
}
330
C
100
AcDbDictionary
281
     1
  3
Normal
350
1BA
100
AcDbDictionaryWithDefault
340
1BA
  0
DICTIONARY
  5
306
102
{ACAD_REACTORS
330
C
102
}
330
C
100
AcDbDictionary
  3
CEPSNTYPE
350
310
  3
FINGERPRINTGUID
350
311
  3
HYPERLINKBASE
350
309
  3
INSUNITS
350
30F
  3
LAYOUTDICT
350
30B
  3
LWETCUNION
350
30E
  3
PLOTSETDICT
350
30C
  3
PLOTSTYLNAMDICT
350
30D
  3
PSVPSCALE
350
313
  3
PUCSBASE
350
316
  3
PUCSORGBACK
350
31C
  3
PUCSORGBOTTOM
350
318
  3
PUCSORGFRONT
350
31B
  3
PUCSORGLEFT
350
319
  3
PUCSORGRIGHT
350
31A
  3
PUCSORGTOP
350
317
  3
PUCSORTHOREF
350
314
  3
PUCSORTHOVIEW
350
315
  3
STYLESHEET
350
30A
  3
TSTACKALIGN
350
307
  3
TSTACKSIZE
350
308
  3
UCSBASE
350
31F
  3
UCSORGBACK
350
325
  3
UCSORGBOTTOM
350
321
  3
UCSORGFRONT
350
324
  3
UCSORGLEFT
350
322
  3
UCSORGRIGHT
350
323
  3
UCSORGTOP
350
320
  3
UCSORTHOREF
350
31D
  3
UCSORTHOVIEW
350
31E
  3
VERSIONGUID
350
312
  0
DICTIONARY
  5
21C
102
{ACAD_REACTORS
330
C
102
}
330
C
100
AcDbDictionary
  3
DIMASSOC
350
21D
  0
XRECORD
  5
327
102
{ACAD_REACTORS
330
216
102
}
330
216
100
AcDbXrecord
340
18
  0
XRECORD
  5
326
102
{ACAD_REACTORS
330
214
102
}
330
214
100
AcDbXrecord
340
15
  0
MLINESTYLE
  5
1B
102
{ACAD_REACTORS
330
E
102
}
330
E
100
AcDbMlineStyle
  2
STANDARD
 70
     0
  3

 62
     0
 51
90.0
 52
90.0
 71
     2
 49
0.5
 62
   256
  6
BYLAYER
 49
-0.5
 62
   256
  6
BYLAYER
  0
ACDBPLACEHOLDER
  5
1BA
102
{ACAD_REACTORS
330
1B9
102
}
330
1B9
100
AcDbPlaceHolder
280
     0
  0
XRECORD
  5
310
102
{ACAD_REACTORS
330
306
102
}
330
306
100
AcDbXrecord
 90
        0
  0
XRECORD
  5
311
102
{ACAD_REACTORS
330
306
102
}
330
306
100
AcDbXrecord
  1
{7552040B-36B3-496B-B923-431B32EE7E3A}
  0
XRECORD
  5
309
102
{ACAD_REACTORS
330
306
102
}
330
306
100
AcDbXrecord
  1

  0
XRECORD
  5
30F
102
{ACAD_REACTORS
330
306
102
}
330
306
100
AcDbXrecord
 90
        0
  0
XRECORD
  5
30B
102
{ACAD_REACTORS
330
306
102
}
330
306
100
AcDbXrecord
340
1BB
  0
XRECORD
  5
30E
102
{ACAD_REACTORS
330
306
102
}
330
306
100
AcDbXrecord
 90
    14877
  0
XRECORD
  5
30C
102
{ACAD_REACTORS
330
306
102
}
330
306
100
AcDbXrecord
340
1BC
  0
XRECORD
  5
30D
102
{ACAD_REACTORS
330
306
102
}
330
306
100
AcDbXrecord
340
1B9
  0
XRECORD
  5
313
102
{ACAD_REACTORS
330
306
102
}
330
306
100
AcDbXrecord
 40
0.0
  0
XRECORD
  5
316
102
{ACAD_REACTORS
330
306
102
}
330
306
100
AcDbXrecord
340
0
  0
XRECORD
  5
31C
102
{ACAD_REACTORS
330
306
102
}
330
306
100
AcDbXrecord
 10
0.0
 20
0.0
 30
0.0
  0
XRECORD
  5
318
102
{ACAD_REACTORS
330
306
102
}
330
306
100
AcDbXrecord
 10
0.0
 20
0.0
 30
0.0
  0
XRECORD
  5
31B
102
{ACAD_REACTORS
330
306
102
}
330
306
100
AcDbXrecord
 10
0.0
 20
0.0
 30
0.0
  0
XRECORD
  5
319
102
{ACAD_REACTORS
330
306
102
}
330
306
100
AcDbXrecord
 10
0.0
 20
0.0
 30
0.0
  0
XRECORD
  5
31A
102
{ACAD_REACTORS
330
306
102
}
330
306
100
AcDbXrecord
 10
0.0
 20
0.0
 30
0.0
  0
XRECORD
  5
317
102
{ACAD_REACTORS
330
306
102
}
330
306
100
AcDbXrecord
 10
0.0
 20
0.0
 30
0.0
  0
XRECORD
  5
314
102
{ACAD_REACTORS
330
306
102
}
330
306
100
AcDbXrecord
340
0
  0
XRECORD
  5
315
102
{ACAD_REACTORS
330
306
102
}
330
306
100
AcDbXrecord
 70
     0
  0
XRECORD
  5
30A
102
{ACAD_REACTORS
330
306
102
}
330
306
100
AcDbXrecord
  1

  0
XRECORD
  5
307
102
{ACAD_REACTORS
330
306
102
}
330
306
100
AcDbXrecord
 90
        1
  0
XRECORD
  5
308
102
{ACAD_REACTORS
330
306
102
}
330
306
100
AcDbXrecord
 90
       70
  0
XRECORD
  5
31F
102
{ACAD_REACTORS
330
306
102
}
330
306
100
AcDbXrecord
340
0
  0
XRECORD
  5
325
102
{ACAD_REACTORS
330
306
102
}
330
306
100
AcDbXrecord
 10
0.0
 20
0.0
 30
0.0
  0
XRECORD
  5
321
102
{ACAD_REACTORS
330
306
102
}
330
306
100
AcDbXrecord
 10
0.0
 20
0.0
 30
0.0
  0
XRECORD
  5
324
102
{ACAD_REACTORS
330
306
102
}
330
306
100
AcDbXrecord
 10
0.0
 20
0.0
 30
0.0
  0
XRECORD
  5
322
102
{ACAD_REACTORS
330
306
102
}
330
306
100
AcDbXrecord
 10
0.0
 20
0.0
 30
0.0
  0
XRECORD
  5
323
102
{ACAD_REACTORS
330
306
102
}
330
306
100
AcDbXrecord
 10
0.0
 20
0.0
 30
0.0
  0
XRECORD
  5
320
102
{ACAD_REACTORS
330
306
102
}
330
306
100
AcDbXrecord
 10
0.0
 20
0.0
 30
0.0
  0
XRECORD
  5
31D
102
{ACAD_REACTORS
330
306
102
}
330
306
100
AcDbXrecord
340
0
  0
XRECORD
  5
31E
102
{ACAD_REACTORS
330
306
102
}
330
306
100
AcDbXrecord
 70
     0
  0
XRECORD
  5
312
102
{ACAD_REACTORS
330
306
102
}
330
306
100
AcDbXrecord
  1
{7A55C54D-8F9F-49CC-A3B9-3F939475F6A3}
  0
DICTIONARYVAR
  5
21D
102
{ACAD_REACTORS
330
21C
102
}
330
21C
100
DictionaryVariables
280
     0
  1
1
  0
ENDSEC
  0
EOF
