  0
SECTION
  2
HEADER
  9
$ACADVER
  1
AC1014
  9
$ACADMAINTVER
 70
     9
  9
$DWGCODEPAGE
  3
ANSI_1252
  9
$INSBASE
 10
42.39774330245938
 20
6.158263822588867
 30
0.0
  9
$EXTMIN
 10
37.10118086889812
 20
5.270902032218778
 30
0.0
  9
$EXTMAX
 10
46.88977440573305
 20
7.162718281505415
 30
0.0
  9
$LIMMIN
 10
0.0
 20
0.0
  9
$LIMMAX
 10
36.0
 20
36.0
  9
$ORTHOMODE
 70
     1
  9
$REGENMODE
 70
     1
  9
$FILLMODE
 70
     1
  9
$QTEXTMODE
 70
     0
  9
$MIRRTEXT
 70
     1
  9
$DRAGMODE
 70
     0
  9
$LTSCALE
 40
1.0
  9
$OSMODE
 70
    37
  9
$ATTMODE
 70
     1
  9
$TEXTSIZE
 40
0.2
  9
$TRACEWID
 40
0.05
  9
$TEXTSTYLE
  7
STANDARD
  9
$CLAYER
  8
0
  9
$CELTYPE
  6
BYLAYER
  9
$CECOLOR
 62
   256
  9
$CELTSCALE
 40
1.0
  9
$DELOBJ
 70
     1
  9
$DISPSILH
 70
     0
  9
$DIMSCALE
 40
1.0
  9
$DIMASZ
 40
0.125
  9
$DIMEXO
 40
0.0625
  9
$DIMDLI
 40
0.38
  9
$DIMRND
 40
0.0
  9
$DIMDLE
 40
0.0
  9
$DIMEXE
 40
0.18
  9
$DIMTP
 40
0.0
  9
$DIMTM
 40
0.0
  9
$DIMTXT
 40
0.125
  9
$DIMCEN
 40
0.1875
  9
$DIMTSZ
 40
0.125
  9
$DIMTOL
 70
     0
  9
$DIMLIM
 70
     0
  9
$DIMTIH
 70
     0
  9
$DIMTOH
 70
     0
  9
$DIMSE1
 70
     0
  9
$DIMSE2
 70
     0
  9
$DIMTAD
 70
     0
  9
$DIMZIN
 70
     3
  9
$DIMBLK
  1

  9
$DIMASO
 70
     1
  9
$DIMSHO
 70
     1
  9
$DIMPOST
  1

  9
$DIMAPOST
  1

  9
$DIMALT
 70
     0
  9
$DIMALTD
 70
     1
  9
$DIMALTF
 40
25.4
  9
$DIMLFAC
 40
1.0
  9
$DIMTOFL
 70
     0
  9
$DIMTVP
 40
0.0
  9
$DIMTIX
 70
     0
  9
$DIMSOXD
 70
     0
  9
$DIMSAH
 70
     0
  9
$DIMBLK1
  1

  9
$DIMBLK2
  1

  9
$DIMSTYLE
  2
STANDARD
  9
$DIMCLRD
 70
     0
  9
$DIMCLRE
 70
     0
  9
$DIMCLRT
 70
     0
  9
$DIMTFAC
 40
1.0
  9
$DIMGAP
 40
0.125
  9
$DIMJUST
 70
     0
  9
$DIMSD1
 70
     0
  9
$DIMSD2
 70
     0
  9
$DIMTOLJ
 70
     1
  9
$DIMTZIN
 70
     0
  9
$DIMALTZ
 70
     0
  9
$DIMALTTZ
 70
     0
  9
$DIMFIT
 70
     3
  9
$DIMUPT
 70
     0
  9
$DIMUNIT
 70
     2
  9
$DIMDEC
 70
     4
  9
$DIMTDEC
 70
     4
  9
$DIMALTU
 70
     2
  9
$DIMALTTD
 70
     2
  9
$DIMTXSTY
  7
STANDARD
  9
$DIMAUNIT
 70
     0
  9
$LUNITS
 70
     5
  9
$LUPREC
 70
     4
  9
$SKETCHINC
 40
0.1
  9
$FILLETRAD
 40
0.187
  9
$AUNITS
 70
     0
  9
$AUPREC
 70
     0
  9
$MENU
  1
acad
  9
$ELEVATION
 40
0.0
  9
$PELEVATION
 40
0.0
  9
$THICKNESS
 40
0.0
  9
$LIMCHECK
 70
     0
  9
$BLIPMODE
 70
     0
  9
$CHAMFERA
 40
0.0
  9
$CHAMFERB
 40
0.0
  9
$CHAMFERC
 40
0.0
  9
$CHAMFERD
 40
0.0
  9
$SKPOLY
 70
     0
  9
$TDCREATE
 40
2450399.632585451
  9
$TDUPDATE
 40
2452297.093979491
  9
$TDINDWG
 40
0.0088071296
  9
$TDUSRTIMER
 40
0.0088071296
  9
$USRTIMER
 70
     1
  9
$ANGBASE
 50
0.0
  9
$ANGDIR
 70
     0
  9
$PDMODE
 70
     0
  9
$PDSIZE
 40
0.0
  9
$PLINEWID
 40
0.0
  9
$COORDS
 70
     2
  9
$SPLFRAME
 70
     0
  9
$SPLINETYPE
 70
     6
  9
$SPLINESEGS
 70
     8
  9
$ATTDIA
 70
     0
  9
$ATTREQ
 70
     1
  9
$HANDLING
 70
 22529
  9
$HANDSEED
  5
31F
  9
$SURFTAB1
 70
     6
  9
$SURFTAB2
 70
     6
  9
$SURFTYPE
 70
     6
  9
$SURFU
 70
     6
  9
$SURFV
 70
     6
  9
$UCSNAME
  2

  9
$UCSORG
 10
0.0
 20
0.0
 30
0.0
  9
$UCSXDIR
 10
1.0
 20
0.0
 30
0.0
  9
$UCSYDIR
 10
0.0
 20
1.0
 30
0.0
  9
$PUCSNAME
  2

  9
$PUCSORG
 10
0.0
 20
0.0
 30
0.0
  9
$PUCSXDIR
 10
1.0
 20
0.0
 30
0.0
  9
$PUCSYDIR
 10
0.0
 20
1.0
 30
0.0
  9
$USERI1
 70
     0
  9
$USERI2
 70
     0
  9
$USERI3
 70
     0
  9
$USERI4
 70
     0
  9
$USERI5
 70
     0
  9
$USERR1
 40
0.0
  9
$USERR2
 40
0.0
  9
$USERR3
 40
0.0
  9
$USERR4
 40
0.0
  9
$USERR5
 40
0.0
  9
$WORLDVIEW
 70
     1
  9
$SHADEDGE
 70
     3
  9
$SHADEDIF
 70
    70
  9
$TILEMODE
 70
     1
  9
$MAXACTVP
 70
    15
  9
$PINSBASE
 10
0.0004882914945483
 20
0.7501408034022604
 30
0.0
  9
$PLIMCHECK
 70
     0
  9
$PEXTMIN
 10
1.000000000000000E+20
 20
1.000000000000000E+20
 30
1.000000000000000E+20
  9
$PEXTMAX
 10
-1.000000000000000E+20
 20
-1.000000000000000E+20
 30
-1.000000000000000E+20
  9
$PLIMMIN
 10
0.0
 20
0.0
  9
$PLIMMAX
 10
12.0
 20
9.0
  9
$UNITMODE
 70
     0
  9
$VISRETAIN
 70
     0
  9
$PLINEGEN
 70
     0
  9
$PSLTSCALE
 70
     1
  9
$TREEDEPTH
 70
  3020
  9
$PICKSTYLE
 70
     1
  9
$CMLSTYLE
  2
STANDARD
  9
$CMLJUST
 70
     0
  9
$CMLSCALE
 40
1.0
  9
$PROXYGRAPHICS
 70
     1
  9
$MEASUREMENT
 70
     0
  0
ENDSEC
  0
SECTION
  2
CLASSES
  0
CLASS
  1
ACDBDICTIONARYWDFLT
  2
AcDbDictionaryWithDefault
  3
AutoCAD 2000
 90
        0
280
     0
281
     0
  0
CLASS
  1
ACDBPLACEHOLDER
  2
AcDbPlaceHolder
  3
AutoCAD 2000
 90
        0
280
     0
281
     0
  0
CLASS
  1
LAYOUT
  2
AcDbLayout
  3
AutoCAD 2000
 90
        0
280
     0
281
     0
  0
CLASS
  1
DICTIONARYVAR
  2
AcDbDictionaryVar
  3
AutoCAD 2000
 90
        0
280
     0
281
     0
  0
CLASS
  1
LONG_TRANSACTION
  2
AcDbLongTransaction
  3
AutoCAD 2000
 90
        0
280
     0
281
     0
  0
CLASS
  1
LWPOLYLINE
  2
AcDbPolyline
  3
AutoCAD 2000
 90
        0
280
     0
281
     1
  0
CLASS
  1
HATCH
  2
AcDbHatch
  3
AutoCAD 2000
 90
        0
280
     0
281
     1
  0
CLASS
  1
XRECORD
  2
AcDbXrecord
  3
AutoCAD 2000
 90
        0
280
     0
281
     0
  0
CLASS
  1
LONG_TRANSACTION
  2
AcDbLongTransaction
  3
AutoCAD 2000
 90
        0
280
     0
281
     0
  0
CLASS
  1
LWPOLYLINE
  2
AcDbPolyline
  3
AutoCAD 2000
 90
        0
280
     0
281
     1
  0
CLASS
  1
HATCH
  2
AcDbHatch
  3
AutoCAD 2000
 90
        0
280
     0
281
     1
  0
CLASS
  1
XRECORD
  2
AcDbXrecord
  3
AutoCAD 2000
 90
        0
280
     0
281
     0
  0
CLASS
  1
LONG_TRANSACTION
  2
AcDbLongTransaction
  3
AutoCAD 2000
 90
        0
280
     0
281
     0
  0
CLASS
  1
LWPOLYLINE
  2
AcDbPolyline
  3
AutoCAD 2000
 90
        0
280
     0
281
     1
  0
CLASS
  1
HATCH
  2
AcDbHatch
  3
AutoCAD 2000
 90
        0
280
     0
281
     1
  0
CLASS
  1
XRECORD
  2
AcDbXrecord
  3
AutoCAD 2000
 90
        0
280
     0
281
     0
  0
CLASS
  1
LONG_TRANSACTION
  2
AcDbLongTransaction
  3
AutoCAD 2000
 90
        0
280
     0
281
     0
  0
CLASS
  1
LWPOLYLINE
  2
AcDbPolyline
  3
AutoCAD 2000
 90
        0
280
     0
281
     1
  0
CLASS
  1
HATCH
  2
AcDbHatch
  3
AutoCAD 2000
 90
        0
280
     0
281
     1
  0
CLASS
  1
XRECORD
  2
AcDbXrecord
  3
AutoCAD 2000
 90
        0
280
     0
281
     0
  0
CLASS
  1
LONG_TRANSACTION
  2
AcDbLongTransaction
  3
AutoCAD 2000
 90
        0
280
     0
281
     0
  0
CLASS
  1
LWPOLYLINE
  2
AcDbPolyline
  3
AutoCAD 2000
 90
        0
280
     0
281
     1
  0
CLASS
  1
HATCH
  2
AcDbHatch
  3
AutoCAD 2000
 90
        0
280
     0
281
     1
  0
CLASS
  1
XRECORD
  2
AcDbXrecord
  3
AutoCAD 2000
 90
        0
280
     0
281
     0
  0
ENDSEC
  0
SECTION
  2
TABLES
  0
TABLE
  2
VPORT
  5
8
330
0
100
AcDbSymbolTable
 70
     2
  0
VPORT
  5
2FC
330
8
100
AcDbSymbolTableRecord
100
AcDbViewportTableRecord
  2
*ACTIVE
 70
     0
 10
0.0
 20
0.0
 11
1.0
 21
1.0
 12
42.00466144845259
 22
6.217163156039507
 13
0.0
 23
0.0
 14
0.5740882589684922
 24
0.5740882589684922
 15
0.5
 25
0.5
 16
0.0
 26
0.0
 36
1.0
 17
0.0
 27
0.0
 37
0.0
 40
6.274689723370205
 41
1.570528967254408
 42
50.0
 43
0.0
 44
0.0
 50
0.0
 51
0.0
 71
     0
 72
   100
 73
     1
 74
     0
 75
     0
 76
     0
 77
     0
 78
     0
  0
ENDTAB
  0
TABLE
  2
LTYPE
  5
5
330
0
100
AcDbSymbolTable
 70
     1
  0
LTYPE
  5
12
330
5
100
AcDbSymbolTableRecord
100
AcDbLinetypeTableRecord
  2
BYBLOCK
 70
     0
  3

 72
    65
 73
     0
 40
0.0
  0
LTYPE
  5
13
330
5
100
AcDbSymbolTableRecord
100
AcDbLinetypeTableRecord
  2
BYLAYER
 70
     0
  3

 72
    65
 73
     0
 40
0.0
  0
LTYPE
  5
14
330
5
100
AcDbSymbolTableRecord
100
AcDbLinetypeTableRecord
  2
CONTINUOUS
 70
     0
  3
Solid line
 72
    65
 73
     0
 40
0.0
  0
ENDTAB
  0
TABLE
  2
LAYER
  5
2
330
0
100
AcDbSymbolTable
 70
     4
  0
LAYER
  5
F
330
2
100
AcDbSymbolTableRecord
100
AcDbLayerTableRecord
  2
0
 70
     0
 62
     7
  6
CONTINUOUS
  0
LAYER
  5
165
330
2
100
AcDbSymbolTableRecord
100
AcDbLayerTableRecord
  2
ADP1DETAIL
 70
     0
 62
     7
  6
CONTINUOUS
  0
LAYER
  5
167
330
2
100
AcDbSymbolTableRecord
100
AcDbLayerTableRecord
  2
DEFPOINTS
 70
     0
 62
     7
  6
CONTINUOUS
  0
LAYER
  5
16A
330
2
100
AcDbSymbolTableRecord
100
AcDbLayerTableRecord
  2
ADPDIM
 70
     0
 62
     3
  6
CONTINUOUS
  0
ENDTAB
  0
TABLE
  2
STYLE
  5
3
330
0
100
AcDbSymbolTable
 70
     2
  0
STYLE
  5
10
330
3
100
AcDbSymbolTableRecord
100
AcDbTextStyleTableRecord
  2
STANDARD
 70
     0
 40
0.0
 41
1.0
 50
0.0
 71
     0
 42
0.2
  3
txt
  4

  0
STYLE
  5
1B8
330
3
100
AcDbSymbolTableRecord
100
AcDbTextStyleTableRecord
  2
ARIAL_WIDE
 70
     0
 40
0.0
 41
1.25
 50
0.0
 71
     0
 42
0.2
  3
ARIAL.TTF
  4

1001
ACAD
1000
Arial
1071
       34
  0
ENDTAB
  0
TABLE
  2
VIEW
  5
6
330
0
100
AcDbSymbolTable
 70
     0
  0
ENDTAB
  0
TABLE
  2
UCS
  5
7
330
0
100
AcDbSymbolTable
 70
     0
  0
ENDTAB
  0
TABLE
  2
APPID
  5
9
330
0
100
AcDbSymbolTable
 70
     1
  0
APPID
  5
11
330
9
100
AcDbSymbolTableRecord
100
AcDbRegAppTableRecord
  2
ACAD
 70
     0
  0
ENDTAB
  0
TABLE
  2
DIMSTYLE
  5
A
330
0
100
AcDbSymbolTable
 70
     1
  0
DIMSTYLE
105
1AC
330
A
100
AcDbSymbolTableRecord
100
AcDbDimStyleTableRecord
  2
STANDARD
 70
     0
  3

  4

  5

  6

  7

 40
1.0
 41
0.18
 42
0.0625
 43
0.38
 44
0.18
 45
0.0
 46
0.0
 47
0.0
 48
0.0
140
0.18
141
0.09
142
0.0
143
25.4
144
1.0
145
0.0
146
1.0
147
0.09
 71
     0
 72
     0
 73
     1
 74
     1
 75
     0
 76
     0
 77
     0
 78
     0
170
     0
171
     2
172
     0
173
     0
174
     0
175
     0
176
     0
177
     0
178
     0
270
     2
271
     4
272
     4
273
     2
274
     2
340
10
275
     0
280
     0
281
     0
282
     0
283
     1
284
     0
285
     0
286
     0
287
     3
288
     0
  0
ENDTAB
  0
TABLE
  2
BLOCK_RECORD
  5
1
330
0
100
AcDbSymbolTable
 70
     2
  0
BLOCK_RECORD
  5
18
102
{ACAD_XDICTIONARY
360
20D
102
}
330
1
100
AcDbSymbolTableRecord
100
AcDbBlockTableRecord
  2
*MODEL_SPACE
  0
BLOCK_RECORD
  5
15
102
{ACAD_XDICTIONARY
360
20B
102
}
330
1
100
AcDbSymbolTableRecord
100
AcDbBlockTableRecord
  2
*PAPER_SPACE
  0
BLOCK_RECORD
  5
160
330
1
100
AcDbSymbolTableRecord
100
AcDbBlockTableRecord
  2
*D0
  0
BLOCK_RECORD
  5
161
330
1
100
AcDbSymbolTableRecord
100
AcDbBlockTableRecord
  2
*D1
  0
ENDTAB
  0
ENDSEC
  0
SECTION
  2
BLOCKS
  0
BLOCK
  5
16D
330
18
100
AcDbEntity
  8
0
100
AcDbBlockBegin
  2
*MODEL_SPACE
 70
     0
 10
0.0
 20
0.0
 30
0.0
  3
*MODEL_SPACE
  1

  0
ENDBLK
  5
16E
330
18
100
AcDbEntity
  8
0
100
AcDbBlockEnd
  0
BLOCK
  5
16B
330
15
100
AcDbEntity
 67
     1
  8
0
100
AcDbBlockBegin
  2
*PAPER_SPACE
 70
     0
 10
0.0
 20
0.0
 30
0.0
  3
*PAPER_SPACE
  1

  0
ENDBLK
  5
16C
330
15
100
AcDbEntity
 67
     1
  8
0
100
AcDbBlockEnd
  0
BLOCK
  5
170
330
160
100
AcDbEntity
  8
0
100
AcDbBlockBegin
  2
*D0
 70
     1
 10
0.0
 20
0.0
 30
0.0
  3
*D0
  1

  0
LINE
  5
171
330
160
100
AcDbEntity
  8
0
  6
BYBLOCK
 62
     0
100
AcDbLine
 10
41.6122561495007
 20
6.064857335478648
 30
0.0
 11
41.6122561495007
 21
5.597327819678905
 31
0.0
  0
LINE
  5
172
330
160
100
AcDbEntity
  8
0
  6
BYBLOCK
 62
     0
100
AcDbLine
 10
42.39142480603011
 20
6.088012912779475
 30
0.0
 11
42.39142480603011
 21
5.597327819678905
 31
0.0
  0
LINE
  5
173
330
160
100
AcDbEntity
  8
0
  6
BYBLOCK
 62
     0
100
AcDbLine
 10
41.6122561495007
 20
5.777327819678904
 30
0.0
 11
41.3622561495007
 21
5.777327819678904
 31
0.0
  0
LINE
  5
174
330
160
100
AcDbEntity
  8
0
  6
BYBLOCK
 62
     0
100
AcDbLine
 10
42.39142480603011
 20
5.777327819678904
 30
0.0
 11
42.64142480603012
 21
5.777327819678904
 31
0.0
  0
LINE
  5
175
330
160
100
AcDbEntity
  8
0
  6
BYBLOCK
 62
     0
100
AcDbLine
 10
41.4872561495007
 20
5.652327819678904
 30
0.0
 11
41.7372561495007
 21
5.902327819678904
 31
0.0
  0
LINE
  5
176
330
160
100
AcDbEntity
  8
0
  6
BYBLOCK
 62
     0
100
AcDbLine
 10
42.26642480603011
 20
5.652327819678904
 30
0.0
 11
42.51642480603011
 21
5.902327819678904
 31
0.0
  0
TEXT
  5
177
330
160
100
AcDbEntity
  8
0
  6
BYBLOCK
 62
     0
100
AcDbText
 10
42.76642480603011
 20
5.714827819678904
 30
0.0
 40
0.125
  1
3/4
 72
     1
 11
42.93309147269678
 21
5.777327819678904
 31
0.0
100
AcDbText
 73
     2
  0
POINT
  5
178
330
160
100
AcDbEntity
  8
DEFPOINTS
  6
BYBLOCK
 62
     0
100
AcDbPoint
 10
41.6122561495007
 20
6.127357335478648
 30
0.0
  0
POINT
  5
179
330
160
100
AcDbEntity
  8
DEFPOINTS
  6
BYBLOCK
 62
     0
100
AcDbPoint
 10
42.39142480603011
 20
6.150512912779475
 30
0.0
  0
POINT
  5
17A
330
160
100
AcDbEntity
  8
DEFPOINTS
  6
BYBLOCK
 62
     0
100
AcDbPoint
 10
42.39142480603011
 20
5.777327819678904
 30
0.0
  0
ENDBLK
  5
17B
330
160
100
AcDbEntity
  8
0
100
AcDbBlockEnd
  0
BLOCK
  5
17C
330
161
100
AcDbEntity
  8
0
100
AcDbBlockBegin
  2
*D1
 70
     1
 10
0.0
 20
0.0
 30
0.0
  3
*D1
  1

  0
LINE
  5
17D
330
161
100
AcDbEntity
  8
0
  6
BYBLOCK
 62
     0
100
AcDbLine
 10
42.73372549142796
 20
6.679713181175745
 30
0.0
 11
42.73372549142796
 21
7.162718281505415
 31
0.0
  0
LINE
  5
17E
330
161
100
AcDbEntity
  8
0
  6
BYBLOCK
 62
     0
100
AcDbLine
 10
41.25966352477326
 20
6.679713181175741
 30
0.0
 11
41.25966352477326
 21
7.162718281505415
 31
0.0
  0
LINE
  5
17F
330
161
100
AcDbEntity
  8
0
  6
BYBLOCK
 62
     0
100
AcDbLine
 10
42.73372549142796
 20
6.982718281505415
 30
0.0
 11
42.37169450810061
 21
6.982718281505415
 31
0.0
  0
LINE
  5
180
330
161
100
AcDbEntity
  8
0
  6
BYBLOCK
 62
     0
100
AcDbLine
 10
41.25966352477326
 20
6.982718281505415
 30
0.0
 11
41.6216945081006
 21
6.982718281505415
 31
0.0
  0
LINE
  5
181
330
161
100
AcDbEntity
  8
0
  6
BYBLOCK
 62
     0
100
AcDbLine
 10
42.60872549142796
 20
6.857718281505415
 30
0.0
 11
42.85872549142796
 21
7.107718281505415
 31
0.0
  0
LINE
  5
182
330
161
100
AcDbEntity
  8
0
  6
BYBLOCK
 62
     0
100
AcDbLine
 10
41.13466352477326
 20
6.857718281505415
 30
0.0
 11
41.38466352477325
 21
7.107718281505415
 31
0.0
  0
TEXT
  5
183
330
161
100
AcDbEntity
  8
0
  6
BYBLOCK
 62
     0
100
AcDbText
 10
41.74669450810061
 20
6.920218281505415
 30
0.0
 40
0.125
  1
1 1/2
 72
     1
 11
41.99669450810061
 21
6.982718281505415
 31
0.0
100
AcDbText
 73
     2
  0
POINT
  5
184
330
161
100
AcDbEntity
  8
DEFPOINTS
  6
BYBLOCK
 62
     0
100
AcDbPoint
 10
42.73372549142796
 20
6.617213181175745
 30
0.0
  0
POINT
  5
185
330
161
100
AcDbEntity
  8
DEFPOINTS
  6
BYBLOCK
 62
     0
100
AcDbPoint
 10
41.25966352477326
 20
6.617213181175741
 30
0.0
  0
POINT
  5
186
330
161
100
AcDbEntity
  8
DEFPOINTS
  6
BYBLOCK
 62
     0
100
AcDbPoint
 10
41.25966352477326
 20
6.982718281505415
 30
0.0
  0
ENDBLK
  5
187
330
161
100
AcDbEntity
  8
0
100
AcDbBlockEnd
  0
ENDSEC
  0
SECTION
  2
ENTITIES
  0
ARC
  5
188
330
18
100
AcDbEntity
  8
ADP1DETAIL
100
AcDbCircle
 10
41.99669450810061
 20
8.107432841566794
 30
0.0
 40
2.0
100
AcDbArc
 50
250.8963068687776
 51
258.3734361054359
  0
ARC
  5
189
330
18
100
AcDbEntity
  8
ADP1DETAIL
100
AcDbCircle
 10
41.99614571374183
 20
4.825432841566793
 30
0.0
 40
2.0
100
AcDbArc
 50
89.98427819951345
 51
109.0849019675257
  0
ARC
  5
18A
330
18
100
AcDbEntity
  8
ADP1DETAIL
100
AcDbCircle
 10
42.19762156711172
 20
6.466432841566795
 30
0.0
 40
0.95
100
AcDbArc
 50
170.8676153396335
 51
189.1182350401342
  0
ARC
  5
18B
330
18
100
AcDbEntity
  8
ADP1DETAIL
100
AcDbCircle
 10
41.38304674468613
 20
6.33569318166853
 30
0.0
 40
0.125
100
AcDbArc
 50
189.1182350401342
 51
250.8963068687771
  0
ARC
  5
18C
330
18
100
AcDbEntity
  8
ADP1DETAIL
100
AcDbCircle
 10
41.3830790566599
 20
6.597373662806144
 30
0.0
 40
0.125
100
AcDbArc
 50
109.0849019675253
 51
170.8676153396335
  0
ARC
  5
18D
330
18
100
AcDbEntity
  8
ADP1DETAIL
100
AcDbCircle
 10
41.99669450810061
 20
8.107432841566794
 30
0.0
 40
2.0
100
AcDbArc
 50
281.626563894564
 51
289.1036931312223
  0
ARC
  5
18E
330
18
100
AcDbEntity
  8
ADP1DETAIL
100
AcDbCircle
 10
41.99724330245937
 20
4.825432841566793
 30
0.0
 40
2.0
100
AcDbArc
 50
70.91509803247429
 51
90.01572180048654
  0
LINE
  5
18F
330
18
100
AcDbEntity
  8
ADP1DETAIL
100
AcDbLine
 10
41.99547763731558
 20
6.590432841566793
 30
0.0
 11
41.63414571374183
 21
6.590432841566793
 31
0.0
  0
ARC
  5
190
330
18
100
AcDbEntity
  8
ADP1DETAIL
100
AcDbCircle
 10
41.86664571374183
 20
6.210432841566794
 30
0.0
 40
0.01
100
AcDbArc
 50
270.0
 51
0.0000000000000254
  0
LINE
  5
191
330
18
100
AcDbEntity
  8
ADP1DETAIL
100
AcDbLine
 10
41.87664571374184
 20
6.294432841566794
 30
0.0
 11
41.87664571374184
 21
6.210432841566794
 31
0.0
  0
LINE
  5
192
330
18
100
AcDbEntity
  8
ADP1DETAIL
100
AcDbLine
 10
41.62414571374183
 20
6.580432841566792
 30
0.0
 11
41.62414571374183
 21
6.335432841566794
 31
0.0
  0
LINE
  5
193
330
18
100
AcDbEntity
  8
ADP1DETAIL
100
AcDbLine
 10
41.63414571374183
 20
6.325432841566793
 30
0.0
 11
41.84564571374183
 21
6.325432841566793
 31
0.0
  0
ARC
  5
194
330
18
100
AcDbEntity
  8
ADP1DETAIL
100
AcDbCircle
 10
41.63414571374183
 20
6.335432841566794
 30
0.0
 40
0.01
100
AcDbArc
 50
180.0
 51
270.0
  0
ARC
  5
195
330
18
100
AcDbEntity
  8
ADP1DETAIL
100
AcDbCircle
 10
41.59564571374183
 20
6.158263822588867
 30
0.0
 40
0.01
100
AcDbArc
 50
258.3734361054343
 51
0.0
  0
LINE
  5
196
330
18
100
AcDbEntity
  8
ADP1DETAIL
100
AcDbLine
 10
41.60564571374183
 20
6.190432841566791
 30
0.0
 11
41.60564571374183
 21
6.158263822588867
 31
0.0
  0
ARC
  5
197
330
18
100
AcDbEntity
  8
ADP1DETAIL
100
AcDbCircle
 10
41.61564571374183
 20
6.190432841566791
 30
0.0
 40
0.01
100
AcDbArc
 50
90.0
 51
180.0
  0
ARC
  5
198
330
18
100
AcDbEntity
  8
ADP1DETAIL
100
AcDbCircle
 10
41.63414571374183
 20
6.580432841566792
 30
0.0
 40
0.01
100
AcDbArc
 50
90.0
 51
180.0
  0
LINE
  5
199
330
18
100
AcDbEntity
  8
ADP1DETAIL
100
AcDbLine
 10
41.86664571374183
 20
6.200432841566793
 30
0.0
 11
41.61564571374183
 21
6.200432841566793
 31
0.0
  0
ARC
  5
19A
330
18
100
AcDbEntity
  8
ADP1DETAIL
100
AcDbCircle
 10
41.84564571374183
 20
6.294432841566794
 30
0.0
 40
0.031
100
AcDbArc
 50
0.0
 51
90.0
  0
LINE
  5
19B
330
18
100
AcDbEntity
  8
ADP1DETAIL
100
AcDbLine
 10
42.36924330245939
 20
6.580432841566792
 30
0.0
 11
42.36924330245939
 21
6.335432841566794
 31
0.0
  0
LINE
  5
19C
330
18
100
AcDbEntity
  8
ADP1DETAIL
100
AcDbLine
 10
42.35924330245938
 20
6.325432841566793
 30
0.0
 11
42.14774330245939
 21
6.325432841566793
 31
0.0
  0
LINE
  5
19D
330
18
100
AcDbEntity
  8
ADP1DETAIL
100
AcDbLine
 10
42.12674330245938
 20
6.200432841566793
 30
0.0
 11
42.37774330245938
 21
6.200432841566793
 31
0.0
  0
ARC
  5
19E
330
18
100
AcDbEntity
  8
ADP1DETAIL
100
AcDbCircle
 10
42.14774330245939
 20
6.294432841566794
 30
0.0
 40
0.031
100
AcDbArc
 50
90.0
 51
180.0
  0
ARC
  5
19F
330
18
100
AcDbEntity
  8
ADP1DETAIL
100
AcDbCircle
 10
42.12674330245938
 20
6.210432841566794
 30
0.0
 40
0.01
100
AcDbArc
 50
179.9999999999999
 51
270.0
  0
LINE
  5
1A0
330
18
100
AcDbEntity
  8
ADP1DETAIL
100
AcDbLine
 10
42.11674330245938
 20
6.294432841566794
 30
0.0
 11
42.11674330245938
 21
6.210432841566794
 31
0.0
  0
ARC
  5
1A1
330
18
100
AcDbEntity
  8
ADP1DETAIL
100
AcDbCircle
 10
42.35924330245938
 20
6.335432841566794
 30
0.0
 40
0.01
100
AcDbArc
 50
270.0
 51
0.000000000000007
  0
ARC
  5
1A2
330
18
100
AcDbEntity
  8
ADP1DETAIL
100
AcDbCircle
 10
42.37774330245938
 20
6.190432841566791
 30
0.0
 40
0.01
100
AcDbArc
 50
0.000000000000007
 51
90.0
  0
LINE
  5
1A3
330
18
100
AcDbEntity
  8
ADP1DETAIL
100
AcDbLine
 10
42.38774330245938
 20
6.190432841566791
 30
0.0
 11
42.38774330245938
 21
6.158263822588867
 31
0.0
  0
ARC
  5
1A4
330
18
100
AcDbEntity
  8
ADP1DETAIL
100
AcDbCircle
 10
42.39774330245938
 20
6.158263822588867
 30
0.0
 40
0.01
100
AcDbArc
 50
180.0
 51
281.6265638945655
  0
ARC
  5
1A5
330
18
100
AcDbEntity
  8
ADP1DETAIL
100
AcDbCircle
 10
42.35924330245938
 20
6.580432841566792
 30
0.0
 40
0.01
100
AcDbArc
 50
0.000000000000007
 51
90.0
  0
LINE
  5
1A6
330
18
100
AcDbEntity
  8
ADP1DETAIL
100
AcDbLine
 10
41.99791137888563
 20
6.590432841566793
 30
0.0
 11
42.35924330245938
 21
6.590432841566793
 31
0.0
  0
ARC
  5
1A7
330
18
100
AcDbEntity
  8
ADP1DETAIL
100
AcDbCircle
 10
41.79576744908949
 20
6.466432841566795
 30
0.0
 40
0.95
100
AcDbArc
 50
350.8817649598658
 51
9.13238466036644
  0
ARC
  5
1A8
330
18
100
AcDbEntity
  8
ADP1DETAIL
100
AcDbCircle
 10
42.61034227151507
 20
6.33569318166853
 30
0.0
 40
0.125
100
AcDbArc
 50
289.1036931312228
 51
350.8817649598658
  0
ARC
  5
1A9
330
18
100
AcDbEntity
  8
ADP1DETAIL
100
AcDbCircle
 10
42.61030995954132
 20
6.597373662806144
 30
0.0
 40
0.125
100
AcDbArc
 50
9.13238466036649
 51
70.91509803247467
  0
DIMENSION
  5
1AA
330
18
100
AcDbEntity
  8
ADPDIM
100
AcDbDimension
  2
*D0
 10
42.39142480603011
 20
5.777327819678904
 30
0.0
 11
42.93309147269678
 21
5.777327819678904
 31
0.0
100
AcDbAlignedDimension
 13
41.6122561495007
 23
6.127357335478648
 33
0.0
 14
42.39142480603011
 24
6.150512912779475
 34
0.0
100
AcDbRotatedDimension
  0
DIMENSION
  5
1AB
330
18
100
AcDbEntity
  8
ADPDIM
100
AcDbDimension
  2
*D1
 10
41.25966352477326
 20
6.982718281505415
 30
0.0
 11
41.99669450810061
 21
6.982718281505415
 31
0.0
100
AcDbAlignedDimension
 13
42.73372549142796
 23
6.617213181175745
 33
0.0
 14
41.25966352477326
 24
6.617213181175741
 34
0.0
100
AcDbRotatedDimension
  0
TEXT
  5
1B9
330
18
100
AcDbEntity
  8
ADPDIM
100
AcDbText
 10
37.10118086889812
 20
5.298656124988219
 30
0.0
 40
0.09375
  1
J U L I U S  B L U M  &  C O . ,  I N C .      ( 8 0 0 )  5 2 6 - 6 2 9 3        W W W . J U L I U S B L U M . C O M        P A R T  N o .  6 5 3 1
 41
1.25
  7
ARIAL_WIDE
 72
     1
 11
41.99547763731558
 21
5.392406124988219
 31
0.0
100
AcDbText
 73
     3
  0
ENDSEC
  0
SECTION
  2
OBJECTS
  0
DICTIONARY
  5
C
330
0
100
AcDbDictionary
  3
ACAD_GROUP
350
D
  3
ACAD_LAYOUT
350
1B2
  3
ACAD_MLINESTYLE
350
E
  3
ACAD_PLOTSETTINGS
350
1B3
  3
ACAD_PLOTSTYLENAME
350
1B0
  3
ACDBHEADERROUNDTRIPXREC
350
2FD
  3
ACDBVARIABLEDICTIONARY
350
213
  0
DICTIONARY
  5
20D
330
18
100
AcDbDictionary
280
     1
  3
ACAD_LAYOUTSELFREF
360
31E
  0
DICTIONARY
  5
20B
330
15
100
AcDbDictionary
280
     1
  3
ACAD_LAYOUTSELFREF
360
31D
  0
DICTIONARY
  5
D
102
{ACAD_REACTORS
330
C
102
}
330
C
100
AcDbDictionary
  0
DICTIONARY
  5
1B2
102
{ACAD_REACTORS
330
C
102
}
330
C
100
AcDbDictionary
  0
DICTIONARY
  5
E
102
{ACAD_REACTORS
330
C
102
}
330
C
100
AcDbDictionary
  3
STANDARD
350
1B
  0
DICTIONARY
  5
1B3
102
{ACAD_REACTORS
330
C
102
}
330
C
100
AcDbDictionary
  0
ACDBDICTIONARYWDFLT
  5
1B0
102
{ACAD_REACTORS
330
C
102
}
330
C
100
AcDbDictionary
281
     1
  3
Normal
350
1B1
100
AcDbDictionaryWithDefault
340
1B1
  0
DICTIONARY
  5
2FD
102
{ACAD_REACTORS
330
C
102
}
330
C
100
AcDbDictionary
  3
CEPSNTYPE
350
307
  3
FINGERPRINTGUID
350
308
  3
HYPERLINKBASE
350
300
  3
INSUNITS
350
306
  3
LAYOUTDICT
350
302
  3
LWETCUNION
350
305
  3
PLOTSETDICT
350
303
  3
PLOTSTYLNAMDICT
350
304
  3
PSVPSCALE
350
30A
  3
PUCSBASE
350
30D
  3
PUCSORGBACK
350
313
  3
PUCSORGBOTTOM
350
30F
  3
PUCSORGFRONT
350
312
  3
PUCSORGLEFT
350
310
  3
PUCSORGRIGHT
350
311
  3
PUCSORGTOP
350
30E
  3
PUCSORTHOREF
350
30B
  3
PUCSORTHOVIEW
350
30C
  3
STYLESHEET
350
301
  3
TSTACKALIGN
350
2FE
  3
TSTACKSIZE
350
2FF
  3
UCSBASE
350
316
  3
UCSORGBACK
350
31C
  3
UCSORGBOTTOM
350
318
  3
UCSORGFRONT
350
31B
  3
UCSORGLEFT
350
319
  3
UCSORGRIGHT
350
31A
  3
UCSORGTOP
350
317
  3
UCSORTHOREF
350
314
  3
UCSORTHOVIEW
350
315
  3
VERSIONGUID
350
309
  0
DICTIONARY
  5
213
102
{ACAD_REACTORS
330
C
102
}
330
C
100
AcDbDictionary
  3
DIMASSOC
350
214
  0
XRECORD
  5
31E
102
{ACAD_REACTORS
330
20D
102
}
330
20D
100
AcDbXrecord
340
18
  0
XRECORD
  5
31D
102
{ACAD_REACTORS
330
20B
102
}
330
20B
100
AcDbXrecord
340
15
  0
MLINESTYLE
  5
1B
102
{ACAD_REACTORS
330
E
102
}
330
E
100
AcDbMlineStyle
  2
STANDARD
 70
     0
  3

 62
     0
 51
90.0
 52
90.0
 71
     2
 49
0.5
 62
   256
  6
BYLAYER
 49
-0.5
 62
   256
  6
BYLAYER
  0
ACDBPLACEHOLDER
  5
1B1
102
{ACAD_REACTORS
330
1B0
102
}
330
1B0
100
AcDbPlaceHolder
280
     0
  0
XRECORD
  5
307
102
{ACAD_REACTORS
330
2FD
102
}
330
2FD
100
AcDbXrecord
 90
        0
  0
XRECORD
  5
308
102
{ACAD_REACTORS
330
2FD
102
}
330
2FD
100
AcDbXrecord
  1
{1F4F51EA-36F7-4022-9C80-73BA7ED7A1F4}
  0
XRECORD
  5
300
102
{ACAD_REACTORS
330
2FD
102
}
330
2FD
100
AcDbXrecord
  1

  0
XRECORD
  5
306
102
{ACAD_REACTORS
330
2FD
102
}
330
2FD
100
AcDbXrecord
 90
        0
  0
XRECORD
  5
302
102
{ACAD_REACTORS
330
2FD
102
}
330
2FD
100
AcDbXrecord
340
1B2
  0
XRECORD
  5
305
102
{ACAD_REACTORS
330
2FD
102
}
330
2FD
100
AcDbXrecord
 90
    14877
  0
XRECORD
  5
303
102
{ACAD_REACTORS
330
2FD
102
}
330
2FD
100
AcDbXrecord
340
1B3
  0
XRECORD
  5
304
102
{ACAD_REACTORS
330
2FD
102
}
330
2FD
100
AcDbXrecord
340
1B0
  0
XRECORD
  5
30A
102
{ACAD_REACTORS
330
2FD
102
}
330
2FD
100
AcDbXrecord
 40
0.0
  0
XRECORD
  5
30D
102
{ACAD_REACTORS
330
2FD
102
}
330
2FD
100
AcDbXrecord
340
0
  0
XRECORD
  5
313
102
{ACAD_REACTORS
330
2FD
102
}
330
2FD
100
AcDbXrecord
 10
0.0
 20
0.0
 30
0.0
  0
XRECORD
  5
30F
102
{ACAD_REACTORS
330
2FD
102
}
330
2FD
100
AcDbXrecord
 10
0.0
 20
0.0
 30
0.0
  0
XRECORD
  5
312
102
{ACAD_REACTORS
330
2FD
102
}
330
2FD
100
AcDbXrecord
 10
0.0
 20
0.0
 30
0.0
  0
XRECORD
  5
310
102
{ACAD_REACTORS
330
2FD
102
}
330
2FD
100
AcDbXrecord
 10
0.0
 20
0.0
 30
0.0
  0
XRECORD
  5
311
102
{ACAD_REACTORS
330
2FD
102
}
330
2FD
100
AcDbXrecord
 10
0.0
 20
0.0
 30
0.0
  0
XRECORD
  5
30E
102
{ACAD_REACTORS
330
2FD
102
}
330
2FD
100
AcDbXrecord
 10
0.0
 20
0.0
 30
0.0
  0
XRECORD
  5
30B
102
{ACAD_REACTORS
330
2FD
102
}
330
2FD
100
AcDbXrecord
340
0
  0
XRECORD
  5
30C
102
{ACAD_REACTORS
330
2FD
102
}
330
2FD
100
AcDbXrecord
 70
     0
  0
XRECORD
  5
301
102
{ACAD_REACTORS
330
2FD
102
}
330
2FD
100
AcDbXrecord
  1

  0
XRECORD
  5
2FE
102
{ACAD_REACTORS
330
2FD
102
}
330
2FD
100
AcDbXrecord
 90
        1
  0
XRECORD
  5
2FF
102
{ACAD_REACTORS
330
2FD
102
}
330
2FD
100
AcDbXrecord
 90
       70
  0
XRECORD
  5
316
102
{ACAD_REACTORS
330
2FD
102
}
330
2FD
100
AcDbXrecord
340
0
  0
XRECORD
  5
31C
102
{ACAD_REACTORS
330
2FD
102
}
330
2FD
100
AcDbXrecord
 10
0.0
 20
0.0
 30
0.0
  0
XRECORD
  5
318
102
{ACAD_REACTORS
330
2FD
102
}
330
2FD
100
AcDbXrecord
 10
0.0
 20
0.0
 30
0.0
  0
XRECORD
  5
31B
102
{ACAD_REACTORS
330
2FD
102
}
330
2FD
100
AcDbXrecord
 10
0.0
 20
0.0
 30
0.0
  0
XRECORD
  5
319
102
{ACAD_REACTORS
330
2FD
102
}
330
2FD
100
AcDbXrecord
 10
0.0
 20
0.0
 30
0.0
  0
XRECORD
  5
31A
102
{ACAD_REACTORS
330
2FD
102
}
330
2FD
100
AcDbXrecord
 10
0.0
 20
0.0
 30
0.0
  0
XRECORD
  5
317
102
{ACAD_REACTORS
330
2FD
102
}
330
2FD
100
AcDbXrecord
 10
0.0
 20
0.0
 30
0.0
  0
XRECORD
  5
314
102
{ACAD_REACTORS
330
2FD
102
}
330
2FD
100
AcDbXrecord
340
0
  0
XRECORD
  5
315
102
{ACAD_REACTORS
330
2FD
102
}
330
2FD
100
AcDbXrecord
 70
     0
  0
XRECORD
  5
309
102
{ACAD_REACTORS
330
2FD
102
}
330
2FD
100
AcDbXrecord
  1
{488A9EB6-F8A3-496E-A6D5-083A3C2FB66B}
  0
DICTIONARYVAR
  5
214
102
{ACAD_REACTORS
330
213
102
}
330
213
100
DictionaryVariables
280
     0
  1
1
  0
ENDSEC
  0
EOF
