  0
SECTION
  2
HEADER
  9
$ACADVER
  1
AC1015
  9
$ACADMAINTVER
 70
    20
  9
$DWGCODEPAGE
  3
ANSI_936
  9
$INSBASE
 10
14.57367124746724
 20
2.785443784442246
 30
0.0
  9
$EXTMIN
 10
6.892822357468332
 20
1.622131433363691
 30
-0.0000000000000058
  9
$EXTMAX
 10
20.16430670600886
 20
5.448120165439462
 30
0.0000000000000104
  9
$LIMMIN
 10
0.0
 20
0.0
  9
$LIMMAX
 10
36.0
 20
36.0
  9
$ORTHOMODE
 70
     0
  9
$REGENMODE
 70
     1
  9
$FILLMODE
 70
     1
  9
$QTEXTMODE
 70
     0
  9
$MIRRTEXT
 70
     1
  9
$LTSCALE
 40
1.0
  9
$ATTMODE
 70
     1
  9
$TEXTSIZE
 40
0.2
  9
$TRACEWID
 40
0.05
  9
$TEXTSTYLE
  7
STANDARD
  9
$CLAYER
  8
0
  9
$CELTYPE
  6
BYLAYER
  9
$CECOLOR
 62
   256
  9
$CELTSCALE
 40
1.0
  9
$DISPSILH
 70
     0
  9
$DIMSCALE
 40
1.0
  9
$DIMASZ
 40
0.125
  9
$DIMEXO
 40
0.0625
  9
$DIMDLI
 40
0.38
  9
$DIMRND
 40
0.0
  9
$DIMDLE
 40
0.0
  9
$DIMEXE
 40
0.18
  9
$DIMTP
 40
0.0
  9
$DIMTM
 40
0.0
  9
$DIMTXT
 40
0.125
  9
$DIMCEN
 40
0.1875
  9
$DIMTSZ
 40
0.125
  9
$DIMTOL
 70
     0
  9
$DIMLIM
 70
     0
  9
$DIMTIH
 70
     0
  9
$DIMTOH
 70
     0
  9
$DIMSE1
 70
     0
  9
$DIMSE2
 70
     0
  9
$DIMTAD
 70
     0
  9
$DIMZIN
 70
     3
  9
$DIMBLK
  1

  9
$DIMASO
 70
     1
  9
$DIMSHO
 70
     1
  9
$DIMPOST
  1

  9
$DIMAPOST
  1

  9
$DIMALT
 70
     0
  9
$DIMALTD
 70
     1
  9
$DIMALTF
 40
25.4
  9
$DIMLFAC
 40
1.0
  9
$DIMTOFL
 70
     0
  9
$DIMTVP
 40
0.0
  9
$DIMTIX
 70
     0
  9
$DIMSOXD
 70
     0
  9
$DIMSAH
 70
     0
  9
$DIMBLK1
  1

  9
$DIMBLK2
  1

  9
$DIMSTYLE
  2
STANDARD
  9
$DIMCLRD
 70
     0
  9
$DIMCLRE
 70
     0
  9
$DIMCLRT
 70
     0
  9
$DIMTFAC
 40
1.0
  9
$DIMGAP
 40
0.125
  9
$DIMJUST
 70
     0
  9
$DIMSD1
 70
     0
  9
$DIMSD2
 70
     0
  9
$DIMTOLJ
 70
     1
  9
$DIMTZIN
 70
     0
  9
$DIMALTZ
 70
     0
  9
$DIMALTTZ
 70
     0
  9
$DIMUPT
 70
     0
  9
$DIMDEC
 70
     4
  9
$DIMTDEC
 70
     4
  9
$DIMALTU
 70
     2
  9
$DIMALTTD
 70
     2
  9
$DIMTXSTY
  7
STANDARD
  9
$DIMAUNIT
 70
     0
  9
$DIMADEC
 70
     0
  9
$DIMALTRND
 40
0.0
  9
$DIMAZIN
 70
     0
  9
$DIMDSEP
 70
    46
  9
$DIMATFIT
 70
     3
  9
$DIMFRAC
 70
     0
  9
$DIMLDRBLK
  1

  9
$DIMLUNIT
 70
     2
  9
$DIMLWD
 70
    -2
  9
$DIMLWE
 70
    -2
  9
$DIMTMOVE
 70
     0
  9
$LUNITS
 70
     5
  9
$LUPREC
 70
     4
  9
$SKETCHINC
 40
0.1
  9
$FILLETRAD
 40
0.187
  9
$AUNITS
 70
     0
  9
$AUPREC
 70
     0
  9
$MENU
  1
acad
  9
$ELEVATION
 40
0.0
  9
$PELEVATION
 40
0.0
  9
$THICKNESS
 40
0.0
  9
$LIMCHECK
 70
     0
  9
$CHAMFERA
 40
0.0
  9
$CHAMFERB
 40
0.0
  9
$CHAMFERC
 40
0.0
  9
$CHAMFERD
 40
0.0
  9
$SKPOLY
 70
     0
  9
$TDCREATE
 40
2450400.527258681
  9
$TDUCREATE
 40
2450400.735592014
  9
$TDUPDATE
 40
2455237.630310058
  9
$TDUUPDATE
 40
2455237.838643391
  9
$TDINDWG
 40
-0.1404828704
  9
$TDUSRTIMER
 40
-0.1404828704
  9
$USRTIMER
 70
     1
  9
$ANGBASE
 50
0.0
  9
$ANGDIR
 70
     0
  9
$PDMODE
 70
     0
  9
$PDSIZE
 40
0.0
  9
$PLINEWID
 40
0.0
  9
$SPLFRAME
 70
     0
  9
$SPLINETYPE
 70
     6
  9
$SPLINESEGS
 70
     8
  9
$HANDSEED
  5
4F5
  9
$SURFTAB1
 70
     6
  9
$SURFTAB2
 70
     6
  9
$SURFTYPE
 70
     6
  9
$SURFU
 70
     6
  9
$SURFV
 70
     6
  9
$UCSBASE
  2

  9
$UCSNAME
  2

  9
$UCSORG
 10
0.0
 20
0.0
 30
0.0
  9
$UCSXDIR
 10
1.0
 20
0.0
 30
0.0
  9
$UCSYDIR
 10
0.0
 20
1.0
 30
0.0
  9
$UCSORTHOREF
  2

  9
$UCSORTHOVIEW
 70
     0
  9
$UCSORGTOP
 10
0.0
 20
0.0
 30
0.0
  9
$UCSORGBOTTOM
 10
0.0
 20
0.0
 30
0.0
  9
$UCSORGLEFT
 10
0.0
 20
0.0
 30
0.0
  9
$UCSORGRIGHT
 10
0.0
 20
0.0
 30
0.0
  9
$UCSORGFRONT
 10
0.0
 20
0.0
 30
0.0
  9
$UCSORGBACK
 10
0.0
 20
0.0
 30
0.0
  9
$PUCSBASE
  2

  9
$PUCSNAME
  2

  9
$PUCSORG
 10
0.0
 20
0.0
 30
0.0
  9
$PUCSXDIR
 10
1.0
 20
0.0
 30
0.0
  9
$PUCSYDIR
 10
0.0
 20
1.0
 30
0.0
  9
$PUCSORTHOREF
  2

  9
$PUCSORTHOVIEW
 70
     0
  9
$PUCSORGTOP
 10
0.0
 20
0.0
 30
0.0
  9
$PUCSORGBOTTOM
 10
0.0
 20
0.0
 30
0.0
  9
$PUCSORGLEFT
 10
0.0
 20
0.0
 30
0.0
  9
$PUCSORGRIGHT
 10
0.0
 20
0.0
 30
0.0
  9
$PUCSORGFRONT
 10
0.0
 20
0.0
 30
0.0
  9
$PUCSORGBACK
 10
0.0
 20
0.0
 30
0.0
  9
$USERI1
 70
     0
  9
$USERI2
 70
     0
  9
$USERI3
 70
     0
  9
$USERI4
 70
     0
  9
$USERI5
 70
     0
  9
$USERR1
 40
0.0
  9
$USERR2
 40
0.0
  9
$USERR3
 40
0.0
  9
$USERR4
 40
0.0
  9
$USERR5
 40
0.0
  9
$WORLDVIEW
 70
     1
  9
$SHADEDGE
 70
     3
  9
$SHADEDIF
 70
    70
  9
$TILEMODE
 70
     1
  9
$MAXACTVP
 70
    15
  9
$PINSBASE
 10
0.0006103618070483
 20
0.8751421214565342
 30
0.0
  9
$PLIMCHECK
 70
     0
  9
$PEXTMIN
 10
1.000000000000000E+20
 20
1.000000000000000E+20
 30
1.000000000000000E+20
  9
$PEXTMAX
 10
-1.000000000000000E+20
 20
-1.000000000000000E+20
 30
-1.000000000000000E+20
  9
$PLIMMIN
 10
0.0
 20
0.0
  9
$PLIMMAX
 10
12.0
 20
9.0
  9
$UNITMODE
 70
     0
  9
$VISRETAIN
 70
     0
  9
$PLINEGEN
 70
     0
  9
$PSLTSCALE
 70
     1
  9
$TREEDEPTH
 70
  3020
  9
$CMLSTYLE
  2
STANDARD
  9
$CMLJUST
 70
     0
  9
$CMLSCALE
 40
1.0
  9
$PROXYGRAPHICS
 70
     1
  9
$MEASUREMENT
 70
     0
  9
$CELWEIGHT
370
    -1
  9
$ENDCAPS
280
     0
  9
$JOINSTYLE
280
     0
  9
$LWDISPLAY
290
     0
  9
$INSUNITS
 70
     0
  9
$HYPERLINKBASE
  1

  9
$STYLESHEET
  1

  9
$XEDIT
290
     1
  9
$CEPSNTYPE
380
     0
  9
$PSTYLEMODE
290
     1
  9
$FINGERPRINTGUID
  2
{24910CD9-022D-42AA-BC0E-EE6276655110}
  9
$VERSIONGUID
  2
{745F3595-995C-4A8F-842F-597CBF7370C5}
  9
$EXTNAMES
290
     1
  9
$PSVPSCALE
 40
0.0
  9
$OLESTARTUP
290
     0
  0
ENDSEC
  0
SECTION
  2
CLASSES
  0
CLASS
  1
ACDBDICTIONARYWDFLT
  2
AcDbDictionaryWithDefault
  3
ObjectDBX Classes
 90
        0
280
     0
281
     0
  0
CLASS
  1
ACDBPLACEHOLDER
  2
AcDbPlaceHolder
  3
ObjectDBX Classes
 90
        0
280
     0
281
     0
  0
CLASS
  1
LAYOUT
  2
AcDbLayout
  3
ObjectDBX Classes
 90
        0
280
     0
281
     0
  0
CLASS
  1
DICTIONARYVAR
  2
AcDbDictionaryVar
  3
ObjectDBX Classes
 90
        0
280
     0
281
     0
  0
CLASS
  1
MATERIAL
  2
AcDbMaterial
  3
ObjectDBX Classes
 90
     1024
280
     0
281
     0
  0
CLASS
  1
VISUALSTYLE
  2
AcDbVisualStyle
  3
ObjectDBX Classes
 90
     4095
280
     0
281
     0
  0
CLASS
  1
TABLESTYLE
  2
AcDbTableStyle
  3
ObjectDBX Classes
 90
     4095
280
     0
281
     0
  0
ENDSEC
  0
SECTION
  2
TABLES
  0
TABLE
  2
VPORT
  5
8
102
{ACAD_XDICTIONARY
360
2F5
102
}
330
0
100
AcDbSymbolTable
 70
     1
  0
VPORT
  5
19C
330
8
100
AcDbSymbolTableRecord
100
AcDbViewportTableRecord
  2
*Active
 70
     0
 10
0.0
 20
0.0
 11
1.0
 21
1.0
 12
13.52856453173859
 22
3.535125799401576
 13
0.0
 23
0.0
 14
0.5740882589684922
 24
0.5740882589684922
 15
0.5
 25
0.5
 16
0.0
 26
0.0
 36
1.0
 17
0.0
 27
0.0
 37
0.0
 40
5.494660958138203
 41
2.426443202979515
 42
50.0
 43
0.0
 44
0.0
 50
0.0
 51
0.0
 71
     0
 72
   100
 73
     1
 74
     0
 75
     0
 76
     0
 77
     0
 78
     0
281
     0
 65
     1
110
0.0
120
0.0
130
0.0
111
1.0
121
0.0
131
0.0
112
0.0
122
1.0
132
0.0
 79
     0
146
0.0
  0
ENDTAB
  0
TABLE
  2
LTYPE
  5
5
330
0
100
AcDbSymbolTable
 70
     1
  0
LTYPE
  5
12
330
5
100
AcDbSymbolTableRecord
100
AcDbLinetypeTableRecord
  2
BYBLOCK
 70
     0
  3

 72
    65
 73
     0
 40
0.0
  0
LTYPE
  5
13
330
5
100
AcDbSymbolTableRecord
100
AcDbLinetypeTableRecord
  2
BYLAYER
 70
     0
  3

 72
    65
 73
     0
 40
0.0
  0
LTYPE
  5
14
330
5
100
AcDbSymbolTableRecord
100
AcDbLinetypeTableRecord
  2
CONTINUOUS
 70
     0
  3
Solid line
 72
    65
 73
     0
 40
0.0
  0
ENDTAB
  0
TABLE
  2
LAYER
  5
2
330
0
100
AcDbSymbolTable
 70
     6
  0
LAYER
  5
F
330
2
100
AcDbSymbolTableRecord
100
AcDbLayerTableRecord
  2
0
 70
     0
 62
     7
  6
CONTINUOUS
370
    -3
390
80
  0
LAYER
  5
46
330
2
100
AcDbSymbolTableRecord
100
AcDbLayerTableRecord
  2
ADP1DETAIL
 70
     0
 62
     7
  6
CONTINUOUS
370
    -3
390
80
  0
LAYER
  5
48
330
2
100
AcDbSymbolTableRecord
100
AcDbLayerTableRecord
  2
DEFPOINTS
 70
     0
 62
     7
  6
CONTINUOUS
290
     0
370
    -3
390
80
  0
LAYER
  5
49
330
2
100
AcDbSymbolTableRecord
100
AcDbLayerTableRecord
  2
ADPDIM
 70
     0
 62
     3
  6
CONTINUOUS
370
    -3
390
80
  0
LAYER
  5
1E4
330
2
100
AcDbSymbolTableRecord
100
AcDbLayerTableRecord
  2
1
 70
     0
 62
     7
  6
CONTINUOUS
370
    -3
390
80
  0
LAYER
  5
467
330
2
100
AcDbSymbolTableRecord
100
AcDbLayerTableRecord
  2
Layer 1
 70
     0
 62
     7
  6
CONTINUOUS
370
    -3
390
80
  0
ENDTAB
  0
TABLE
  2
STYLE
  5
3
330
0
100
AcDbSymbolTable
 70
     2
  0
STYLE
  5
10
330
3
100
AcDbSymbolTableRecord
100
AcDbTextStyleTableRecord
  2
STANDARD
 70
     0
 40
0.0
 41
1.0
 50
0.0
 71
     0
 42
0.2
  3
txt
  4

  0
STYLE
  5
87
330
3
100
AcDbSymbolTableRecord
100
AcDbTextStyleTableRecord
  2
ARIAL_WIDE
 70
     0
 40
0.0
 41
1.25
 50
0.0
 71
     0
 42
0.2
  3
arial.ttf
  4

1001
ACAD
1000
Arial
1071
       34
  0
ENDTAB
  0
TABLE
  2
VIEW
  5
6
330
0
100
AcDbSymbolTable
 70
     0
  0
ENDTAB
  0
TABLE
  2
UCS
  5
7
330
0
100
AcDbSymbolTable
 70
     0
  0
ENDTAB
  0
TABLE
  2
APPID
  5
9
330
0
100
AcDbSymbolTable
 70
     1
  0
APPID
  5
11
330
9
100
AcDbSymbolTableRecord
100
AcDbRegAppTableRecord
  2
ACAD
 70
     0
  0
ENDTAB
  0
TABLE
  2
DIMSTYLE
  5
A
330
0
100
AcDbSymbolTable
 70
     1
100
AcDbDimStyleTable
 71
     1
340
7B
  0
DIMSTYLE
105
7B
102
{ACAD_REACTORS
330
206
330
36B
330
3AB
330
490
102
}
330
A
100
AcDbSymbolTableRecord
100
AcDbDimStyleTableRecord
  2
STANDARD
 70
     0
340
10
  0
ENDTAB
  0
TABLE
  2
BLOCK_RECORD
  5
1
330
0
100
AcDbSymbolTable
 70
    10
  0
BLOCK_RECORD
  5
18
102
{ACAD_XDICTIONARY
360
DC
102
}
330
1
100
AcDbSymbolTableRecord
100
AcDbBlockTableRecord
  2
*MODEL_SPACE
340
83
  0
BLOCK_RECORD
  5
15
102
{ACAD_XDICTIONARY
360
DA
102
}
330
1
100
AcDbSymbolTableRecord
100
AcDbBlockTableRecord
  2
*PAPER_SPACE
340
84
  0
BLOCK_RECORD
  5
207
330
1
100
AcDbSymbolTableRecord
100
AcDbBlockTableRecord
  2
*D0
340
0
  0
BLOCK_RECORD
  5
2C9
330
1
100
AcDbSymbolTableRecord
100
AcDbBlockTableRecord
  2
*D1
340
0
  0
BLOCK_RECORD
  5
36C
330
1
100
AcDbSymbolTableRecord
100
AcDbBlockTableRecord
  2
*D2
340
0
  0
BLOCK_RECORD
  5
3AC
330
1
100
AcDbSymbolTableRecord
100
AcDbBlockTableRecord
  2
*D3
340
0
  0
BLOCK_RECORD
  5
468
330
1
100
AcDbSymbolTableRecord
100
AcDbBlockTableRecord
  2
A$C00294823
340
0
1001
ACAD
1000
DesignCenter Data
1002
{
1070
     1
1070
     1
1002
}
  0
BLOCK_RECORD
  5
46C
330
1
100
AcDbSymbolTableRecord
100
AcDbBlockTableRecord
  2
*D5
340
0
  0
BLOCK_RECORD
  5
479
330
1
100
AcDbSymbolTableRecord
100
AcDbBlockTableRecord
  2
*D6
340
0
  0
BLOCK_RECORD
  5
491
330
1
100
AcDbSymbolTableRecord
100
AcDbBlockTableRecord
  2
*D8
340
0
  0
BLOCK_RECORD
  5
49E
330
1
100
AcDbSymbolTableRecord
100
AcDbBlockTableRecord
  2
*D9
340
0
  0
ENDTAB
  0
ENDSEC
  0
SECTION
  2
BLOCKS
  0
BLOCK
  5
4C
330
18
100
AcDbEntity
  8
0
100
AcDbBlockBegin
  2
*MODEL_SPACE
 70
     0
 10
0.0
 20
0.0
 30
0.0
  3
*MODEL_SPACE
  1

  0
ENDBLK
  5
4D
330
18
100
AcDbEntity
  8
0
100
AcDbBlockEnd
  0
BLOCK
  5
4A
330
15
100
AcDbEntity
 67
     1
  8
0
100
AcDbBlockBegin
  2
*PAPER_SPACE
 70
     0
 10
0.0
 20
0.0
 30
0.0
  3
*PAPER_SPACE
  1

  0
ENDBLK
  5
4B
330
15
100
AcDbEntity
 67
     1
  8
0
100
AcDbBlockEnd
  0
BLOCK
  5
212
330
207
100
AcDbEntity
  8
0
100
AcDbBlockBegin
  2
*D0
 70
     1
 10
0.0
 20
0.0
 30
0.0
  3
*D0
  1

  0
LINE
  5
3D7
330
207
100
AcDbEntity
  8
ADPDIM
 62
     0
370
    -2
100
AcDbLine
 10
12.70585262432829
 20
3.524804793889053
 30
0.0
 11
12.70585262432829
 21
4.519854605686546
 31
0.0
  0
LINE
  5
3D8
330
207
100
AcDbEntity
  8
ADPDIM
 62
     0
370
    -2
100
AcDbLine
 10
10.45761149093797
 20
3.520953502610449
 30
0.0
 11
10.45761149093797
 21
4.519854605686546
 31
0.0
  0
LINE
  5
3D9
330
207
100
AcDbEntity
  8
ADPDIM
 62
     0
370
    -2
100
AcDbLine
 10
12.70585262432829
 20
4.339854605686547
 30
0.0
 11
11.97756539096646
 21
4.339854605686547
 31
0.0
  0
LINE
  5
3DA
330
207
100
AcDbEntity
  8
ADPDIM
 62
     0
370
    -2
100
AcDbLine
 10
10.45761149093797
 20
4.339854605686547
 30
0.0
 11
11.1858987242998
 21
4.339854605686547
 31
0.0
  0
LINE
  5
3DB
330
207
100
AcDbEntity
  8
ADPDIM
 62
     0
370
    -2
100
AcDbLine
 10
10.33261149093797
 20
4.214854605686547
 30
0.0
 11
10.58261149093796
 21
4.464854605686547
 31
0.0
  0
LINE
  5
3DC
330
207
100
AcDbEntity
  8
ADPDIM
 62
     0
370
    -2
100
AcDbLine
 10
12.5808526243283
 20
4.214854605686547
 30
0.0
 11
12.8308526243283
 21
4.464854605686547
 31
0.0
  0
MTEXT
  5
3DD
330
207
100
AcDbEntity
  8
ADPDIM
 62
     0
100
AcDbMText
 10
11.58173205763313
 20
4.339854605686547
 30
0.0
 40
0.125
 41
0.0
 71
     5
 72
     1
  1
\A1;2 1/4
 73
     1
 44
1.0
1001
ACAD
1000
MTEXTBEGIN
1070
    73
1070
     1
1070
    44
1040
1.0
1070
    74
1070
     0
1000
MTEXTEND
  0
POINT
  5
3DE
330
207
100
AcDbEntity
  8
DEFPOINTS
 62
     0
100
AcDbPoint
 10
12.70585262432829
 20
3.462304793889053
 30
0.0
  0
POINT
  5
3DF
330
207
100
AcDbEntity
  8
DEFPOINTS
 62
     0
100
AcDbPoint
 10
10.45761149093797
 20
3.458453502610449
 30
0.0
  0
POINT
  5
3E0
330
207
100
AcDbEntity
  8
DEFPOINTS
 62
     0
100
AcDbPoint
 10
10.45761149093797
 20
4.339854605686547
 30
0.0
  0
ENDBLK
  5
213
330
207
100
AcDbEntity
  8
0
100
AcDbBlockEnd
  0
BLOCK
  5
2D4
330
2C9
100
AcDbEntity
  8
0
100
AcDbBlockBegin
  2
*D1
 70
     1
 10
0.0
 20
0.0
 30
0.0
  3
*D1
  1

  0
LINE
  5
3E1
330
2C9
100
AcDbEntity
  8
ADPDIM
 62
     0
370
    -2
100
AcDbLine
 10
10.84848068210481
 20
3.08014407355243
 30
0.0
 11
10.84848068210481
 21
2.34554168990066
 31
0.0
  0
LINE
  5
3E2
330
2C9
100
AcDbEntity
  8
ADPDIM
 62
     0
370
    -2
100
AcDbLine
 10
12.35450650351412
 20
3.08014407355243
 30
0.0
 11
12.35450650351412
 21
2.34554168990066
 31
0.0
  0
LINE
  5
3E3
330
2C9
100
AcDbEntity
  8
ADPDIM
 62
     0
370
    -2
100
AcDbLine
 10
10.84848068210481
 20
2.525541689900659
 30
0.0
 11
11.22649359280947
 21
2.525541689900659
 31
0.0
  0
LINE
  5
3E4
330
2C9
100
AcDbEntity
  8
ADPDIM
 62
     0
370
    -2
100
AcDbLine
 10
12.35450650351412
 20
2.525541689900659
 30
0.0
 11
11.97649359280947
 21
2.525541689900659
 31
0.0
  0
LINE
  5
3E5
330
2C9
100
AcDbEntity
  8
ADPDIM
 62
     0
370
    -2
100
AcDbLine
 10
12.22950650351412
 20
2.400541689900659
 30
0.0
 11
12.47950650351412
 21
2.650541689900659
 31
0.0
  0
LINE
  5
3E6
330
2C9
100
AcDbEntity
  8
ADPDIM
 62
     0
370
    -2
100
AcDbLine
 10
10.72348068210481
 20
2.400541689900659
 30
0.0
 11
10.97348068210481
 21
2.650541689900659
 31
0.0
  0
MTEXT
  5
3E7
330
2C9
100
AcDbEntity
  8
ADPDIM
 62
     0
100
AcDbMText
 10
11.60149359280947
 20
2.525541689900659
 30
0.0
 40
0.125
 41
0.0
 71
     5
 72
     1
  1
\A1;1 1/2
 73
     1
 44
1.0
1001
ACAD
1000
MTEXTBEGIN
1070
    73
1070
     1
1070
    44
1040
1.0
1070
    74
1070
     0
1000
MTEXTEND
  0
POINT
  5
3E8
330
2C9
100
AcDbEntity
  8
DEFPOINTS
 62
     0
100
AcDbPoint
 10
10.84848068210481
 20
3.14264407355243
 30
0.0
  0
POINT
  5
3E9
330
2C9
100
AcDbEntity
  8
DEFPOINTS
 62
     0
100
AcDbPoint
 10
12.35450650351412
 20
3.14264407355243
 30
0.0
  0
POINT
  5
3EA
330
2C9
100
AcDbEntity
  8
DEFPOINTS
 62
     0
100
AcDbPoint
 10
12.35450650351412
 20
2.525541689900659
 30
0.0
  0
ENDBLK
  5
2D5
330
2C9
100
AcDbEntity
  8
0
100
AcDbBlockEnd
  0
BLOCK
  5
377
330
36C
100
AcDbEntity
  8
0
100
AcDbBlockBegin
  2
*D2
 70
     1
 10
0.0
 20
0.0
 30
0.0
  3
*D2
  1

  0
LINE
  5
3EB
330
36C
100
AcDbEntity
  8
ADPDIM
 62
     0
370
    -2
100
AcDbLine
 10
13.74839317217282
 20
3.258832182600726
 30
0.0
 11
13.74839317217282
 21
2.354539385517799
 31
0.0
  0
LINE
  5
3EC
330
36C
100
AcDbEntity
  8
ADPDIM
 62
     0
370
    -2
100
AcDbLine
 10
16.24839317217282
 20
3.008832182600724
 30
0.0
 11
16.24839317217282
 21
2.354539385517799
 31
0.0
  0
LINE
  5
3ED
330
36C
100
AcDbEntity
  8
ADPDIM
 62
     0
370
    -2
100
AcDbLine
 10
13.74839317217282
 20
2.534539385517799
 30
0.0
 11
14.60255983883949
 21
2.534539385517799
 31
0.0
  0
LINE
  5
3EE
330
36C
100
AcDbEntity
  8
ADPDIM
 62
     0
370
    -2
100
AcDbLine
 10
16.24839317217282
 20
2.534539385517799
 30
0.0
 11
15.39422650550616
 21
2.534539385517799
 31
0.0
  0
LINE
  5
3EF
330
36C
100
AcDbEntity
  8
ADPDIM
 62
     0
370
    -2
100
AcDbLine
 10
16.12339317217282
 20
2.409539385517799
 30
0.0
 11
16.37339317217282
 21
2.659539385517799
 31
0.0
  0
LINE
  5
3F0
330
36C
100
AcDbEntity
  8
ADPDIM
 62
     0
370
    -2
100
AcDbLine
 10
13.62339317217282
 20
2.409539385517799
 30
0.0
 11
13.87339317217282
 21
2.659539385517799
 31
0.0
  0
MTEXT
  5
3F1
330
36C
100
AcDbEntity
  8
ADPDIM
 62
     0
100
AcDbMText
 10
14.99839317217282
 20
2.534539385517799
 30
0.0
 40
0.125
 41
0.0
 71
     5
 72
     1
  1
\A1;2 1/2
 73
     1
 44
1.0
1001
ACAD
1000
MTEXTBEGIN
1070
    73
1070
     1
1070
    44
1040
1.0
1070
    74
1070
     0
1000
MTEXTEND
  0
POINT
  5
3F2
330
36C
100
AcDbEntity
  8
DEFPOINTS
 62
     0
100
AcDbPoint
 10
13.74839317217282
 20
3.321332182600726
 30
0.0
  0
POINT
  5
3F3
330
36C
100
AcDbEntity
  8
DEFPOINTS
 62
     0
100
AcDbPoint
 10
16.24839317217282
 20
3.071332182600724
 30
0.0
  0
POINT
  5
3F4
330
36C
100
AcDbEntity
  8
DEFPOINTS
 62
     0
100
AcDbPoint
 10
16.24839317217282
 20
2.534539385517799
 30
0.0
  0
ENDBLK
  5
378
330
36C
100
AcDbEntity
  8
0
100
AcDbBlockEnd
  0
BLOCK
  5
3B7
330
3AC
100
AcDbEntity
  8
0
100
AcDbBlockBegin
  2
*D3
 70
     1
 10
0.0
 20
0.0
 30
0.0
  3
*D3
  1

  0
LINE
  5
3F5
330
3AC
100
AcDbEntity
  8
ADPDIM
 62
     0
370
    -2
100
AcDbLine
 10
16.31089317217282
 20
5.321332182600723
 30
0.0
 11
16.97749679459118
 21
5.321332182600723
 31
0.0
  0
LINE
  5
3F6
330
3AC
100
AcDbEntity
  8
ADPDIM
 62
     0
370
    -2
100
AcDbLine
 10
16.31089317217282
 20
3.071332182600724
 30
0.0
 11
16.97749679459118
 21
3.071332182600724
 31
0.0
  0
LINE
  5
3F7
330
3AC
100
AcDbEntity
  8
ADPDIM
 62
     0
370
    -2
100
AcDbLine
 10
16.79749679459118
 20
5.321332182600723
 30
0.0
 11
16.79749679459118
 21
4.592165515934056
 31
0.0
  0
LINE
  5
3F8
330
3AC
100
AcDbEntity
  8
ADPDIM
 62
     0
370
    -2
100
AcDbLine
 10
16.79749679459118
 20
3.071332182600724
 30
0.0
 11
16.79749679459118
 21
3.80049884926739
 31
0.0
  0
LINE
  5
3F9
330
3AC
100
AcDbEntity
  8
ADPDIM
 62
     0
370
    -2
100
AcDbLine
 10
16.92249679459118
 20
2.946332182600724
 30
0.0
 11
16.67249679459118
 21
3.196332182600724
 31
0.0
  0
LINE
  5
3FA
330
3AC
100
AcDbEntity
  8
ADPDIM
 62
     0
370
    -2
100
AcDbLine
 10
16.92249679459118
 20
5.196332182600723
 30
0.0
 11
16.67249679459118
 21
5.446332182600723
 31
0.0
  0
MTEXT
  5
3FB
330
3AC
100
AcDbEntity
  8
ADPDIM
 62
     0
100
AcDbMText
 10
16.79749679459118
 20
4.196332182600726
 30
0.0
 40
0.125
 41
0.0
 71
     5
 72
     1
  1
\A1;2 1/4
 11
0.0000000000000001
 21
1.0
 31
0.0
 73
     1
 44
1.0
1001
ACAD
1000
MTEXTBEGIN
1070
    73
1070
     1
1070
    44
1040
1.0
1070
    74
1070
     0
1000
MTEXTEND
  0
POINT
  5
3FC
330
3AC
100
AcDbEntity
  8
DEFPOINTS
 62
     0
100
AcDbPoint
 10
16.24839317217282
 20
5.321332182600723
 30
0.0
  0
POINT
  5
3FD
330
3AC
100
AcDbEntity
  8
DEFPOINTS
 62
     0
100
AcDbPoint
 10
16.24839317217282
 20
3.071332182600724
 30
0.0
  0
POINT
  5
3FE
330
3AC
100
AcDbEntity
  8
DEFPOINTS
 62
     0
100
AcDbPoint
 10
16.79749679459118
 20
3.071332182600724
 30
0.0
  0
ENDBLK
  5
3B8
330
3AC
100
AcDbEntity
  8
0
100
AcDbBlockEnd
  0
BLOCK
  5
46A
330
468
100
AcDbEntity
  8
0
100
AcDbBlockBegin
  2
A$C00294823
 70
     0
 10
0.0
 20
0.0
 30
0.0
  3
A$C00294823
  1

  0
SPLINE
  5
469
330
468
100
AcDbEntity
  8
Layer 1
 62
     7
370
    18
100
AcDbSpline
210
0.0
220
0.0
230
1.0
 70
    11
 71
     3
 72
    71
 73
    67
 74
     0
 42
0.0000000001
 43
0.0000000001
 40
0.0
 40
0.0
 40
0.0
 40
0.0
 40
1.0
 40
1.0
 40
1.0
 40
2.0
 40
2.0
 40
2.0
 40
3.0
 40
3.0
 40
3.0
 40
4.0
 40
4.0
 40
4.0
 40
5.0
 40
5.0
 40
5.0
 40
6.0
 40
6.0
 40
6.0
 40
7.0
 40
7.0
 40
7.0
 40
8.0
 40
8.0
 40
8.0
 40
9.0
 40
9.0
 40
9.0
 40
10.0
 40
10.0
 40
10.0
 40
11.0
 40
11.0
 40
11.0
 40
12.0
 40
12.0
 40
12.0
 40
13.0
 40
13.0
 40
13.0
 40
14.0
 40
14.0
 40
14.0
 40
15.0
 40
15.0
 40
15.0
 40
16.0
 40
16.0
 40
16.0
 40
17.0
 40
17.0
 40
17.0
 40
18.0
 40
18.0
 40
18.0
 40
19.0
 40
19.0
 40
19.0
 40
20.0
 40
20.0
 40
20.0
 40
21.0
 40
21.0
 40
21.0
 40
22.0
 40
22.0
 40
22.0
 40
22.0
 10
17.82276837052268
 20
15.55265329391204
 30
0.0
 10
20.23976055802268
 20
16.42765329391204
 30
0.0
 10
21.94874493302268
 20
14.92765329391204
 30
0.0
 10
24.18897930802268
 20
14.92765329391204
 30
0.0
 10
26.42921368302268
 20
14.92765329391204
 30
0.0
 10
55.06300274552268
 20
14.92765329391204
 30
0.0
 10
56.39601055802268
 20
14.92765329391204
 30
0.0
 10
59.10792462052268
 20
14.92765329391204
 30
0.0
 10
60.00050274552268
 20
17.26163766891204
 30
0.0
 10
63.23976055802268
 20
16.09464548141204
 30
0.0
 10
66.47901837052268
 20
14.92765329391204
 30
0.0
 10
65.55030743302268
 20
11.46964548141204
 30
0.0
 10
65.55030743302268
 20
10.42862985641204
 30
0.0
 10
65.55030743302268
 20
9.387614231412044
 30
0.0
 10
65.50245587052268
 20
1.688395481412044
 30
0.0
 10
65.50245587052268
 20
1.688395481412044
 30
0.0
 10
65.83351055802268
 20
0.6737470439120444
 30
0.0
 10
67.95362774552268
 20
-0.1241045185879557
 30
0.0
 10
69.02003399552268
 20
-0.1055498310879557
 30
0.0
 10
70.53663555802268
 20
-0.1387529560879557
 30
0.0
 10
71.79347149552268
 20
1.063395481412044
 30
0.0
 10
71.82569805802268
 20
2.580973606412044
 30
0.0
 10
71.81300274552268
 20
5.079020481412044
 30
0.0
 10
73.76710430802268
 20
7.456950168912044
 30
0.0
 10
76.22120587052268
 20
7.928629856412044
 30
0.0
 10
78.49659649552268
 20
8.338786106412044
 30
0.0
 10
80.50733868302268
 20
10.51066110641204
 30
0.0
 10
80.74464337052267
 20
12.80948923141204
 30
0.0
 10
81.19581524552268
 20
15.99991891891204
 30
0.0
 10
78.99464337052268
 20
19.12443063766204
 30
0.0
 10
75.78370587052268
 20
19.40226266891204
 30
0.0
 10
68.35401837052268
 20
20.04581735641204
 30
0.0
 10
56.86964337052268
 20
24.77189157516205
 30
0.0
 10
51.13917462052268
 20
29.54484079391205
 30
0.0
 10
48.19288555802268
 20
31.99894235641205
 30
0.0
 10
44.24854962052267
 20
33.11320016891205
 30
0.0
 10
40.36476055802268
 20
33.10196970016205
 30
0.0
 10
40.36476055802268
 20
33.10196970016205
 30
0.0
 10
40.36378399552268
 20
33.10196970016205
 30
0.0
 10
40.36378399552268
 20
33.10196970016205
 30
0.0
 10
36.47999493302268
 20
33.11320016891205
 30
0.0
 10
32.53565899552268
 20
31.99894235641205
 30
0.0
 10
29.58936993302268
 20
29.54484079391205
 30
0.0
 10
23.85890118302268
 20
24.77189157516205
 30
0.0
 10
12.37452618302268
 20
20.04581735641204
 30
0.0
 10
4.94483868302268
 20
19.40226266891204
 30
0.0
 10
1.73487774552268
 20
19.12443063766204
 30
0.0
 10
-0.4662941294773191
 20
15.99991891891204
 30
0.0
 10
-0.0151222544773191
 20
12.80948923141204
 30
0.0
 10
0.2212058705226809
 20
10.51066110641204
 30
0.0
 10
2.23292462052268
 20
8.338786106412044
 30
0.0
 10
4.50733868302268
 20
7.928629856412044
 30
0.0
 10
6.96192852677268
 20
7.456950168912044
 30
0.0
 10
8.91554180802268
 20
5.079020481412044
 30
0.0
 10
8.90284649552268
 20
2.580973606412044
 30
0.0
 10
8.93604962052268
 20
1.063395481412044
 30
0.0
 10
10.19190899552268
 20
-0.1387529560879557
 30
0.0
 10
11.70851055802268
 20
-0.1055498310879557
 30
0.0
 10
12.77589337052268
 20
-0.1241045185879557
 30
0.0
 10
14.89601055802268
 20
0.6737470439120444
 30
0.0
 10
15.22608868302268
 20
1.688395481412044
 30
0.0
 10
15.22608868302268
 20
1.688395481412044
 30
0.0
 10
15.23976055802268
 20
9.011637668912044
 30
0.0
 10
15.23976055802268
 20
10.56241891891204
 30
0.0
 10
15.23976055802268
 20
12.11320016891204
 30
0.0
 10
15.40577618302268
 20
14.67765329391204
 30
0.0
 10
17.82276837052268
 20
15.55265329391204
 30
0.0
  0
ENDBLK
  5
46B
330
468
100
AcDbEntity
  8
0
100
AcDbBlockEnd
  0
BLOCK
  5
46D
330
46C
100
AcDbEntity
  8
0
100
AcDbBlockBegin
  2
*D5
 70
     1
 10
0.0
 20
0.0
 30
0.0
  3
*D5
  1

  0
LINE
  5
46E
330
46C
100
AcDbEntity
  8
ADPDIM
 62
     0
370
    -2
100
AcDbLine
 10
14.73172403999046
 20
3.524804793889053
 30
0.0
 11
14.73172403999046
 21
4.519854605686545
 31
0.0
  0
LINE
  5
46F
330
46C
100
AcDbEntity
  8
ADPDIM
 62
     0
370
    -2
100
AcDbLine
 10
12.48348290660013
 20
3.520953502610448
 30
0.0
 11
12.48348290660013
 21
4.519854605686545
 31
0.0
  0
LINE
  5
470
330
46C
100
AcDbEntity
  8
ADPDIM
 62
     0
370
    -2
100
AcDbLine
 10
14.73172403999046
 20
4.339854605686547
 30
0.0
 11
14.00343680662863
 21
4.339854605686547
 31
0.0
  0
LINE
  5
471
330
46C
100
AcDbEntity
  8
ADPDIM
 62
     0
370
    -2
100
AcDbLine
 10
12.48348290660013
 20
4.339854605686547
 30
0.0
 11
13.21177013996196
 21
4.339854605686547
 31
0.0
  0
LINE
  5
472
330
46C
100
AcDbEntity
  8
ADPDIM
 62
     0
370
    -2
100
AcDbLine
 10
12.35848290660013
 20
4.214854605686547
 30
0.0
 11
12.60848290660013
 21
4.464854605686547
 31
0.0
  0
LINE
  5
473
330
46C
100
AcDbEntity
  8
ADPDIM
 62
     0
370
    -2
100
AcDbLine
 10
14.60672403999046
 20
4.214854605686547
 30
0.0
 11
14.85672403999046
 21
4.464854605686547
 31
0.0
  0
MTEXT
  5
474
330
46C
100
AcDbEntity
  8
ADPDIM
 62
     0
100
AcDbMText
 10
13.6076034732953
 20
4.339854605686547
 30
0.0
 40
0.125
 41
0.0
 71
     5
 72
     1
  1
\A1;2 1/4
 73
     1
 44
1.0
1001
ACAD
1000
MTEXTBEGIN
1070
    73
1070
     1
1070
    44
1040
1.0
1070
    74
1070
     0
1000
MTEXTEND
  0
POINT
  5
475
330
46C
100
AcDbEntity
  8
DEFPOINTS
 62
     0
100
AcDbPoint
 10
14.73172403999046
 20
3.462304793889053
 30
0.0
  0
POINT
  5
476
330
46C
100
AcDbEntity
  8
DEFPOINTS
 62
     0
100
AcDbPoint
 10
12.48348290660013
 20
3.458453502610448
 30
0.0
  0
POINT
  5
477
330
46C
100
AcDbEntity
  8
DEFPOINTS
 62
     0
100
AcDbPoint
 10
12.48348290660013
 20
4.339854605686547
 30
0.0
  0
ENDBLK
  5
478
330
46C
100
AcDbEntity
  8
0
100
AcDbBlockEnd
  0
BLOCK
  5
47A
330
479
100
AcDbEntity
  8
0
100
AcDbBlockBegin
  2
*D6
 70
     1
 10
0.0
 20
0.0
 30
0.0
  3
*D6
  1

  0
LINE
  5
47B
330
479
100
AcDbEntity
  8
ADPDIM
 62
     0
370
    -2
100
AcDbLine
 10
12.89042121764267
 20
2.969474144689247
 30
0.0
 11
12.89042121764267
 21
2.339646765082751
 31
0.0
  0
LINE
  5
47C
330
479
100
AcDbEntity
  8
ADPDIM
 62
     0
370
    -2
100
AcDbLine
 10
14.32792121764267
 20
2.969474144689247
 30
0.0
 11
14.32792121764267
 21
2.339646765082751
 31
0.0
  0
LINE
  5
47D
330
479
100
AcDbEntity
  8
ADPDIM
 62
     0
370
    -2
100
AcDbLine
 10
12.89042121764267
 20
2.519646765082751
 30
0.0
 11
13.17167121764267
 21
2.519646765082751
 31
0.0
  0
LINE
  5
47E
330
479
100
AcDbEntity
  8
ADPDIM
 62
     0
370
    -2
100
AcDbLine
 10
14.32792121764267
 20
2.519646765082751
 30
0.0
 11
14.04667121764267
 21
2.519646765082751
 31
0.0
  0
LINE
  5
47F
330
479
100
AcDbEntity
  8
ADPDIM
 62
     0
370
    -2
100
AcDbLine
 10
14.20292121764267
 20
2.394646765082751
 30
0.0
 11
14.45292121764267
 21
2.644646765082751
 31
0.0
  0
LINE
  5
480
330
479
100
AcDbEntity
  8
ADPDIM
 62
     0
370
    -2
100
AcDbLine
 10
12.76542121764267
 20
2.394646765082751
 30
0.0
 11
13.01542121764267
 21
2.644646765082751
 31
0.0
  0
MTEXT
  5
481
330
479
100
AcDbEntity
  8
ADPDIM
 62
     0
100
AcDbMText
 10
13.60917121764267
 20
2.519646765082751
 30
0.0
 40
0.125
 41
0.0
 71
     5
 72
     1
  1
\A1;1 7/16
 73
     1
 44
1.0
1001
ACAD
1000
MTEXTBEGIN
1070
    73
1070
     1
1070
    44
1040
1.0
1070
    74
1070
     0
1000
MTEXTEND
  0
POINT
  5
482
330
479
100
AcDbEntity
  8
DEFPOINTS
 62
     0
100
AcDbPoint
 10
12.89042121764267
 20
3.031974144689247
 30
0.0
  0
POINT
  5
483
330
479
100
AcDbEntity
  8
DEFPOINTS
 62
     0
100
AcDbPoint
 10
14.32792121764267
 20
3.031974144689247
 30
0.0
  0
POINT
  5
484
330
479
100
AcDbEntity
  8
DEFPOINTS
 62
     0
100
AcDbPoint
 10
14.32792121764267
 20
2.519646765082751
 30
0.0
  0
ENDBLK
  5
485
330
479
100
AcDbEntity
  8
0
100
AcDbBlockEnd
  0
BLOCK
  5
49C
330
491
100
AcDbEntity
  8
0
100
AcDbBlockBegin
  2
*D8
 70
     1
 10
0.0
 20
0.0
 30
0.0
  3
*D8
  1

  0
LINE
  5
4AB
330
491
100
AcDbEntity
  8
ADPDIM
 62
     0
370
    -2
100
AcDbLine
 10
12.70843928154864
 20
3.522565595417059
 30
0.0
 11
12.70843928154864
 21
4.517615407214552
 31
0.0
  0
LINE
  5
4AC
330
491
100
AcDbEntity
  8
ADPDIM
 62
     0
370
    -2
100
AcDbLine
 10
10.46019814815831
 20
3.518714304138454
 30
0.0
 11
10.46019814815831
 21
4.517615407214552
 31
0.0
  0
LINE
  5
4AD
330
491
100
AcDbEntity
  8
ADPDIM
 62
     0
370
    -2
100
AcDbLine
 10
12.70843928154864
 20
4.337615407214553
 30
0.0
 11
11.98015204818682
 21
4.337615407214553
 31
0.0
  0
LINE
  5
4AE
330
491
100
AcDbEntity
  8
ADPDIM
 62
     0
370
    -2
100
AcDbLine
 10
10.46019814815831
 20
4.337615407214553
 30
0.0
 11
11.18848538152015
 21
4.337615407214553
 31
0.0
  0
LINE
  5
4AF
330
491
100
AcDbEntity
  8
ADPDIM
 62
     0
370
    -2
100
AcDbLine
 10
10.33519814815831
 20
4.212615407214553
 30
0.0
 11
10.58519814815832
 21
4.462615407214553
 31
0.0
  0
LINE
  5
4B0
330
491
100
AcDbEntity
  8
ADPDIM
 62
     0
370
    -2
100
AcDbLine
 10
12.58343928154864
 20
4.212615407214553
 30
0.0
 11
12.83343928154864
 21
4.462615407214553
 31
0.0
  0
MTEXT
  5
4B1
330
491
100
AcDbEntity
  8
ADPDIM
 62
     0
100
AcDbMText
 10
11.58431871485348
 20
4.337615407214553
 30
0.0
 40
0.125
 41
0.0
 71
     5
 72
     1
  1
\A1;2 1/4
 73
     1
 44
1.0
1001
ACAD
1000
MTEXTBEGIN
1070
    73
1070
     1
1070
    44
1040
1.0
1070
    74
1070
     0
1000
MTEXTEND
  0
POINT
  5
4B2
330
491
100
AcDbEntity
  8
DEFPOINTS
 62
     0
100
AcDbPoint
 10
12.70843928154864
 20
3.460065595417059
 30
0.0
  0
POINT
  5
4B3
330
491
100
AcDbEntity
  8
DEFPOINTS
 62
     0
100
AcDbPoint
 10
10.46019814815831
 20
3.456214304138454
 30
0.0
  0
POINT
  5
4B4
330
491
100
AcDbEntity
  8
DEFPOINTS
 62
     0
100
AcDbPoint
 10
10.46019814815831
 20
4.337615407214553
 30
0.0
  0
ENDBLK
  5
49D
330
491
100
AcDbEntity
  8
0
100
AcDbBlockEnd
  0
BLOCK
  5
4A9
330
49E
100
AcDbEntity
  8
0
100
AcDbBlockBegin
  2
*D9
 70
     1
 10
0.0
 20
0.0
 30
0.0
  3
*D9
  1

  0
LINE
  5
4B5
330
49E
100
AcDbEntity
  8
ADPDIM
 62
     0
370
    -2
100
AcDbLine
 10
10.86713645920085
 20
2.967234946217253
 30
0.0
 11
10.86713645920085
 21
2.337407566610758
 31
0.0
  0
LINE
  5
4B6
330
49E
100
AcDbEntity
  8
ADPDIM
 62
     0
370
    -2
100
AcDbLine
 10
12.30463645920085
 20
2.967234946217253
 30
0.0
 11
12.30463645920085
 21
2.337407566610758
 31
0.0
  0
LINE
  5
4B7
330
49E
100
AcDbEntity
  8
ADPDIM
 62
     0
370
    -2
100
AcDbLine
 10
10.86713645920085
 20
2.517407566610757
 30
0.0
 11
11.14838645920085
 21
2.517407566610757
 31
0.0
  0
LINE
  5
4B8
330
49E
100
AcDbEntity
  8
ADPDIM
 62
     0
370
    -2
100
AcDbLine
 10
12.30463645920085
 20
2.517407566610757
 30
0.0
 11
12.02338645920085
 21
2.517407566610757
 31
0.0
  0
LINE
  5
4B9
330
49E
100
AcDbEntity
  8
ADPDIM
 62
     0
370
    -2
100
AcDbLine
 10
12.17963645920085
 20
2.392407566610757
 30
0.0
 11
12.42963645920085
 21
2.642407566610757
 31
0.0
  0
LINE
  5
4BA
330
49E
100
AcDbEntity
  8
ADPDIM
 62
     0
370
    -2
100
AcDbLine
 10
10.74213645920085
 20
2.392407566610757
 30
0.0
 11
10.99213645920085
 21
2.642407566610757
 31
0.0
  0
MTEXT
  5
4BB
330
49E
100
AcDbEntity
  8
ADPDIM
 62
     0
100
AcDbMText
 10
11.58588645920085
 20
2.517407566610757
 30
0.0
 40
0.125
 41
0.0
 71
     5
 72
     1
  1
\A1;1 7/16
 73
     1
 44
1.0
1001
ACAD
1000
MTEXTBEGIN
1070
    73
1070
     1
1070
    44
1040
1.0
1070
    74
1070
     0
1000
MTEXTEND
  0
POINT
  5
4BC
330
49E
100
AcDbEntity
  8
DEFPOINTS
 62
     0
100
AcDbPoint
 10
10.86713645920085
 20
3.029734946217253
 30
0.0
  0
POINT
  5
4BD
330
49E
100
AcDbEntity
  8
DEFPOINTS
 62
     0
100
AcDbPoint
 10
12.30463645920085
 20
3.029734946217253
 30
0.0
  0
POINT
  5
4BE
330
49E
100
AcDbEntity
  8
DEFPOINTS
 62
     0
100
AcDbPoint
 10
12.30463645920085
 20
2.517407566610757
 30
0.0
  0
ENDBLK
  5
4AA
330
49E
100
AcDbEntity
  8
0
100
AcDbBlockEnd
  0
ENDSEC
  0
SECTION
  2
ENTITIES
  0
TEXT
  5
88
330
18
100
AcDbEntity
  8
ADPDIM
100
AcDbText
 10
6.893595629007099
 20
1.661855184383741
 30
0.0
 40
0.125
  1
J U L I U S  B L U M  &  C O . ,  I N C .      ( 8 0 0 )  5 2 6 - 6 2 9 3        W W W . J U L I U S B L U M . C O M        P A R T  N o .  6 5 1 3 N
 41
1.25
  7
ARIAL_WIDE
 72
     1
 11
13.52846517198118
 21
1.786855184383741
 31
0.0
100
AcDbText
 73
     3
  0
DIMENSION
  5
206
330
18
100
AcDbEntity
  8
ADPDIM
100
AcDbDimension
  2
*D0
 10
10.45761149093797
 20
4.339854605686547
 30
0.0
 11
11.58173205763313
 21
4.339854605686547
 31
0.0
 70
   160
 71
     5
 42
2.24824113339033
  3
STANDARD
100
AcDbAlignedDimension
 13
12.70585262432829
 23
3.462304793889053
 33
0.0
 14
10.45761149093797
 24
3.458453502610449
 34
0.0
100
AcDbRotatedDimension
1001
ACAD
1000
DSTYLE
1002
{
1070
   276
1070
     2
1070
   277
1070
     5
1070
    41
1040
0.125
1070
    73
1070
     0
1070
    74
1070
     0
1070
    78
1070
     3
1070
   140
1040
0.125
1070
   141
1040
0.1875
1070
   142
1040
0.125
1070
   147
1040
0.125
1070
   171
1070
     1
1002
}
  0
LINE
  5
338
330
18
100
AcDbEntity
  8
1
  6
Continuous
 62
     7
100
AcDbLine
 10
13.74839317217282
 20
4.196332182600725
 30
0.0
 11
13.74839317217282
 21
5.071332182600723
 31
0.0
  0
LINE
  5
339
330
18
100
AcDbEntity
  8
1
  6
Continuous
 62
     7
100
AcDbLine
 10
13.99839317217282
 20
5.321332182600723
 30
0.0
 11
16.24839317217282
 21
5.321332182600723
 31
0.0
  0
LINE
  5
33A
330
18
100
AcDbEntity
  8
1
  6
Continuous
 62
     7
100
AcDbLine
 10
16.24839317217282
 20
5.321332182600723
 30
0.0
 11
16.24839317217282
 21
3.071332182600724
 31
0.0
  0
LINE
  5
33B
330
18
100
AcDbEntity
  8
1
  6
Continuous
 62
     7
100
AcDbLine
 10
16.24839317217282
 20
3.071332182600724
 30
0.0
 11
13.99839317217283
 21
3.071332182600724
 31
0.0
  0
LINE
  5
33C
330
18
100
AcDbEntity
  8
1
  6
Continuous
 62
     7
100
AcDbLine
 10
13.74839317217282
 20
3.321332182600726
 30
0.0
 11
13.74839317217282
 21
4.196332182600725
 31
0.0
  0
ARC
  5
33D
330
18
100
AcDbEntity
  8
1
  6
Continuous
 62
     7
100
AcDbCircle
 10
13.99839317217282
 20
5.071332182600723
 30
0.0
 40
0.25
100
AcDbArc
 50
90.0
 51
180.0
  0
ARC
  5
33E
330
18
100
AcDbEntity
  8
1
  6
Continuous
 62
     7
100
AcDbCircle
 10
13.99839317217283
 20
3.321332182600726
 30
0.0
 40
0.25
100
AcDbArc
 50
180.0
 51
269.9999999999998
  0
LINE
  5
33F
330
18
100
AcDbEntity
  8
1
  6
Continuous
 62
     7
100
AcDbLine
 10
13.77389372896639
 20
5.181332182600725
 30
0.0
 11
16.24839317217282
 21
5.181332182600725
 31
0.0
  0
LINE
  5
340
330
18
100
AcDbEntity
  8
1
  6
Continuous
 62
     7
100
AcDbLine
 10
13.77488478306853
 20
3.209332182600725
 30
0.0
 11
16.24839317217282
 21
3.209332182600725
 31
0.0
  0
ARC
  5
341
330
18
100
AcDbEntity
  8
1
  6
Continuous
 62
     7
100
AcDbCircle
 10
13.48079933175546
 20
4.192939652945753
 30
0.0
 40
1.030933614911356
100
AcDbArc
 50
287.7396549585046
 51
73.48299093791675
  0
DIMENSION
  5
36B
330
18
100
AcDbEntity
  8
ADPDIM
100
AcDbDimension
  2
*D2
 10
16.24839317217282
 20
2.534539385517799
 30
0.0
 11
14.99839317217282
 21
2.534539385517799
 31
0.0
 70
    32
 71
     5
 42
2.5
  3
STANDARD
100
AcDbAlignedDimension
 13
13.74839317217282
 23
3.321332182600726
 33
0.0
 14
16.24839317217282
 24
3.071332182600724
 34
0.0
100
AcDbRotatedDimension
1001
ACAD
1000
DSTYLE
1002
{
1070
   276
1070
     2
1070
   277
1070
     5
1070
    41
1040
0.125
1070
    73
1070
     0
1070
    74
1070
     0
1070
    78
1070
     3
1070
   140
1040
0.125
1070
   141
1040
0.1875
1070
   142
1040
0.125
1070
   147
1040
0.125
1070
   171
1070
     1
1002
}
  0
DIMENSION
  5
3AB
330
18
100
AcDbEntity
  8
ADPDIM
100
AcDbDimension
  2
*D3
 10
16.79749679459118
 20
3.071332182600724
 30
0.0
 11
16.79749679459118
 21
4.196332182600726
 31
0.0
 70
    32
 71
     5
 42
2.249999999999999
  3
STANDARD
100
AcDbAlignedDimension
 13
16.24839317217282
 23
5.321332182600723
 33
0.0
 14
16.24839317217282
 24
3.071332182600724
 34
0.0
 50
90.0
100
AcDbRotatedDimension
1001
ACAD
1000
DSTYLE
1002
{
1070
   276
1070
     2
1070
   277
1070
     5
1070
    41
1040
0.125
1070
    73
1070
     0
1070
    74
1070
     0
1070
    78
1070
     3
1070
   140
1040
0.125
1070
   141
1040
0.1875
1070
   142
1040
0.125
1070
   147
1040
0.125
1070
   171
1070
     1
1002
}
  0
SPLINE
  5
48F
330
18
100
AcDbEntity
  8
Layer 1
 62
     7
370
    18
100
AcDbSpline
210
0.0
220
0.0
230
1.0
 70
    11
 71
     3
 72
    71
 73
    67
 74
     0
 42
0.0000000001
 43
0.0000000001
 40
0.0
 40
0.0
 40
0.0
 40
0.0
 40
1.0
 40
1.0
 40
1.0
 40
2.0
 40
2.0
 40
2.0
 40
3.0
 40
3.0
 40
3.0
 40
4.0
 40
4.0
 40
4.0
 40
5.0
 40
5.0
 40
5.0
 40
6.0
 40
6.0
 40
6.0
 40
7.0
 40
7.0
 40
7.0
 40
8.0
 40
8.0
 40
8.0
 40
9.0
 40
9.0
 40
9.0
 40
10.0
 40
10.0
 40
10.0
 40
11.0
 40
11.0
 40
11.0
 40
12.0
 40
12.0
 40
12.0
 40
13.0
 40
13.0
 40
13.0
 40
14.0
 40
14.0
 40
14.0
 40
15.0
 40
15.0
 40
15.0
 40
16.0
 40
16.0
 40
16.0
 40
17.0
 40
17.0
 40
17.0
 40
18.0
 40
18.0
 40
18.0
 40
19.0
 40
19.0
 40
19.0
 40
20.0
 40
20.0
 40
20.0
 40
21.0
 40
21.0
 40
21.0
 40
22.0
 40
22.0
 40
22.0
 40
22.0
 10
10.95529073626304
 20
3.524768786543751
 30
0.0
 10
11.02247580079425
 20
3.549091137178077
 30
0.0
 10
11.06998039187692
 20
3.507395678947804
 30
0.0
 10
11.13225212441615
 20
3.507395678947804
 30
0.0
 10
11.19452385695537
 20
3.507395678947804
 30
0.0
 10
11.99045649417534
 20
3.507395678947804
 30
0.0
 10
12.02751007521982
 20
3.507395678947804
 30
0.0
 10
12.10289307489786
 20
3.507395678947804
 30
0.0
 10
12.12770404418333
 20
3.572273377626421
 30
0.0
 10
12.21774560339545
 20
3.539834528287112
 30
0.0
 10
12.30778716260757
 20
3.507395678947804
 30
0.0
 10
12.30436074973635
 20
3.415172781369584
 30
0.0
 10
12.30463645920085
 20
3.118392599424867
 30
0.0
 10
12.30463645920085
 20
3.118392599424867
 30
0.0
 10
12.30463645920085
 20
3.118392599426967
 30
0.0
 10
12.30463645920085
 20
3.118392599426967
 30
0.0
 10
12.30463645920085
 20
3.113056718009489
 30
0.0
 10
12.34877683834177
 20
3.089002386172269
 30
0.0
 10
12.37841970317734
 20
3.089518150304024
 30
0.0
 10
12.42057663457814
 20
3.088595203962989
 30
0.0
 10
12.48308793889691
 20
3.118456070522615
 30
0.0
 10
12.4810705608221
 20
3.168432289023644
 30
0.0
 10
12.47901353331921
 20
3.256787388662022
 30
0.0
 10
12.5103738844647
 20
3.299732752214992
 30
0.0
 10
12.5785904772594
 20
3.312844019353809
 30
0.0
 10
12.6418394471009
 20
3.324245121213649
 30
0.0
 10
12.69773199169474
 20
3.384616670109567
 30
0.0
 10
12.70432834348508
 20
3.448517131485912
 30
0.0
 10
12.7168695555309
 20
3.537201416667102
 30
0.0
 10
12.65568364221642
 20
3.62405338190653
 30
0.0
 10
12.56642930194225
 20
3.631776271142541
 30
0.0
 10
12.35990648539541
 20
3.649665142870244
 30
0.0
 10
12.04067563331988
 20
3.781035696324289
 30
0.0
 10
11.88138595304953
 20
3.91370923284803
 30
0.0
 10
11.79948803802301
 20
3.981925825642742
 30
0.0
 10
11.68984744180421
 20
4.012898819028642
 30
0.0
 10
11.58188986538376
 20
4.012586646001529
 30
0.0
 10
11.58188986538376
 20
4.012586646001529
 30
0.0
 10
11.58186271990314
 20
4.012586646001529
 30
0.0
 10
11.58186271990314
 20
4.012586646001529
 30
0.0
 10
11.4739051434827
 20
4.012898819028642
 30
0.0
 10
11.3642645472639
 20
3.981925825642742
 30
0.0
 10
11.28236663223738
 20
3.91370923284803
 30
0.0
 10
11.12307695196703
 20
3.781035696324289
 30
0.0
 10
10.80384609989149
 20
3.649665142870244
 30
0.0
 10
10.59732328334467
 20
3.631776271142541
 30
0.0
 10
10.5080960885511
 20
3.62405338190653
 30
0.0
 10
10.44691017523663
 20
3.537201416667102
 30
0.0
 10
10.45945138728245
 20
3.448517131485912
 30
0.0
 10
10.46602059359217
 20
3.384616670109567
 30
0.0
 10
10.52194028366663
 20
3.324245121213649
 30
0.0
 10
10.58516210802751
 20
3.312844019353809
 30
0.0
 10
10.65339227356253
 20
3.299732752214992
 30
0.0
 10
10.69327215977817
 20
3.243212296881214
 30
0.0
 10
10.69202955808641
 20
3.16418812311686
 30
0.0
 10
10.68747897995204
 20
3.122271863704401
 30
0.0
 10
10.74317595070877
 20
3.088595203962989
 30
0.0
 10
10.78533288210956
 20
3.089518150304024
 30
0.0
 10
10.81500289242577
 20
3.089002386172269
 30
0.0
 10
10.86713645920085
 20
3.118807058150788
 30
0.0
 10
10.86713645920085
 20
3.124259190550704
 30
0.0
 10
10.86713645920085
 20
3.124259190550704
 30
0.0
 10
10.86713645920085
 20
3.124259190549948
 30
0.0
 10
10.86713645920085
 20
3.403002454645172
 30
0.0
 10
10.87748930864797
 20
3.465196290142429
 30
0.0
 10
10.88810567173184
 20
3.500446435909424
 30
0.0
 10
10.95529073626304
 20
3.524768786543751
 30
0.0
  0
DIMENSION
  5
490
330
18
100
AcDbEntity
  8
ADPDIM
100
AcDbDimension
  2
*D9
 10
12.30463645920085
 20
2.517407566610757
 30
0.0
 11
11.58588645920085
 21
2.517407566610757
 31
0.0
 70
    32
 71
     5
 42
1.4375
  3
STANDARD
100
AcDbAlignedDimension
 13
10.86713645920085
 23
3.029734946217253
 33
0.0
 14
12.30463645920085
 24
3.029734946217253
 34
0.0
100
AcDbRotatedDimension
1001
ACAD
1000
DSTYLE
1002
{
1070
   276
1070
     2
1070
   277
1070
     5
1070
    41
1040
0.125
1070
    73
1070
     0
1070
    74
1070
     0
1070
    78
1070
     3
1070
   140
1040
0.125
1070
   141
1040
0.1875
1070
   142
1040
0.125
1070
   147
1040
0.125
1070
   171
1070
     1
1002
}
  0
ENDSEC
  0
SECTION
  2
OBJECTS
  0
DICTIONARY
  5
C
330
0
100
AcDbDictionary
281
     1
  3
ACAD_COLOR
350
1DD
  3
ACAD_GROUP
350
D
  3
ACAD_LAYOUT
350
81
  3
ACAD_MATERIAL
350
1C8
  3
ACAD_MLINESTYLE
350
E
  3
ACAD_PLOTSETTINGS
350
82
  3
ACAD_PLOTSTYLENAME
350
7F
  3
ACAD_TABLESTYLE
350
1DE
  3
ACAD_VISUALSTYLE
350
1CC
  3
AcDbVariableDictionary
350
E2
  3
DWGPROPS
350
4E8
  0
DICTIONARY
  5
2F5
330
8
100
AcDbDictionary
280
     1
281
     1
  0
DICTIONARY
  5
DC
330
18
100
AcDbDictionary
280
     1
281
     1
  3
ACAD_LAYOUTSELFREF
360
1C2
  0
DICTIONARY
  5
DA
330
15
100
AcDbDictionary
280
     1
281
     1
  3
ACAD_LAYOUTSELFREF
360
1C1
  0
DICTIONARY
  5
1DD
102
{ACAD_REACTORS
330
C
102
}
330
C
100
AcDbDictionary
281
     1
  0
DICTIONARY
  5
D
102
{ACAD_REACTORS
330
C
102
}
330
C
100
AcDbDictionary
281
     1
  0
DICTIONARY
  5
81
102
{ACAD_REACTORS
330
C
102
}
330
C
100
AcDbDictionary
281
     1
  3
Layout1
350
84
  3
Model
350
83
  0
DICTIONARY
  5
1C8
102
{ACAD_REACTORS
330
C
102
}
330
C
100
AcDbDictionary
281
     1
  3
ByBlock
350
1CA
  3
ByLayer
350
1C9
  3
Global
350
1CB
  0
DICTIONARY
  5
E
102
{ACAD_REACTORS
330
C
102
}
330
C
100
AcDbDictionary
281
     1
  3
STANDARD
350
1B
  0
DICTIONARY
  5
82
102
{ACAD_REACTORS
330
C
102
}
330
C
100
AcDbDictionary
281
     1
  0
ACDBDICTIONARYWDFLT
  5
7F
102
{ACAD_REACTORS
330
C
102
}
330
C
100
AcDbDictionary
281
     1
  3
Normal
350
80
100
AcDbDictionaryWithDefault
340
80
  0
DICTIONARY
  5
1DE
102
{ACAD_REACTORS
330
C
102
}
330
C
100
AcDbDictionary
281
     1
  3
Standard
350
1DF
  0
DICTIONARY
  5
1CC
102
{ACAD_REACTORS
330
C
102
}
330
C
100
AcDbDictionary
281
     1
  3
2dWireframe
350
1D2
  3
3D Hidden
350
1D4
  3
3dWireframe
350
1D3
  3
Basic
350
1D1
  3
Brighten
350
1D8
  3
ColorChange
350
1DC
  3
Conceptual
350
1D5
  3
Dim
350
1D7
  3
Facepattern
350
1DB
  3
Flat
350
1CD
  3
FlatWithEdges
350
1CE
  3
Gouraud
350
1CF
  3
GouraudWithEdges
350
1D0
  3
Linepattern
350
1DA
  3
Realistic
350
1D6
  3
Thicken
350
1D9
  0
DICTIONARY
  5
E2
102
{ACAD_REACTORS
330
C
102
}
330
C
100
AcDbDictionary
281
     1
  3
CTABLESTYLE
350
30D
  3
DIMASSOC
350
E3
  3
INDEXCTL
350
30F
  3
SORTENTS
350
30E
  0
XRECORD
  5
4E8
102
{ACAD_REACTORS
330
C
102
}
330
C
100
AcDbXrecord
280
     1
  1
DWGPROPS COOKIE
  2

  3

  4

  6

  7

  8
John
  9

300
=
301
=
302
=
303
=
304
=
305
=
306
=
307
=
308
=
309
=
 40
-0.1404828935185185
 41
2450400.527258681
 42
2455237.630310058
  1

 90
        0
  0
XRECORD
  5
1C2
102
{ACAD_REACTORS
330
DC
102
}
330
DC
100
AcDbXrecord
280
     1
340
18
  0
XRECORD
  5
1C1
102
{ACAD_REACTORS
330
DA
102
}
330
DA
100
AcDbXrecord
280
     1
340
15
  0
LAYOUT
  5
84
102
{ACAD_XDICTIONARY
360
4EB
102
}
102
{ACAD_REACTORS
330
81
102
}
330
81
100
AcDbPlotSettings
  1

  2
Fax
  4

  6

 40
0.0
 41
0.0
 42
0.0
 43
0.0
 44
0.0
 45
0.0
 46
0.0
 47
0.0
 48
0.0
 49
0.0
140
0.0
141
0.0
142
1.0
143
1.0
 70
   688
 72
     0
 73
     0
 74
     5
  7
Default R14 pen assignments.ctb
 75
    16
147
1.0
148
0.0
149
0.0
100
AcDbLayout
  1
Layout1
 70
     1
 71
     1
 10
0.0
 20
0.0
 11
12.0
 21
9.0
 12
0.0006103618070483
 22
0.8751421214565342
 32
0.0
 14
1.000000000000000E+20
 24
1.000000000000000E+20
 34
1.000000000000000E+20
 15
-1.000000000000000E+20
 25
-1.000000000000000E+20
 35
-1.000000000000000E+20
146
0.0
 13
0.0
 23
0.0
 33
0.0
 16
1.0
 26
0.0
 36
0.0
 17
0.0
 27
1.0
 37
0.0
 76
     0
330
15
  0
LAYOUT
  5
83
102
{ACAD_XDICTIONARY
360
4E9
102
}
102
{ACAD_REACTORS
330
81
102
}
330
81
100
AcDbPlotSettings
  1

  2
Fax
  4

  6

 40
0.0
 41
0.0
 42
0.0
 43
0.0
 44
0.0
 45
0.0
 46
0.0
 47
0.0
 48
0.0
 49
0.0
140
0.0
141
0.0
142
1.0
143
1.0
 70
  1712
 72
     0
 73
     0
 74
     0
  7
Default R14 pen assignments.ctb
 75
     0
147
1.0
148
0.0
149
0.0
100
AcDbLayout
  1
Model
 70
     1
 71
     0
 10
0.0
 20
0.0
 11
12.0
 21
9.0
 12
0.0
 22
0.0
 32
0.0
 14
0.0
 24
0.0
 34
0.0
 15
0.0
 25
0.0
 35
0.0
146
0.0
 13
0.0
 23
0.0
 33
0.0
 16
1.0
 26
0.0
 36
0.0
 17
0.0
 27
1.0
 37
0.0
 76
     0
330
18
331
19C
  0
MATERIAL
  5
1CA
102
{ACAD_XDICTIONARY
360
4EF
102
}
102
{ACAD_REACTORS
330
1C8
102
}
330
1C8
100
AcDbMaterial
  1
ByBlock
  0
MATERIAL
  5
1C9
102
{ACAD_XDICTIONARY
360
4ED
102
}
102
{ACAD_REACTORS
330
1C8
102
}
330
1C8
100
AcDbMaterial
  1
ByLayer
  0
MATERIAL
  5
1CB
102
{ACAD_XDICTIONARY
360
4F1
102
}
102
{ACAD_REACTORS
330
1C8
102
}
330
1C8
100
AcDbMaterial
  1
Global
  0
MLINESTYLE
  5
1B
102
{ACAD_REACTORS
330
E
102
}
330
E
100
AcDbMlineStyle
  2
STANDARD
 70
     0
  3

 62
     0
 51
90.0
 52
90.0
 71
     2
 49
0.5
 62
   256
  6
BYLAYER
 49
-0.5
 62
   256
  6
BYLAYER
  0
ACDBPLACEHOLDER
  5
80
102
{ACAD_REACTORS
330
7F
102
}
330
7F
  0
TABLESTYLE
  5
1DF
102
{ACAD_XDICTIONARY
360
4F3
102
}
102
{ACAD_REACTORS
330
1DE
102
}
330
1DE
100
AcDbTableStyle
  3
Standard
 70
     0
 71
     0
 40
0.06
 41
0.06
280
     0
281
     0
  7
STANDARD
140
0.18
170
     2
 62
     0
 63
     7
283
     0
274
    -2
284
     1
 64
     0
275
    -2
285
     1
 65
     0
276
    -2
286
     1
 66
     0
277
    -2
287
     1
 67
     0
278
    -2
288
     1
 68
     0
279
    -2
289
     1
 69
     0
  7
STANDARD
140
0.25
170
     5
 62
     0
 63
     7
283
     0
274
    -2
284
     1
 64
     0
275
    -2
285
     1
 65
     0
276
    -2
286
     1
 66
     0
277
    -2
287
     1
 67
     0
278
    -2
288
     1
 68
     0
279
    -2
289
     1
 69
     0
  7
STANDARD
140
0.18
170
     5
 62
     0
 63
     7
283
     0
274
    -2
284
     1
 64
     0
275
    -2
285
     1
 65
     0
276
    -2
286
     1
 66
     0
277
    -2
287
     1
 67
     0
278
    -2
288
     1
 68
     0
279
    -2
289
     1
 69
     0
  0
VISUALSTYLE
  5
1D2
102
{ACAD_REACTORS
330
1CC
102
}
330
1CC
100
AcDbVisualStyle
  2
2dWireframe
 70
     4
 71
     0
 72
     2
 73
     0
 90
        0
 40
-0.6
 41
-30.0
 62
     5
 63
     7
 74
     1
 91
        4
 64
     7
 65
   257
 75
     1
175
     1
 42
1.0
 92
        0
 66
   257
 43
1.0
 76
     1
 77
     6
 78
     2
 67
     7
 79
     5
170
     0
171
     0
290
     0
174
     0
 93
        1
 44
0.0
173
     0
291
     0
 45
0.0
1001
ACAD
1000
AcDbSavedByObjectVersion
1070
     0
  0
VISUALSTYLE
  5
1D4
102
{ACAD_REACTORS
330
1CC
102
}
330
1CC
100
AcDbVisualStyle
  2
3D Hidden
 70
     6
 71
     1
 72
     2
 73
     2
 90
        0
 40
-0.6
 41
-30.0
 62
     5
 63
     7
 74
     2
 91
        2
 64
     7
 65
   257
 75
     2
175
     1
 42
40.0
 92
        0
 66
   257
 43
1.0
 76
     1
 77
     6
 78
     2
 67
     7
 79
     3
170
     0
171
     0
290
     0
174
     0
 93
        1
 44
0.0
173
     0
291
     0
 45
0.0
1001
ACAD
1000
AcDbSavedByObjectVersion
1070
     0
  0
VISUALSTYLE
  5
1D3
102
{ACAD_REACTORS
330
1CC
102
}
330
1CC
100
AcDbVisualStyle
  2
3dWireframe
 70
     5
 71
     0
 72
     2
 73
     0
 90
        0
 40
-0.6
 41
-30.0
 62
     5
 63
     7
 74
     1
 91
        4
 64
     7
 65
   257
 75
     1
175
     1
 42
1.0
 92
        0
 66
   257
 43
1.0
 76
     1
 77
     6
 78
     2
 67
     7
 79
     5
170
     0
171
     0
290
     0
174
     0
 93
        1
 44
0.0
173
     0
291
     0
 45
0.0
1001
ACAD
1000
AcDbSavedByObjectVersion
1070
     0
  0
VISUALSTYLE
  5
1D1
102
{ACAD_REACTORS
330
1CC
102
}
330
1CC
100
AcDbVisualStyle
  2
Basic
 70
     7
 71
     1
 72
     0
 73
     1
 90
        0
 40
-0.6
 41
-30.0
 62
     5
 63
     7
 74
     0
 91
        4
 64
     7
 65
   257
 75
     1
175
     1
 42
1.0
 92
        8
 66
     7
 43
1.0
 76
     1
 77
     6
 78
     2
 67
     7
 79
     5
170
     0
171
     0
290
     0
174
     0
 93
        1
 44
0.0
173
     0
291
     1
 45
0.0
1001
ACAD
1000
AcDbSavedByObjectVersion
1070
     0
  0
VISUALSTYLE
  5
1D8
102
{ACAD_REACTORS
330
1CC
102
}
330
1CC
100
AcDbVisualStyle
  2
Brighten
 70
    12
 71
     2
 72
     2
 73
     0
 90
        0
 40
-0.6
 41
-30.0
 62
     5
 63
     7
 74
     1
 91
        4
 64
     7
 65
   257
 75
     1
175
     1
 42
1.0
 92
        8
 66
     7
 43
1.0
 76
     1
 77
     6
 78
     2
 67
     7
 79
     5
170
     0
171
     0
290
     0
174
     0
 93
        1
 44
50.0
173
     0
291
     1
 45
0.0
1001
ACAD
1000
AcDbSavedByObjectVersion
1070
     0
  0
VISUALSTYLE
  5
1DC
102
{ACAD_REACTORS
330
1CC
102
}
330
1CC
100
AcDbVisualStyle
  2
ColorChange
 70
    16
 71
     2
 72
     2
 73
     3
 90
        0
 40
-0.6
 41
-30.0
 62
     5
 63
     8
 74
     1
 91
        4
 64
     7
 65
   257
 75
     1
175
     1
 42
1.0
 92
        8
 66
     8
 43
1.0
 76
     1
 77
     6
 78
     2
 67
     7
 79
     5
170
     0
171
     0
290
     0
174
     0
 93
        1
 44
0.0
173
     0
291
     1
 45
0.0
1001
ACAD
1000
AcDbSavedByObjectVersion
1070
     0
  0
VISUALSTYLE
  5
1D5
102
{ACAD_REACTORS
330
1CC
102
}
330
1CC
100
AcDbVisualStyle
  2
Conceptual
 70
     9
 71
     3
 72
     2
 73
     0
 90
        0
 40
-0.6
 41
-30.0
 62
     5
 63
     7
 74
     2
 91
        2
 64
     7
 65
   257
 75
     1
175
     1
 42
40.0
 92
        8
 66
     7
 43
1.0
 76
     1
 77
     6
 78
     2
 67
     7
 79
     3
170
     0
171
     0
290
     0
174
     0
 93
        1
 44
0.0
173
     0
291
     0
 45
0.0
1001
ACAD
1000
AcDbSavedByObjectVersion
1070
     0
  0
VISUALSTYLE
  5
1D7
102
{ACAD_REACTORS
330
1CC
102
}
330
1CC
100
AcDbVisualStyle
  2
Dim
 70
    11
 71
     2
 72
     2
 73
     0
 90
        0
 40
-0.6
 41
-30.0
 62
     5
 63
     7
 74
     1
 91
        4
 64
     7
 65
   257
 75
     1
175
     1
 42
1.0
 92
        8
 66
     7
 43
1.0
 76
     1
 77
     6
 78
     2
 67
     7
 79
     5
170
     0
171
     0
290
     0
174
     0
 93
        1
 44
-50.0
173
     0
291
     1
 45
0.0
1001
ACAD
1000
AcDbSavedByObjectVersion
1070
     0
  0
VISUALSTYLE
  5
1DB
102
{ACAD_REACTORS
330
1CC
102
}
330
1CC
100
AcDbVisualStyle
  2
Facepattern
 70
    15
 71
     2
 72
     2
 73
     0
 90
        0
 40
-0.6
 41
-30.0
 62
     5
 63
     7
 74
     1
 91
        4
 64
     7
 65
   257
 75
     1
175
     1
 42
1.0
 92
        8
 66
     7
 43
1.0
 76
     1
 77
     6
 78
     2
 67
     7
 79
     5
170
     0
171
     0
290
     0
174
     0
 93
        1
 44
0.0
173
     0
291
     1
 45
0.0
1001
ACAD
1000
AcDbSavedByObjectVersion
1070
     0
  0
VISUALSTYLE
  5
1CD
102
{ACAD_REACTORS
330
1CC
102
}
330
1CC
100
AcDbVisualStyle
  2
Flat
 70
     0
 71
     2
 72
     1
 73
     1
 90
        2
 40
-0.6
 41
30.0
 62
     5
 63
     7
 74
     0
 91
        4
 64
     7
 65
   257
 75
     1
175
     1
 42
1.0
 92
        8
 66
     7
 43
1.0
 76
     1
 77
     6
 78
     2
 67
     7
 79
     5
170
     0
171
     0
290
     0
174
     0
 93
       13
 44
0.0
173
     0
291
     1
 45
0.0
1001
ACAD
1000
AcDbSavedByObjectVersion
1070
     0
  0
VISUALSTYLE
  5
1CE
102
{ACAD_REACTORS
330
1CC
102
}
330
1CC
100
AcDbVisualStyle
  2
FlatWithEdges
 70
     1
 71
     2
 72
     1
 73
     1
 90
        2
 40
-0.6
 41
30.0
 62
     5
 63
     7
 74
     1
 91
        4
 64
     7
 65
   257
 75
     1
175
     1
 42
1.0
 92
        0
 66
   257
 43
1.0
 76
     1
 77
     6
 78
     2
 67
     7
 79
     5
170
     0
171
     0
290
     0
174
     0
 93
       13
 44
0.0
173
     0
291
     1
 45
0.0
1001
ACAD
1000
AcDbSavedByObjectVersion
1070
     0
  0
VISUALSTYLE
  5
1CF
102
{ACAD_REACTORS
330
1CC
102
}
330
1CC
100
AcDbVisualStyle
  2
Gouraud
 70
     2
 71
     2
 72
     2
 73
     1
 90
        2
 40
-0.6
 41
30.0
 62
     5
 63
     7
 74
     0
 91
        4
 64
     7
 65
   257
 75
     1
175
     1
 42
1.0
 92
        0
 66
     7
 43
1.0
 76
     1
 77
     6
 78
     2
 67
     7
 79
     5
170
     0
171
     0
290
     0
174
     0
 93
       13
 44
0.0
173
     0
291
     1
 45
0.0
1001
ACAD
1000
AcDbSavedByObjectVersion
1070
     0
  0
VISUALSTYLE
  5
1D0
102
{ACAD_REACTORS
330
1CC
102
}
330
1CC
100
AcDbVisualStyle
  2
GouraudWithEdges
 70
     3
 71
     2
 72
     2
 73
     1
 90
        2
 40
-0.6
 41
30.0
 62
     5
 63
     7
 74
     1
 91
        4
 64
     7
 65
   257
 75
     1
175
     1
 42
1.0
 92
        0
 66
   257
 43
1.0
 76
     1
 77
     6
 78
     2
 67
     7
 79
     5
170
     0
171
     0
290
     0
174
     0
 93
       13
 44
0.0
173
     0
291
     1
 45
0.0
1001
ACAD
1000
AcDbSavedByObjectVersion
1070
     0
  0
VISUALSTYLE
  5
1DA
102
{ACAD_REACTORS
330
1CC
102
}
330
1CC
100
AcDbVisualStyle
  2
Linepattern
 70
    14
 71
     2
 72
     2
 73
     0
 90
        0
 40
-0.6
 41
-30.0
 62
     5
 63
     7
 74
     1
 91
        4
 64
     7
 65
   257
 75
     7
175
     7
 42
1.0
 92
        8
 66
     7
 43
1.0
 76
     1
 77
     6
 78
     2
 67
     7
 79
     5
170
     0
171
     0
290
     0
174
     0
 93
        1
 44
0.0
173
     0
291
     1
 45
0.0
1001
ACAD
1000
AcDbSavedByObjectVersion
1070
     0
  0
VISUALSTYLE
  5
1D6
102
{ACAD_REACTORS
330
1CC
102
}
330
1CC
100
AcDbVisualStyle
  2
Realistic
 70
     8
 71
     2
 72
     2
 73
     0
 90
        0
 40
-0.6
 41
-30.0
 62
     5
 63
     7
 74
     1
 91
        0
 64
     7
 65
   257
 75
     1
175
     1
 42
1.0
 92
        8
 66
     8
 43
1.0
 76
     1
 77
     6
 78
     2
 67
     7
 79
     5
170
     0
171
     0
290
     0
174
     0
 93
       13
 44
0.0
173
     0
291
     0
 45
0.0
1001
ACAD
1000
AcDbSavedByObjectVersion
1070
     0
  0
VISUALSTYLE
  5
1D9
102
{ACAD_REACTORS
330
1CC
102
}
330
1CC
100
AcDbVisualStyle
  2
Thicken
 70
    13
 71
     2
 72
     2
 73
     0
 90
        0
 40
-0.6
 41
-30.0
 62
     5
 63
     7
 74
     1
 91
        4
 64
     7
 65
   257
 75
     1
175
     1
 42
1.0
 92
       12
 66
     7
 43
1.0
 76
     1
 77
     6
 78
     2
 67
     7
 79
     5
170
     0
171
     0
290
     0
174
     0
 93
        1
 44
0.0
173
     0
291
     1
 45
0.0
1001
ACAD
1000
AcDbSavedByObjectVersion
1070
     0
  0
DICTIONARYVAR
  5
30D
102
{ACAD_REACTORS
330
E2
102
}
330
E2
100
DictionaryVariables
280
     0
  1
STANDARD
  0
DICTIONARYVAR
  5
E3
102
{ACAD_REACTORS
330
E2
102
}
330
E2
100
DictionaryVariables
280
     0
  1
1
  0
DICTIONARYVAR
  5
30F
102
{ACAD_REACTORS
330
E2
102
}
330
E2
100
DictionaryVariables
280
     0
  1
0
  0
DICTIONARYVAR
  5
30E
102
{ACAD_REACTORS
330
E2
102
}
330
E2
100
DictionaryVariables
280
     0
  1
127
  0
DICTIONARY
  5
4EB
330
84
100
AcDbDictionary
280
     1
281
     1
  3
ACAD_XREC_ROUNDTRIP
360
4EC
  0
DICTIONARY
  5
4E9
330
83
100
AcDbDictionary
280
     1
281
     1
  3
ACAD_XREC_ROUNDTRIP
360
4EA
  0
DICTIONARY
  5
4EF
330
1CA
100
AcDbDictionary
280
     1
281
     1
  3
ACAD_XREC_ROUNDTRIP
360
4F0
  0
DICTIONARY
  5
4ED
330
1C9
100
AcDbDictionary
280
     1
281
     1
  3
ACAD_XREC_ROUNDTRIP
360
4EE
  0
DICTIONARY
  5
4F1
330
1CB
100
AcDbDictionary
280
     1
281
     1
  3
ACAD_XREC_ROUNDTRIP
360
4F2
  0
DICTIONARY
  5
4F3
330
1DF
100
AcDbDictionary
280
     1
281
     1
  3
ACAD_XREC_ROUNDTRIP
360
4F4
  0
XRECORD
  5
4EC
102
{ACAD_REACTORS
330
4EB
102
}
330
4EB
100
AcDbXrecord
280
     1
102
SHADEPLOT
 70
     0
102
SHADEPLOTRESLEVEL
 70
     2
102
SHADEPLOTCUSTOMDPI
 70
   300
  0
XRECORD
  5
4EA
102
{ACAD_REACTORS
330
4E9
102
}
330
4E9
100
AcDbXrecord
280
     1
102
SHADEPLOT
 70
     0
102
SHADEPLOTRESLEVEL
 70
     2
102
SHADEPLOTCUSTOMDPI
 70
   300
  0
XRECORD
  5
4F0
102
{ACAD_REACTORS
330
4EF
102
}
330
4EF
100
AcDbXrecord
280
     1
102
MATERIAL
148
0.0
149
0.0
149
0.0
 93
        0
 94
       63
282
     0
 72
     1
 77
     1
171
     1
175
     1
179
     1
273
     0
  0
XRECORD
  5
4EE
102
{ACAD_REACTORS
330
4ED
102
}
330
4ED
100
AcDbXrecord
280
     1
102
MATERIAL
148
0.0
149
0.0
149
0.0
 93
        0
 94
       63
282
     0
 72
     1
 77
     1
171
     1
175
     1
179
     1
273
     0
  0
XRECORD
  5
4F2
102
{ACAD_REACTORS
330
4F1
102
}
330
4F1
100
AcDbXrecord
280
     1
102
MATERIAL
148
0.0
149
0.0
149
0.0
 93
        0
 94
       63
282
     0
 72
     1
 77
     1
171
     1
175
     1
179
     1
273
     0
  0
XRECORD
  5
4F4
102
{ACAD_REACTORS
330
4F3
102
}
330
4F3
100
AcDbXrecord
280
     1
102
ACAD_ROUNDTRIP_PRE2007_TABLESTYLE
 90
      512
 91
        0
  1

 92
      512
 93
        0
  2

 94
      512
 95
        0
  3

  0
ENDSEC
  0
EOF
