  0
SECTION
  2
HEADER
  9
$ACADVER
  1
AC1014
  9
$ACADMAINTVER
 70
     9
  9
$DWGCODEPAGE
  3
ANSI_1252
  9
$INSBASE
 10
14.77908128534906
 20
-9.881688985348317
 30
0.0
  9
$EXTMIN
 10
6.972352260792442
 20
-10.46258653416553
 30
0.0
  9
$EXTMAX
 10
20.02381030990567
 20
-8.222406824984778
 30
0.0
  9
$LIMMIN
 10
0.0
 20
0.0
  9
$LIMMAX
 10
36.0
 20
36.0
  9
$ORTHOMODE
 70
     1
  9
$REGENMODE
 70
     1
  9
$FILLMODE
 70
     1
  9
$QTEXTMODE
 70
     0
  9
$MIRRTEXT
 70
     1
  9
$DRAGMODE
 70
     0
  9
$LTSCALE
 40
1.0
  9
$OSMODE
 70
    37
  9
$ATTMODE
 70
     1
  9
$TEXTSIZE
 40
0.2
  9
$TRACEWID
 40
0.05
  9
$TEXTSTYLE
  7
STANDARD
  9
$CLAYER
  8
0
  9
$CELTYPE
  6
BYLAYER
  9
$CECOLOR
 62
   256
  9
$CELTSCALE
 40
1.0
  9
$DELOBJ
 70
     1
  9
$DISPSILH
 70
     0
  9
$DIMSCALE
 40
1.0
  9
$DIMASZ
 40
0.125
  9
$DIMEXO
 40
0.0625
  9
$DIMDLI
 40
0.38
  9
$DIMRND
 40
0.0
  9
$DIMDLE
 40
0.0
  9
$DIMEXE
 40
0.18
  9
$DIMTP
 40
0.0
  9
$DIMTM
 40
0.0
  9
$DIMTXT
 40
0.125
  9
$DIMCEN
 40
0.1875
  9
$DIMTSZ
 40
0.125
  9
$DIMTOL
 70
     0
  9
$DIMLIM
 70
     0
  9
$DIMTIH
 70
     0
  9
$DIMTOH
 70
     0
  9
$DIMSE1
 70
     0
  9
$DIMSE2
 70
     0
  9
$DIMTAD
 70
     0
  9
$DIMZIN
 70
     3
  9
$DIMBLK
  1

  9
$DIMASO
 70
     1
  9
$DIMSHO
 70
     1
  9
$DIMPOST
  1

  9
$DIMAPOST
  1

  9
$DIMALT
 70
     0
  9
$DIMALTD
 70
     1
  9
$DIMALTF
 40
25.4
  9
$DIMLFAC
 40
1.0
  9
$DIMTOFL
 70
     0
  9
$DIMTVP
 40
0.0
  9
$DIMTIX
 70
     0
  9
$DIMSOXD
 70
     0
  9
$DIMSAH
 70
     0
  9
$DIMBLK1
  1

  9
$DIMBLK2
  1

  9
$DIMSTYLE
  2
STANDARD
  9
$DIMCLRD
 70
     0
  9
$DIMCLRE
 70
     0
  9
$DIMCLRT
 70
     0
  9
$DIMTFAC
 40
1.0
  9
$DIMGAP
 40
0.125
  9
$DIMJUST
 70
     0
  9
$DIMSD1
 70
     0
  9
$DIMSD2
 70
     0
  9
$DIMTOLJ
 70
     1
  9
$DIMTZIN
 70
     3
  9
$DIMALTZ
 70
     3
  9
$DIMALTTZ
 70
     3
  9
$DIMFIT
 70
     5
  9
$DIMUPT
 70
     0
  9
$DIMUNIT
 70
     5
  9
$DIMDEC
 70
     4
  9
$DIMTDEC
 70
     4
  9
$DIMALTU
 70
     5
  9
$DIMALTTD
 70
     1
  9
$DIMTXSTY
  7
STANDARD
  9
$DIMAUNIT
 70
     0
  9
$LUNITS
 70
     5
  9
$LUPREC
 70
     4
  9
$SKETCHINC
 40
0.1
  9
$FILLETRAD
 40
0.187
  9
$AUNITS
 70
     0
  9
$AUPREC
 70
     0
  9
$MENU
  1
acad
  9
$ELEVATION
 40
0.0
  9
$PELEVATION
 40
0.0
  9
$THICKNESS
 40
0.0
  9
$LIMCHECK
 70
     0
  9
$BLIPMODE
 70
     0
  9
$CHAMFERA
 40
0.0
  9
$CHAMFERB
 40
0.0
  9
$CHAMFERC
 40
0.0
  9
$CHAMFERD
 40
0.0
  9
$SKPOLY
 70
     0
  9
$TDCREATE
 40
2450399.618162615
  9
$TDUPDATE
 40
2452297.092937453
  9
$TDINDWG
 40
0.0260819907
  9
$TDUSRTIMER
 40
0.0260819907
  9
$USRTIMER
 70
     1
  9
$ANGBASE
 50
0.0
  9
$ANGDIR
 70
     0
  9
$PDMODE
 70
     0
  9
$PDSIZE
 40
0.0
  9
$PLINEWID
 40
0.0
  9
$COORDS
 70
     2
  9
$SPLFRAME
 70
     0
  9
$SPLINETYPE
 70
     6
  9
$SPLINESEGS
 70
     8
  9
$ATTDIA
 70
     0
  9
$ATTREQ
 70
     1
  9
$HANDLING
 70
 22529
  9
$HANDSEED
  5
27E
  9
$SURFTAB1
 70
     6
  9
$SURFTAB2
 70
     6
  9
$SURFTYPE
 70
     6
  9
$SURFU
 70
     6
  9
$SURFV
 70
     6
  9
$UCSNAME
  2

  9
$UCSORG
 10
0.0
 20
0.0
 30
0.0
  9
$UCSXDIR
 10
1.0
 20
0.0
 30
0.0
  9
$UCSYDIR
 10
0.0
 20
1.0
 30
0.0
  9
$PUCSNAME
  2

  9
$PUCSORG
 10
0.0
 20
0.0
 30
0.0
  9
$PUCSXDIR
 10
1.0
 20
0.0
 30
0.0
  9
$PUCSYDIR
 10
0.0
 20
1.0
 30
0.0
  9
$USERI1
 70
     0
  9
$USERI2
 70
     0
  9
$USERI3
 70
     0
  9
$USERI4
 70
     0
  9
$USERI5
 70
     0
  9
$USERR1
 40
0.0
  9
$USERR2
 40
0.0
  9
$USERR3
 40
0.0
  9
$USERR4
 40
0.0
  9
$USERR5
 40
0.0
  9
$WORLDVIEW
 70
     1
  9
$SHADEDGE
 70
     3
  9
$SHADEDIF
 70
    70
  9
$TILEMODE
 70
     1
  9
$MAXACTVP
 70
    15
  9
$PINSBASE
 10
0.0004882914945483
 20
0.7501408034022604
 30
0.0
  9
$PLIMCHECK
 70
     0
  9
$PEXTMIN
 10
1.000000000000000E+20
 20
1.000000000000000E+20
 30
1.000000000000000E+20
  9
$PEXTMAX
 10
-1.000000000000000E+20
 20
-1.000000000000000E+20
 30
-1.000000000000000E+20
  9
$PLIMMIN
 10
0.0
 20
0.0
  9
$PLIMMAX
 10
12.0
 20
9.0
  9
$UNITMODE
 70
     0
  9
$VISRETAIN
 70
     0
  9
$PLINEGEN
 70
     0
  9
$PSLTSCALE
 70
     1
  9
$TREEDEPTH
 70
  3020
  9
$PICKSTYLE
 70
     1
  9
$CMLSTYLE
  2
STANDARD
  9
$CMLJUST
 70
     0
  9
$CMLSCALE
 40
1.0
  9
$PROXYGRAPHICS
 70
     1
  9
$MEASUREMENT
 70
     0
  0
ENDSEC
  0
SECTION
  2
CLASSES
  0
CLASS
  1
ACDBDICTIONARYWDFLT
  2
AcDbDictionaryWithDefault
  3
AutoCAD 2000
 90
        0
280
     0
281
     0
  0
CLASS
  1
ACDBPLACEHOLDER
  2
AcDbPlaceHolder
  3
AutoCAD 2000
 90
        0
280
     0
281
     0
  0
CLASS
  1
LAYOUT
  2
AcDbLayout
  3
AutoCAD 2000
 90
        0
280
     0
281
     0
  0
CLASS
  1
DICTIONARYVAR
  2
AcDbDictionaryVar
  3
AutoCAD 2000
 90
        0
280
     0
281
     0
  0
CLASS
  1
LONG_TRANSACTION
  2
AcDbLongTransaction
  3
AutoCAD 2000
 90
        0
280
     0
281
     0
  0
CLASS
  1
LWPOLYLINE
  2
AcDbPolyline
  3
AutoCAD 2000
 90
        0
280
     0
281
     1
  0
CLASS
  1
HATCH
  2
AcDbHatch
  3
AutoCAD 2000
 90
        0
280
     0
281
     1
  0
CLASS
  1
XRECORD
  2
AcDbXrecord
  3
AutoCAD 2000
 90
        0
280
     0
281
     0
  0
CLASS
  1
LONG_TRANSACTION
  2
AcDbLongTransaction
  3
AutoCAD 2000
 90
        0
280
     0
281
     0
  0
CLASS
  1
LWPOLYLINE
  2
AcDbPolyline
  3
AutoCAD 2000
 90
        0
280
     0
281
     1
  0
CLASS
  1
HATCH
  2
AcDbHatch
  3
AutoCAD 2000
 90
        0
280
     0
281
     1
  0
CLASS
  1
XRECORD
  2
AcDbXrecord
  3
AutoCAD 2000
 90
        0
280
     0
281
     0
  0
CLASS
  1
LONG_TRANSACTION
  2
AcDbLongTransaction
  3
AutoCAD 2000
 90
        0
280
     0
281
     0
  0
CLASS
  1
LWPOLYLINE
  2
AcDbPolyline
  3
AutoCAD 2000
 90
        0
280
     0
281
     1
  0
CLASS
  1
HATCH
  2
AcDbHatch
  3
AutoCAD 2000
 90
        0
280
     0
281
     1
  0
CLASS
  1
XRECORD
  2
AcDbXrecord
  3
AutoCAD 2000
 90
        0
280
     0
281
     0
  0
CLASS
  1
LONG_TRANSACTION
  2
AcDbLongTransaction
  3
AutoCAD 2000
 90
        0
280
     0
281
     0
  0
CLASS
  1
LWPOLYLINE
  2
AcDbPolyline
  3
AutoCAD 2000
 90
        0
280
     0
281
     1
  0
CLASS
  1
HATCH
  2
AcDbHatch
  3
AutoCAD 2000
 90
        0
280
     0
281
     1
  0
CLASS
  1
XRECORD
  2
AcDbXrecord
  3
AutoCAD 2000
 90
        0
280
     0
281
     0
  0
CLASS
  1
LONG_TRANSACTION
  2
AcDbLongTransaction
  3
AutoCAD 2000
 90
        0
280
     0
281
     0
  0
CLASS
  1
LWPOLYLINE
  2
AcDbPolyline
  3
AutoCAD 2000
 90
        0
280
     0
281
     1
  0
CLASS
  1
HATCH
  2
AcDbHatch
  3
AutoCAD 2000
 90
        0
280
     0
281
     1
  0
CLASS
  1
XRECORD
  2
AcDbXrecord
  3
AutoCAD 2000
 90
        0
280
     0
281
     0
  0
ENDSEC
  0
SECTION
  2
TABLES
  0
TABLE
  2
VPORT
  5
8
330
0
100
AcDbSymbolTable
 70
     2
  0
VPORT
  5
25A
330
8
100
AcDbSymbolTableRecord
100
AcDbViewportTableRecord
  2
*ACTIVE
 70
     0
 10
0.0
 20
0.0
 11
1.0
 21
1.0
 12
13.50751485320645
 22
-9.342690683766649
 13
0.0
 23
0.0
 14
0.5740882589684922
 24
0.5740882589684922
 15
0.5
 25
0.5
 16
0.0
 26
0.0
 36
1.0
 17
0.0
 27
0.0
 37
0.0
 40
8.365595802020571
 41
1.570528967254408
 42
50.0
 43
0.0
 44
0.0
 50
0.0
 51
0.0
 71
     0
 72
   100
 73
     1
 74
     0
 75
     0
 76
     0
 77
     0
 78
     0
  0
ENDTAB
  0
TABLE
  2
LTYPE
  5
5
330
0
100
AcDbSymbolTable
 70
     1
  0
LTYPE
  5
13
330
5
100
AcDbSymbolTableRecord
100
AcDbLinetypeTableRecord
  2
BYBLOCK
 70
     0
  3

 72
    65
 73
     0
 40
0.0
  0
LTYPE
  5
14
330
5
100
AcDbSymbolTableRecord
100
AcDbLinetypeTableRecord
  2
BYLAYER
 70
     0
  3

 72
    65
 73
     0
 40
0.0
  0
LTYPE
  5
15
330
5
100
AcDbSymbolTableRecord
100
AcDbLinetypeTableRecord
  2
CONTINUOUS
 70
     0
  3
Solid line
 72
    65
 73
     0
 40
0.0
  0
ENDTAB
  0
TABLE
  2
LAYER
  5
2
330
0
100
AcDbSymbolTable
 70
     4
  0
LAYER
  5
10
330
2
100
AcDbSymbolTableRecord
100
AcDbLayerTableRecord
  2
0
 70
     0
 62
     7
  6
CONTINUOUS
  0
LAYER
  5
99
330
2
100
AcDbSymbolTableRecord
100
AcDbLayerTableRecord
  2
ADP1DETAIL
 70
     0
 62
     7
  6
CONTINUOUS
  0
LAYER
  5
9B
330
2
100
AcDbSymbolTableRecord
100
AcDbLayerTableRecord
  2
DEFPOINTS
 70
     0
 62
     7
  6
CONTINUOUS
  0
LAYER
  5
9C
330
2
100
AcDbSymbolTableRecord
100
AcDbLayerTableRecord
  2
ADPDIM
 70
     0
 62
     3
  6
CONTINUOUS
  0
ENDTAB
  0
TABLE
  2
STYLE
  5
3
330
0
100
AcDbSymbolTable
 70
     2
  0
STYLE
  5
11
330
3
100
AcDbSymbolTableRecord
100
AcDbTextStyleTableRecord
  2
STANDARD
 70
     0
 40
0.0
 41
1.0
 50
0.0
 71
     0
 42
0.2
  3
txt
  4

  0
STYLE
  5
C7
330
3
100
AcDbSymbolTableRecord
100
AcDbTextStyleTableRecord
  2
ARIAL_WIDE
 70
     0
 40
0.0
 41
1.25
 50
0.0
 71
     0
 42
0.2
  3
ARIAL.TTF
  4

1001
ACAD
1000
Arial
1071
       34
  0
ENDTAB
  0
TABLE
  2
VIEW
  5
6
330
0
100
AcDbSymbolTable
 70
     0
  0
ENDTAB
  0
TABLE
  2
UCS
  5
7
330
0
100
AcDbSymbolTable
 70
     0
  0
ENDTAB
  0
TABLE
  2
APPID
  5
9
330
0
100
AcDbSymbolTable
 70
     1
  0
APPID
  5
12
330
9
100
AcDbSymbolTableRecord
100
AcDbRegAppTableRecord
  2
ACAD
 70
     0
  0
ENDTAB
  0
TABLE
  2
DIMSTYLE
  5
A
330
0
100
AcDbSymbolTable
 70
     1
  0
DIMSTYLE
105
C5
330
A
100
AcDbSymbolTableRecord
100
AcDbDimStyleTableRecord
  2
STANDARD
 70
     0
  3

  4

  5

  6

  7

 40
1.0
 41
0.18
 42
0.0625
 43
0.38
 44
0.18
 45
0.0
 46
0.0
 47
0.0
 48
0.0
140
0.18
141
0.09
142
0.0
143
25.4
144
1.0
145
0.0
146
1.0
147
0.09
 71
     0
 72
     0
 73
     1
 74
     1
 75
     0
 76
     0
 77
     0
 78
     0
170
     0
171
     2
172
     0
173
     0
174
     0
175
     0
176
     0
177
     0
178
     0
270
     2
271
     4
272
     4
273
     2
274
     2
340
11
275
     0
280
     0
281
     0
282
     0
283
     1
284
     0
285
     0
286
     0
287
     3
288
     0
  0
ENDTAB
  0
TABLE
  2
BLOCK_RECORD
  5
1
330
0
100
AcDbSymbolTable
 70
     2
  0
BLOCK_RECORD
  5
1E
102
{ACAD_XDICTIONARY
360
104
102
}
330
1
100
AcDbSymbolTableRecord
100
AcDbBlockTableRecord
  2
*MODEL_SPACE
  0
BLOCK_RECORD
  5
1A
102
{ACAD_XDICTIONARY
360
106
102
}
330
1
100
AcDbSymbolTableRecord
100
AcDbBlockTableRecord
  2
*PAPER_SPACE
  0
BLOCK_RECORD
  5
94
330
1
100
AcDbSymbolTableRecord
100
AcDbBlockTableRecord
  2
*D0
  0
BLOCK_RECORD
  5
95
330
1
100
AcDbSymbolTableRecord
100
AcDbBlockTableRecord
  2
*D1
  0
ENDTAB
  0
ENDSEC
  0
SECTION
  2
BLOCKS
  0
BLOCK
  5
9F
330
1E
100
AcDbEntity
  8
0
100
AcDbBlockBegin
  2
*MODEL_SPACE
 70
     0
 10
0.0
 20
0.0
 30
0.0
  3
*MODEL_SPACE
  1

  0
ENDBLK
  5
A0
330
1E
100
AcDbEntity
  8
0
100
AcDbBlockEnd
  0
BLOCK
  5
9D
330
1A
100
AcDbEntity
 67
     1
  8
0
100
AcDbBlockBegin
  2
*PAPER_SPACE
 70
     0
 10
0.0
 20
0.0
 30
0.0
  3
*PAPER_SPACE
  1

  0
ENDBLK
  5
9E
330
1A
100
AcDbEntity
 67
     1
  8
0
100
AcDbBlockEnd
  0
BLOCK
  5
A2
330
94
100
AcDbEntity
  8
0
100
AcDbBlockBegin
  2
*D0
 70
     1
 10
0.0
 20
0.0
 30
0.0
  3
*D0
  1

  0
LINE
  5
A3
330
94
100
AcDbEntity
  8
0
  6
BYBLOCK
 62
     0
100
AcDbLine
 10
12.12308128534906
 20
-8.663188985348316
 30
0.0
 11
12.12308128534906
 21
-8.222406824984778
 31
0.0
  0
LINE
  5
A4
330
94
100
AcDbEntity
  8
0
  6
BYBLOCK
 62
     0
100
AcDbLine
 10
14.87308128534906
 20
-8.663188985348316
 30
0.0
 11
14.87308128534906
 21
-8.222406824984778
 31
0.0
  0
LINE
  5
A5
330
94
100
AcDbEntity
  8
0
  6
BYBLOCK
 62
     0
100
AcDbLine
 10
12.12308128534906
 20
-8.402406824984778
 30
0.0
 11
13.08141461868239
 21
-8.402406824984778
 31
0.0
  0
LINE
  5
A6
330
94
100
AcDbEntity
  8
0
  6
BYBLOCK
 62
     0
100
AcDbLine
 10
14.87308128534906
 20
-8.402406824984778
 30
0.0
 11
13.91474795201572
 21
-8.402406824984778
 31
0.0
  0
LINE
  5
A7
330
94
100
AcDbEntity
  8
0
  6
BYBLOCK
 62
     0
100
AcDbLine
 10
11.99808128534906
 20
-8.527406824984778
 30
0.0
 11
12.24808128534906
 21
-8.277406824984778
 31
0.0
  0
LINE
  5
A8
330
94
100
AcDbEntity
  8
0
  6
BYBLOCK
 62
     0
100
AcDbLine
 10
14.74808128534906
 20
-8.527406824984778
 30
0.0
 11
14.99808128534906
 21
-8.277406824984778
 31
0.0
  0
TEXT
  5
A9
330
94
100
AcDbEntity
  8
0
  6
BYBLOCK
 62
     0
100
AcDbText
 10
13.20641461868239
 20
-8.464906824984778
 30
0.0
 40
0.125
  1
2 3/4
 72
     1
 11
13.49808128534906
 21
-8.402406824984778
 31
0.0
100
AcDbText
 73
     2
  0
POINT
  5
AB
330
94
100
AcDbEntity
  8
DEFPOINTS
  6
BYBLOCK
 62
     0
100
AcDbPoint
 10
12.12308128534906
 20
-8.725688985348316
 30
0.0
  0
POINT
  5
AC
330
94
100
AcDbEntity
  8
DEFPOINTS
  6
BYBLOCK
 62
     0
100
AcDbPoint
 10
14.87308128534906
 20
-8.725688985348316
 30
0.0
  0
POINT
  5
AD
330
94
100
AcDbEntity
  8
DEFPOINTS
  6
BYBLOCK
 62
     0
100
AcDbPoint
 10
14.87308128534906
 20
-8.402406824984778
 30
0.0
  0
ENDBLK
  5
AE
330
94
100
AcDbEntity
  8
0
100
AcDbBlockEnd
  0
BLOCK
  5
AF
330
95
100
AcDbEntity
  8
0
100
AcDbBlockBegin
  2
*D1
 70
     1
 10
0.0
 20
0.0
 30
0.0
  3
*D1
  1

  0
LINE
  5
B0
330
95
100
AcDbEntity
  8
0
  6
BYBLOCK
 62
     0
100
AcDbLine
 10
12.15458128534906
 20
-8.631688985348317
 30
0.0
 11
11.53877025263782
 21
-8.631688985348317
 31
0.0
  0
LINE
  5
B1
330
95
100
AcDbEntity
  8
0
  6
BYBLOCK
 62
     0
100
AcDbLine
 10
12.15458128534906
 20
-9.881688985348317
 30
0.0
 11
11.53877025263782
 21
-9.881688985348317
 31
0.0
  0
LINE
  5
B2
330
95
100
AcDbEntity
  8
0
  6
BYBLOCK
 62
     0
100
AcDbLine
 10
11.71877025263782
 20
-8.631688985348317
 30
0.0
 11
11.71877025263782
 21
-8.881688985348317
 31
0.0
  0
LINE
  5
B3
330
95
100
AcDbEntity
  8
0
  6
BYBLOCK
 62
     0
100
AcDbLine
 10
11.71877025263782
 20
-9.881688985348317
 30
0.0
 11
11.71877025263782
 21
-9.631688985348317
 31
0.0
  0
LINE
  5
B4
330
95
100
AcDbEntity
  8
0
  6
BYBLOCK
 62
     0
100
AcDbLine
 10
11.84377025263782
 20
-8.756688985348317
 30
0.0
 11
11.59377025263782
 21
-8.506688985348317
 31
0.0
  0
LINE
  5
B5
330
95
100
AcDbEntity
  8
0
  6
BYBLOCK
 62
     0
100
AcDbLine
 10
11.84377025263782
 20
-10.00668898534831
 30
0.0
 11
11.59377025263782
 21
-9.756688985348317
 31
0.0
  0
TEXT
  5
B6
330
95
100
AcDbEntity
  8
0
  6
BYBLOCK
 62
     0
100
AcDbText
 10
11.78127025263782
 20
-9.506688985348317
 30
0.0
 40
0.125
  1
1 1/4
 50
90.0
 72
     1
 11
11.71877025263782
 21
-9.256688985348317
 31
0.0
100
AcDbText
 73
     2
  0
POINT
  5
B7
330
95
100
AcDbEntity
  8
DEFPOINTS
  6
BYBLOCK
 62
     0
100
AcDbPoint
 10
12.21708128534906
 20
-8.631688985348317
 30
0.0
  0
POINT
  5
B8
330
95
100
AcDbEntity
  8
DEFPOINTS
  6
BYBLOCK
 62
     0
100
AcDbPoint
 10
12.21708128534906
 20
-9.881688985348317
 30
0.0
  0
POINT
  5
B9
330
95
100
AcDbEntity
  8
DEFPOINTS
  6
BYBLOCK
 62
     0
100
AcDbPoint
 10
11.71877025263782
 20
-9.881688985348317
 30
0.0
  0
ENDBLK
  5
BA
330
95
100
AcDbEntity
  8
0
100
AcDbBlockEnd
  0
ENDSEC
  0
SECTION
  2
ENTITIES
  0
DIMENSION
  5
BB
330
1E
100
AcDbEntity
  8
ADPDIM
100
AcDbDimension
  2
*D1
 10
11.71877025263782
 20
-9.881688985348317
 30
0.0
 11
11.71877025263782
 21
-9.256688985348317
 31
0.0
100
AcDbAlignedDimension
 13
12.21708128534906
 23
-8.631688985348317
 33
0.0
 14
12.21708128534906
 24
-9.881688985348317
 34
0.0
 50
90.0
100
AcDbRotatedDimension
  0
LINE
  5
BC
330
1E
100
AcDbEntity
  8
ADP1DETAIL
100
AcDbLine
 10
12.12308128534905
 20
-9.787688985348317
 30
0.0
 11
12.12308128534905
 21
-8.725688985348316
 31
0.0
  0
LINE
  5
BD
330
1E
100
AcDbEntity
  8
ADP1DETAIL
100
AcDbLine
 10
14.87308128534905
 20
-8.725688985348316
 30
0.0
 11
14.87308128534905
 21
-9.787688985348317
 31
0.0
  0
LINE
  5
BE
330
1E
100
AcDbEntity
  8
ADP1DETAIL
100
AcDbLine
 10
14.77908128534906
 20
-9.881688985348317
 30
0.0
 11
12.21708128534905
 21
-9.881688985348317
 31
0.0
  0
ARC
  5
BF
330
1E
100
AcDbEntity
  8
ADP1DETAIL
100
AcDbCircle
 10
12.21708128534905
 20
-9.787688985348317
 30
0.0
 40
0.0939999999999994
100
AcDbArc
 50
180.0
 51
270.0
  0
ARC
  5
C0
330
1E
100
AcDbEntity
  8
ADP1DETAIL
100
AcDbCircle
 10
14.77908128534906
 20
-9.787688985348317
 30
0.0
 40
0.0939999999999994
100
AcDbArc
 50
270.0
 51
0.0
  0
DIMENSION
  5
C1
330
1E
100
AcDbEntity
  8
ADPDIM
100
AcDbDimension
  2
*D0
 10
14.87308128534906
 20
-8.402406824984778
 30
0.0
 11
13.49808128534906
 21
-8.402406824984778
 31
0.0
100
AcDbAlignedDimension
 13
12.12308128534906
 23
-8.725688985348316
 33
0.0
 14
14.87308128534906
 24
-8.725688985348316
 34
0.0
100
AcDbRotatedDimension
  0
LINE
  5
C2
330
1E
100
AcDbEntity
  8
ADP1DETAIL
100
AcDbLine
 10
12.21708128534905
 20
-8.631688985348317
 30
0.0
 11
14.77908128534906
 21
-8.631688985348317
 31
0.0
  0
ARC
  5
C3
330
1E
100
AcDbEntity
  8
ADP1DETAIL
100
AcDbCircle
 10
12.21708128534905
 20
-8.725688985348316
 30
0.0
 40
0.0939999999999994
100
AcDbArc
 50
90.0
 51
180.0
  0
ARC
  5
C4
330
1E
100
AcDbEntity
  8
ADP1DETAIL
100
AcDbCircle
 10
14.77908128534906
 20
-8.725688985348316
 30
0.0
 40
0.0939999999999994
100
AcDbArc
 50
0.0
 51
90.0
  0
TEXT
  5
C8
330
1E
100
AcDbEntity
  8
ADPDIM
100
AcDbText
 10
6.972352260792442
 20
-10.42558107713961
 30
0.0
 40
0.125
  1
J U L I U S  B L U M  &  C O . ,  I N C .      ( 8 0 0 )  5 2 6 - 6 2 9 3        W W W . J U L I U S B L U M . C O M        P A R T  N o .  6 4 2 4
 41
1.25
  7
ARIAL_WIDE
 72
     1
 11
13.49808128534905
 21
-10.30058107713961
 31
0.0
100
AcDbText
 73
     3
  0
ENDSEC
  0
SECTION
  2
OBJECTS
  0
DICTIONARY
  5
C
330
0
100
AcDbDictionary
  3
ACAD_GROUP
350
D
  3
ACAD_LAYOUT
350
19
  3
ACAD_MLINESTYLE
350
16
  3
ACAD_PLOTSETTINGS
350
18
  3
ACAD_PLOTSTYLENAME
350
E
  3
ACDBHEADERROUNDTRIPXREC
350
25B
  3
ACDBVARIABLEDICTIONARY
350
139
  0
DICTIONARY
  5
104
330
1E
100
AcDbDictionary
280
     1
  3
ACAD_LAYOUTSELFREF
360
27D
  0
DICTIONARY
  5
106
330
1A
100
AcDbDictionary
280
     1
  3
ACAD_LAYOUTSELFREF
360
27C
  0
DICTIONARY
  5
D
102
{ACAD_REACTORS
330
C
102
}
330
C
100
AcDbDictionary
  0
DICTIONARY
  5
19
102
{ACAD_REACTORS
330
C
102
}
330
C
100
AcDbDictionary
  0
DICTIONARY
  5
16
102
{ACAD_REACTORS
330
C
102
}
330
C
100
AcDbDictionary
  3
STANDARD
350
17
  0
DICTIONARY
  5
18
102
{ACAD_REACTORS
330
C
102
}
330
C
100
AcDbDictionary
  0
ACDBDICTIONARYWDFLT
  5
E
102
{ACAD_REACTORS
330
C
102
}
330
C
100
AcDbDictionary
281
     1
  3
Normal
350
F
100
AcDbDictionaryWithDefault
340
F
  0
DICTIONARY
  5
25B
102
{ACAD_REACTORS
330
C
102
}
330
C
100
AcDbDictionary
  3
CEPSNTYPE
350
265
  3
DIMSTYLEDATA
350
269
  3
FINGERPRINTGUID
350
266
  3
HYPERLINKBASE
350
25E
  3
INSUNITS
350
264
  3
LAYOUTDICT
350
260
  3
LWETCUNION
350
263
  3
PLOTSETDICT
350
261
  3
PLOTSTYLNAMDICT
350
262
  3
PSVPSCALE
350
268
  3
PUCSBASE
350
26C
  3
PUCSORGBACK
350
272
  3
PUCSORGBOTTOM
350
26E
  3
PUCSORGFRONT
350
271
  3
PUCSORGLEFT
350
26F
  3
PUCSORGRIGHT
350
270
  3
PUCSORGTOP
350
26D
  3
PUCSORTHOREF
350
26A
  3
PUCSORTHOVIEW
350
26B
  3
STYLESHEET
350
25F
  3
TSTACKALIGN
350
25C
  3
TSTACKSIZE
350
25D
  3
UCSBASE
350
275
  3
UCSORGBACK
350
27B
  3
UCSORGBOTTOM
350
277
  3
UCSORGFRONT
350
27A
  3
UCSORGLEFT
350
278
  3
UCSORGRIGHT
350
279
  3
UCSORGTOP
350
276
  3
UCSORTHOREF
350
273
  3
UCSORTHOVIEW
350
274
  3
VERSIONGUID
350
267
  0
DICTIONARY
  5
139
102
{ACAD_REACTORS
330
C
102
}
330
C
100
AcDbDictionary
  3
DIMASSOC
350
13B
  3
HIDETEXT
350
13A
  0
XRECORD
  5
27D
102
{ACAD_REACTORS
330
104
102
}
330
104
100
AcDbXrecord
340
1E
  0
XRECORD
  5
27C
102
{ACAD_REACTORS
330
106
102
}
330
106
100
AcDbXrecord
340
1A
  0
MLINESTYLE
  5
17
102
{ACAD_REACTORS
330
16
102
}
330
16
100
AcDbMlineStyle
  2
STANDARD
 70
     0
  3

 62
   256
 51
90.0
 52
90.0
 71
     2
 49
0.5
 62
   256
  6
BYLAYER
 49
-0.5
 62
   256
  6
BYLAYER
  0
ACDBPLACEHOLDER
  5
F
102
{ACAD_REACTORS
330
E
102
}
330
E
100
AcDbPlaceHolder
280
     0
  0
XRECORD
  5
265
102
{ACAD_REACTORS
330
25B
102
}
330
25B
100
AcDbXrecord
 90
        0
  0
XRECORD
  5
269
102
{ACAD_REACTORS
330
25B
102
}
330
25B
100
AcDbXrecord
1000
DSTYLE
1002
{
1070
   277
 70
     5
1070
   279
 70
     2
1002
}
  0
XRECORD
  5
266
102
{ACAD_REACTORS
330
25B
102
}
330
25B
100
AcDbXrecord
  1
{8AF0B779-42F9-4D95-8DCB-831C49CBE276}
  0
XRECORD
  5
25E
102
{ACAD_REACTORS
330
25B
102
}
330
25B
100
AcDbXrecord
  1

  0
XRECORD
  5
264
102
{ACAD_REACTORS
330
25B
102
}
330
25B
100
AcDbXrecord
 90
        0
  0
XRECORD
  5
260
102
{ACAD_REACTORS
330
25B
102
}
330
25B
100
AcDbXrecord
340
19
  0
XRECORD
  5
263
102
{ACAD_REACTORS
330
25B
102
}
330
25B
100
AcDbXrecord
 90
    14877
  0
XRECORD
  5
261
102
{ACAD_REACTORS
330
25B
102
}
330
25B
100
AcDbXrecord
340
18
  0
XRECORD
  5
262
102
{ACAD_REACTORS
330
25B
102
}
330
25B
100
AcDbXrecord
340
E
  0
XRECORD
  5
268
102
{ACAD_REACTORS
330
25B
102
}
330
25B
100
AcDbXrecord
 40
0.0
  0
XRECORD
  5
26C
102
{ACAD_REACTORS
330
25B
102
}
330
25B
100
AcDbXrecord
340
0
  0
XRECORD
  5
272
102
{ACAD_REACTORS
330
25B
102
}
330
25B
100
AcDbXrecord
 10
0.0
 20
0.0
 30
0.0
  0
XRECORD
  5
26E
102
{ACAD_REACTORS
330
25B
102
}
330
25B
100
AcDbXrecord
 10
0.0
 20
0.0
 30
0.0
  0
XRECORD
  5
271
102
{ACAD_REACTORS
330
25B
102
}
330
25B
100
AcDbXrecord
 10
0.0
 20
0.0
 30
0.0
  0
XRECORD
  5
26F
102
{ACAD_REACTORS
330
25B
102
}
330
25B
100
AcDbXrecord
 10
0.0
 20
0.0
 30
0.0
  0
XRECORD
  5
270
102
{ACAD_REACTORS
330
25B
102
}
330
25B
100
AcDbXrecord
 10
0.0
 20
0.0
 30
0.0
  0
XRECORD
  5
26D
102
{ACAD_REACTORS
330
25B
102
}
330
25B
100
AcDbXrecord
 10
0.0
 20
0.0
 30
0.0
  0
XRECORD
  5
26A
102
{ACAD_REACTORS
330
25B
102
}
330
25B
100
AcDbXrecord
340
0
  0
XRECORD
  5
26B
102
{ACAD_REACTORS
330
25B
102
}
330
25B
100
AcDbXrecord
 70
     0
  0
XRECORD
  5
25F
102
{ACAD_REACTORS
330
25B
102
}
330
25B
100
AcDbXrecord
  1

  0
XRECORD
  5
25C
102
{ACAD_REACTORS
330
25B
102
}
330
25B
100
AcDbXrecord
 90
        1
  0
XRECORD
  5
25D
102
{ACAD_REACTORS
330
25B
102
}
330
25B
100
AcDbXrecord
 90
       70
  0
XRECORD
  5
275
102
{ACAD_REACTORS
330
25B
102
}
330
25B
100
AcDbXrecord
340
0
  0
XRECORD
  5
27B
102
{ACAD_REACTORS
330
25B
102
}
330
25B
100
AcDbXrecord
 10
0.0
 20
0.0
 30
0.0
  0
XRECORD
  5
277
102
{ACAD_REACTORS
330
25B
102
}
330
25B
100
AcDbXrecord
 10
0.0
 20
0.0
 30
0.0
  0
XRECORD
  5
27A
102
{ACAD_REACTORS
330
25B
102
}
330
25B
100
AcDbXrecord
 10
0.0
 20
0.0
 30
0.0
  0
XRECORD
  5
278
102
{ACAD_REACTORS
330
25B
102
}
330
25B
100
AcDbXrecord
 10
0.0
 20
0.0
 30
0.0
  0
XRECORD
  5
279
102
{ACAD_REACTORS
330
25B
102
}
330
25B
100
AcDbXrecord
 10
0.0
 20
0.0
 30
0.0
  0
XRECORD
  5
276
102
{ACAD_REACTORS
330
25B
102
}
330
25B
100
AcDbXrecord
 10
0.0
 20
0.0
 30
0.0
  0
XRECORD
  5
273
102
{ACAD_REACTORS
330
25B
102
}
330
25B
100
AcDbXrecord
340
0
  0
XRECORD
  5
274
102
{ACAD_REACTORS
330
25B
102
}
330
25B
100
AcDbXrecord
 70
     0
  0
XRECORD
  5
267
102
{ACAD_REACTORS
330
25B
102
}
330
25B
100
AcDbXrecord
  1
{FAFC8AA1-0C54-4A17-AA7C-5D7C5EE9EC7E}
  0
DICTIONARYVAR
  5
13B
102
{ACAD_REACTORS
330
139
102
}
330
139
100
DictionaryVariables
280
     0
  1
2
  0
DICTIONARYVAR
  5
13A
102
{ACAD_REACTORS
330
139
102
}
330
139
100
DictionaryVariables
280
     0
  1
1
  0
ENDSEC
  0
EOF
