  0
SECTION
  2
HEADER
  9
$ACADVER
  1
AC1015
  9
$ACADMAINTVER
 70
    20
  9
$DWGCODEPAGE
  3
ANSI_1252
  9
$INSBASE
 10
31.56179768844066
 20
-24.76382566744023
 30
0.0
  9
$EXTMIN
 10
19.57212928889399
 20
-34.50928046960191
 30
0.0
  9
$EXTMAX
 10
41.47780525567786
 20
-16.05042284130494
 30
0.0
  9
$LIMMIN
 10
0.0
 20
0.0
  9
$LIMMAX
 10
36.0
 20
36.0
  9
$ORTHOMODE
 70
     1
  9
$REGENMODE
 70
     1
  9
$FILLMODE
 70
     1
  9
$QTEXTMODE
 70
     0
  9
$MIRRTEXT
 70
     1
  9
$LTSCALE
 40
1.0
  9
$ATTMODE
 70
     1
  9
$TEXTSIZE
 40
0.2
  9
$TRACEWID
 40
0.05
  9
$TEXTSTYLE
  7
STANDARD
  9
$CLAYER
  8
ADP2DETAIL
  9
$CELTYPE
  6
BYLAYER
  9
$CECOLOR
 62
   256
  9
$CELTSCALE
 40
1.0
  9
$DISPSILH
 70
     0
  9
$DIMSCALE
 40
1.0
  9
$DIMASZ
 40
0.125
  9
$DIMEXO
 40
0.0625
  9
$DIMDLI
 40
0.38
  9
$DIMRND
 40
0.0
  9
$DIMDLE
 40
0.0
  9
$DIMEXE
 40
0.18
  9
$DIMTP
 40
0.0
  9
$DIMTM
 40
0.0
  9
$DIMTXT
 40
0.125
  9
$DIMCEN
 40
0.1875
  9
$DIMTSZ
 40
0.125
  9
$DIMTOL
 70
     0
  9
$DIMLIM
 70
     0
  9
$DIMTIH
 70
     0
  9
$DIMTOH
 70
     0
  9
$DIMSE1
 70
     0
  9
$DIMSE2
 70
     0
  9
$DIMTAD
 70
     0
  9
$DIMZIN
 70
     3
  9
$DIMBLK
  1

  9
$DIMASO
 70
     1
  9
$DIMSHO
 70
     1
  9
$DIMPOST
  1

  9
$DIMAPOST
  1

  9
$DIMALT
 70
     0
  9
$DIMALTD
 70
     1
  9
$DIMALTF
 40
25.4
  9
$DIMLFAC
 40
1.0
  9
$DIMTOFL
 70
     0
  9
$DIMTVP
 40
0.0
  9
$DIMTIX
 70
     0
  9
$DIMSOXD
 70
     0
  9
$DIMSAH
 70
     0
  9
$DIMBLK1
  1

  9
$DIMBLK2
  1

  9
$DIMSTYLE
  2
STANDARD
  9
$DIMCLRD
 70
     0
  9
$DIMCLRE
 70
     0
  9
$DIMCLRT
 70
     0
  9
$DIMTFAC
 40
1.0
  9
$DIMGAP
 40
0.125
  9
$DIMJUST
 70
     0
  9
$DIMSD1
 70
     0
  9
$DIMSD2
 70
     0
  9
$DIMTOLJ
 70
     1
  9
$DIMTZIN
 70
     0
  9
$DIMALTZ
 70
     0
  9
$DIMALTTZ
 70
     0
  9
$DIMUPT
 70
     0
  9
$DIMDEC
 70
     4
  9
$DIMTDEC
 70
     4
  9
$DIMALTU
 70
     2
  9
$DIMALTTD
 70
     2
  9
$DIMTXSTY
  7
STANDARD
  9
$DIMAUNIT
 70
     0
  9
$DIMADEC
 70
     0
  9
$DIMALTRND
 40
0.0
  9
$DIMAZIN
 70
     0
  9
$DIMDSEP
 70
    46
  9
$DIMATFIT
 70
     3
  9
$DIMFRAC
 70
     0
  9
$DIMLDRBLK
  1

  9
$DIMLUNIT
 70
     2
  9
$DIMLWD
 70
    -2
  9
$DIMLWE
 70
    -2
  9
$DIMTMOVE
 70
     0
  9
$LUNITS
 70
     5
  9
$LUPREC
 70
     4
  9
$SKETCHINC
 40
0.1
  9
$FILLETRAD
 40
0.062
  9
$AUNITS
 70
     0
  9
$AUPREC
 70
     0
  9
$MENU
  1
acad
  9
$ELEVATION
 40
0.0
  9
$PELEVATION
 40
0.0
  9
$THICKNESS
 40
0.0
  9
$LIMCHECK
 70
     0
  9
$CHAMFERA
 40
0.0
  9
$CHAMFERB
 40
0.0
  9
$CHAMFERC
 40
0.0
  9
$CHAMFERD
 40
0.0
  9
$SKPOLY
 70
     0
  9
$TDCREATE
 40
2450386.505591435
  9
$TDUCREATE
 40
2450386.672258102
  9
$TDUPDATE
 40
2453956.942583843
  9
$TDUUPDATE
 40
2453957.109250509
  9
$TDINDWG
 40
0.0293151273
  9
$TDUSRTIMER
 40
0.0293151273
  9
$USRTIMER
 70
     1
  9
$ANGBASE
 50
0.0
  9
$ANGDIR
 70
     0
  9
$PDMODE
 70
     0
  9
$PDSIZE
 40
0.0
  9
$PLINEWID
 40
0.0
  9
$SPLFRAME
 70
     0
  9
$SPLINETYPE
 70
     6
  9
$SPLINESEGS
 70
     8
  9
$HANDSEED
  5
425
  9
$SURFTAB1
 70
     6
  9
$SURFTAB2
 70
     6
  9
$SURFTYPE
 70
     6
  9
$SURFU
 70
     6
  9
$SURFV
 70
     6
  9
$UCSBASE
  2

  9
$UCSNAME
  2

  9
$UCSORG
 10
0.0
 20
0.0
 30
0.0
  9
$UCSXDIR
 10
1.0
 20
0.0
 30
0.0
  9
$UCSYDIR
 10
0.0
 20
1.0
 30
0.0
  9
$UCSORTHOREF
  2

  9
$UCSORTHOVIEW
 70
     0
  9
$UCSORGTOP
 10
0.0
 20
0.0
 30
0.0
  9
$UCSORGBOTTOM
 10
0.0
 20
0.0
 30
0.0
  9
$UCSORGLEFT
 10
0.0
 20
0.0
 30
0.0
  9
$UCSORGRIGHT
 10
0.0
 20
0.0
 30
0.0
  9
$UCSORGFRONT
 10
0.0
 20
0.0
 30
0.0
  9
$UCSORGBACK
 10
0.0
 20
0.0
 30
0.0
  9
$PUCSBASE
  2

  9
$PUCSNAME
  2

  9
$PUCSORG
 10
0.0
 20
0.0
 30
0.0
  9
$PUCSXDIR
 10
1.0
 20
0.0
 30
0.0
  9
$PUCSYDIR
 10
0.0
 20
1.0
 30
0.0
  9
$PUCSORTHOREF
  2

  9
$PUCSORTHOVIEW
 70
     0
  9
$PUCSORGTOP
 10
0.0
 20
0.0
 30
0.0
  9
$PUCSORGBOTTOM
 10
0.0
 20
0.0
 30
0.0
  9
$PUCSORGLEFT
 10
0.0
 20
0.0
 30
0.0
  9
$PUCSORGRIGHT
 10
0.0
 20
0.0
 30
0.0
  9
$PUCSORGFRONT
 10
0.0
 20
0.0
 30
0.0
  9
$PUCSORGBACK
 10
0.0
 20
0.0
 30
0.0
  9
$USERI1
 70
     0
  9
$USERI2
 70
     0
  9
$USERI3
 70
     0
  9
$USERI4
 70
     0
  9
$USERI5
 70
     0
  9
$USERR1
 40
0.0
  9
$USERR2
 40
0.0
  9
$USERR3
 40
0.0
  9
$USERR4
 40
0.0
  9
$USERR5
 40
0.0
  9
$WORLDVIEW
 70
     1
  9
$SHADEDGE
 70
     3
  9
$SHADEDIF
 70
    70
  9
$TILEMODE
 70
     1
  9
$MAXACTVP
 70
    15
  9
$PINSBASE
 10
4.403525741743744E+99
 20
7.061986388769092E+99
 30
0.0
  9
$PLIMCHECK
 70
     0
  9
$PEXTMIN
 10
1.000000000000000E+20
 20
1.000000000000000E+20
 30
1.000000000000000E+20
  9
$PEXTMAX
 10
-1.000000000000000E+20
 20
-1.000000000000000E+20
 30
-1.000000000000000E+20
  9
$PLIMMIN
 10
0.0
 20
0.0
  9
$PLIMMAX
 10
12.0
 20
9.0
  9
$UNITMODE
 70
     0
  9
$VISRETAIN
 70
     0
  9
$PLINEGEN
 70
     0
  9
$PSLTSCALE
 70
     1
  9
$TREEDEPTH
 70
  3020
  9
$CMLSTYLE
  2
STANDARD
  9
$CMLJUST
 70
     0
  9
$CMLSCALE
 40
1.0
  9
$PROXYGRAPHICS
 70
     1
  9
$MEASUREMENT
 70
     0
  9
$CELWEIGHT
370
    -1
  9
$ENDCAPS
280
     0
  9
$JOINSTYLE
280
     0
  9
$LWDISPLAY
290
     0
  9
$INSUNITS
 70
     0
  9
$HYPERLINKBASE
  1

  9
$STYLESHEET
  1

  9
$XEDIT
290
     1
  9
$CEPSNTYPE
380
     0
  9
$PSTYLEMODE
290
     1
  9
$FINGERPRINTGUID
  2
{21B88DF2-B202-421C-9560-05A4151B114D}
  9
$VERSIONGUID
  2
{74DCFF76-236A-466C-857A-89330A66E6F3}
  9
$EXTNAMES
290
     1
  9
$PSVPSCALE
 40
0.0
  9
$OLESTARTUP
290
     0
  0
ENDSEC
  0
SECTION
  2
CLASSES
  0
CLASS
  1
ACDBDICTIONARYWDFLT
  2
AcDbDictionaryWithDefault
  3
ObjectDBX Classes
 90
        0
280
     0
281
     0
  0
CLASS
  1
ACDBPLACEHOLDER
  2
AcDbPlaceHolder
  3
ObjectDBX Classes
 90
        0
280
     0
281
     0
  0
CLASS
  1
LAYOUT
  2
AcDbLayout
  3
ObjectDBX Classes
 90
        0
280
     0
281
     0
  0
CLASS
  1
DICTIONARYVAR
  2
AcDbDictionaryVar
  3
ObjectDBX Classes
 90
        0
280
     0
281
     0
  0
CLASS
  1
MATERIAL
  2
AcDbMaterial
  3
ObjectDBX Classes
 90
     1024
280
     0
281
     0
  0
CLASS
  1
VISUALSTYLE
  2
AcDbVisualStyle
  3
ObjectDBX Classes
 90
     4095
280
     0
281
     0
  0
CLASS
  1
TABLESTYLE
  2
AcDbTableStyle
  3
ObjectDBX Classes
 90
     4095
280
     0
281
     0
  0
ENDSEC
  0
SECTION
  2
TABLES
  0
TABLE
  2
VPORT
  5
8
330
0
100
AcDbSymbolTable
 70
     1
  0
VPORT
  5
2B6
330
8
100
AcDbSymbolTableRecord
100
AcDbViewportTableRecord
  2
*Active
 70
     0
 10
0.0
 20
0.0
 11
1.0
 21
1.0
 12
35.26336632948102
 22
-22.30326230747555
 13
0.0
 23
0.0
 14
0.5740882589684922
 24
0.5740882589684922
 15
0.5
 25
0.5
 16
0.0
 26
0.0
 36
1.0
 17
0.0
 27
0.0
 37
0.0
 40
10.16838000458947
 41
1.774011299435028
 42
50.0
 43
0.0
 44
0.0
 50
0.0
 51
0.0
 71
     0
 72
   100
 73
     1
 74
     0
 75
     0
 76
     0
 77
     0
 78
     0
281
     0
 65
     1
110
0.0
120
0.0
130
0.0
111
1.0
121
0.0
131
0.0
112
0.0
122
1.0
132
0.0
 79
     0
146
0.0
  0
ENDTAB
  0
TABLE
  2
LTYPE
  5
5
330
0
100
AcDbSymbolTable
 70
     3
  0
LTYPE
  5
12
330
5
100
AcDbSymbolTableRecord
100
AcDbLinetypeTableRecord
  2
BYBLOCK
 70
     0
  3

 72
    65
 73
     0
 40
0.0
  0
LTYPE
  5
13
330
5
100
AcDbSymbolTableRecord
100
AcDbLinetypeTableRecord
  2
BYLAYER
 70
     0
  3

 72
    65
 73
     0
 40
0.0
  0
LTYPE
  5
14
330
5
100
AcDbSymbolTableRecord
100
AcDbLinetypeTableRecord
  2
CONTINUOUS
 70
     0
  3
Solid line
 72
    65
 73
     0
 40
0.0
  0
LTYPE
  5
CE
330
5
100
AcDbSymbolTableRecord
100
AcDbLinetypeTableRecord
  2
HIDDEN2
 70
     0
  3
_ _ _ _ _ _ _ _ _ _ _ _ _ _ _ _ _ _ _ _ _ _ _ _
 72
    65
 73
     2
 40
0.1875
 49
0.125
 74
     0
 49
-0.0625
 74
     0
  0
ENDTAB
  0
TABLE
  2
LAYER
  5
2
330
0
100
AcDbSymbolTable
 70
     5
  0
LAYER
  5
F
330
2
100
AcDbSymbolTableRecord
100
AcDbLayerTableRecord
  2
0
 70
     0
 62
     7
  6
CONTINUOUS
370
    -3
390
19A
  0
LAYER
  5
D2
330
2
100
AcDbSymbolTableRecord
100
AcDbLayerTableRecord
  2
ADP1DETAIL
 70
     0
 62
     7
  6
CONTINUOUS
370
    -3
390
19A
  0
LAYER
  5
D4
330
2
100
AcDbSymbolTableRecord
100
AcDbLayerTableRecord
  2
DEFPOINTS
 70
     0
 62
     7
  6
CONTINUOUS
290
     0
370
    -3
390
19A
  0
LAYER
  5
D5
330
2
100
AcDbSymbolTableRecord
100
AcDbLayerTableRecord
  2
ADP2DETAIL
 70
     0
 62
     5
  6
CONTINUOUS
370
    -3
390
19A
  0
LAYER
  5
D6
330
2
100
AcDbSymbolTableRecord
100
AcDbLayerTableRecord
  2
ADPDIM
 70
     0
 62
     3
  6
CONTINUOUS
370
    -3
390
19A
  0
ENDTAB
  0
TABLE
  2
STYLE
  5
3
330
0
100
AcDbSymbolTable
 70
     2
  0
STYLE
  5
10
330
3
100
AcDbSymbolTableRecord
100
AcDbTextStyleTableRecord
  2
STANDARD
 70
     0
 40
0.0
 41
1.0
 50
0.0
 71
     0
 42
0.2
  3
txt
  4

  0
STYLE
  5
1A1
330
3
100
AcDbSymbolTableRecord
100
AcDbTextStyleTableRecord
  2
ARIAL_WIDE
 70
     0
 40
0.0
 41
1.25
 50
0.0
 71
     0
 42
0.2
  3
ARIAL.TTF
  4

1001
ACAD
1000
Arial
1071
       34
  0
ENDTAB
  0
TABLE
  2
VIEW
  5
6
330
0
100
AcDbSymbolTable
 70
     0
  0
ENDTAB
  0
TABLE
  2
UCS
  5
7
330
0
100
AcDbSymbolTable
 70
     0
  0
ENDTAB
  0
TABLE
  2
APPID
  5
9
330
0
100
AcDbSymbolTable
 70
     1
  0
APPID
  5
11
330
9
100
AcDbSymbolTableRecord
100
AcDbRegAppTableRecord
  2
ACAD
 70
     0
  0
ENDTAB
  0
TABLE
  2
DIMSTYLE
  5
A
330
0
100
AcDbSymbolTable
 70
     2
100
AcDbDimStyleTable
 71
     1
340
195
  0
DIMSTYLE
105
195
102
{ACAD_REACTORS
330
2FD
330
128
330
12C
330
12A
330
12B
330
152
102
}
330
A
100
AcDbSymbolTableRecord
100
AcDbDimStyleTableRecord
  2
STANDARD
 70
     0
340
10
  0
ENDTAB
  0
TABLE
  2
BLOCK_RECORD
  5
1
330
0
100
AcDbSymbolTable
 70
    13
  0
BLOCK_RECORD
  5
18
102
{ACAD_XDICTIONARY
360
1F6
102
}
330
1
100
AcDbSymbolTableRecord
100
AcDbBlockTableRecord
  2
*MODEL_SPACE
340
19D
  0
BLOCK_RECORD
  5
15
102
{ACAD_XDICTIONARY
360
1F4
102
}
330
1
100
AcDbSymbolTableRecord
100
AcDbBlockTableRecord
  2
*PAPER_SPACE
340
19E
  0
BLOCK_RECORD
  5
C7
330
1
100
AcDbSymbolTableRecord
100
AcDbBlockTableRecord
  2
*D0
340
0
  0
BLOCK_RECORD
  5
C8
330
1
100
AcDbSymbolTableRecord
100
AcDbBlockTableRecord
  2
*D1
340
0
  0
BLOCK_RECORD
  5
C9
330
1
100
AcDbSymbolTableRecord
100
AcDbBlockTableRecord
  2
*D2
340
0
  0
BLOCK_RECORD
  5
CA
330
1
100
AcDbSymbolTableRecord
100
AcDbBlockTableRecord
  2
*D3
340
0
  0
BLOCK_RECORD
  5
CB
330
1
100
AcDbSymbolTableRecord
100
AcDbBlockTableRecord
  2
*D4
340
0
  0
BLOCK_RECORD
  5
CC
330
1
100
AcDbSymbolTableRecord
100
AcDbBlockTableRecord
  2
*D5
340
0
  0
BLOCK_RECORD
  5
2FE
330
1
100
AcDbSymbolTableRecord
100
AcDbBlockTableRecord
  2
*D6
340
0
  0
BLOCK_RECORD
  5
315
330
1
100
AcDbSymbolTableRecord
100
AcDbBlockTableRecord
  2
*D7
340
0
  0
BLOCK_RECORD
  5
31F
330
1
100
AcDbSymbolTableRecord
100
AcDbBlockTableRecord
  2
*D8
340
0
  0
BLOCK_RECORD
  5
33D
330
1
100
AcDbSymbolTableRecord
100
AcDbBlockTableRecord
  2
*D10
340
0
  0
BLOCK_RECORD
  5
34A
330
1
100
AcDbSymbolTableRecord
100
AcDbBlockTableRecord
  2
*D11
340
0
  0
BLOCK_RECORD
  5
361
330
1
100
AcDbSymbolTableRecord
100
AcDbBlockTableRecord
  2
*D12
340
0
  0
ENDTAB
  0
ENDSEC
  0
SECTION
  2
BLOCKS
  0
BLOCK
  5
D9
330
18
100
AcDbEntity
  8
0
100
AcDbBlockBegin
  2
*MODEL_SPACE
 70
     0
 10
0.0
 20
0.0
 30
0.0
  3
*MODEL_SPACE
  1

  0
ENDBLK
  5
DA
330
18
100
AcDbEntity
  8
0
100
AcDbBlockEnd
  0
BLOCK
  5
D7
330
15
100
AcDbEntity
 67
     1
  8
0
100
AcDbBlockBegin
  2
*PAPER_SPACE
 70
     0
 10
0.0
 20
0.0
 30
0.0
  3
*PAPER_SPACE
  1

  0
ENDBLK
  5
D8
330
15
100
AcDbEntity
 67
     1
  8
0
100
AcDbBlockEnd
  0
BLOCK
  5
DC
330
C7
100
AcDbEntity
  8
0
100
AcDbBlockBegin
  2
*D0
 70
     1
 10
0.0
 20
0.0
 30
0.0
  3
*D0
  1

  0
LINE
  5
DD
330
C7
100
AcDbEntity
  8
0
  6
ByBlock
 62
     0
100
AcDbLine
 10
31.56179768844066
 20
-22.01081538599654
 30
0.0
 11
31.56179768844066
 21
-20.20322865191313
 31
0.0
  0
LINE
  5
DE
330
C7
100
AcDbEntity
  8
0
  6
ByBlock
 62
     0
100
AcDbLine
 10
34.57999633478919
 20
-20.68516584090861
 30
0.0
 11
34.57999633478919
 21
-20.20322865191313
 31
0.0
  0
LINE
  5
DF
330
C7
100
AcDbEntity
  8
0
  6
ByBlock
 62
     0
100
AcDbLine
 10
31.56179768844066
 20
-20.38322865191313
 30
0.0
 11
32.90423034494825
 21
-20.38322865191313
 31
0.0
  0
LINE
  5
E0
330
C7
100
AcDbEntity
  8
0
  6
ByBlock
 62
     0
100
AcDbLine
 10
34.57999633478919
 20
-20.38322865191313
 30
0.0
 11
33.23756367828158
 21
-20.38322865191313
 31
0.0
  0
LINE
  5
E1
330
C7
100
AcDbEntity
  8
0
  6
ByBlock
 62
     0
100
AcDbLine
 10
31.43679768844065
 20
-20.50822865191313
 30
0.0
 11
31.68679768844065
 21
-20.25822865191313
 31
0.0
  0
LINE
  5
E2
330
C7
100
AcDbEntity
  8
0
  6
ByBlock
 62
     0
100
AcDbLine
 10
34.45499633478919
 20
-20.50822865191313
 30
0.0
 11
34.70499633478919
 21
-20.25822865191313
 31
0.0
  0
TEXT
  5
E3
330
C7
100
AcDbEntity
  8
0
  6
ByBlock
 62
     0
100
AcDbText
 10
33.02923034494825
 20
-20.44572865191313
 30
0.0
 40
0.125
  1
3
 72
     1
 11
33.07089701161492
 21
-20.38322865191313
 31
0.0
100
AcDbText
 73
     2
  0
POINT
  5
E4
330
C7
100
AcDbEntity
  8
DEFPOINTS
  6
ByBlock
 62
     0
100
AcDbPoint
 10
31.56179768844066
 20
-22.07331538599655
 30
0.0
  0
POINT
  5
E5
330
C7
100
AcDbEntity
  8
DEFPOINTS
  6
ByBlock
 62
     0
100
AcDbPoint
 10
34.57999633478919
 20
-20.74766584090861
 30
0.0
  0
POINT
  5
E6
330
C7
100
AcDbEntity
  8
DEFPOINTS
  6
ByBlock
 62
     0
100
AcDbPoint
 10
34.57999633478919
 20
-20.38322865191313
 30
0.0
  0
ENDBLK
  5
E7
330
C7
100
AcDbEntity
  8
0
100
AcDbBlockEnd
  0
BLOCK
  5
E8
330
C8
100
AcDbEntity
  8
0
100
AcDbBlockBegin
  2
*D1
 70
     1
 10
0.0
 20
0.0
 30
0.0
  3
*D1
  1

  0
LINE
  5
E9
330
C8
100
AcDbEntity
  8
0
  6
ByBlock
 62
     0
100
AcDbLine
 10
36.67584177753399
 20
-23.4706038911452
 30
0.0
 11
38.24718694277066
 21
-23.4706038911452
 31
0.0
  0
LINE
  5
EA
330
C8
100
AcDbEntity
  8
0
  6
ByBlock
 62
     0
100
AcDbLine
 10
37.45538908288648
 20
-20.73628438782072
 30
0.0
 11
38.24718694277066
 21
-20.73628438782072
 31
0.0
  0
LINE
  5
EB
330
C8
100
AcDbEntity
  8
0
  6
ByBlock
 62
     0
100
AcDbLine
 10
38.06718694277066
 20
-23.4706038911452
 30
0.0
 11
38.06718694277066
 21
-22.52011080614963
 31
0.0
  0
LINE
  5
EC
330
C8
100
AcDbEntity
  8
0
  6
ByBlock
 62
     0
100
AcDbLine
 10
38.06718694277066
 20
-20.73628438782072
 30
0.0
 11
38.06718694277066
 21
-21.68677747281629
 31
0.0
  0
LINE
  5
ED
330
C8
100
AcDbEntity
  8
0
  6
ByBlock
 62
     0
100
AcDbLine
 10
38.19218694277066
 20
-23.5956038911452
 30
0.0
 11
37.94218694277066
 21
-23.3456038911452
 31
0.0
  0
LINE
  5
EE
330
C8
100
AcDbEntity
  8
0
  6
ByBlock
 62
     0
100
AcDbLine
 10
38.19218694277066
 20
-20.86128438782072
 30
0.0
 11
37.94218694277066
 21
-20.61128438782072
 31
0.0
  0
TEXT
  5
EF
330
C8
100
AcDbEntity
  8
0
  6
ByBlock
 62
     0
100
AcDbText
 10
38.12968694277066
 20
-22.39511080614962
 30
0.0
 40
0.125
  1
2 3/4
 50
90.0
 72
     1
 11
38.06718694277066
 21
-22.10344413948296
 31
0.0
100
AcDbText
 73
     2
  0
POINT
  5
F0
330
C8
100
AcDbEntity
  8
DEFPOINTS
  6
ByBlock
 62
     0
100
AcDbPoint
 10
36.61334177753399
 20
-23.4706038911452
 30
0.0
  0
POINT
  5
F1
330
C8
100
AcDbEntity
  8
DEFPOINTS
  6
ByBlock
 62
     0
100
AcDbPoint
 10
37.39288908288648
 20
-20.73628438782072
 30
0.0
  0
POINT
  5
F2
330
C8
100
AcDbEntity
  8
DEFPOINTS
  6
ByBlock
 62
     0
100
AcDbPoint
 10
38.06718694277066
 20
-20.73628438782072
 30
0.0
  0
ENDBLK
  5
F3
330
C8
100
AcDbEntity
  8
0
100
AcDbBlockEnd
  0
BLOCK
  5
F4
330
C9
100
AcDbEntity
  8
0
100
AcDbBlockBegin
  2
*D2
 70
     1
 10
0.0
 20
0.0
 30
0.0
  3
*D2
  1

  0
LINE
  5
F5
330
C9
100
AcDbEntity
  8
0
  6
ByBlock
 62
     0
100
AcDbLine
 10
36.54797663577693
 20
-23.68796231922966
 30
0.0
 11
36.57613075948316
 21
-23.93637195132619
 31
0.0
  0
LINE
  5
F6
330
C9
100
AcDbEntity
  8
0
  6
ByBlock
 62
     0
100
AcDbLine
 10
36.40969475787556
 20
-23.57783456503451
 30
0.0
 11
36.68625851367831
 21
-23.79809007342482
 31
0.0
  0
LINE
  5
F7
330
C9
100
AcDbEntity
  8
0
  6
ByBlock
 62
     0
100
AcDbLine
 10
36.33584177753399
 20
-23.4706038911452
 30
0.0
 11
36.71084177753399
 21
-23.4706038911452
 31
0.0
  0
LINE
  5
F8
330
C9
100
AcDbEntity
  8
0
  6
ByBlock
 62
     0
100
AcDbLine
 10
36.52334177753399
 20
-23.6581038911452
 30
0.0
 11
36.52334177753399
 21
-23.2831038911452
 31
0.0
  0
TEXT
  5
F9
330
C9
100
AcDbEntity
  8
0
  6
ByBlock
 62
     0
100
AcDbText
 10
36.52810541331214
 20
-24.06761529830101
 30
0.0
 40
0.125
  1
%%c7/16
 50
276.466167127056
 72
     1
 11
36.62070812201801
 21
-24.3296872021457
 31
0.0
100
AcDbText
 73
     2
  0
POINT
  5
FA
330
C9
100
AcDbEntity
  8
DEFPOINTS
  6
ByBlock
 62
     0
100
AcDbPoint
 10
36.54797663577693
 20
-23.68796231922966
 30
0.0
  0
POINT
  5
FB
330
C9
100
AcDbEntity
  8
DEFPOINTS
  6
ByBlock
 62
     0
100
AcDbPoint
 10
36.49870691929105
 20
-23.25324546306074
 30
0.0
  0
ENDBLK
  5
FC
330
C9
100
AcDbEntity
  8
0
100
AcDbBlockEnd
  0
BLOCK
  5
FD
330
CA
100
AcDbEntity
  8
0
100
AcDbBlockBegin
  2
*D3
 70
     1
 10
0.0
 20
0.0
 30
0.0
  3
*D3
  1

  0
LINE
  5
FE
330
CA
100
AcDbEntity
  8
0
  6
ByBlock
 62
     0
100
AcDbLine
 10
35.14218694277067
 20
-23.56631790115025
 30
0.0
 11
35.14218694277067
 21
-25.26481790115024
 31
0.0
  0
LINE
  5
FF
330
CA
100
AcDbEntity
  8
0
  6
ByBlock
 62
     0
100
AcDbLine
 10
37.89218694277066
 20
-23.56631790115025
 30
0.0
 11
37.89218694277066
 21
-25.26481790115024
 31
0.0
  0
LINE
  5
100
330
CA
100
AcDbEntity
  8
0
  6
ByBlock
 62
     0
100
AcDbLine
 10
35.14218694277067
 20
-25.08481790115025
 30
0.0
 11
36.100520276104
 21
-25.08481790115025
 31
0.0
  0
LINE
  5
101
330
CA
100
AcDbEntity
  8
0
  6
ByBlock
 62
     0
100
AcDbLine
 10
37.89218694277066
 20
-25.08481790115025
 30
0.0
 11
36.93385360943733
 21
-25.08481790115025
 31
0.0
  0
LINE
  5
102
330
CA
100
AcDbEntity
  8
0
  6
ByBlock
 62
     0
100
AcDbLine
 10
35.01718694277066
 20
-25.20981790115025
 30
0.0
 11
35.26718694277067
 21
-24.95981790115024
 31
0.0
  0
LINE
  5
103
330
CA
100
AcDbEntity
  8
0
  6
ByBlock
 62
     0
100
AcDbLine
 10
37.76718694277067
 20
-25.20981790115025
 30
0.0
 11
38.01718694277067
 21
-24.95981790115024
 31
0.0
  0
TEXT
  5
104
330
CA
100
AcDbEntity
  8
0
  6
ByBlock
 62
     0
100
AcDbText
 10
36.225520276104
 20
-25.14731790115025
 30
0.0
 40
0.125
  1
2 3/4
 72
     1
 11
36.51718694277067
 21
-25.08481790115025
 31
0.0
100
AcDbText
 73
     2
  0
POINT
  5
105
330
CA
100
AcDbEntity
  8
DEFPOINTS
  6
ByBlock
 62
     0
100
AcDbPoint
 10
35.14218694277067
 20
-23.50381790115025
 30
0.0
  0
POINT
  5
106
330
CA
100
AcDbEntity
  8
DEFPOINTS
  6
ByBlock
 62
     0
100
AcDbPoint
 10
37.89218694277066
 20
-23.50381790115025
 30
0.0
  0
POINT
  5
107
330
CA
100
AcDbEntity
  8
DEFPOINTS
  6
ByBlock
 62
     0
100
AcDbPoint
 10
37.89218694277066
 20
-25.08481790115025
 30
0.0
  0
ENDBLK
  5
108
330
CA
100
AcDbEntity
  8
0
100
AcDbBlockEnd
  0
BLOCK
  5
109
330
CB
100
AcDbEntity
  8
0
100
AcDbBlockBegin
  2
*D4
 70
     1
 10
0.0
 20
0.0
 30
0.0
  3
*D4
  1

  0
LINE
  5
10A
330
CB
100
AcDbEntity
  8
0
  6
ByBlock
 62
     0
100
AcDbLine
 10
35.64288908288649
 20
-20.50180939742955
 30
0.0
 11
35.64288908288649
 21
-19.86447378672673
 31
0.0
  0
LINE
  5
10B
330
CB
100
AcDbEntity
  8
0
  6
ByBlock
 62
     0
100
AcDbLine
 10
37.39288908288648
 20
-20.50180939742955
 30
0.0
 11
37.39288908288648
 21
-19.86447378672673
 31
0.0
  0
LINE
  5
10C
330
CB
100
AcDbEntity
  8
0
  6
ByBlock
 62
     0
100
AcDbLine
 10
35.64288908288649
 20
-20.04447378672674
 30
0.0
 11
36.12205574955315
 21
-20.04447378672674
 31
0.0
  0
LINE
  5
10D
330
CB
100
AcDbEntity
  8
0
  6
ByBlock
 62
     0
100
AcDbLine
 10
37.39288908288648
 20
-20.04447378672674
 30
0.0
 11
36.91372241621982
 21
-20.04447378672674
 31
0.0
  0
LINE
  5
10E
330
CB
100
AcDbEntity
  8
0
  6
ByBlock
 62
     0
100
AcDbLine
 10
35.51788908288648
 20
-20.16947378672674
 30
0.0
 11
35.76788908288648
 21
-19.91947378672674
 31
0.0
  0
LINE
  5
10F
330
CB
100
AcDbEntity
  8
0
  6
ByBlock
 62
     0
100
AcDbLine
 10
37.26788908288649
 20
-20.16947378672674
 30
0.0
 11
37.51788908288649
 21
-19.91947378672674
 31
0.0
  0
TEXT
  5
110
330
CB
100
AcDbEntity
  8
0
  6
ByBlock
 62
     0
100
AcDbText
 10
36.24705574955315
 20
-20.10697378672674
 30
0.0
 40
0.125
  1
1 3/4
 72
     1
 11
36.51788908288648
 21
-20.04447378672674
 31
0.0
100
AcDbText
 73
     2
  0
POINT
  5
111
330
CB
100
AcDbEntity
  8
DEFPOINTS
  6
ByBlock
 62
     0
100
AcDbPoint
 10
35.64288908288649
 20
-20.56430939742955
 30
0.0
  0
POINT
  5
112
330
CB
100
AcDbEntity
  8
DEFPOINTS
  6
ByBlock
 62
     0
100
AcDbPoint
 10
37.39288908288648
 20
-20.56430939742955
 30
0.0
  0
POINT
  5
113
330
CB
100
AcDbEntity
  8
DEFPOINTS
  6
ByBlock
 62
     0
100
AcDbPoint
 10
37.39288908288648
 20
-20.04447378672674
 30
0.0
  0
ENDBLK
  5
114
330
CB
100
AcDbEntity
  8
0
100
AcDbBlockEnd
  0
BLOCK
  5
115
330
CC
100
AcDbEntity
  8
0
100
AcDbBlockBegin
  2
*D5
 70
     1
 10
0.0
 20
0.0
 30
0.0
  3
*D5
  1

  0
LINE
  5
116
330
CC
100
AcDbEntity
  8
0
  6
ByBlock
 62
     0
100
AcDbLine
 10
36.03473750417521
 20
-20.50897378672674
 30
0.0
 11
36.03473750417521
 21
-20.20547378672674
 31
0.0
  0
LINE
  5
117
330
CC
100
AcDbEntity
  8
0
  6
ByBlock
 62
     0
100
AcDbLine
 10
37.03473750417521
 20
-20.50897378672674
 30
0.0
 11
37.03473750417521
 21
-20.20547378672674
 31
0.0
  0
LINE
  5
118
330
CC
100
AcDbEntity
  8
0
  6
ByBlock
 62
     0
100
AcDbLine
 10
36.03473750417521
 20
-20.38547378672673
 30
0.0
 11
36.38890417084188
 21
-20.38547378672673
 31
0.0
  0
LINE
  5
119
330
CC
100
AcDbEntity
  8
0
  6
ByBlock
 62
     0
100
AcDbLine
 10
37.03473750417521
 20
-20.38547378672673
 30
0.0
 11
36.68057083750855
 21
-20.38547378672673
 31
0.0
  0
LINE
  5
11A
330
CC
100
AcDbEntity
  8
0
  6
ByBlock
 62
     0
100
AcDbLine
 10
35.90973750417521
 20
-20.51047378672674
 30
0.0
 11
36.15973750417521
 21
-20.26047378672673
 31
0.0
  0
LINE
  5
11B
330
CC
100
AcDbEntity
  8
0
  6
ByBlock
 62
     0
100
AcDbLine
 10
36.90973750417521
 20
-20.51047378672674
 30
0.0
 11
37.15973750417521
 21
-20.26047378672673
 31
0.0
  0
TEXT
  5
11C
330
CC
100
AcDbEntity
  8
0
  6
ByBlock
 62
     0
100
AcDbText
 10
36.51390417084188
 20
-20.44797378672674
 30
0.0
 40
0.125
  1
1
 72
     1
 11
36.53473750417521
 21
-20.38547378672673
 31
0.0
100
AcDbText
 73
     2
  0
POINT
  5
11D
330
CC
100
AcDbEntity
  8
DEFPOINTS
  6
ByBlock
 62
     0
100
AcDbPoint
 10
36.03473750417521
 20
-20.57147378672674
 30
0.0
  0
POINT
  5
11E
330
CC
100
AcDbEntity
  8
DEFPOINTS
  6
ByBlock
 62
     0
100
AcDbPoint
 10
37.03473750417521
 20
-20.57147378672674
 30
0.0
  0
POINT
  5
11F
330
CC
100
AcDbEntity
  8
DEFPOINTS
  6
ByBlock
 62
     0
100
AcDbPoint
 10
37.03473750417521
 20
-20.38547378672673
 30
0.0
  0
ENDBLK
  5
120
330
CC
100
AcDbEntity
  8
0
100
AcDbBlockEnd
  0
BLOCK
  5
309
330
2FE
100
AcDbEntity
  8
0
 62
     3
100
AcDbBlockBegin
  2
*D6
 70
     1
 10
0.0
 20
0.0
 30
0.0
  3
*D6
  1

  0
LINE
  5
3CC
330
2FE
100
AcDbEntity
  8
ADPDIM
 62
     0
370
    -2
100
AcDbLine
 10
38.12968694277066
 20
-20.10048387916762
 30
0.0
 11
39.15169833790189
 21
-20.10048387916762
 31
0.0
  0
LINE
  5
3CD
330
2FE
100
AcDbEntity
  8
ADPDIM
 62
     0
370
    -2
100
AcDbLine
 10
35.65773533210111
 20
-23.10048387916762
 30
0.0
 11
39.15169833790189
 21
-23.10048387916762
 31
0.0
  0
LINE
  5
3CE
330
2FE
100
AcDbEntity
  8
ADPDIM
 62
     0
370
    -2
100
AcDbLine
 10
38.97169833790189
 20
-20.10048387916762
 30
0.0
 11
38.97169833790189
 21
-21.43381721250095
 31
0.0
  0
LINE
  5
3CF
330
2FE
100
AcDbEntity
  8
ADPDIM
 62
     0
370
    -2
100
AcDbLine
 10
38.97169833790189
 20
-23.10048387916762
 30
0.0
 11
38.97169833790189
 21
-21.76715054583429
 31
0.0
  0
LINE
  5
3D0
330
2FE
100
AcDbEntity
  8
ADPDIM
 62
     0
370
    -2
100
AcDbLine
 10
39.09669833790188
 20
-23.22548387916762
 30
0.0
 11
38.84669833790189
 21
-22.97548387916762
 31
0.0
  0
LINE
  5
3D1
330
2FE
100
AcDbEntity
  8
ADPDIM
 62
     0
370
    -2
100
AcDbLine
 10
39.09669833790188
 20
-20.22548387916762
 30
0.0
 11
38.84669833790189
 21
-19.97548387916762
 31
0.0
  0
MTEXT
  5
3D2
330
2FE
100
AcDbEntity
  8
ADPDIM
 62
     0
100
AcDbMText
 10
38.97169833790189
 20
-21.60048387916762
 30
0.0
 40
0.125
 41
0.0
 71
     5
 72
     1
  1
\A1;3
 11
0.0000000000000001
 21
1.0
 31
0.0
 73
     1
 44
1.0
1001
ACAD
1000
MTEXTBEGIN
1070
    73
1070
     1
1070
    44
1040
1.0
1070
    74
1070
     0
1000
MTEXTEND
  0
POINT
  5
3D3
330
2FE
100
AcDbEntity
  8
DEFPOINTS
 62
     0
100
AcDbPoint
 10
38.06718694277066
 20
-20.10048387916762
 30
0.0
  0
POINT
  5
3D4
330
2FE
100
AcDbEntity
  8
DEFPOINTS
 62
     0
100
AcDbPoint
 10
35.59523533210111
 20
-23.10048387916762
 30
0.0
  0
POINT
  5
3D5
330
2FE
100
AcDbEntity
  8
DEFPOINTS
 62
     0
100
AcDbPoint
 10
38.97169833790189
 20
-23.10048387916762
 30
0.0
  0
ENDBLK
  5
30A
330
2FE
100
AcDbEntity
  8
0
 62
     3
100
AcDbBlockEnd
  0
BLOCK
  5
31D
330
315
100
AcDbEntity
  8
0
100
AcDbBlockBegin
  2
*D7
 70
     1
 10
0.0
 20
0.0
 30
0.0
  3
*D7
  1

  0
LINE
  5
3C5
330
315
100
AcDbEntity
  8
ADPDIM
 62
     0
370
    -2
100
AcDbLine
 10
36.60428488318937
 20
-23.81588216667148
 30
0.0
 11
36.54797663577693
 21
-23.31906290247842
 31
0.0
  0
MTEXT
  5
3C6
330
315
100
AcDbEntity
  8
ADPDIM
 62
     0
100
AcDbMText
 10
36.64886224572422
 20
-24.20919741749099
 30
0.0
 40
0.125
 41
0.0
 71
     5
 72
     1
  1
\A1;\U+22057/16
 11
0.1126164948248886
 21
-0.9936385283861309
 31
0.0
 73
     1
 44
1.0
1001
ACAD
1000
MTEXTBEGIN
1070
    73
1070
     1
1070
    44
1040
1.0
1070
    74
1070
     0
1000
MTEXTEND
  0
LINE
  5
3C7
330
315
100
AcDbEntity
  8
ADPDIM
 62
     0
370
    -2
100
AcDbLine
 10
36.40969475787556
 20
-23.20893514828326
 30
0.0
 11
36.68625851367831
 21
-23.42919065667357
 31
0.0
  0
LINE
  5
3C8
330
315
100
AcDbEntity
  8
ADPDIM
 62
     0
370
    -2
100
AcDbLine
 10
36.33584177753399
 20
-23.10170447439396
 30
0.0
 11
36.710841777534
 21
-23.10170447439396
 31
0.0
  0
LINE
  5
3C9
330
315
100
AcDbEntity
  8
ADPDIM
 62
     0
370
    -2
100
AcDbLine
 10
36.52334177753399
 20
-23.28920447439395
 30
0.0
 11
36.52334177753399
 21
-22.91420447439396
 31
0.0
  0
POINT
  5
3CA
330
315
100
AcDbEntity
  8
DEFPOINTS
 62
     0
100
AcDbPoint
 10
36.54797663577693
 20
-23.31906290247842
 30
0.0
  0
POINT
  5
3CB
330
315
100
AcDbEntity
  8
DEFPOINTS
 62
     0
100
AcDbPoint
 10
36.49870691929105
 20
-22.88434604630949
 30
0.0
  0
ENDBLK
  5
31E
330
315
100
AcDbEntity
  8
0
100
AcDbBlockEnd
  0
BLOCK
  5
32A
330
31F
100
AcDbEntity
  8
0
100
AcDbBlockBegin
  2
*D8
 70
     1
 10
0.0
 20
0.0
 30
0.0
  3
*D8
  1

  0
LINE
  5
3BB
330
31F
100
AcDbEntity
  8
ADPDIM
 62
     0
370
    -2
100
AcDbLine
 10
35.14218694277067
 20
-23.19741848439901
 30
0.0
 11
35.14218694277067
 21
-25.33262689520644
 31
0.0
  0
LINE
  5
3BC
330
31F
100
AcDbEntity
  8
ADPDIM
 62
     0
370
    -2
100
AcDbLine
 10
37.89218694277066
 20
-23.19741848439901
 30
0.0
 11
37.89218694277066
 21
-25.33262689520644
 31
0.0
  0
LINE
  5
3BD
330
31F
100
AcDbEntity
  8
ADPDIM
 62
     0
370
    -2
100
AcDbLine
 10
35.14218694277067
 20
-25.15262689520644
 30
0.0
 11
36.100520276104
 21
-25.15262689520644
 31
0.0
  0
LINE
  5
3BE
330
31F
100
AcDbEntity
  8
ADPDIM
 62
     0
370
    -2
100
AcDbLine
 10
37.89218694277066
 20
-25.15262689520644
 30
0.0
 11
36.93385360943733
 21
-25.15262689520644
 31
0.0
  0
LINE
  5
3BF
330
31F
100
AcDbEntity
  8
ADPDIM
 62
     0
370
    -2
100
AcDbLine
 10
37.76718694277067
 20
-25.27762689520644
 30
0.0
 11
38.01718694277067
 21
-25.02762689520644
 31
0.0
  0
LINE
  5
3C0
330
31F
100
AcDbEntity
  8
ADPDIM
 62
     0
370
    -2
100
AcDbLine
 10
35.01718694277066
 20
-25.27762689520644
 30
0.0
 11
35.26718694277067
 21
-25.02762689520644
 31
0.0
  0
MTEXT
  5
3C1
330
31F
100
AcDbEntity
  8
ADPDIM
 62
     0
100
AcDbMText
 10
36.51718694277067
 20
-25.15262689520644
 30
0.0
 40
0.125
 41
0.0
 71
     5
 72
     1
  1
\A1;2 3/4
 73
     1
 44
1.0
1001
ACAD
1000
MTEXTBEGIN
1070
    73
1070
     1
1070
    44
1040
1.0
1070
    74
1070
     0
1000
MTEXTEND
  0
POINT
  5
3C2
330
31F
100
AcDbEntity
  8
DEFPOINTS
 62
     0
100
AcDbPoint
 10
35.14218694277067
 20
-23.13491848439901
 30
0.0
  0
POINT
  5
3C3
330
31F
100
AcDbEntity
  8
DEFPOINTS
 62
     0
100
AcDbPoint
 10
37.89218694277066
 20
-23.13491848439901
 30
0.0
  0
POINT
  5
3C4
330
31F
100
AcDbEntity
  8
DEFPOINTS
 62
     0
100
AcDbPoint
 10
37.89218694277066
 20
-25.15262689520644
 30
0.0
  0
ENDBLK
  5
32B
330
31F
100
AcDbEntity
  8
0
100
AcDbBlockEnd
  0
BLOCK
  5
348
330
33D
100
AcDbEntity
  8
0
100
AcDbBlockBegin
  2
*D10
 70
     1
 10
0.0
 20
0.0
 30
0.0
  3
*D10
  1

  0
LINE
  5
3D6
330
33D
100
AcDbEntity
  8
ADPDIM
 62
     0
370
    -2
100
AcDbLine
 10
36.03473750417521
 20
-19.87317327807364
 30
0.0
 11
36.03473750417521
 21
-19.56967327807364
 31
0.0
  0
LINE
  5
3D7
330
33D
100
AcDbEntity
  8
ADPDIM
 62
     0
370
    -2
100
AcDbLine
 10
37.03473750417521
 20
-19.87317327807364
 30
0.0
 11
37.03473750417521
 21
-19.56967327807364
 31
0.0
  0
LINE
  5
3D8
330
33D
100
AcDbEntity
  8
ADPDIM
 62
     0
370
    -2
100
AcDbLine
 10
36.03473750417521
 20
-19.74967327807364
 30
0.0
 11
36.38890417084188
 21
-19.74967327807364
 31
0.0
  0
LINE
  5
3D9
330
33D
100
AcDbEntity
  8
ADPDIM
 62
     0
370
    -2
100
AcDbLine
 10
37.03473750417521
 20
-19.74967327807364
 30
0.0
 11
36.68057083750855
 21
-19.74967327807364
 31
0.0
  0
LINE
  5
3DA
330
33D
100
AcDbEntity
  8
ADPDIM
 62
     0
370
    -2
100
AcDbLine
 10
36.90973750417521
 20
-19.87467327807364
 30
0.0
 11
37.15973750417521
 21
-19.62467327807364
 31
0.0
  0
LINE
  5
3DB
330
33D
100
AcDbEntity
  8
ADPDIM
 62
     0
370
    -2
100
AcDbLine
 10
35.90973750417521
 20
-19.87467327807364
 30
0.0
 11
36.15973750417521
 21
-19.62467327807364
 31
0.0
  0
MTEXT
  5
3DC
330
33D
100
AcDbEntity
  8
ADPDIM
 62
     0
100
AcDbMText
 10
36.53473750417521
 20
-19.74967327807364
 30
0.0
 40
0.125
 41
0.0
 71
     5
 72
     1
  1
\A1;1
 73
     1
 44
1.0
1001
ACAD
1000
MTEXTBEGIN
1070
    73
1070
     1
1070
    44
1040
1.0
1070
    74
1070
     0
1000
MTEXTEND
  0
POINT
  5
3DD
330
33D
100
AcDbEntity
  8
DEFPOINTS
 62
     0
100
AcDbPoint
 10
36.03473750417521
 20
-19.93567327807364
 30
0.0
  0
POINT
  5
3DE
330
33D
100
AcDbEntity
  8
DEFPOINTS
 62
     0
100
AcDbPoint
 10
37.03473750417521
 20
-19.93567327807364
 30
0.0
  0
POINT
  5
3DF
330
33D
100
AcDbEntity
  8
DEFPOINTS
 62
     0
100
AcDbPoint
 10
37.03473750417521
 20
-19.74967327807364
 30
0.0
  0
ENDBLK
  5
349
330
33D
100
AcDbEntity
  8
0
100
AcDbBlockEnd
  0
BLOCK
  5
355
330
34A
100
AcDbEntity
  8
0
100
AcDbBlockBegin
  2
*D11
 70
     1
 10
0.0
 20
0.0
 30
0.0
  3
*D11
  1

  0
LINE
  5
3E0
330
34A
100
AcDbEntity
  8
ADPDIM
 62
     0
370
    -2
100
AcDbLine
 10
35.64288908288649
 20
-19.86600888877645
 30
0.0
 11
35.64288908288649
 21
-19.22867327807364
 31
0.0
  0
LINE
  5
3E1
330
34A
100
AcDbEntity
  8
ADPDIM
 62
     0
370
    -2
100
AcDbLine
 10
37.39288908288648
 20
-19.86600888877645
 30
0.0
 11
37.39288908288648
 21
-19.22867327807364
 31
0.0
  0
LINE
  5
3E2
330
34A
100
AcDbEntity
  8
ADPDIM
 62
     0
370
    -2
100
AcDbLine
 10
35.64288908288649
 20
-19.40867327807364
 30
0.0
 11
36.12205574955315
 21
-19.40867327807364
 31
0.0
  0
LINE
  5
3E3
330
34A
100
AcDbEntity
  8
ADPDIM
 62
     0
370
    -2
100
AcDbLine
 10
37.39288908288648
 20
-19.40867327807364
 30
0.0
 11
36.91372241621982
 21
-19.40867327807364
 31
0.0
  0
LINE
  5
3E4
330
34A
100
AcDbEntity
  8
ADPDIM
 62
     0
370
    -2
100
AcDbLine
 10
37.26788908288649
 20
-19.53367327807364
 30
0.0
 11
37.51788908288649
 21
-19.28367327807364
 31
0.0
  0
LINE
  5
3E5
330
34A
100
AcDbEntity
  8
ADPDIM
 62
     0
370
    -2
100
AcDbLine
 10
35.51788908288648
 20
-19.53367327807364
 30
0.0
 11
35.76788908288648
 21
-19.28367327807364
 31
0.0
  0
MTEXT
  5
3E6
330
34A
100
AcDbEntity
  8
ADPDIM
 62
     0
100
AcDbMText
 10
36.51788908288648
 20
-19.40867327807364
 30
0.0
 40
0.125
 41
0.0
 71
     5
 72
     1
  1
\A1;1 3/4
 73
     1
 44
1.0
1001
ACAD
1000
MTEXTBEGIN
1070
    73
1070
     1
1070
    44
1040
1.0
1070
    74
1070
     0
1000
MTEXTEND
  0
POINT
  5
3E7
330
34A
100
AcDbEntity
  8
DEFPOINTS
 62
     0
100
AcDbPoint
 10
35.64288908288649
 20
-19.92850888877645
 30
0.0
  0
POINT
  5
3E8
330
34A
100
AcDbEntity
  8
DEFPOINTS
 62
     0
100
AcDbPoint
 10
37.39288908288648
 20
-19.92850888877645
 30
0.0
  0
POINT
  5
3E9
330
34A
100
AcDbEntity
  8
DEFPOINTS
 62
     0
100
AcDbPoint
 10
37.39288908288648
 20
-19.40867327807364
 30
0.0
  0
ENDBLK
  5
356
330
34A
100
AcDbEntity
  8
0
100
AcDbBlockEnd
  0
BLOCK
  5
36C
330
361
100
AcDbEntity
  8
0
100
AcDbBlockBegin
  2
*D12
 70
     1
 10
0.0
 20
0.0
 30
0.0
  3
*D12
  1

  0
LINE
  5
3EA
330
361
100
AcDbEntity
  8
ADPDIM
 62
     0
370
    -2
100
AcDbLine
 10
31.56179768844066
 20
-21.37501487734345
 30
0.0
 11
31.56179768844066
 21
-19.56742814326004
 31
0.0
  0
LINE
  5
3EB
330
361
100
AcDbEntity
  8
ADPDIM
 62
     0
370
    -2
100
AcDbLine
 10
34.57999633478919
 20
-20.04936533225551
 30
0.0
 11
34.57999633478919
 21
-19.56742814326004
 31
0.0
  0
LINE
  5
3EC
330
361
100
AcDbEntity
  8
ADPDIM
 62
     0
370
    -2
100
AcDbLine
 10
31.56179768844066
 20
-19.74742814326004
 30
0.0
 11
32.90423034494825
 21
-19.74742814326004
 31
0.0
  0
LINE
  5
3ED
330
361
100
AcDbEntity
  8
ADPDIM
 62
     0
370
    -2
100
AcDbLine
 10
34.57999633478919
 20
-19.74742814326004
 30
0.0
 11
33.23756367828158
 21
-19.74742814326004
 31
0.0
  0
LINE
  5
3EE
330
361
100
AcDbEntity
  8
ADPDIM
 62
     0
370
    -2
100
AcDbLine
 10
34.45499633478919
 20
-19.87242814326004
 30
0.0
 11
34.70499633478919
 21
-19.62242814326003
 31
0.0
  0
LINE
  5
3EF
330
361
100
AcDbEntity
  8
ADPDIM
 62
     0
370
    -2
100
AcDbLine
 10
31.43679768844065
 20
-19.87242814326004
 30
0.0
 11
31.68679768844065
 21
-19.62242814326003
 31
0.0
  0
MTEXT
  5
3F0
330
361
100
AcDbEntity
  8
ADPDIM
 62
     0
100
AcDbMText
 10
33.07089701161492
 20
-19.74742814326004
 30
0.0
 40
0.125
 41
0.0
 71
     5
 72
     1
  1
\A1;3
 73
     1
 44
1.0
1001
ACAD
1000
MTEXTBEGIN
1070
    73
1070
     1
1070
    44
1040
1.0
1070
    74
1070
     0
1000
MTEXTEND
  0
POINT
  5
3F1
330
361
100
AcDbEntity
  8
DEFPOINTS
 62
     0
100
AcDbPoint
 10
31.56179768844066
 20
-21.43751487734345
 30
0.0
  0
POINT
  5
3F2
330
361
100
AcDbEntity
  8
DEFPOINTS
 62
     0
100
AcDbPoint
 10
34.57999633478919
 20
-20.11186533225551
 30
0.0
  0
POINT
  5
3F3
330
361
100
AcDbEntity
  8
DEFPOINTS
 62
     0
100
AcDbPoint
 10
34.57999633478919
 20
-19.74742814326004
 30
0.0
  0
ENDBLK
  5
36D
330
361
100
AcDbEntity
  8
0
100
AcDbBlockEnd
  0
ENDSEC
  0
SECTION
  2
ENTITIES
  0
LWPOLYLINE
  5
121
330
18
100
AcDbEntity
  8
ADP1DETAIL
100
AcDbPolyline
 90
        3
 70
     0
 43
0.0
 10
36.38579625732944
 20
-20.27245893985553
 42
0.1147785154733379
 10
36.43348029834856
 20
-20.4212641461426
 42
0.4139574634132975
 10
36.50583065388767
 20
-20.4574077041446
 42
-0.1622327392325012
  0
ARC
  5
126
330
18
100
AcDbEntity
  8
ADP1DETAIL
100
AcDbCircle
 10
36.52334177753399
 20
-23.03920447439397
 30
0.0
 40
1.375
100
AcDbArc
 50
78.7306025026415
 51
102.8089017104464
  0
CIRCLE
  5
127
330
18
100
AcDbEntity
  8
ADP1DETAIL
100
AcDbCircle
 10
36.52334177753399
 20
-23.03920447439397
 30
0.0
 40
0.21875
  0
DIMENSION
  5
128
330
18
100
AcDbEntity
  8
ADPDIM
100
AcDbDimension
  2
*D7
 10
36.49870691929105
 20
-22.88434604630949
 30
0.0
 11
36.64886224572422
 21
-24.20919741749099
 31
0.0
 70
    35
 71
     5
 42
0.4374999999999929
  3
STANDARD
100
AcDbDiametricDimension
 15
36.54797663577693
 25
-23.31906290247842
 35
0.0
 40
0.0
1001
ACAD
1000
DSTYLE
1002
{
1070
   276
1070
     2
1070
   277
1070
     5
1070
    41
1040
0.125
1070
    73
1070
     0
1070
    74
1070
     0
1070
    78
1070
     3
1070
   140
1040
0.125
1070
   141
1040
0.1875
1070
   142
1040
0.125
1070
   147
1040
0.125
1070
   171
1070
     1
1002
}
  0
LINE
  5
129
330
18
100
AcDbEntity
  8
ADP2DETAIL
  6
HIDDEN2
100
AcDbLine
 10
35.64288908288649
 20
-20.10048387916762
 30
0.0
 11
37.39288908288648
 21
-20.10048387916762
 31
0.0
  0
DIMENSION
  5
12A
330
18
100
AcDbEntity
  8
ADPDIM
100
AcDbDimension
  2
*D10
 10
37.03473750417521
 20
-19.74967327807364
 30
0.0
 11
36.53473750417521
 21
-19.74967327807364
 31
0.0
 70
    32
 71
     5
  3
STANDARD
100
AcDbAlignedDimension
 13
36.03473750417521
 23
-19.93567327807364
 33
0.0
 14
37.03473750417521
 24
-19.93567327807364
 34
0.0
100
AcDbRotatedDimension
1001
ACAD
1000
DSTYLE
1002
{
1070
   276
1070
     2
1070
   277
1070
     5
1070
    41
1040
0.125
1070
    73
1070
     0
1070
    74
1070
     0
1070
    78
1070
     3
1070
   140
1040
0.125
1070
   141
1040
0.1875
1070
   142
1040
0.125
1070
   147
1040
0.125
1070
   171
1070
     1
1002
}
  0
DIMENSION
  5
12B
330
18
100
AcDbEntity
  8
ADPDIM
100
AcDbDimension
  2
*D11
 10
37.39288908288648
 20
-19.40867327807364
 30
0.0
 11
36.51788908288648
 21
-19.40867327807364
 31
0.0
 70
    32
 71
     5
 42
1.75
  3
STANDARD
100
AcDbAlignedDimension
 13
35.64288908288649
 23
-19.92850888877645
 33
0.0
 14
37.39288908288648
 24
-19.92850888877645
 34
0.0
100
AcDbRotatedDimension
1001
ACAD
1000
DSTYLE
1002
{
1070
   276
1070
     2
1070
   277
1070
     5
1070
    41
1040
0.125
1070
    73
1070
     0
1070
    74
1070
     0
1070
    78
1070
     3
1070
   140
1040
0.125
1070
   141
1040
0.1875
1070
   142
1040
0.125
1070
   147
1040
0.125
1070
   171
1070
     1
1002
}
  0
DIMENSION
  5
12C
330
18
100
AcDbEntity
  8
ADPDIM
100
AcDbDimension
  2
*D8
 10
37.89218694277066
 20
-25.15262689520644
 30
0.0
 11
36.51718694277067
 21
-25.15262689520644
 31
0.0
 70
   160
 71
     5
 42
2.75
  3
STANDARD
100
AcDbAlignedDimension
 13
35.14218694277067
 23
-23.13491848439901
 33
0.0
 14
37.89218694277066
 24
-23.13491848439901
 34
0.0
100
AcDbRotatedDimension
1001
ACAD
1000
DSTYLE
1002
{
1070
   276
1070
     2
1070
   277
1070
     5
1070
    41
1040
0.125
1070
    73
1070
     0
1070
    74
1070
     0
1070
    78
1070
     3
1070
   140
1040
0.125
1070
   141
1040
0.1875
1070
   142
1040
0.125
1070
   147
1040
0.125
1070
   171
1070
     1
1002
}
  0
ARC
  5
12D
330
18
100
AcDbEntity
  8
ADP1DETAIL
100
AcDbCircle
 10
36.52334177753399
 20
-23.03920447439397
 30
0.0
 40
1.375
100
AcDbArc
 50
117.4078065444871
 51
63.08396505750881
  0
CIRCLE
  5
12E
330
18
100
AcDbEntity
  8
ADP1DETAIL
100
AcDbCircle
 10
36.52334177753399
 20
-23.03920447439397
 30
0.0
 40
0.5625
  0
CIRCLE
  5
12F
330
18
100
AcDbEntity
  8
ADP1DETAIL
100
AcDbCircle
 10
36.52334177753399
 20
-23.03920447439397
 30
0.0
 40
0.8129999999999999
  0
LINE
  5
130
330
18
100
AcDbEntity
  8
ADP1DETAIL
100
AcDbLine
 10
35.64288908288649
 20
-19.92850888877645
 30
0.0
 11
37.39288908288648
 21
-19.92850888877645
 31
0.0
  0
LINE
  5
131
330
18
100
AcDbEntity
  8
ADP1DETAIL
100
AcDbLine
 10
35.64288908288649
 20
-20.00667935173549
 30
0.0
 11
37.39288908288648
 21
-20.00667935173549
 31
0.0
  0
LINE
  5
132
330
18
100
AcDbEntity
  8
ADP1DETAIL
100
AcDbLine
 10
37.39288908288648
 20
-20.27245893985553
 30
0.0
 11
35.64288908288649
 21
-20.27245893985553
 31
0.0
  0
LINE
  5
133
330
18
100
AcDbEntity
  8
ADP2DETAIL
  6
HIDDEN2
100
AcDbLine
 10
31.72336947403769
 20
-22.19085778166223
 30
0.0
 11
31.72336947403769
 21
-23.30741952046623
 31
0.0
  0
LINE
  5
134
330
18
100
AcDbEntity
  8
ADP2DETAIL
  6
HIDDEN2
100
AcDbLine
 10
31.61565495030633
 20
-23.3746823253421
 30
0.0
 11
31.60219066214664
 21
-22.12359504766011
 31
0.0
  0
LWPOLYLINE
  5
135
330
18
100
AcDbEntity
  8
ADP1DETAIL
100
AcDbPolyline
 90
        8
 70
     0
 43
0.0
 10
34.19604754520413
 20
-20.02445467322707
 10
34.1923685510626
 20
-20.02499696718261
 42
0.793486323515077
 10
33.96326679074095
 20
-20.11916486565933
 42
-0.1232837408391267
 10
33.61319464322747
 20
-21.02048578478278
 42
-0.2578022817940444
 10
32.88612188110799
 20
-21.26263169806418
 42
0.0494633377142408
 10
32.19462032421535
 20
-21.12810623005993
 42
0.4097897590905095
 10
31.56179768844066
 20
-21.43751487734345
 10
31.56179768844066
 20
-24.11457261198671
  0
LWPOLYLINE
  5
13F
330
18
100
AcDbEntity
  8
ADP1DETAIL
100
AcDbPolyline
 90
        7
 70
     0
 43
0.0
 10
31.65604792401231
 20
-24.18183534598883
 10
31.65604792401231
 20
-22.05633224278424
 42
-0.2705097233003482
 10
32.16769174789595
 20
-21.57204041622144
 42
-0.0692515028622713
 10
32.76012140996467
 20
-21.55858786942102
 42
0.309918630834058
 10
33.66705190509315
 20
-21.31644195613963
 42
0.1154486127069453
 10
34.16107295625236
 20
-20.16302027765354
 10
34.17359064866977
 20
-20.16104004103743
  0
LWPOLYLINE
  5
148
330
18
100
AcDbEntity
  8
ADP1DETAIL
100
AcDbPolyline
 90
        5
 70
     0
 43
0.0
 10
31.56179768844066
 20
-24.12802515878714
 10
31.65604792401231
 20
-24.19528789278926
 10
31.93879841227353
 20
-23.54956543374763
 10
31.93879841227353
 20
-21.94871186838084
 10
31.81761960038247
 20
-21.77382868910157
  0
LINE
  5
14F
330
18
100
AcDbEntity
  8
ADP2DETAIL
  6
HIDDEN2
100
AcDbLine
 10
31.89840554779443
 20
-23.68409097262562
 30
0.0
 11
31.61565495030633
 21
-23.3746823253421
 31
0.0
  0
LINE
  5
150
330
18
100
AcDbEntity
  8
ADP2DETAIL
  6
HIDDEN2
100
AcDbLine
 10
31.72336947403769
 20
-23.30741952046623
 30
0.0
 11
31.93879841227353
 21
-23.5361128869472
 31
0.0
  0
LINE
  5
151
330
18
100
AcDbEntity
  8
ADP2DETAIL
  6
HIDDEN2
100
AcDbLine
 10
31.60219066214664
 20
-22.12359504766011
 30
0.0
 11
31.85801257408845
 21
-21.84109142310369
 31
0.0
  0
DIMENSION
  5
152
330
18
100
AcDbEntity
  8
ADPDIM
100
AcDbDimension
  2
*D12
 10
34.57999633478919
 20
-19.74742814326004
 30
0.0
 11
33.07089701161492
 21
-19.74742814326004
 31
0.0
 70
    32
 71
     5
 42
3.018198646348533
  3
STANDARD
100
AcDbAlignedDimension
 13
31.56179768844066
 23
-21.43751487734345
 33
0.0
 14
34.57999633478919
 24
-20.11186533225551
 34
0.0
100
AcDbRotatedDimension
1001
ACAD
1000
DSTYLE
1002
{
1070
   276
1070
     2
1070
   277
1070
     5
1070
    41
1040
0.125
1070
    73
1070
     0
1070
    74
1070
     0
1070
    78
1070
     3
1070
   140
1040
0.125
1070
   141
1040
0.1875
1070
   142
1040
0.125
1070
   147
1040
0.125
1070
   171
1070
     1
1002
}
  0
LWPOLYLINE
  5
153
330
18
100
AcDbEntity
  8
ADP1DETAIL
100
AcDbPolyline
 90
        5
 70
     0
 43
0.0
 10
31.56179768844066
 20
-22.01597460238296
 42
-0.3557792251709553
 10
32.34272782165269
 20
-21.43751487734345
 42
0.0168486437348487
 10
33.12847939566323
 20
-21.45096742414387
 42
0.2892369824028639
 10
33.66705190509315
 20
-21.08774858965866
 42
0.1361706868240651
 10
33.93633821442155
 20
-20.30750059173902
 42
-0.9565501772085045
  0
LINE
  5
15A
330
18
100
AcDbEntity
  8
ADP2DETAIL
  6
HIDDEN2
100
AcDbLine
 10
31.93879841227353
 20
-21.96216441518126
 30
0.0
 11
31.72336947403769
 21
-22.19085778166223
 31
0.0
  0
ARC
  5
15B
330
18
100
AcDbEntity
  8
ADP1DETAIL
100
AcDbCircle
 10
34.39648776280326
 20
-20.47708018458711
 30
0.0
 40
0.3034838332640872
100
AcDbArc
 50
114.0214536755995
 51
162.9734991815762
  0
ARC
  5
15C
330
18
100
AcDbEntity
  8
ADP1DETAIL
100
AcDbCircle
 10
34.55382590735066
 20
-19.56348700338791
 30
0.0
 40
0.7082714767293013
100
AcDbArc
 50
237.5305661425971
 51
320.4482585735626
  0
LWPOLYLINE
  5
15D
330
18
100
AcDbEntity
  8
ADP1DETAIL
100
AcDbPolyline
 90
        7
 70
     0
 43
0.0
 10
36.10790347996878
 20
-21.41137724500133
 42
0.2771268277112633
 10
35.15528988282708
 20
-22.79688197909006
 42
-0.1464190960979094
 10
35.58939223451553
 20
-21.82100477905608
 42
-0.3331326365626539
 10
35.84261869735619
 20
-21.71257396330258
 42
0.0000003121527055
 10
35.96320265966367
 20
-21.76076542122107
 42
0.3189829978771932
 10
36.09584505096997
 20
-21.67643033442683
 42
0.0110386894572025
 10
36.07533038988793
 20
-20.27245893985553
 42
0.0044249504173475
  0
LWPOLYLINE
  5
166
330
18
100
AcDbEntity
  8
ADP1DETAIL
100
AcDbPolyline
 90
        7
 70
     0
 43
0.0
 10
36.07533038988793
 20
-20.27245893985553
 42
0.0278527545639157
 10
36.21642901327745
 20
-21.41137724500133
 42
-0.0978002102719689
 10
36.20437069350552
 20
-21.77281332113758
 42
-0.3359227347050692
 10
36.13202022873952
 20
-21.83305260809882
 42
-0.09641522944013
 10
35.80644351958663
 20
-21.79690905009683
 42
0.2489535179987626
 10
35.61350909251315
 20
-21.83305260809882
 42
0.1165424108752354
 10
35.16734831182589
 20
-22.79688197909006
 42
1.224916379559648
  0
ARC
  5
16F
330
18
100
AcDbEntity
  8
ADP1DETAIL
100
AcDbCircle
 10
34.52928256471916
 20
-19.44767679759142
 30
0.0
 40
0.666121832740791
100
AcDbArc
 50
232.5891510310478
 51
316.1434837145058
  0
LINE
  5
170
330
18
100
AcDbEntity
  8
ADP2DETAIL
  6
HIDDEN2
100
AcDbLine
 10
34.48028020368038
 20
-20.09266688207944
 30
0.0
 11
34.48028020368038
 21
-20.21554781693321
 31
0.0
  0
LWPOLYLINE
  5
171
330
18
100
AcDbEntity
  8
ADP1DETAIL
100
AcDbPolyline
 90
        2
 70
     0
 43
0.0
 10
35.0999385254698
 20
-20.01449641912041
 10
35.00605206605191
 20
-19.90505775691842
  0
LINE
  5
175
330
18
100
AcDbEntity
  8
ADP2DETAIL
  6
HIDDEN2
100
AcDbLine
 10
34.6852729505258
 20
-20.08484981469451
 30
0.0
 11
34.6852729505258
 21
-20.21554781693321
 31
0.0
  0
LINE
  5
176
330
18
100
AcDbEntity
  8
ADP1DETAIL
100
AcDbLine
 10
35.64288908288649
 20
-20.27245893985553
 30
0.0
 11
35.64288908288649
 21
-19.92850888877645
 31
0.0
  0
LINE
  5
177
330
18
100
AcDbEntity
  8
ADP2DETAIL
  6
HIDDEN2
100
AcDbLine
 10
35.92702748189412
 20
-20.09266688207944
 30
0.0
 11
35.92702748189412
 21
-20.27245893985553
 31
0.0
  0
LINE
  5
178
330
18
100
AcDbEntity
  8
ADP2DETAIL
  6
HIDDEN2
100
AcDbLine
 10
36.13202022873952
 20
-20.10048387916762
 30
0.0
 11
36.13202022873952
 21
-20.27245893985553
 31
0.0
  0
LWPOLYLINE
  5
17A
330
18
100
AcDbEntity
  8
ADP1DETAIL
100
AcDbPolyline
 90
        3
 70
     0
 43
0.0
 10
36.6258650504459
 20
-20.27245893985553
 42
-0.1147785154733379
 10
36.57818100942679
 20
-20.4212641461426
 42
-0.4139574634132975
 10
36.50583065388767
 20
-20.4574077041446
 42
0.1622327392325012
  0
LWPOLYLINE
  5
17F
330
18
100
AcDbEntity
  8
ADP1DETAIL
100
AcDbPolyline
 90
        7
 70
     0
 43
0.0
 10
36.93007462185964
 20
-20.27245893985553
 42
-0.0322413340940104
 10
36.79523229449789
 20
-21.41137724500133
 42
0.0978002102719689
 10
36.80729061426982
 20
-21.77281332113758
 42
0.3359227347050692
 10
36.87964107903582
 20
-21.83305260809882
 42
0.09641522944013
 10
37.20521778818871
 20
-21.79690905009683
 42
-0.2489535179987626
 10
37.39815221526219
 20
-21.83305260809882
 42
-0.1165424108752354
 10
37.84431299594944
 20
-22.79688197909006
 42
-1.224916379559648
  0
LWPOLYLINE
  5
188
330
18
100
AcDbEntity
  8
ADP1DETAIL
100
AcDbPolyline
 90
        7
 70
     0
 43
0.0
 10
36.90375782780656
 20
-21.41137724500133
 42
-0.2771268277112622
 10
37.85637142494826
 20
-22.79688197909006
 42
0.1464190960979079
 10
37.42226907325981
 20
-21.82100477905608
 42
0.3331326365626539
 10
37.16904261041916
 20
-21.71257396330258
 42
-0.0000003121527055
 10
37.04845864811167
 20
-21.76076542122107
 42
-0.3189829978771932
 10
36.91581625680537
 20
-21.67643033442683
 42
-0.007295460554676
 10
36.93007462185964
 20
-20.27245893985553
 42
-0.0044249504173475
  0
ARC
  5
191
330
18
100
AcDbEntity
  8
ADP1DETAIL
100
AcDbCircle
 10
36.52334177753399
 20
-23.03920447439397
 30
0.0
 40
1.375
100
AcDbArc
 50
68.45179470670196
 51
71.29663387575418
  0
LINE
  5
192
330
18
100
AcDbEntity
  8
ADP2DETAIL
  6
HIDDEN2
100
AcDbLine
 10
36.87964107903582
 20
-20.09266688207944
 30
0.0
 11
36.87964107903582
 21
-20.27245893985553
 31
0.0
  0
LINE
  5
193
330
18
100
AcDbEntity
  8
ADP2DETAIL
  6
HIDDEN2
100
AcDbLine
 10
37.08463382588123
 20
-20.09266688207944
 30
0.0
 11
37.08463382588123
 21
-20.28027593694371
 31
0.0
  0
LINE
  5
194
330
18
100
AcDbEntity
  8
ADP1DETAIL
100
AcDbLine
 10
37.39288908288648
 20
-19.92850888877645
 30
0.0
 11
37.39288908288648
 21
-20.27245893985553
 31
0.0
  0
TEXT
  5
1A2
330
18
100
AcDbEntity
  8
ADPDIM
100
AcDbText
 10
28.60839018064376
 20
-25.90536903580365
 30
0.0
 40
0.125
  1
J U L I U S  B L U M  &  C O . ,  I N C .      ( 8 0 0 )  5 2 6 - 6 2 9 3        W W W . J U L I U S B L U M . C O M        P A R T  N o .  6 2 6
 41
1.25
  7
ARIAL_WIDE
 72
     1
 11
35.04309771816081
 21
-25.78036903580365
 31
0.0
100
AcDbText
 73
     3
  0
DIMENSION
  5
2FD
330
18
100
AcDbEntity
  8
ADPDIM
 62
     3
100
AcDbDimension
  2
*D6
 10
38.97169833790189
 20
-23.10048387916762
 30
0.0
 11
38.97169833790189
 21
-21.60048387916762
 31
0.0
 70
    32
 71
     5
 42
3.0
  3
STANDARD
100
AcDbAlignedDimension
 13
38.06718694277066
 23
-20.10048387916762
 33
0.0
 14
35.59523533210111
 24
-23.10048387916762
 34
0.0
 50
90.0
100
AcDbRotatedDimension
1001
ACAD
1000
DSTYLE
1002
{
1070
   276
1070
     2
1070
   277
1070
     5
1070
    41
1040
0.125
1070
    73
1070
     0
1070
    74
1070
     0
1070
    78
1070
     3
1070
   140
1040
0.125
1070
   141
1040
0.1875
1070
   142
1040
0.125
1070
   147
1040
0.125
1070
   171
1070
     1
1002
}
  0
ENDSEC
  0
SECTION
  2
OBJECTS
  0
DICTIONARY
  5
C
330
0
100
AcDbDictionary
281
     1
  3
ACAD_COLOR
350
2F7
  3
ACAD_GROUP
350
D
  3
ACAD_LAYOUT
350
19B
  3
ACAD_MATERIAL
350
2E2
  3
ACAD_MLINESTYLE
350
E
  3
ACAD_PLOTSETTINGS
350
19C
  3
ACAD_PLOTSTYLENAME
350
199
  3
ACAD_TABLESTYLE
350
2F8
  3
ACAD_VISUALSTYLE
350
2E6
  3
AcDbVariableDictionary
350
1FC
  3
DWGPROPS
350
418
  0
DICTIONARY
  5
1F6
330
18
100
AcDbDictionary
280
     1
281
     1
  3
ACAD_LAYOUTSELFREF
360
2DC
  0
DICTIONARY
  5
1F4
330
15
100
AcDbDictionary
280
     1
281
     1
  3
ACAD_LAYOUTSELFREF
360
2DB
  0
DICTIONARY
  5
2F7
102
{ACAD_REACTORS
330
C
102
}
330
C
100
AcDbDictionary
281
     1
  0
DICTIONARY
  5
D
102
{ACAD_REACTORS
330
C
102
}
330
C
100
AcDbDictionary
281
     1
  0
DICTIONARY
  5
19B
102
{ACAD_REACTORS
330
C
102
}
330
C
100
AcDbDictionary
281
     1
  3
Layout1
350
19E
  3
Model
350
19D
  0
DICTIONARY
  5
2E2
102
{ACAD_REACTORS
330
C
102
}
330
C
100
AcDbDictionary
281
     1
  3
ByBlock
350
2E4
  3
ByLayer
350
2E3
  3
Global
350
2E5
  0
DICTIONARY
  5
E
102
{ACAD_REACTORS
330
C
102
}
330
C
100
AcDbDictionary
281
     1
  3
STANDARD
350
1B
  0
DICTIONARY
  5
19C
102
{ACAD_REACTORS
330
C
102
}
330
C
100
AcDbDictionary
281
     1
  0
ACDBDICTIONARYWDFLT
  5
199
102
{ACAD_REACTORS
330
C
102
}
330
C
100
AcDbDictionary
281
     1
  3
Normal
350
19A
100
AcDbDictionaryWithDefault
340
19A
  0
DICTIONARY
  5
2F8
102
{ACAD_REACTORS
330
C
102
}
330
C
100
AcDbDictionary
281
     1
  3
Standard
350
2F9
  0
DICTIONARY
  5
2E6
102
{ACAD_REACTORS
330
C
102
}
330
C
100
AcDbDictionary
281
     1
  3
2dWireframe
350
2EC
  3
3D Hidden
350
2EE
  3
3dWireframe
350
2ED
  3
Basic
350
2EB
  3
Brighten
350
2F2
  3
ColorChange
350
2F6
  3
Conceptual
350
2EF
  3
Dim
350
2F1
  3
Facepattern
350
2F5
  3
Flat
350
2E7
  3
FlatWithEdges
350
2E8
  3
Gouraud
350
2E9
  3
GouraudWithEdges
350
2EA
  3
Linepattern
350
2F4
  3
Realistic
350
2F0
  3
Thicken
350
2F3
  0
DICTIONARY
  5
1FC
102
{ACAD_REACTORS
330
C
102
}
330
C
100
AcDbDictionary
281
     1
  3
CTABLESTYLE
350
332
  3
DIMASSOC
350
1FD
  3
INDEXCTL
350
417
  3
SORTENTS
350
416
  0
XRECORD
  5
418
102
{ACAD_REACTORS
330
C
102
}
330
C
100
AcDbXrecord
280
     1
  1
DWGPROPS COOKIE
  2

  3

  4

  6

  7

  8
Yu Hu
  9

300
=
301
=
302
=
303
=
304
=
305
=
306
=
307
=
308
=
309
=
 40
0.0293150115740741
 41
2450386.505591435
 42
2453956.942583843
  1

 90
        0
  0
XRECORD
  5
2DC
102
{ACAD_REACTORS
330
1F6
102
}
330
1F6
100
AcDbXrecord
280
     1
340
18
  0
XRECORD
  5
2DB
102
{ACAD_REACTORS
330
1F4
102
}
330
1F4
100
AcDbXrecord
280
     1
340
15
  0
LAYOUT
  5
19E
102
{ACAD_XDICTIONARY
360
41B
102
}
102
{ACAD_REACTORS
330
19B
102
}
330
19B
100
AcDbPlotSettings
  1

  2
Fax
  4

  6

 40
0.0
 41
0.0
 42
0.0
 43
0.0
 44
0.0
 45
0.0
 46
0.0
 47
0.0
 48
0.0
 49
0.0
140
0.0
141
0.0
142
1.0
143
1.0
 70
   688
 72
     0
 73
     0
 74
     5
  7
Default R14 pen assignments.ctb
 75
    16
147
1.0
148
0.0
149
0.0
100
AcDbLayout
  1
Layout1
 70
     1
 71
     1
 10
0.0
 20
0.0
 11
12.0
 21
9.0
 12
4.403525741743744E+99
 22
7.061986388769092E+99
 32
0.0
 14
1.000000000000000E+20
 24
1.000000000000000E+20
 34
1.000000000000000E+20
 15
-1.000000000000000E+20
 25
-1.000000000000000E+20
 35
-1.000000000000000E+20
146
0.0
 13
0.0
 23
0.0
 33
0.0
 16
1.0
 26
0.0
 36
0.0
 17
0.0
 27
1.0
 37
0.0
 76
     0
330
15
  0
LAYOUT
  5
19D
102
{ACAD_XDICTIONARY
360
419
102
}
102
{ACAD_REACTORS
330
19B
102
}
330
19B
100
AcDbPlotSettings
  1

  2
Fax
  4

  6

 40
0.0
 41
0.0
 42
0.0
 43
0.0
 44
0.0
 45
0.0
 46
0.0
 47
0.0
 48
0.0
 49
0.0
140
0.0
141
0.0
142
1.0
143
1.0
 70
  1712
 72
     0
 73
     0
 74
     0
  7
Default R14 pen assignments.ctb
 75
     0
147
1.0
148
0.0
149
0.0
100
AcDbLayout
  1
Model
 70
     1
 71
     0
 10
0.0
 20
0.0
 11
12.0
 21
9.0
 12
0.0
 22
0.0
 32
0.0
 14
0.0
 24
0.0
 34
0.0
 15
0.0
 25
0.0
 35
0.0
146
0.0
 13
0.0
 23
0.0
 33
0.0
 16
1.0
 26
0.0
 36
0.0
 17
0.0
 27
1.0
 37
0.0
 76
     0
330
18
331
2B6
  0
MATERIAL
  5
2E4
102
{ACAD_XDICTIONARY
360
41F
102
}
102
{ACAD_REACTORS
330
2E2
102
}
330
2E2
100
AcDbMaterial
  1
ByBlock
  0
MATERIAL
  5
2E3
102
{ACAD_XDICTIONARY
360
41D
102
}
102
{ACAD_REACTORS
330
2E2
102
}
330
2E2
100
AcDbMaterial
  1
ByLayer
  0
MATERIAL
  5
2E5
102
{ACAD_XDICTIONARY
360
421
102
}
102
{ACAD_REACTORS
330
2E2
102
}
330
2E2
100
AcDbMaterial
  1
Global
  0
MLINESTYLE
  5
1B
102
{ACAD_REACTORS
330
E
102
}
330
E
100
AcDbMlineStyle
  2
STANDARD
 70
     0
  3

 62
     0
 51
90.0
 52
90.0
 71
     2
 49
0.5
 62
   256
  6
BYLAYER
 49
-0.5
 62
   256
  6
BYLAYER
  0
ACDBPLACEHOLDER
  5
19A
102
{ACAD_REACTORS
330
199
102
}
330
199
  0
TABLESTYLE
  5
2F9
102
{ACAD_XDICTIONARY
360
423
102
}
102
{ACAD_REACTORS
330
2F8
102
}
330
2F8
100
AcDbTableStyle
  3
Standard
 70
     0
 71
     0
 40
0.06
 41
0.06
280
     0
281
     0
  7
STANDARD
140
0.18
170
     2
 62
     0
 63
     7
283
     0
274
    -2
284
     1
 64
     0
275
    -2
285
     1
 65
     0
276
    -2
286
     1
 66
     0
277
    -2
287
     1
 67
     0
278
    -2
288
     1
 68
     0
279
    -2
289
     1
 69
     0
  7
STANDARD
140
0.25
170
     5
 62
     0
 63
     7
283
     0
274
    -2
284
     1
 64
     0
275
    -2
285
     1
 65
     0
276
    -2
286
     1
 66
     0
277
    -2
287
     1
 67
     0
278
    -2
288
     1
 68
     0
279
    -2
289
     1
 69
     0
  7
STANDARD
140
0.18
170
     5
 62
     0
 63
     7
283
     0
274
    -2
284
     1
 64
     0
275
    -2
285
     1
 65
     0
276
    -2
286
     1
 66
     0
277
    -2
287
     1
 67
     0
278
    -2
288
     1
 68
     0
279
    -2
289
     1
 69
     0
  0
VISUALSTYLE
  5
2EC
102
{ACAD_REACTORS
330
2E6
102
}
330
2E6
100
AcDbVisualStyle
  2
2dWireframe
 70
     4
 71
     0
 72
     2
 73
     0
 90
        0
 40
-0.6
 41
-30.0
 62
     5
 63
     7
 74
     1
 91
        4
 64
     7
 65
   257
 75
     1
175
     1
 42
1.0
 92
        0
 66
   257
 43
1.0
 76
     1
 77
     6
 78
     2
 67
     7
 79
     5
170
     0
171
     0
290
     0
174
     0
 93
        1
 44
0.0
173
     0
291
     0
 45
0.0
1001
ACAD
1000
AcDbSavedByObjectVersion
1070
     0
  0
VISUALSTYLE
  5
2EE
102
{ACAD_REACTORS
330
2E6
102
}
330
2E6
100
AcDbVisualStyle
  2
3D Hidden
 70
     6
 71
     1
 72
     2
 73
     2
 90
        0
 40
-0.6
 41
-30.0
 62
     5
 63
     7
 74
     2
 91
        2
 64
     7
 65
   257
 75
     2
175
     1
 42
40.0
 92
        0
 66
   257
 43
1.0
 76
     1
 77
     6
 78
     2
 67
     7
 79
     3
170
     0
171
     0
290
     0
174
     0
 93
        1
 44
0.0
173
     0
291
     0
 45
0.0
1001
ACAD
1000
AcDbSavedByObjectVersion
1070
     0
  0
VISUALSTYLE
  5
2ED
102
{ACAD_REACTORS
330
2E6
102
}
330
2E6
100
AcDbVisualStyle
  2
3dWireframe
 70
     5
 71
     0
 72
     2
 73
     0
 90
        0
 40
-0.6
 41
-30.0
 62
     5
 63
     7
 74
     1
 91
        4
 64
     7
 65
   257
 75
     1
175
     1
 42
1.0
 92
        0
 66
   257
 43
1.0
 76
     1
 77
     6
 78
     2
 67
     7
 79
     5
170
     0
171
     0
290
     0
174
     0
 93
        1
 44
0.0
173
     0
291
     0
 45
0.0
1001
ACAD
1000
AcDbSavedByObjectVersion
1070
     0
  0
VISUALSTYLE
  5
2EB
102
{ACAD_REACTORS
330
2E6
102
}
330
2E6
100
AcDbVisualStyle
  2
Basic
 70
     7
 71
     1
 72
     0
 73
     1
 90
        0
 40
-0.6
 41
-30.0
 62
     5
 63
     7
 74
     0
 91
        4
 64
     7
 65
   257
 75
     1
175
     1
 42
1.0
 92
        8
 66
     7
 43
1.0
 76
     1
 77
     6
 78
     2
 67
     7
 79
     5
170
     0
171
     0
290
     0
174
     0
 93
        1
 44
0.0
173
     0
291
     1
 45
0.0
1001
ACAD
1000
AcDbSavedByObjectVersion
1070
     0
  0
VISUALSTYLE
  5
2F2
102
{ACAD_REACTORS
330
2E6
102
}
330
2E6
100
AcDbVisualStyle
  2
Brighten
 70
    12
 71
     2
 72
     2
 73
     0
 90
        0
 40
-0.6
 41
-30.0
 62
     5
 63
     7
 74
     1
 91
        4
 64
     7
 65
   257
 75
     1
175
     1
 42
1.0
 92
        8
 66
     7
 43
1.0
 76
     1
 77
     6
 78
     2
 67
     7
 79
     5
170
     0
171
     0
290
     0
174
     0
 93
        1
 44
50.0
173
     0
291
     1
 45
0.0
1001
ACAD
1000
AcDbSavedByObjectVersion
1070
     0
  0
VISUALSTYLE
  5
2F6
102
{ACAD_REACTORS
330
2E6
102
}
330
2E6
100
AcDbVisualStyle
  2
ColorChange
 70
    16
 71
     2
 72
     2
 73
     3
 90
        0
 40
-0.6
 41
-30.0
 62
     5
 63
     8
 74
     1
 91
        4
 64
     7
 65
   257
 75
     1
175
     1
 42
1.0
 92
        8
 66
     8
 43
1.0
 76
     1
 77
     6
 78
     2
 67
     7
 79
     5
170
     0
171
     0
290
     0
174
     0
 93
        1
 44
0.0
173
     0
291
     1
 45
0.0
1001
ACAD
1000
AcDbSavedByObjectVersion
1070
     0
  0
VISUALSTYLE
  5
2EF
102
{ACAD_REACTORS
330
2E6
102
}
330
2E6
100
AcDbVisualStyle
  2
Conceptual
 70
     9
 71
     3
 72
     2
 73
     0
 90
        0
 40
-0.6
 41
-30.0
 62
     5
 63
     7
 74
     2
 91
        2
 64
     7
 65
   257
 75
     1
175
     1
 42
40.0
 92
        8
 66
     7
 43
1.0
 76
     1
 77
     6
 78
     2
 67
     7
 79
     3
170
     0
171
     0
290
     0
174
     0
 93
        1
 44
0.0
173
     0
291
     0
 45
0.0
1001
ACAD
1000
AcDbSavedByObjectVersion
1070
     0
  0
VISUALSTYLE
  5
2F1
102
{ACAD_REACTORS
330
2E6
102
}
330
2E6
100
AcDbVisualStyle
  2
Dim
 70
    11
 71
     2
 72
     2
 73
     0
 90
        0
 40
-0.6
 41
-30.0
 62
     5
 63
     7
 74
     1
 91
        4
 64
     7
 65
   257
 75
     1
175
     1
 42
1.0
 92
        8
 66
     7
 43
1.0
 76
     1
 77
     6
 78
     2
 67
     7
 79
     5
170
     0
171
     0
290
     0
174
     0
 93
        1
 44
-50.0
173
     0
291
     1
 45
0.0
1001
ACAD
1000
AcDbSavedByObjectVersion
1070
     0
  0
VISUALSTYLE
  5
2F5
102
{ACAD_REACTORS
330
2E6
102
}
330
2E6
100
AcDbVisualStyle
  2
Facepattern
 70
    15
 71
     2
 72
     2
 73
     0
 90
        0
 40
-0.6
 41
-30.0
 62
     5
 63
     7
 74
     1
 91
        4
 64
     7
 65
   257
 75
     1
175
     1
 42
1.0
 92
        8
 66
     7
 43
1.0
 76
     1
 77
     6
 78
     2
 67
     7
 79
     5
170
     0
171
     0
290
     0
174
     0
 93
        1
 44
0.0
173
     0
291
     1
 45
0.0
1001
ACAD
1000
AcDbSavedByObjectVersion
1070
     0
  0
VISUALSTYLE
  5
2E7
102
{ACAD_REACTORS
330
2E6
102
}
330
2E6
100
AcDbVisualStyle
  2
Flat
 70
     0
 71
     2
 72
     1
 73
     1
 90
        2
 40
-0.6
 41
30.0
 62
     5
 63
     7
 74
     0
 91
        4
 64
     7
 65
   257
 75
     1
175
     1
 42
1.0
 92
        8
 66
     7
 43
1.0
 76
     1
 77
     6
 78
     2
 67
     7
 79
     5
170
     0
171
     0
290
     0
174
     0
 93
       13
 44
0.0
173
     0
291
     1
 45
0.0
1001
ACAD
1000
AcDbSavedByObjectVersion
1070
     0
  0
VISUALSTYLE
  5
2E8
102
{ACAD_REACTORS
330
2E6
102
}
330
2E6
100
AcDbVisualStyle
  2
FlatWithEdges
 70
     1
 71
     2
 72
     1
 73
     1
 90
        2
 40
-0.6
 41
30.0
 62
     5
 63
     7
 74
     1
 91
        4
 64
     7
 65
   257
 75
     1
175
     1
 42
1.0
 92
        0
 66
   257
 43
1.0
 76
     1
 77
     6
 78
     2
 67
     7
 79
     5
170
     0
171
     0
290
     0
174
     0
 93
       13
 44
0.0
173
     0
291
     1
 45
0.0
1001
ACAD
1000
AcDbSavedByObjectVersion
1070
     0
  0
VISUALSTYLE
  5
2E9
102
{ACAD_REACTORS
330
2E6
102
}
330
2E6
100
AcDbVisualStyle
  2
Gouraud
 70
     2
 71
     2
 72
     2
 73
     1
 90
        2
 40
-0.6
 41
30.0
 62
     5
 63
     7
 74
     0
 91
        4
 64
     7
 65
   257
 75
     1
175
     1
 42
1.0
 92
        0
 66
     7
 43
1.0
 76
     1
 77
     6
 78
     2
 67
     7
 79
     5
170
     0
171
     0
290
     0
174
     0
 93
       13
 44
0.0
173
     0
291
     1
 45
0.0
1001
ACAD
1000
AcDbSavedByObjectVersion
1070
     0
  0
VISUALSTYLE
  5
2EA
102
{ACAD_REACTORS
330
2E6
102
}
330
2E6
100
AcDbVisualStyle
  2
GouraudWithEdges
 70
     3
 71
     2
 72
     2
 73
     1
 90
        2
 40
-0.6
 41
30.0
 62
     5
 63
     7
 74
     1
 91
        4
 64
     7
 65
   257
 75
     1
175
     1
 42
1.0
 92
        0
 66
   257
 43
1.0
 76
     1
 77
     6
 78
     2
 67
     7
 79
     5
170
     0
171
     0
290
     0
174
     0
 93
       13
 44
0.0
173
     0
291
     1
 45
0.0
1001
ACAD
1000
AcDbSavedByObjectVersion
1070
     0
  0
VISUALSTYLE
  5
2F4
102
{ACAD_REACTORS
330
2E6
102
}
330
2E6
100
AcDbVisualStyle
  2
Linepattern
 70
    14
 71
     2
 72
     2
 73
     0
 90
        0
 40
-0.6
 41
-30.0
 62
     5
 63
     7
 74
     1
 91
        4
 64
     7
 65
   257
 75
     7
175
     7
 42
1.0
 92
        8
 66
     7
 43
1.0
 76
     1
 77
     6
 78
     2
 67
     7
 79
     5
170
     0
171
     0
290
     0
174
     0
 93
        1
 44
0.0
173
     0
291
     1
 45
0.0
1001
ACAD
1000
AcDbSavedByObjectVersion
1070
     0
  0
VISUALSTYLE
  5
2F0
102
{ACAD_REACTORS
330
2E6
102
}
330
2E6
100
AcDbVisualStyle
  2
Realistic
 70
     8
 71
     2
 72
     2
 73
     0
 90
        0
 40
-0.6
 41
-30.0
 62
     5
 63
     7
 74
     1
 91
        0
 64
     7
 65
   257
 75
     1
175
     1
 42
1.0
 92
        8
 66
     8
 43
1.0
 76
     1
 77
     6
 78
     2
 67
     7
 79
     5
170
     0
171
     0
290
     0
174
     0
 93
       13
 44
0.0
173
     0
291
     0
 45
0.0
1001
ACAD
1000
AcDbSavedByObjectVersion
1070
     0
  0
VISUALSTYLE
  5
2F3
102
{ACAD_REACTORS
330
2E6
102
}
330
2E6
100
AcDbVisualStyle
  2
Thicken
 70
    13
 71
     2
 72
     2
 73
     0
 90
        0
 40
-0.6
 41
-30.0
 62
     5
 63
     7
 74
     1
 91
        4
 64
     7
 65
   257
 75
     1
175
     1
 42
1.0
 92
       12
 66
     7
 43
1.0
 76
     1
 77
     6
 78
     2
 67
     7
 79
     5
170
     0
171
     0
290
     0
174
     0
 93
        1
 44
0.0
173
     0
291
     1
 45
0.0
1001
ACAD
1000
AcDbSavedByObjectVersion
1070
     0
  0
DICTIONARYVAR
  5
332
102
{ACAD_REACTORS
330
1FC
102
}
330
1FC
100
DictionaryVariables
280
     0
  1
STANDARD
  0
DICTIONARYVAR
  5
1FD
102
{ACAD_REACTORS
330
1FC
102
}
330
1FC
100
DictionaryVariables
280
     0
  1
1
  0
DICTIONARYVAR
  5
417
102
{ACAD_REACTORS
330
1FC
102
}
330
1FC
100
DictionaryVariables
280
     0
  1
0
  0
DICTIONARYVAR
  5
416
102
{ACAD_REACTORS
330
1FC
102
}
330
1FC
100
DictionaryVariables
280
     0
  1
127
  0
DICTIONARY
  5
41B
330
19E
100
AcDbDictionary
280
     1
281
     1
  3
ACAD_XREC_ROUNDTRIP
360
41C
  0
DICTIONARY
  5
419
330
19D
100
AcDbDictionary
280
     1
281
     1
  3
ACAD_XREC_ROUNDTRIP
360
41A
  0
DICTIONARY
  5
41F
330
2E4
100
AcDbDictionary
280
     1
281
     1
  3
ACAD_XREC_ROUNDTRIP
360
420
  0
DICTIONARY
  5
41D
330
2E3
100
AcDbDictionary
280
     1
281
     1
  3
ACAD_XREC_ROUNDTRIP
360
41E
  0
DICTIONARY
  5
421
330
2E5
100
AcDbDictionary
280
     1
281
     1
  3
ACAD_XREC_ROUNDTRIP
360
422
  0
DICTIONARY
  5
423
330
2F9
100
AcDbDictionary
280
     1
281
     1
  3
ACAD_XREC_ROUNDTRIP
360
424
  0
XRECORD
  5
41C
102
{ACAD_REACTORS
330
41B
102
}
330
41B
100
AcDbXrecord
280
     1
102
SHADEPLOT
 70
     0
102
SHADEPLOTRESLEVEL
 70
     2
102
SHADEPLOTCUSTOMDPI
 70
   300
  0
XRECORD
  5
41A
102
{ACAD_REACTORS
330
419
102
}
330
419
100
AcDbXrecord
280
     1
102
SHADEPLOT
 70
     0
102
SHADEPLOTRESLEVEL
 70
     2
102
SHADEPLOTCUSTOMDPI
 70
   300
  0
XRECORD
  5
420
102
{ACAD_REACTORS
330
41F
102
}
330
41F
100
AcDbXrecord
280
     1
102
MATERIAL
148
0.0
149
0.0
149
0.0
 93
        0
 94
       63
282
     0
 72
     1
 77
     1
171
     1
175
     1
179
     1
273
     0
  0
XRECORD
  5
41E
102
{ACAD_REACTORS
330
41D
102
}
330
41D
100
AcDbXrecord
280
     1
102
MATERIAL
148
0.0
149
0.0
149
0.0
 93
        0
 94
       63
282
     0
 72
     1
 77
     1
171
     1
175
     1
179
     1
273
     0
  0
XRECORD
  5
422
102
{ACAD_REACTORS
330
421
102
}
330
421
100
AcDbXrecord
280
     1
102
MATERIAL
148
0.0
149
0.0
149
0.0
 93
        0
 94
       63
282
     0
 72
     1
 77
     1
171
     1
175
     1
179
     1
273
     0
  0
XRECORD
  5
424
102
{ACAD_REACTORS
330
423
102
}
330
423
100
AcDbXrecord
280
     1
102
ACAD_ROUNDTRIP_PRE2007_TABLESTYLE
 90
      512
 91
        0
  1

 92
      512
 93
        0
  2

 94
      512
 95
        0
  3

  0
ENDSEC
  0
EOF
