  0
SECTION
  2
HEADER
  9
$ACADVER
  1
AC1015
  9
$ACADMAINTVER
 70
    20
  9
$DWGCODEPAGE
  3
ANSI_1252
  9
$INSBASE
 10
0.9794348629626819
 20
0.8807228030663031
 30
0.0
  9
$EXTMIN
 10
-2.283429649315626
 20
-0.3955662813037775
 30
0.0
  9
$EXTMAX
 10
4.24229937524099
 20
2.003019233034014
 30
0.0
  9
$LIMMIN
 10
0.0
 20
0.0
  9
$LIMMAX
 10
36.0
 20
36.0
  9
$ORTHOMODE
 70
     1
  9
$REGENMODE
 70
     1
  9
$FILLMODE
 70
     1
  9
$QTEXTMODE
 70
     0
  9
$MIRRTEXT
 70
     1
  9
$LTSCALE
 40
1.0
  9
$ATTMODE
 70
     1
  9
$TEXTSIZE
 40
0.2
  9
$TRACEWID
 40
0.05
  9
$TEXTSTYLE
  7
STANDARD
  9
$CLAYER
  8
ADPDIM
  9
$CELTYPE
  6
BYLAYER
  9
$CECOLOR
 62
   256
  9
$CELTSCALE
 40
1.0
  9
$DISPSILH
 70
     0
  9
$DIMSCALE
 40
1.0
  9
$DIMASZ
 40
0.125
  9
$DIMEXO
 40
0.0625
  9
$DIMDLI
 40
0.38
  9
$DIMRND
 40
0.0
  9
$DIMDLE
 40
0.0
  9
$DIMEXE
 40
0.18
  9
$DIMTP
 40
0.0
  9
$DIMTM
 40
0.0
  9
$DIMTXT
 40
0.125
  9
$DIMCEN
 40
0.1875
  9
$DIMTSZ
 40
0.125
  9
$DIMTOL
 70
     0
  9
$DIMLIM
 70
     0
  9
$DIMTIH
 70
     0
  9
$DIMTOH
 70
     0
  9
$DIMSE1
 70
     0
  9
$DIMSE2
 70
     0
  9
$DIMTAD
 70
     0
  9
$DIMZIN
 70
     2
  9
$DIMBLK
  1

  9
$DIMASO
 70
     1
  9
$DIMSHO
 70
     1
  9
$DIMPOST
  1

  9
$DIMAPOST
  1

  9
$DIMALT
 70
     0
  9
$DIMALTD
 70
     1
  9
$DIMALTF
 40
25.4
  9
$DIMLFAC
 40
1.0
  9
$DIMTOFL
 70
     0
  9
$DIMTVP
 40
0.0
  9
$DIMTIX
 70
     0
  9
$DIMSOXD
 70
     0
  9
$DIMSAH
 70
     0
  9
$DIMBLK1
  1

  9
$DIMBLK2
  1

  9
$DIMSTYLE
  2
STANDARD
  9
$DIMCLRD
 70
     0
  9
$DIMCLRE
 70
     0
  9
$DIMCLRT
 70
     0
  9
$DIMTFAC
 40
1.0
  9
$DIMGAP
 40
0.125
  9
$DIMJUST
 70
     0
  9
$DIMSD1
 70
     0
  9
$DIMSD2
 70
     0
  9
$DIMTOLJ
 70
     1
  9
$DIMTZIN
 70
     0
  9
$DIMALTZ
 70
     0
  9
$DIMALTTZ
 70
     0
  9
$DIMUPT
 70
     0
  9
$DIMDEC
 70
     4
  9
$DIMTDEC
 70
     4
  9
$DIMALTU
 70
     2
  9
$DIMALTTD
 70
     2
  9
$DIMTXSTY
  7
STANDARD
  9
$DIMAUNIT
 70
     0
  9
$DIMADEC
 70
     0
  9
$DIMALTRND
 40
0.0
  9
$DIMAZIN
 70
     0
  9
$DIMDSEP
 70
    46
  9
$DIMATFIT
 70
     3
  9
$DIMFRAC
 70
     2
  9
$DIMLDRBLK
  1

  9
$DIMLUNIT
 70
     5
  9
$DIMLWD
 70
    -2
  9
$DIMLWE
 70
    -2
  9
$DIMTMOVE
 70
     0
  9
$LUNITS
 70
     5
  9
$LUPREC
 70
     5
  9
$SKETCHINC
 40
0.1
  9
$FILLETRAD
 40
0.0
  9
$AUNITS
 70
     0
  9
$AUPREC
 70
     0
  9
$MENU
  1
acad
  9
$ELEVATION
 40
0.0
  9
$PELEVATION
 40
0.0
  9
$THICKNESS
 40
0.0
  9
$LIMCHECK
 70
     0
  9
$CHAMFERA
 40
0.0
  9
$CHAMFERB
 40
0.0
  9
$CHAMFERC
 40
0.0
  9
$CHAMFERD
 40
0.0
  9
$SKPOLY
 70
     0
  9
$TDCREATE
 40
2450414.621742477
  9
$TDUCREATE
 40
2450414.788409144
  9
$TDUPDATE
 40
2453976.941336412
  9
$TDUUPDATE
 40
2453977.108003078
  9
$TDINDWG
 40
0.0053351157
  9
$TDUSRTIMER
 40
0.0053351157
  9
$USRTIMER
 70
     1
  9
$ANGBASE
 50
0.0
  9
$ANGDIR
 70
     0
  9
$PDMODE
 70
     0
  9
$PDSIZE
 40
0.0
  9
$PLINEWID
 40
0.0
  9
$SPLFRAME
 70
     0
  9
$SPLINETYPE
 70
     6
  9
$SPLINESEGS
 70
     8
  9
$HANDSEED
  5
30F
  9
$SURFTAB1
 70
     6
  9
$SURFTAB2
 70
     6
  9
$SURFTYPE
 70
     6
  9
$SURFU
 70
     6
  9
$SURFV
 70
     6
  9
$UCSBASE
  2

  9
$UCSNAME
  2

  9
$UCSORG
 10
0.0
 20
0.0
 30
0.0
  9
$UCSXDIR
 10
1.0
 20
0.0
 30
0.0
  9
$UCSYDIR
 10
0.0
 20
1.0
 30
0.0
  9
$UCSORTHOREF
  2

  9
$UCSORTHOVIEW
 70
     0
  9
$UCSORGTOP
 10
0.0
 20
0.0
 30
0.0
  9
$UCSORGBOTTOM
 10
0.0
 20
0.0
 30
0.0
  9
$UCSORGLEFT
 10
0.0
 20
0.0
 30
0.0
  9
$UCSORGRIGHT
 10
0.0
 20
0.0
 30
0.0
  9
$UCSORGFRONT
 10
0.0
 20
0.0
 30
0.0
  9
$UCSORGBACK
 10
0.0
 20
0.0
 30
0.0
  9
$PUCSBASE
  2

  9
$PUCSNAME
  2

  9
$PUCSORG
 10
0.0
 20
0.0
 30
0.0
  9
$PUCSXDIR
 10
1.0
 20
0.0
 30
0.0
  9
$PUCSYDIR
 10
0.0
 20
1.0
 30
0.0
  9
$PUCSORTHOREF
  2

  9
$PUCSORTHOVIEW
 70
     0
  9
$PUCSORGTOP
 10
0.0
 20
0.0
 30
0.0
  9
$PUCSORGBOTTOM
 10
0.0
 20
0.0
 30
0.0
  9
$PUCSORGLEFT
 10
0.0
 20
0.0
 30
0.0
  9
$PUCSORGRIGHT
 10
0.0
 20
0.0
 30
0.0
  9
$PUCSORGFRONT
 10
0.0
 20
0.0
 30
0.0
  9
$PUCSORGBACK
 10
0.0
 20
0.0
 30
0.0
  9
$USERI1
 70
     0
  9
$USERI2
 70
     0
  9
$USERI3
 70
     0
  9
$USERI4
 70
     0
  9
$USERI5
 70
     0
  9
$USERR1
 40
0.0
  9
$USERR2
 40
0.0
  9
$USERR3
 40
0.0
  9
$USERR4
 40
0.0
  9
$USERR5
 40
0.0
  9
$WORLDVIEW
 70
     1
  9
$SHADEDGE
 70
     3
  9
$SHADEDIF
 70
    70
  9
$TILEMODE
 70
     1
  9
$MAXACTVP
 70
    15
  9
$PINSBASE
 10
0.0781263709068299
 20
112.0181290174387
 30
0.0
  9
$PLIMCHECK
 70
     0
  9
$PEXTMIN
 10
1.000000000000000E+20
 20
1.000000000000000E+20
 30
1.000000000000000E+20
  9
$PEXTMAX
 10
-1.000000000000000E+20
 20
-1.000000000000000E+20
 30
-1.000000000000000E+20
  9
$PLIMMIN
 10
0.0
 20
0.0
  9
$PLIMMAX
 10
12.0
 20
9.0
  9
$UNITMODE
 70
     0
  9
$VISRETAIN
 70
     0
  9
$PLINEGEN
 70
     0
  9
$PSLTSCALE
 70
     1
  9
$TREEDEPTH
 70
  3020
  9
$CMLSTYLE
  2
STANDARD
  9
$CMLJUST
 70
     0
  9
$CMLSCALE
 40
1.0
  9
$PROXYGRAPHICS
 70
     1
  9
$MEASUREMENT
 70
     0
  9
$CELWEIGHT
370
    -1
  9
$ENDCAPS
280
     0
  9
$JOINSTYLE
280
     0
  9
$LWDISPLAY
290
     0
  9
$INSUNITS
 70
     0
  9
$HYPERLINKBASE
  1

  9
$STYLESHEET
  1

  9
$XEDIT
290
     1
  9
$CEPSNTYPE
380
     0
  9
$PSTYLEMODE
290
     1
  9
$FINGERPRINTGUID
  2
{1ACE4E7E-2AC2-4546-81D9-2B58DD692B0D}
  9
$VERSIONGUID
  2
{86524867-A6C8-4219-A1B4-2EEC79E56BA3}
  9
$EXTNAMES
290
     1
  9
$PSVPSCALE
 40
0.0
  9
$OLESTARTUP
290
     0
  0
ENDSEC
  0
SECTION
  2
CLASSES
  0
CLASS
  1
ACDBDICTIONARYWDFLT
  2
AcDbDictionaryWithDefault
  3
ObjectDBX Classes
 90
        0
280
     0
281
     0
  0
CLASS
  1
ACDBPLACEHOLDER
  2
AcDbPlaceHolder
  3
ObjectDBX Classes
 90
        0
280
     0
281
     0
  0
CLASS
  1
LAYOUT
  2
AcDbLayout
  3
ObjectDBX Classes
 90
        0
280
     0
281
     0
  0
CLASS
  1
DICTIONARYVAR
  2
AcDbDictionaryVar
  3
ObjectDBX Classes
 90
        0
280
     0
281
     0
  0
CLASS
  1
MATERIAL
  2
AcDbMaterial
  3
ObjectDBX Classes
 90
     1024
280
     0
281
     0
  0
CLASS
  1
VISUALSTYLE
  2
AcDbVisualStyle
  3
ObjectDBX Classes
 90
     4095
280
     0
281
     0
  0
CLASS
  1
TABLESTYLE
  2
AcDbTableStyle
  3
ObjectDBX Classes
 90
     4095
280
     0
281
     0
  0
ENDSEC
  0
SECTION
  2
TABLES
  0
TABLE
  2
VPORT
  5
8
330
0
100
AcDbSymbolTable
 70
     1
  0
VPORT
  5
277
330
8
100
AcDbSymbolTableRecord
100
AcDbViewportTableRecord
  2
*Active
 70
     0
 10
0.0
 20
0.0
 11
1.0
 21
1.0
 12
1.099723850248293
 22
0.8503001042846008
 13
0.0
 23
0.0
 14
0.5740882589684922
 24
0.5740882589684922
 15
0.5
 25
0.5
 16
0.0
 26
0.0
 36
1.0
 17
0.0
 27
0.0
 37
0.0
 40
3.30222289031507
 41
1.726930320150659
 42
50.0
 43
0.0
 44
0.0
 50
0.0
 51
0.0
 71
     0
 72
   100
 73
     1
 74
     0
 75
     0
 76
     0
 77
     0
 78
     0
281
     0
 65
     1
110
0.0
120
0.0
130
0.0
111
1.0
121
0.0
131
0.0
112
0.0
122
1.0
132
0.0
 79
     0
146
0.0
  0
ENDTAB
  0
TABLE
  2
LTYPE
  5
5
330
0
100
AcDbSymbolTable
 70
     1
  0
LTYPE
  5
12
330
5
100
AcDbSymbolTableRecord
100
AcDbLinetypeTableRecord
  2
BYBLOCK
 70
     0
  3

 72
    65
 73
     0
 40
0.0
  0
LTYPE
  5
13
330
5
100
AcDbSymbolTableRecord
100
AcDbLinetypeTableRecord
  2
BYLAYER
 70
     0
  3

 72
    65
 73
     0
 40
0.0
  0
LTYPE
  5
14
330
5
100
AcDbSymbolTableRecord
100
AcDbLinetypeTableRecord
  2
CONTINUOUS
 70
     0
  3
Solid line
 72
    65
 73
     0
 40
0.0
  0
ENDTAB
  0
TABLE
  2
LAYER
  5
2
330
0
100
AcDbSymbolTable
 70
     4
  0
LAYER
  5
F
330
2
100
AcDbSymbolTableRecord
100
AcDbLayerTableRecord
  2
0
 70
     0
 62
     7
  6
CONTINUOUS
370
    -3
390
119
  0
LAYER
  5
47
330
2
100
AcDbSymbolTableRecord
100
AcDbLayerTableRecord
  2
ADPDIM
 70
     0
 62
     3
  6
CONTINUOUS
370
    -3
390
119
  0
LAYER
  5
49
330
2
100
AcDbSymbolTableRecord
100
AcDbLayerTableRecord
  2
ADP1DETAIL
 70
     0
 62
     7
  6
CONTINUOUS
370
    -3
390
119
  0
LAYER
  5
4B
330
2
100
AcDbSymbolTableRecord
100
AcDbLayerTableRecord
  2
DEFPOINTS
 70
     0
 62
     7
  6
CONTINUOUS
290
     0
370
    -3
390
119
  0
ENDTAB
  0
TABLE
  2
STYLE
  5
3
330
0
100
AcDbSymbolTable
 70
     2
  0
STYLE
  5
10
330
3
100
AcDbSymbolTableRecord
100
AcDbTextStyleTableRecord
  2
STANDARD
 70
     0
 40
0.0
 41
1.0
 50
0.0
 71
     0
 42
0.2
  3
txt
  4

  0
STYLE
  5
120
330
3
100
AcDbSymbolTableRecord
100
AcDbTextStyleTableRecord
  2
ARIAL_WIDE
 70
     0
 40
0.0
 41
1.25
 50
0.0
 71
     0
 42
0.2
  3
ARIAL.TTF
  4

1001
ACAD
1000
Arial
1071
       34
  0
ENDTAB
  0
TABLE
  2
VIEW
  5
6
330
0
100
AcDbSymbolTable
 70
     0
  0
ENDTAB
  0
TABLE
  2
UCS
  5
7
330
0
100
AcDbSymbolTable
 70
     0
  0
ENDTAB
  0
TABLE
  2
APPID
  5
9
330
0
100
AcDbSymbolTable
 70
     1
  0
APPID
  5
11
330
9
100
AcDbSymbolTableRecord
100
AcDbRegAppTableRecord
  2
ACAD
 70
     0
  0
ENDTAB
  0
TABLE
  2
DIMSTYLE
  5
A
330
0
100
AcDbSymbolTable
 70
     1
100
AcDbDimStyleTable
 71
     1
340
FB
  0
DIMSTYLE
105
FB
102
{ACAD_REACTORS
330
2D7
102
}
330
A
100
AcDbSymbolTableRecord
100
AcDbDimStyleTableRecord
  2
STANDARD
 70
     0
340
10
  0
ENDTAB
  0
TABLE
  2
BLOCK_RECORD
  5
1
330
0
100
AcDbSymbolTable
 70
     3
  0
BLOCK_RECORD
  5
18
102
{ACAD_XDICTIONARY
360
181
102
}
330
1
100
AcDbSymbolTableRecord
100
AcDbBlockTableRecord
  2
*MODEL_SPACE
340
11C
  0
BLOCK_RECORD
  5
15
102
{ACAD_XDICTIONARY
360
17F
102
}
330
1
100
AcDbSymbolTableRecord
100
AcDbBlockTableRecord
  2
*PAPER_SPACE
340
11D
  0
BLOCK_RECORD
  5
FD
330
1
100
AcDbSymbolTableRecord
100
AcDbBlockTableRecord
  2
*D0
340
0
  0
BLOCK_RECORD
  5
2CA
330
1
100
AcDbSymbolTableRecord
100
AcDbBlockTableRecord
  2
*D1
340
0
  0
BLOCK_RECORD
  5
2D8
330
1
100
AcDbSymbolTableRecord
100
AcDbBlockTableRecord
  2
*D2
340
0
  0
ENDTAB
  0
ENDSEC
  0
SECTION
  2
BLOCKS
  0
BLOCK
  5
4E
330
18
100
AcDbEntity
  8
0
100
AcDbBlockBegin
  2
*MODEL_SPACE
 70
     0
 10
0.0
 20
0.0
 30
0.0
  3
*MODEL_SPACE
  1

  0
ENDBLK
  5
4F
330
18
100
AcDbEntity
  8
0
100
AcDbBlockEnd
  0
BLOCK
  5
4C
330
15
100
AcDbEntity
 67
     1
  8
0
100
AcDbBlockBegin
  2
*PAPER_SPACE
 70
     0
 10
0.0
 20
0.0
 30
0.0
  3
*PAPER_SPACE
  1

  0
ENDBLK
  5
4D
330
15
100
AcDbEntity
 67
     1
  8
0
100
AcDbBlockEnd
  0
BLOCK
  5
10A
330
FD
100
AcDbEntity
  8
0
100
AcDbBlockBegin
  2
*D0
 70
     1
 10
0.0
 20
0.0
 30
0.0
  3
*D0
  1
*U
  0
LINE
  5
2A1
330
FD
100
AcDbEntity
  8
ADPDIM
 62
     0
100
AcDbLine
 10
1.111901823594399
 20
0.0068055575305454
 30
0.0
 11
2.317856835559361
 21
0.0068055575305451
 31
0.0
  0
LINE
  5
2A2
330
FD
100
AcDbEntity
  8
ADPDIM
 62
     0
100
AcDbLine
 10
1.111901823594399
 20
1.751768153229466
 30
0.0
 11
2.317856835559361
 21
1.751768153229466
 31
0.0
  0
LINE
  5
2A3
330
FD
100
AcDbEntity
  8
ADPDIM
 62
     0
100
AcDbLine
 10
2.137856835559361
 20
0.0068055575305452
 30
0.0
 11
2.137856835559361
 21
0.4834535220466726
 31
0.0
  0
LINE
  5
2A4
330
FD
100
AcDbEntity
  8
ADPDIM
 62
     0
100
AcDbLine
 10
2.137856835559361
 20
1.751768153229466
 30
0.0
 11
2.137856835559361
 21
1.275120188713339
 31
0.0
  0
LINE
  5
2A5
330
FD
100
AcDbEntity
  8
ADPDIM
 62
     0
100
AcDbLine
 10
2.262856835559361
 20
1.626768153229466
 30
0.0
 11
2.012856835559361
 21
1.876768153229466
 31
0.0
  0
LINE
  5
2A6
330
FD
100
AcDbEntity
  8
ADPDIM
 62
     0
100
AcDbLine
 10
2.262856835559361
 20
-0.1181944424694549
 30
0.0
 11
2.012856835559361
 21
0.1318055575305452
 31
0.0
  0
MTEXT
  5
2A7
330
FD
100
AcDbEntity
  8
ADPDIM
 62
     0
100
AcDbMText
 10
2.137856835559361
 20
0.8792868553800062
 30
0.0
 40
0.125
 41
0.0
 71
     5
 72
     1
  1
\A1;1 3/4
 11
0.0000000000000001
 21
1.0
 31
0.0
 73
     1
 44
1.0
1001
ACAD
1000
MTEXTBEGIN
1070
    73
1070
     1
1070
    44
1040
1.0
1070
    74
1070
     0
1000
MTEXTEND
  0
POINT
  5
2A8
330
FD
100
AcDbEntity
  8
DEFPOINTS
 62
     0
100
AcDbPoint
 10
1.049401823594399
 20
0.0068055575305455
 30
0.0
  0
POINT
  5
2A9
330
FD
100
AcDbEntity
  8
DEFPOINTS
 62
     0
100
AcDbPoint
 10
1.049401823594399
 20
1.751768153229466
 30
0.0
  0
POINT
  5
2AA
330
FD
100
AcDbEntity
  8
DEFPOINTS
 62
     0
100
AcDbPoint
 10
2.137856835559361
 20
1.751768153229466
 30
0.0
  0
ENDBLK
  5
115
330
FD
100
AcDbEntity
  8
0
100
AcDbBlockEnd
  0
BLOCK
  5
2D5
330
2CA
100
AcDbEntity
  8
0
 62
     3
100
AcDbBlockBegin
  2
*D1
 70
     1
 10
0.0
 20
0.0
 30
0.0
  3
*D1
  1

  0
LINE
  5
2CB
330
2CA
100
AcDbEntity
  8
ADPDIM
 62
     0
370
    -2
100
AcDbLine
 10
1.065936290737248
 20
0.0030192330340153
 30
0.0
 11
2.407220199518842
 21
0.0030192330340149
 31
0.0
  0
LINE
  5
2CC
330
2CA
100
AcDbEntity
  8
ADPDIM
 62
     0
370
    -2
100
AcDbLine
 10
1.065936290737248
 20
1.828019233034015
 30
0.0
 11
2.407220199518843
 21
1.828019233034015
 31
0.0
  0
LINE
  5
2CD
330
2CA
100
AcDbEntity
  8
ADPDIM
 62
     0
370
    -2
100
AcDbLine
 10
2.227220199518843
 20
0.003019233034015
 30
0.0
 11
2.227220199518843
 21
0.4363525663673486
 31
0.0
  0
LINE
  5
2CE
330
2CA
100
AcDbEntity
  8
ADPDIM
 62
     0
370
    -2
100
AcDbLine
 10
2.227220199518843
 20
1.828019233034015
 30
0.0
 11
2.227220199518843
 21
1.394685899700681
 31
0.0
  0
LINE
  5
2CF
330
2CA
100
AcDbEntity
  8
ADPDIM
 62
     0
370
    -2
100
AcDbLine
 10
2.352220199518843
 20
1.703019233034015
 30
0.0
 11
2.102220199518843
 21
1.953019233034015
 31
0.0
  0
LINE
  5
2D0
330
2CA
100
AcDbEntity
  8
ADPDIM
 62
     0
370
    -2
100
AcDbLine
 10
2.352220199518843
 20
-0.1219807669659851
 30
0.0
 11
2.102220199518843
 21
0.128019233034015
 31
0.0
  0
MTEXT
  5
2D1
330
2CA
100
AcDbEntity
  8
ADPDIM
 62
     0
100
AcDbMText
 10
2.227220199518843
 20
0.9155192330340154
 30
0.0
 40
0.125
 41
0.0
 71
     5
 72
     1
  1
\A1;1 13/16
 11
0.0000000000000001
 21
1.0
 31
0.0
 73
     1
 44
1.0
1001
ACAD
1000
MTEXTBEGIN
1070
    73
1070
     1
1070
    44
1040
1.0
1070
    74
1070
     0
1000
MTEXTEND
  0
POINT
  5
2D2
330
2CA
100
AcDbEntity
  8
DEFPOINTS
 62
     0
100
AcDbPoint
 10
1.003436290737248
 20
0.0030192330340153
 30
0.0
  0
POINT
  5
2D3
330
2CA
100
AcDbEntity
  8
DEFPOINTS
 62
     0
100
AcDbPoint
 10
1.003436290737248
 20
1.828019233034015
 30
0.0
  0
POINT
  5
2D4
330
2CA
100
AcDbEntity
  8
DEFPOINTS
 62
     0
100
AcDbPoint
 10
2.227220199518843
 20
1.828019233034015
 30
0.0
  0
ENDBLK
  5
2D6
330
2CA
100
AcDbEntity
  8
0
 62
     3
100
AcDbBlockEnd
  0
BLOCK
  5
2E3
330
2D8
100
AcDbEntity
  8
0
 62
     3
100
AcDbBlockBegin
  2
*D2
 70
     1
 10
0.0
 20
0.0
 30
0.0
  3
*D2
  1

  0
LINE
  5
2D9
330
2D8
100
AcDbEntity
  8
ADPDIM
 62
     0
370
    -2
100
AcDbLine
 10
1.003815278090034
 20
0.0030192330340153
 30
0.0
 11
2.369947595294558
 21
0.0030192330340149
 31
0.0
  0
LINE
  5
2DA
330
2D8
100
AcDbEntity
  8
ADPDIM
 62
     0
370
    -2
100
AcDbLine
 10
1.003815278090034
 20
1.878019233034015
 30
0.0
 11
2.369947595294558
 21
1.878019233034015
 31
0.0
  0
LINE
  5
2DB
330
2D8
100
AcDbEntity
  8
ADPDIM
 62
     0
370
    -2
100
AcDbLine
 10
2.189947595294558
 20
0.0030192330340149
 30
0.0
 11
2.189947595294558
 21
0.5446858997006819
 31
0.0
  0
LINE
  5
2DC
330
2D8
100
AcDbEntity
  8
ADPDIM
 62
     0
370
    -2
100
AcDbLine
 10
2.189947595294558
 20
1.878019233034015
 30
0.0
 11
2.189947595294558
 21
1.336352566367348
 31
0.0
  0
LINE
  5
2DD
330
2D8
100
AcDbEntity
  8
ADPDIM
 62
     0
370
    -2
100
AcDbLine
 10
2.314947595294558
 20
1.753019233034015
 30
0.0
 11
2.064947595294558
 21
2.003019233034014
 31
0.0
  0
LINE
  5
2DE
330
2D8
100
AcDbEntity
  8
ADPDIM
 62
     0
370
    -2
100
AcDbLine
 10
2.314947595294558
 20
-0.1219807669659851
 30
0.0
 11
2.064947595294558
 21
0.128019233034015
 31
0.0
  0
MTEXT
  5
2DF
330
2D8
100
AcDbEntity
  8
ADPDIM
 62
     0
100
AcDbMText
 10
2.189947595294558
 20
0.9405192330340154
 30
0.0
 40
0.125
 41
0.0
 71
     5
 72
     1
  1
\A1;1 7/8
 11
0.0000000000000001
 21
1.0
 31
0.0
 73
     1
 44
1.0
1001
ACAD
1000
MTEXTBEGIN
1070
    73
1070
     1
1070
    44
1040
1.0
1070
    74
1070
     0
1000
MTEXTEND
  0
POINT
  5
2E0
330
2D8
100
AcDbEntity
  8
DEFPOINTS
 62
     0
100
AcDbPoint
 10
0.941315278090034
 20
0.0030192330340153
 30
0.0
  0
POINT
  5
2E1
330
2D8
100
AcDbEntity
  8
DEFPOINTS
 62
     0
100
AcDbPoint
 10
0.941315278090034
 20
1.878019233034015
 30
0.0
  0
POINT
  5
2E2
330
2D8
100
AcDbEntity
  8
DEFPOINTS
 62
     0
100
AcDbPoint
 10
2.189947595294558
 20
1.878019233034015
 30
0.0
  0
ENDBLK
  5
2E4
330
2D8
100
AcDbEntity
  8
0
 62
     3
100
AcDbBlockEnd
  0
ENDSEC
  0
SECTION
  2
ENTITIES
  0
CIRCLE
  5
5E
330
18
100
AcDbEntity
  8
ADP1DETAIL
100
AcDbCircle
 10
0.9752905339818545
 20
0.9396673124253165
 30
0.0
 40
0.1854814085854919
  0
LWPOLYLINE
  5
5F
330
18
100
AcDbEntity
  8
ADP1DETAIL
100
AcDbPolyline
 90
        7
 70
     0
 43
0.0
 10
1.261826853186924
 20
0.4147353307037608
 42
-0.3169197069465887
 10
1.115764624732423
 20
0.5690787139001752
 42
-0.0929401986998913
 10
1.113774828342962
 20
0.763496729715036
 10
1.15880968177349
 20
0.7216387030917362
 10
1.16559629740249
 20
0.6620041411797788
 10
1.217850728476562
 20
0.6746627508402196
 42
-0.2185463135071214
 10
1.316648149787606
 20
0.6322112090080344
 42
-0.8983545016760617
  0
LWPOLYLINE
  5
68
330
18
100
AcDbEntity
  8
ADP1DETAIL
100
AcDbPolyline
 90
        7
 70
     0
 43
0.0
 10
1.203686164938483
 20
1.490907214047413
 42
0.3169197069465887
 10
1.076012840052093
 20
1.321037921265979
 42
0.0929401986998913
 10
1.096019336569546
 20
1.127641788263905
 10
1.136032329604459
 20
1.174323613471303
 10
1.136032329604459
 20
1.234343103023671
 10
1.189382986984341
 20
1.227674270851185
 42
0.2185463135071214
 10
1.282746637399136
 20
1.281024928231068
 42
0.8983545016760617
  0
LWPOLYLINE
  5
71
330
18
100
AcDbEntity
  8
ADP1DETAIL
100
AcDbPolyline
 90
        4
 70
     0
 43
0.0
 10
1.018851679096444
 20
0.7593737197295032
 42
0.2669890927167424
 10
1.103748227849336
 20
0.3797786237135345
 42
0.1314468548493985
 10
1.263094832669895
 20
0.2770990047605102
 42
0.1925824035672564
 10
1.423090880512275
 20
0.3456461831010289
 42
-0.1717067468188789
  0
LWPOLYLINE
  5
77
330
18
100
AcDbEntity
  8
ADP1DETAIL
100
AcDbPolyline
 90
        4
 70
     0
 43
0.0
 10
1.000160961551895
 20
1.123473772494982
 42
-0.2651409737405816
 10
1.042668679189666
 20
1.507765222095566
 42
-0.1314468548493985
 10
1.189382986984341
 20
1.627804201200301
 42
-0.1925824035672564
 10
1.356103791296474
 20
1.577787959906662
 42
0.1717067468188789
  0
CIRCLE
  5
7D
330
18
100
AcDbEntity
  8
ADP1DETAIL
100
AcDbCircle
 10
0.9752905339818545
 20
0.9396673124253165
 30
0.0
 40
0.7457428780326333
  0
CIRCLE
  5
7E
330
18
100
AcDbEntity
  8
ADP1DETAIL
100
AcDbCircle
 10
0.9752905339818545
 20
0.9396673124253165
 30
0.0
 40
0.828057999901436
  0
CIRCLE
  5
7F
330
18
100
AcDbEntity
  8
ADP1DETAIL
100
AcDbCircle
 10
0.9752905339818545
 20
0.9396673124253165
 30
0.0
 40
0.9333451605326118
  0
ARC
  5
80
330
18
100
AcDbEntity
  8
ADP1DETAIL
100
AcDbCircle
 10
0.1406981378684458
 20
1.208844434909815
 30
0.0
 40
0.053465526701765
100
AcDbArc
 50
343.658048753134
 51
160.3911544890359
  0
ARC
  5
81
330
18
100
AcDbEntity
  8
ADP1DETAIL
100
AcDbCircle
 10
0.4100961888810851
 20
1.261079258450748
 30
0.0
 40
0.0940572238681232
100
AcDbArc
 50
278.5319681702468
 51
143.0525206385272
  0
LWPOLYLINE
  5
82
330
18
100
AcDbEntity
  8
ADP1DETAIL
100
AcDbPolyline
 90
        7
 70
     0
 43
0.0
 10
0.6887542147767847
 20
1.464599294146872
 42
-0.3169197069465887
 10
0.8348164432312856
 20
1.310255910950458
 42
-0.0929401986998913
 10
0.8368062396207465
 20
1.115837895135597
 10
0.7917713861902192
 20
1.157695921758897
 10
0.784984770561219
 20
1.217330483670854
 10
0.7327303394871468
 20
1.204671874010413
 42
-0.2185463135071214
 10
0.6339329181761022
 20
1.247123415842598
 42
-0.8983545016760617
  0
LWPOLYLINE
  5
8B
330
18
100
AcDbEntity
  8
ADP1DETAIL
100
AcDbPolyline
 90
        7
 70
     0
 43
0.0
 10
0.4240506323597585
 20
1.168062943381945
 42
0.3169197069465887
 10
0.5939199251411913
 20
1.040389618495555
 42
0.0929401986998913
 10
0.7873160581432657
 20
1.060396115013009
 10
0.7406342329358684
 20
1.100409108047921
 10
0.6806147433835
 20
1.100409108047921
 10
0.6872835755559863
 20
1.153759765427803
 42
0.2185463135071214
 10
0.6339329181761022
 20
1.247123415842598
 42
0.8983545016760617
  0
LWPOLYLINE
  5
94
330
18
100
AcDbEntity
  8
ADP1DETAIL
100
AcDbPolyline
 90
        4
 70
     0
 43
0.0
 10
0.9317293888672647
 20
1.11996090512113
 42
0.2669890927167424
 10
0.8468328401143729
 20
1.499556001137098
 42
0.1314468548493985
 10
0.6874862352938136
 20
1.602235620090123
 42
0.1925824035672564
 10
0.5274901874514342
 20
1.533688441749604
 42
-0.1717067468188789
  0
LWPOLYLINE
  5
9A
330
18
100
AcDbEntity
  8
ADP1DETAIL
100
AcDbPolyline
 90
        4
 70
     0
 43
0.0
 10
0.7914840739121891
 20
0.9645377399953572
 42
-0.2651409737405814
 10
0.407192624311605
 20
1.007045457633128
 42
-0.1314468548493985
 10
0.2871536452068701
 20
1.153759765427803
 42
-0.1925824035672564
 10
0.3371698865005088
 20
1.320480569739936
 42
0.1717067468188789
  0
ARC
  5
A0
330
18
100
AcDbEntity
  8
ADP1DETAIL
100
AcDbCircle
 10
0.3534176591419411
 20
0.3203029984616238
 30
0.0
 40
0.053465526701765
100
AcDbArc
 50
46.58620086665514
 51
222.9614377085247
  0
ARC
  5
A1
330
18
100
AcDbEntity
  8
ADP1DETAIL
100
AcDbCircle
 10
0.4470112871056588
 20
0.5591333486871907
 30
0.0
 40
0.0940572238681232
100
AcDbArc
 50
223.440001085734
 51
87.96055355401437
  0
LWPOLYLINE
  5
A2
330
18
100
AcDbEntity
  8
ADP1DETAIL
100
AcDbPolyline
 90
        4
 70
     0
 43
0.0
 10
0.7949969412860412
 20
0.8961061673107268
 42
0.2669890927167425
 10
0.4154018452700724
 20
0.811209618557835
 42
0.1314468548493985
 10
0.3127222263170482
 20
0.6518630137372758
 42
0.1925824035672564
 10
0.3812694046575666
 20
0.4918669658948963
 42
-0.1717067468188789
  0
ARC
  5
A8
330
18
100
AcDbEntity
  8
ADP1DETAIL
100
AcDbCircle
 10
0.216003748818221
 20
0.4988965117708936
 30
0.0
 40
0.053465526701765
100
AcDbArc
 50
209.0946386739708
 51
31.05675250308865
  0
CIRCLE
  5
A9
330
18
100
AcDbEntity
  8
ADP1DETAIL
100
AcDbCircle
 10
0.275549790231243
 20
0.4073101027203198
 30
0.0
 40
0.053465526701765
  0
ARC
  5
AA
330
18
100
AcDbEntity
  8
ADP1DETAIL
100
AcDbCircle
 10
0.6538785879564224
 20
0.3744729673245472
 30
0.0
 40
0.0940572238681232
100
AcDbArc
 50
8.531968170246758
 51
233.0525206385272
  0
LWPOLYLINE
  5
AB
330
18
100
AcDbEntity
  8
ADP1DETAIL
100
AcDbPolyline
 90
        7
 70
     0
 43
0.0
 10
0.7468949030252253
 20
0.3884274108032204
 42
0.3169197069465887
 10
0.8745682279116158
 20
0.5582967035846533
 42
0.0929401986998913
 10
0.8545617313941619
 20
0.751692836586728
 10
0.8145487383592492
 20
0.7050110113793304
 10
0.8145487383592492
 20
0.644991521826962
 10
0.7611980809793671
 20
0.6516603539994483
 42
0.2185463135071214
 10
0.6678344305645723
 20
0.5983096966195646
 42
0.8983545016760617
  0
LWPOLYLINE
  5
B4
330
18
100
AcDbEntity
  8
ADP1DETAIL
100
AcDbPolyline
 90
        4
 70
     0
 43
0.0
 10
0.9504201064118138
 20
0.7558608523556512
 42
-0.2651409737405814
 10
0.9079123887740422
 20
0.3715694027550672
 42
-0.1314468548493985
 10
0.7611980809793671
 20
0.251530423650332
 42
-0.1925824035672564
 10
0.5944772766672344
 20
0.3015466649439709
 42
0.1717067468188789
  0
ARC
  5
BA
330
18
100
AcDbEntity
  8
ADP1DETAIL
100
AcDbCircle
 10
0.5045729950365353
 20
0.1966613253624815
 30
0.0
 40
0.053465526701765
100
AcDbArc
 50
235.8904135986335
 51
59.19751220445665
  0
ARC
  5
BB
330
18
100
AcDbEntity
  8
ADP1DETAIL
100
AcDbCircle
 10
0.706113411497356
 20
0.1050749163119076
 30
0.0
 40
0.053465526701765
100
AcDbArc
 50
73.65804875313407
 51
250.3911544890359
  0
CIRCLE
  5
BC
330
18
100
AcDbEntity
  8
ADP1DETAIL
100
AcDbCircle
 10
0.6015869583076479
 20
0.1442812240571096
 30
0.0
 40
0.053465526701765
  0
LWPOLYLINE
  5
BD
330
18
100
AcDbEntity
  8
ADP1DETAIL
100
AcDbPolyline
 90
        7
 70
     0
 43
0.0
 10
0.4503585522602985
 20
0.6531309932202467
 42
-0.3169197069465887
 10
0.604701935456713
 20
0.7991932216747478
 42
-0.0929401986998913
 10
0.7991199512715739
 20
0.8011830180642085
 10
0.757261924648274
 20
0.7561481646336813
 10
0.6976273627363165
 20
0.7493615490046811
 10
0.7102859723967575
 20
0.6971071179306091
 42
-0.2185463135071214
 10
0.6678344305645723
 20
0.5983096966195646
 42
-0.8983545016760617
  0
CIRCLE
  5
C6
330
18
100
AcDbEntity
  8
ADP1DETAIL
100
AcDbCircle
 10
0.9752905339818545
 20
0.9396673124253165
 30
0.0
 40
0.0940617424766213
  0
ARC
  5
C7
330
18
100
AcDbEntity
  8
ADP1DETAIL
100
AcDbCircle
 10
0.3559262200181619
 20
1.561540187265229
 30
0.0
 40
0.053465526701765
100
AcDbArc
 50
316.5862008666551
 51
132.9614377085247
  0
ARC
  5
C8
330
18
100
AcDbEntity
  8
ADP1DETAIL
100
AcDbCircle
 10
0.2322845469190196
 20
1.410384851370635
 30
0.0
 40
0.053465526701765
100
AcDbArc
 50
145.8904135986335
 51
329.1975122044566
  0
CIRCLE
  5
C9
330
18
100
AcDbEntity
  8
ADP1DETAIL
100
AcDbCircle
 10
0.1799044456136479
 20
1.313370888099523
 30
0.0
 40
0.053465526701765
  0
ARC
  5
CA
330
18
100
AcDbEntity
  8
ADP1DETAIL
100
AcDbCircle
 10
0.5345197333274314
 20
1.69895409758895
 30
0.0
 40
0.053465526701765
100
AcDbArc
 50
119.0946386739708
 51
301.0567525030886
  0
ARC
  5
CB
330
18
100
AcDbEntity
  8
ADP1DETAIL
100
AcDbCircle
 10
0.5947565702437286
 20
1.467946559301512
 30
0.0
 40
0.0940572238681232
100
AcDbArc
 50
133.4400010857339
 51
357.9605535540144
  0
CIRCLE
  5
CC
330
18
100
AcDbEntity
  8
ADP1DETAIL
100
AcDbCircle
 10
0.4429333242768576
 20
1.639408056175928
 30
0.0
 40
0.053465526701765
  0
LWPOLYLINE
  5
CD
330
18
100
AcDbEntity
  8
ADP1DETAIL
100
AcDbPolyline
 90
        7
 70
     0
 43
0.0
 10
1.50022251570341
 20
1.226203631630386
 42
-0.3169197069465887
 10
1.345879132506995
 20
1.080141403175885
 42
-0.0929401986998913
 10
1.151461116692134
 20
1.078151606786424
 10
1.193319143315434
 20
1.123186460216952
 10
1.252953705227392
 20
1.129973075845952
 10
1.240295095566951
 20
1.182227506920024
 42
-0.2185463135071214
 10
1.282746637399136
 20
1.281024928231068
 42
-0.8983545016760617
  0
LWPOLYLINE
  5
D6
330
18
100
AcDbEntity
  8
ADP1DETAIL
100
AcDbPolyline
 90
        4
 70
     0
 43
0.0
 10
1.155584126677667
 20
0.9832284575399064
 42
0.2669890927167425
 10
1.535179222693636
 20
1.068125006292798
 42
0.1314468548493985
 10
1.637858841646661
 20
1.227471611113357
 42
0.1925824035672564
 10
1.569311663306142
 20
1.387467658955737
 42
-0.1717067468188789
  0
ARC
  5
DC
330
18
100
AcDbEntity
  8
ADP1DETAIL
100
AcDbCircle
 10
1.35582449771998
 20
0.4113880655491211
 30
0.0
 40
0.0940572238681232
100
AcDbArc
 50
313.440001085734
 51
177.9605535540144
  0
ARC
  5
DD
330
18
100
AcDbEntity
  8
ADP1DETAIL
100
AcDbCircle
 10
1.718296521044689
 20
0.4689497734799974
 30
0.0
 40
0.053465526701765
100
AcDbArc
 50
325.8904135986335
 51
149.1975122044566
  0
CIRCLE
  5
DE
330
18
100
AcDbEntity
  8
ADP1DETAIL
100
AcDbCircle
 10
1.507647743686851
 20
0.239926568674705
 30
0.0
 40
0.053465526701765
  0
ARC
  5
DF
330
18
100
AcDbEntity
  8
ADP1DETAIL
100
AcDbCircle
 10
1.416061334636277
 20
0.1803805272616832
 30
0.0
 40
0.053465526701765
100
AcDbArc
 50
299.0946386739708
 51
121.0567525030886
  0
ARC
  5
E0
330
18
100
AcDbEntity
  8
ADP1DETAIL
100
AcDbCircle
 10
1.594654847945547
 20
0.3177944375854032
 30
0.0
 40
0.053465526701765
100
AcDbArc
 50
136.5862008666551
 51
312.9614377085247
  0
LWPOLYLINE
  5
E1
330
18
100
AcDbEntity
  8
ADP1DETAIL
100
AcDbPolyline
 90
        7
 70
     0
 43
0.0
 10
1.52653043560395
 20
0.7112716814686874
 42
0.3169197069465887
 10
1.356661142822517
 20
0.838945006355078
 42
0.0929401986998913
 10
1.163265009820443
 20
0.8189385098376241
 10
1.20994683502784
 20
0.7789255168027115
 10
1.269966324580209
 20
0.7789255168027115
 10
1.263297492407722
 20
0.7255748594228294
 42
0.2185463135071214
 10
1.316648149787606
 20
0.6322112090080344
 42
0.8983545016760617
  0
ARC
  5
EA
330
18
100
AcDbEntity
  8
ADP1DETAIL
100
AcDbCircle
 10
1.540484879082623
 20
0.6182553663998847
 30
0.0
 40
0.0940572238681232
100
AcDbArc
 50
98.53196817024677
 51
323.0525206385272
  0
LWPOLYLINE
  5
EB
330
18
100
AcDbEntity
  8
ADP1DETAIL
100
AcDbPolyline
 90
        4
 70
     0
 43
0.0
 10
1.159096994051519
 20
0.9147968848552759
 42
-0.2651409737405815
 10
1.543388443652104
 20
0.8722891672175045
 42
-0.1314468548493985
 10
1.663427422756839
 20
0.7255748594228294
 42
-0.1925824035672564
 10
1.6134111814632
 20
0.5588540551106969
 42
0.1717067468188789
  0
CIRCLE
  5
F1
330
18
100
AcDbEntity
  8
ADP1DETAIL
100
AcDbCircle
 10
1.770676622350061
 20
0.5659637367511098
 30
0.0
 40
0.053465526701765
  0
ARC
  5
F2
330
18
100
AcDbEntity
  8
ADP1DETAIL
100
AcDbCircle
 10
1.809882930095263
 20
0.6704901899408179
 30
0.0
 40
0.053465526701765
100
AcDbArc
 50
163.658048753134
 51
340.3911544890359
  0
ARC
  5
F3
330
18
100
AcDbEntity
  8
ADP1DETAIL
100
AcDbCircle
 10
1.50356978085805
 20
1.320201276163442
 30
0.0
 40
0.0940572238681232
100
AcDbArc
 50
43.44000108573399
 51
267.9605535540144
  0
CIRCLE
  5
F4
330
18
100
AcDbEntity
  8
ADP1DETAIL
100
AcDbCircle
 10
1.348994109656061
 20
1.735053400793523
 30
0.0
 40
0.053465526701765
  0
ARC
  5
F5
330
18
100
AcDbEntity
  8
ADP1DETAIL
100
AcDbCircle
 10
1.244467656466353
 20
1.774259708538725
 30
0.0
 40
0.053465526701765
100
AcDbArc
 50
253.658048753134
 51
70.39115448903591
  0
ARC
  5
F6
330
18
100
AcDbEntity
  8
ADP1DETAIL
100
AcDbCircle
 10
1.446008072927173
 20
1.682673299488151
 30
0.0
 40
0.053465526701765
100
AcDbArc
 50
55.8904135986335
 51
239.1975122044566
  0
ARC
  5
F7
330
18
100
AcDbEntity
  8
ADP1DETAIL
100
AcDbCircle
 10
1.296702480007286
 20
1.504861657526086
 30
0.0
 40
0.0940572238681232
100
AcDbArc
 50
188.5319681702467
 51
53.05252063852716
  0
CIRCLE
  5
F8
330
18
100
AcDbEntity
  8
ADP1DETAIL
100
AcDbCircle
 10
1.675031277732465
 20
1.472024522130313
 30
0.0
 40
0.053465526701765
  0
ARC
  5
F9
330
18
100
AcDbEntity
  8
ADP1DETAIL
100
AcDbCircle
 10
1.597163408821767
 20
1.559031626389009
 30
0.0
 40
0.053465526701765
100
AcDbArc
 50
226.5862008666551
 51
42.96143770852472
  0
ARC
  5
FA
330
18
100
AcDbEntity
  8
ADP1DETAIL
100
AcDbCircle
 10
1.734577319145487
 20
1.380438113079739
 30
0.0
 40
0.053465526701765
100
AcDbArc
 50
29.09463867397082
 51
211.0567525030886
  0
TEXT
  5
121
330
18
100
AcDbEntity
  8
ADPDIM
100
AcDbText
 10
-2.283429649315626
 20
-0.377063552790817
 30
0.0
 40
0.0625
  1
J U L I U S  B L U M  &  C O . ,  I N C .      ( 8 0 0 )  5 2 6 - 6 2 9 3        W W W . J U L I U S B L U M . C O M        P A R T  N o .  6 2 0 1
 41
1.25
  7
ARIAL_WIDE
 72
     1
 11
0.9794348629626819
 21
-0.314563552790817
 31
0.0
100
AcDbText
 73
     3
  0
DIMENSION
  5
2D7
330
18
100
AcDbEntity
  8
ADPDIM
 62
     3
100
AcDbDimension
  2
*D2
 10
2.189947595294558
 20
1.878019233034015
 30
0.0
 11
2.189947595294558
 21
0.9405192330340154
 31
0.0
 70
    32
 71
     5
 42
1.875
  3
STANDARD
100
AcDbAlignedDimension
 13
0.941315278090034
 23
0.0030192330340153
 33
0.0
 14
0.941315278090034
 24
1.878019233034015
 34
0.0
 50
90.0
100
AcDbRotatedDimension
1001
ACAD
1000
DSTYLE
1002
{
1070
    41
1040
0.125
1070
    73
1070
     0
1070
    74
1070
     0
1070
    78
1070
     2
1070
   140
1040
0.125
1070
   141
1040
0.1875
1070
   142
1040
0.125
1070
   147
1040
0.125
1070
   171
1070
     1
1070
   276
1070
     2
1070
   277
1070
     5
1002
}
  0
ENDSEC
  0
SECTION
  2
OBJECTS
  0
DICTIONARY
  5
C
330
0
100
AcDbDictionary
281
     1
  3
ACAD_COLOR
350
2C3
  3
ACAD_GROUP
350
D
  3
ACAD_LAYOUT
350
11A
  3
ACAD_MATERIAL
350
2AE
  3
ACAD_MLINESTYLE
350
E
  3
ACAD_PLOTSETTINGS
350
11B
  3
ACAD_PLOTSTYLENAME
350
118
  3
ACAD_TABLESTYLE
350
2C4
  3
ACAD_VISUALSTYLE
350
2B2
  3
AcDbVariableDictionary
350
191
  3
DWGPROPS
350
302
  0
DICTIONARY
  5
181
330
18
100
AcDbDictionary
280
     1
281
     1
  3
ACAD_LAYOUTSELFREF
360
29E
  0
DICTIONARY
  5
17F
330
15
100
AcDbDictionary
280
     1
281
     1
  3
ACAD_LAYOUTSELFREF
360
29D
  0
DICTIONARY
  5
2C3
102
{ACAD_REACTORS
330
C
102
}
330
C
100
AcDbDictionary
281
     1
  0
DICTIONARY
  5
D
102
{ACAD_REACTORS
330
C
102
}
330
C
100
AcDbDictionary
281
     1
  0
DICTIONARY
  5
11A
102
{ACAD_REACTORS
330
C
102
}
330
C
100
AcDbDictionary
281
     1
  3
Layout1
350
11D
  3
Model
350
11C
  0
DICTIONARY
  5
2AE
102
{ACAD_REACTORS
330
C
102
}
330
C
100
AcDbDictionary
281
     1
  3
ByBlock
350
2B0
  3
ByLayer
350
2AF
  3
Global
350
2B1
  0
DICTIONARY
  5
E
102
{ACAD_REACTORS
330
C
102
}
330
C
100
AcDbDictionary
281
     1
  3
STANDARD
350
1B
  0
DICTIONARY
  5
11B
102
{ACAD_REACTORS
330
C
102
}
330
C
100
AcDbDictionary
281
     1
  0
ACDBDICTIONARYWDFLT
  5
118
102
{ACAD_REACTORS
330
C
102
}
330
C
100
AcDbDictionary
281
     1
  3
Normal
350
119
100
AcDbDictionaryWithDefault
340
119
  0
DICTIONARY
  5
2C4
102
{ACAD_REACTORS
330
C
102
}
330
C
100
AcDbDictionary
281
     1
  3
Standard
350
2C5
  0
DICTIONARY
  5
2B2
102
{ACAD_REACTORS
330
C
102
}
330
C
100
AcDbDictionary
281
     1
  3
2dWireframe
350
2B8
  3
3D Hidden
350
2BA
  3
3dWireframe
350
2B9
  3
Basic
350
2B7
  3
Brighten
350
2BE
  3
ColorChange
350
2C2
  3
Conceptual
350
2BB
  3
Dim
350
2BD
  3
Facepattern
350
2C1
  3
Flat
350
2B3
  3
FlatWithEdges
350
2B4
  3
Gouraud
350
2B5
  3
GouraudWithEdges
350
2B6
  3
Linepattern
350
2C0
  3
Realistic
350
2BC
  3
Thicken
350
2BF
  0
DICTIONARY
  5
191
102
{ACAD_REACTORS
330
C
102
}
330
C
100
AcDbDictionary
281
     1
  3
CTABLESTYLE
350
2FF
  3
DIMASSOC
350
192
  3
INDEXCTL
350
301
  3
SORTENTS
350
300
  0
XRECORD
  5
302
102
{ACAD_REACTORS
330
C
102
}
330
C
100
AcDbXrecord
280
     1
  1
DWGPROPS COOKIE
  2

  3

  4

  6

  7

  8
Yu Hu
  9

300
=
301
=
302
=
303
=
304
=
305
=
306
=
307
=
308
=
309
=
 40
0.0053343055555556
 41
2450414.621742477
 42
2453976.941336412
  1

 90
        0
  0
XRECORD
  5
29E
102
{ACAD_REACTORS
330
181
102
}
330
181
100
AcDbXrecord
280
     1
340
18
  0
XRECORD
  5
29D
102
{ACAD_REACTORS
330
17F
102
}
330
17F
100
AcDbXrecord
280
     1
340
15
  0
LAYOUT
  5
11D
102
{ACAD_XDICTIONARY
360
305
102
}
102
{ACAD_REACTORS
330
11A
102
}
330
11A
100
AcDbPlotSettings
  1

  2
Fax
  4

  6

 40
0.0
 41
0.0
 42
0.0
 43
0.0
 44
0.0
 45
0.0
 46
0.0
 47
0.0
 48
0.0
 49
0.0
140
0.0
141
0.0
142
1.0
143
1.0
 70
   688
 72
     0
 73
     0
 74
     5
  7
Default R14 pen assignments.ctb
 75
    16
147
1.0
148
0.0
149
0.0
100
AcDbLayout
  1
Layout1
 70
     1
 71
     1
 10
0.0
 20
0.0
 11
12.0
 21
9.0
 12
0.0781263709068299
 22
112.0181290174387
 32
0.0
 14
1.000000000000000E+20
 24
1.000000000000000E+20
 34
1.000000000000000E+20
 15
-1.000000000000000E+20
 25
-1.000000000000000E+20
 35
-1.000000000000000E+20
146
0.0
 13
0.0
 23
0.0
 33
0.0
 16
1.0
 26
0.0
 36
0.0
 17
0.0
 27
1.0
 37
0.0
 76
     0
330
15
  0
LAYOUT
  5
11C
102
{ACAD_XDICTIONARY
360
303
102
}
102
{ACAD_REACTORS
330
11A
102
}
330
11A
100
AcDbPlotSettings
  1

  2
Fax
  4

  6

 40
0.0
 41
0.0
 42
0.0
 43
0.0
 44
0.0
 45
0.0
 46
0.0
 47
0.0
 48
0.0
 49
0.0
140
0.0
141
0.0
142
1.0
143
1.0
 70
  1712
 72
     0
 73
     0
 74
     0
  7
Default R14 pen assignments.ctb
 75
     0
147
1.0
148
0.0
149
0.0
100
AcDbLayout
  1
Model
 70
     1
 71
     0
 10
0.0
 20
0.0
 11
12.0
 21
9.0
 12
0.0
 22
0.0
 32
0.0
 14
0.0
 24
0.0
 34
0.0
 15
0.0
 25
0.0
 35
0.0
146
0.0
 13
0.0
 23
0.0
 33
0.0
 16
1.0
 26
0.0
 36
0.0
 17
0.0
 27
1.0
 37
0.0
 76
     0
330
18
331
277
  0
MATERIAL
  5
2B0
102
{ACAD_XDICTIONARY
360
309
102
}
102
{ACAD_REACTORS
330
2AE
102
}
330
2AE
100
AcDbMaterial
  1
ByBlock
  0
MATERIAL
  5
2AF
102
{ACAD_XDICTIONARY
360
307
102
}
102
{ACAD_REACTORS
330
2AE
102
}
330
2AE
100
AcDbMaterial
  1
ByLayer
  0
MATERIAL
  5
2B1
102
{ACAD_XDICTIONARY
360
30B
102
}
102
{ACAD_REACTORS
330
2AE
102
}
330
2AE
100
AcDbMaterial
  1
Global
  0
MLINESTYLE
  5
1B
102
{ACAD_REACTORS
330
E
102
}
330
E
100
AcDbMlineStyle
  2
STANDARD
 70
     0
  3

 62
     0
 51
90.0
 52
90.0
 71
     2
 49
0.5
 62
   256
  6
BYLAYER
 49
-0.5
 62
   256
  6
BYLAYER
  0
ACDBPLACEHOLDER
  5
119
102
{ACAD_REACTORS
330
118
102
}
330
118
  0
TABLESTYLE
  5
2C5
102
{ACAD_XDICTIONARY
360
30D
102
}
102
{ACAD_REACTORS
330
2C4
102
}
330
2C4
100
AcDbTableStyle
  3
Standard
 70
     0
 71
     0
 40
0.06
 41
0.06
280
     0
281
     0
  7
STANDARD
140
0.18
170
     2
 62
     0
 63
     7
283
     0
274
    -2
284
     1
 64
     0
275
    -2
285
     1
 65
     0
276
    -2
286
     1
 66
     0
277
    -2
287
     1
 67
     0
278
    -2
288
     1
 68
     0
279
    -2
289
     1
 69
     0
  7
STANDARD
140
0.25
170
     5
 62
     0
 63
     7
283
     0
274
    -2
284
     1
 64
     0
275
    -2
285
     1
 65
     0
276
    -2
286
     1
 66
     0
277
    -2
287
     1
 67
     0
278
    -2
288
     1
 68
     0
279
    -2
289
     1
 69
     0
  7
STANDARD
140
0.18
170
     5
 62
     0
 63
     7
283
     0
274
    -2
284
     1
 64
     0
275
    -2
285
     1
 65
     0
276
    -2
286
     1
 66
     0
277
    -2
287
     1
 67
     0
278
    -2
288
     1
 68
     0
279
    -2
289
     1
 69
     0
  0
VISUALSTYLE
  5
2B8
102
{ACAD_REACTORS
330
2B2
102
}
330
2B2
100
AcDbVisualStyle
  2
2dWireframe
 70
     4
 71
     0
 72
     2
 73
     0
 90
        0
 40
-0.6
 41
-30.0
 62
     5
 63
     7
 74
     1
 91
        4
 64
     7
 65
   257
 75
     1
175
     1
 42
1.0
 92
        0
 66
   257
 43
1.0
 76
     1
 77
     6
 78
     2
 67
     7
 79
     5
170
     0
171
     0
290
     0
174
     0
 93
        1
 44
0.0
173
     0
291
     0
 45
0.0
1001
ACAD
1000
AcDbSavedByObjectVersion
1070
     0
  0
VISUALSTYLE
  5
2BA
102
{ACAD_REACTORS
330
2B2
102
}
330
2B2
100
AcDbVisualStyle
  2
3D Hidden
 70
     6
 71
     1
 72
     2
 73
     2
 90
        0
 40
-0.6
 41
-30.0
 62
     5
 63
     7
 74
     2
 91
        2
 64
     7
 65
   257
 75
     2
175
     1
 42
40.0
 92
        0
 66
   257
 43
1.0
 76
     1
 77
     6
 78
     2
 67
     7
 79
     3
170
     0
171
     0
290
     0
174
     0
 93
        1
 44
0.0
173
     0
291
     0
 45
0.0
1001
ACAD
1000
AcDbSavedByObjectVersion
1070
     0
  0
VISUALSTYLE
  5
2B9
102
{ACAD_REACTORS
330
2B2
102
}
330
2B2
100
AcDbVisualStyle
  2
3dWireframe
 70
     5
 71
     0
 72
     2
 73
     0
 90
        0
 40
-0.6
 41
-30.0
 62
     5
 63
     7
 74
     1
 91
        4
 64
     7
 65
   257
 75
     1
175
     1
 42
1.0
 92
        0
 66
   257
 43
1.0
 76
     1
 77
     6
 78
     2
 67
     7
 79
     5
170
     0
171
     0
290
     0
174
     0
 93
        1
 44
0.0
173
     0
291
     0
 45
0.0
1001
ACAD
1000
AcDbSavedByObjectVersion
1070
     0
  0
VISUALSTYLE
  5
2B7
102
{ACAD_REACTORS
330
2B2
102
}
330
2B2
100
AcDbVisualStyle
  2
Basic
 70
     7
 71
     1
 72
     0
 73
     1
 90
        0
 40
-0.6
 41
-30.0
 62
     5
 63
     7
 74
     0
 91
        4
 64
     7
 65
   257
 75
     1
175
     1
 42
1.0
 92
        8
 66
     7
 43
1.0
 76
     1
 77
     6
 78
     2
 67
     7
 79
     5
170
     0
171
     0
290
     0
174
     0
 93
        1
 44
0.0
173
     0
291
     1
 45
0.0
1001
ACAD
1000
AcDbSavedByObjectVersion
1070
     0
  0
VISUALSTYLE
  5
2BE
102
{ACAD_REACTORS
330
2B2
102
}
330
2B2
100
AcDbVisualStyle
  2
Brighten
 70
    12
 71
     2
 72
     2
 73
     0
 90
        0
 40
-0.6
 41
-30.0
 62
     5
 63
     7
 74
     1
 91
        4
 64
     7
 65
   257
 75
     1
175
     1
 42
1.0
 92
        8
 66
     7
 43
1.0
 76
     1
 77
     6
 78
     2
 67
     7
 79
     5
170
     0
171
     0
290
     0
174
     0
 93
        1
 44
50.0
173
     0
291
     1
 45
0.0
1001
ACAD
1000
AcDbSavedByObjectVersion
1070
     0
  0
VISUALSTYLE
  5
2C2
102
{ACAD_REACTORS
330
2B2
102
}
330
2B2
100
AcDbVisualStyle
  2
ColorChange
 70
    16
 71
     2
 72
     2
 73
     3
 90
        0
 40
-0.6
 41
-30.0
 62
     5
 63
     8
 74
     1
 91
        4
 64
     7
 65
   257
 75
     1
175
     1
 42
1.0
 92
        8
 66
     8
 43
1.0
 76
     1
 77
     6
 78
     2
 67
     7
 79
     5
170
     0
171
     0
290
     0
174
     0
 93
        1
 44
0.0
173
     0
291
     1
 45
0.0
1001
ACAD
1000
AcDbSavedByObjectVersion
1070
     0
  0
VISUALSTYLE
  5
2BB
102
{ACAD_REACTORS
330
2B2
102
}
330
2B2
100
AcDbVisualStyle
  2
Conceptual
 70
     9
 71
     3
 72
     2
 73
     0
 90
        0
 40
-0.6
 41
-30.0
 62
     5
 63
     7
 74
     2
 91
        2
 64
     7
 65
   257
 75
     1
175
     1
 42
40.0
 92
        8
 66
     7
 43
1.0
 76
     1
 77
     6
 78
     2
 67
     7
 79
     3
170
     0
171
     0
290
     0
174
     0
 93
        1
 44
0.0
173
     0
291
     0
 45
0.0
1001
ACAD
1000
AcDbSavedByObjectVersion
1070
     0
  0
VISUALSTYLE
  5
2BD
102
{ACAD_REACTORS
330
2B2
102
}
330
2B2
100
AcDbVisualStyle
  2
Dim
 70
    11
 71
     2
 72
     2
 73
     0
 90
        0
 40
-0.6
 41
-30.0
 62
     5
 63
     7
 74
     1
 91
        4
 64
     7
 65
   257
 75
     1
175
     1
 42
1.0
 92
        8
 66
     7
 43
1.0
 76
     1
 77
     6
 78
     2
 67
     7
 79
     5
170
     0
171
     0
290
     0
174
     0
 93
        1
 44
-50.0
173
     0
291
     1
 45
0.0
1001
ACAD
1000
AcDbSavedByObjectVersion
1070
     0
  0
VISUALSTYLE
  5
2C1
102
{ACAD_REACTORS
330
2B2
102
}
330
2B2
100
AcDbVisualStyle
  2
Facepattern
 70
    15
 71
     2
 72
     2
 73
     0
 90
        0
 40
-0.6
 41
-30.0
 62
     5
 63
     7
 74
     1
 91
        4
 64
     7
 65
   257
 75
     1
175
     1
 42
1.0
 92
        8
 66
     7
 43
1.0
 76
     1
 77
     6
 78
     2
 67
     7
 79
     5
170
     0
171
     0
290
     0
174
     0
 93
        1
 44
0.0
173
     0
291
     1
 45
0.0
1001
ACAD
1000
AcDbSavedByObjectVersion
1070
     0
  0
VISUALSTYLE
  5
2B3
102
{ACAD_REACTORS
330
2B2
102
}
330
2B2
100
AcDbVisualStyle
  2
Flat
 70
     0
 71
     2
 72
     1
 73
     1
 90
        2
 40
-0.6
 41
30.0
 62
     5
 63
     7
 74
     0
 91
        4
 64
     7
 65
   257
 75
     1
175
     1
 42
1.0
 92
        8
 66
     7
 43
1.0
 76
     1
 77
     6
 78
     2
 67
     7
 79
     5
170
     0
171
     0
290
     0
174
     0
 93
       13
 44
0.0
173
     0
291
     1
 45
0.0
1001
ACAD
1000
AcDbSavedByObjectVersion
1070
     0
  0
VISUALSTYLE
  5
2B4
102
{ACAD_REACTORS
330
2B2
102
}
330
2B2
100
AcDbVisualStyle
  2
FlatWithEdges
 70
     1
 71
     2
 72
     1
 73
     1
 90
        2
 40
-0.6
 41
30.0
 62
     5
 63
     7
 74
     1
 91
        4
 64
     7
 65
   257
 75
     1
175
     1
 42
1.0
 92
        0
 66
   257
 43
1.0
 76
     1
 77
     6
 78
     2
 67
     7
 79
     5
170
     0
171
     0
290
     0
174
     0
 93
       13
 44
0.0
173
     0
291
     1
 45
0.0
1001
ACAD
1000
AcDbSavedByObjectVersion
1070
     0
  0
VISUALSTYLE
  5
2B5
102
{ACAD_REACTORS
330
2B2
102
}
330
2B2
100
AcDbVisualStyle
  2
Gouraud
 70
     2
 71
     2
 72
     2
 73
     1
 90
        2
 40
-0.6
 41
30.0
 62
     5
 63
     7
 74
     0
 91
        4
 64
     7
 65
   257
 75
     1
175
     1
 42
1.0
 92
        0
 66
     7
 43
1.0
 76
     1
 77
     6
 78
     2
 67
     7
 79
     5
170
     0
171
     0
290
     0
174
     0
 93
       13
 44
0.0
173
     0
291
     1
 45
0.0
1001
ACAD
1000
AcDbSavedByObjectVersion
1070
     0
  0
VISUALSTYLE
  5
2B6
102
{ACAD_REACTORS
330
2B2
102
}
330
2B2
100
AcDbVisualStyle
  2
GouraudWithEdges
 70
     3
 71
     2
 72
     2
 73
     1
 90
        2
 40
-0.6
 41
30.0
 62
     5
 63
     7
 74
     1
 91
        4
 64
     7
 65
   257
 75
     1
175
     1
 42
1.0
 92
        0
 66
   257
 43
1.0
 76
     1
 77
     6
 78
     2
 67
     7
 79
     5
170
     0
171
     0
290
     0
174
     0
 93
       13
 44
0.0
173
     0
291
     1
 45
0.0
1001
ACAD
1000
AcDbSavedByObjectVersion
1070
     0
  0
VISUALSTYLE
  5
2C0
102
{ACAD_REACTORS
330
2B2
102
}
330
2B2
100
AcDbVisualStyle
  2
Linepattern
 70
    14
 71
     2
 72
     2
 73
     0
 90
        0
 40
-0.6
 41
-30.0
 62
     5
 63
     7
 74
     1
 91
        4
 64
     7
 65
   257
 75
     7
175
     7
 42
1.0
 92
        8
 66
     7
 43
1.0
 76
     1
 77
     6
 78
     2
 67
     7
 79
     5
170
     0
171
     0
290
     0
174
     0
 93
        1
 44
0.0
173
     0
291
     1
 45
0.0
1001
ACAD
1000
AcDbSavedByObjectVersion
1070
     0
  0
VISUALSTYLE
  5
2BC
102
{ACAD_REACTORS
330
2B2
102
}
330
2B2
100
AcDbVisualStyle
  2
Realistic
 70
     8
 71
     2
 72
     2
 73
     0
 90
        0
 40
-0.6
 41
-30.0
 62
     5
 63
     7
 74
     1
 91
        0
 64
     7
 65
   257
 75
     1
175
     1
 42
1.0
 92
        8
 66
     8
 43
1.0
 76
     1
 77
     6
 78
     2
 67
     7
 79
     5
170
     0
171
     0
290
     0
174
     0
 93
       13
 44
0.0
173
     0
291
     0
 45
0.0
1001
ACAD
1000
AcDbSavedByObjectVersion
1070
     0
  0
VISUALSTYLE
  5
2BF
102
{ACAD_REACTORS
330
2B2
102
}
330
2B2
100
AcDbVisualStyle
  2
Thicken
 70
    13
 71
     2
 72
     2
 73
     0
 90
        0
 40
-0.6
 41
-30.0
 62
     5
 63
     7
 74
     1
 91
        4
 64
     7
 65
   257
 75
     1
175
     1
 42
1.0
 92
       12
 66
     7
 43
1.0
 76
     1
 77
     6
 78
     2
 67
     7
 79
     5
170
     0
171
     0
290
     0
174
     0
 93
        1
 44
0.0
173
     0
291
     1
 45
0.0
1001
ACAD
1000
AcDbSavedByObjectVersion
1070
     0
  0
DICTIONARYVAR
  5
2FF
102
{ACAD_REACTORS
330
191
102
}
330
191
100
DictionaryVariables
280
     0
  1
STANDARD
  0
DICTIONARYVAR
  5
192
102
{ACAD_REACTORS
330
191
102
}
330
191
100
DictionaryVariables
280
     0
  1
1
  0
DICTIONARYVAR
  5
301
102
{ACAD_REACTORS
330
191
102
}
330
191
100
DictionaryVariables
280
     0
  1
0
  0
DICTIONARYVAR
  5
300
102
{ACAD_REACTORS
330
191
102
}
330
191
100
DictionaryVariables
280
     0
  1
127
  0
DICTIONARY
  5
305
330
11D
100
AcDbDictionary
280
     1
281
     1
  3
ACAD_XREC_ROUNDTRIP
360
306
  0
DICTIONARY
  5
303
330
11C
100
AcDbDictionary
280
     1
281
     1
  3
ACAD_XREC_ROUNDTRIP
360
304
  0
DICTIONARY
  5
309
330
2B0
100
AcDbDictionary
280
     1
281
     1
  3
ACAD_XREC_ROUNDTRIP
360
30A
  0
DICTIONARY
  5
307
330
2AF
100
AcDbDictionary
280
     1
281
     1
  3
ACAD_XREC_ROUNDTRIP
360
308
  0
DICTIONARY
  5
30B
330
2B1
100
AcDbDictionary
280
     1
281
     1
  3
ACAD_XREC_ROUNDTRIP
360
30C
  0
DICTIONARY
  5
30D
330
2C5
100
AcDbDictionary
280
     1
281
     1
  3
ACAD_XREC_ROUNDTRIP
360
30E
  0
XRECORD
  5
306
102
{ACAD_REACTORS
330
305
102
}
330
305
100
AcDbXrecord
280
     1
102
SHADEPLOT
 70
     0
102
SHADEPLOTRESLEVEL
 70
     2
102
SHADEPLOTCUSTOMDPI
 70
   300
  0
XRECORD
  5
304
102
{ACAD_REACTORS
330
303
102
}
330
303
100
AcDbXrecord
280
     1
102
SHADEPLOT
 70
     0
102
SHADEPLOTRESLEVEL
 70
     2
102
SHADEPLOTCUSTOMDPI
 70
   300
  0
XRECORD
  5
30A
102
{ACAD_REACTORS
330
309
102
}
330
309
100
AcDbXrecord
280
     1
102
MATERIAL
148
0.0
149
0.0
149
0.0
 93
        0
 94
       63
282
     0
 72
     1
 77
     1
171
     1
175
     1
179
     1
273
     0
  0
XRECORD
  5
308
102
{ACAD_REACTORS
330
307
102
}
330
307
100
AcDbXrecord
280
     1
102
MATERIAL
148
0.0
149
0.0
149
0.0
 93
        0
 94
       63
282
     0
 72
     1
 77
     1
171
     1
175
     1
179
     1
273
     0
  0
XRECORD
  5
30C
102
{ACAD_REACTORS
330
30B
102
}
330
30B
100
AcDbXrecord
280
     1
102
MATERIAL
148
0.0
149
0.0
149
0.0
 93
        0
 94
       63
282
     0
 72
     1
 77
     1
171
     1
175
     1
179
     1
273
     0
  0
XRECORD
  5
30E
102
{ACAD_REACTORS
330
30D
102
}
330
30D
100
AcDbXrecord
280
     1
102
ACAD_ROUNDTRIP_PRE2007_TABLESTYLE
 90
      512
 91
        0
  1

 92
      512
 93
        0
  2

 94
      512
 95
        0
  3

  0
ENDSEC
  0
EOF
