  0
SECTION
  2
HEADER
  9
$ACADVER
  1
AC1014
  9
$ACADMAINTVER
 70
     9
  9
$DWGCODEPAGE
  3
ANSI_1252
  9
$INSBASE
 10
8.91049273451563
 20
2.048023005588332
 30
0.0
  9
$EXTMIN
 10
1.874909080607291
 20
-1.599416554700566
 30
0.0
  9
$EXTMAX
 10
14.74432415564139
 20
4.167422293101662
 30
0.0
  9
$LIMMIN
 10
0.0
 20
0.0
  9
$LIMMAX
 10
36.0
 20
36.0
  9
$ORTHOMODE
 70
     1
  9
$REGENMODE
 70
     1
  9
$FILLMODE
 70
     1
  9
$QTEXTMODE
 70
     0
  9
$MIRRTEXT
 70
     1
  9
$DRAGMODE
 70
     0
  9
$LTSCALE
 40
1.0
  9
$OSMODE
 70
    37
  9
$ATTMODE
 70
     1
  9
$TEXTSIZE
 40
0.2
  9
$TRACEWID
 40
0.05
  9
$TEXTSTYLE
  7
STANDARD
  9
$CLAYER
  8
0
  9
$CELTYPE
  6
BYLAYER
  9
$CECOLOR
 62
   256
  9
$CELTSCALE
 40
1.0
  9
$DELOBJ
 70
     1
  9
$DISPSILH
 70
     0
  9
$DIMSCALE
 40
1.0
  9
$DIMASZ
 40
0.125
  9
$DIMEXO
 40
0.0625
  9
$DIMDLI
 40
0.38
  9
$DIMRND
 40
0.0
  9
$DIMDLE
 40
0.0
  9
$DIMEXE
 40
0.18
  9
$DIMTP
 40
0.0
  9
$DIMTM
 40
0.0
  9
$DIMTXT
 40
0.125
  9
$DIMCEN
 40
0.1875
  9
$DIMTSZ
 40
0.125
  9
$DIMTOL
 70
     0
  9
$DIMLIM
 70
     0
  9
$DIMTIH
 70
     0
  9
$DIMTOH
 70
     0
  9
$DIMSE1
 70
     0
  9
$DIMSE2
 70
     0
  9
$DIMTAD
 70
     0
  9
$DIMZIN
 70
     3
  9
$DIMBLK
  1

  9
$DIMASO
 70
     1
  9
$DIMSHO
 70
     1
  9
$DIMPOST
  1

  9
$DIMAPOST
  1

  9
$DIMALT
 70
     0
  9
$DIMALTD
 70
     1
  9
$DIMALTF
 40
25.4
  9
$DIMLFAC
 40
1.0
  9
$DIMTOFL
 70
     0
  9
$DIMTVP
 40
0.0
  9
$DIMTIX
 70
     0
  9
$DIMSOXD
 70
     0
  9
$DIMSAH
 70
     0
  9
$DIMBLK1
  1

  9
$DIMBLK2
  1

  9
$DIMSTYLE
  2
STANDARD
  9
$DIMCLRD
 70
     0
  9
$DIMCLRE
 70
     0
  9
$DIMCLRT
 70
     0
  9
$DIMTFAC
 40
1.0
  9
$DIMGAP
 40
0.125
  9
$DIMJUST
 70
     0
  9
$DIMSD1
 70
     0
  9
$DIMSD2
 70
     0
  9
$DIMTOLJ
 70
     1
  9
$DIMTZIN
 70
     0
  9
$DIMALTZ
 70
     0
  9
$DIMALTTZ
 70
     0
  9
$DIMFIT
 70
     3
  9
$DIMUPT
 70
     0
  9
$DIMUNIT
 70
     2
  9
$DIMDEC
 70
     4
  9
$DIMTDEC
 70
     4
  9
$DIMALTU
 70
     2
  9
$DIMALTTD
 70
     2
  9
$DIMTXSTY
  7
STANDARD
  9
$DIMAUNIT
 70
     0
  9
$LUNITS
 70
     5
  9
$LUPREC
 70
     4
  9
$SKETCHINC
 40
0.1
  9
$FILLETRAD
 40
0.187
  9
$AUNITS
 70
     0
  9
$AUPREC
 70
     0
  9
$MENU
  1
acad
  9
$ELEVATION
 40
0.0
  9
$PELEVATION
 40
0.0
  9
$THICKNESS
 40
0.0
  9
$LIMCHECK
 70
     0
  9
$BLIPMODE
 70
     0
  9
$CHAMFERA
 40
0.0
  9
$CHAMFERB
 40
0.0
  9
$CHAMFERC
 40
0.0
  9
$CHAMFERD
 40
0.0
  9
$SKPOLY
 70
     0
  9
$TDCREATE
 40
2450387.656046296
  9
$TDUPDATE
 40
2452297.074074074
  9
$TDINDWG
 40
0.0356760995
  9
$TDUSRTIMER
 40
0.0356760995
  9
$USRTIMER
 70
     1
  9
$ANGBASE
 50
0.0
  9
$ANGDIR
 70
     0
  9
$PDMODE
 70
     0
  9
$PDSIZE
 40
0.0
  9
$PLINEWID
 40
0.0
  9
$COORDS
 70
     2
  9
$SPLFRAME
 70
     0
  9
$SPLINETYPE
 70
     6
  9
$SPLINESEGS
 70
     8
  9
$ATTDIA
 70
     0
  9
$ATTREQ
 70
     1
  9
$HANDLING
 70
 22529
  9
$HANDSEED
  5
275
  9
$SURFTAB1
 70
     6
  9
$SURFTAB2
 70
     6
  9
$SURFTYPE
 70
     6
  9
$SURFU
 70
     6
  9
$SURFV
 70
     6
  9
$UCSNAME
  2

  9
$UCSORG
 10
0.0
 20
0.0
 30
0.0
  9
$UCSXDIR
 10
1.0
 20
0.0
 30
0.0
  9
$UCSYDIR
 10
0.0
 20
1.0
 30
0.0
  9
$PUCSNAME
  2

  9
$PUCSORG
 10
0.0
 20
0.0
 30
0.0
  9
$PUCSXDIR
 10
1.0
 20
0.0
 30
0.0
  9
$PUCSYDIR
 10
0.0
 20
1.0
 30
0.0
  9
$USERI1
 70
     0
  9
$USERI2
 70
     0
  9
$USERI3
 70
     0
  9
$USERI4
 70
     0
  9
$USERI5
 70
     0
  9
$USERR1
 40
0.0
  9
$USERR2
 40
0.0
  9
$USERR3
 40
0.0
  9
$USERR4
 40
0.0
  9
$USERR5
 40
0.0
  9
$WORLDVIEW
 70
     1
  9
$SHADEDGE
 70
     3
  9
$SHADEDIF
 70
    70
  9
$TILEMODE
 70
     1
  9
$MAXACTVP
 70
    15
  9
$PINSBASE
 10
0.0
 20
0.0
 30
0.0
  9
$PLIMCHECK
 70
     0
  9
$PEXTMIN
 10
1.000000000000000E+20
 20
1.000000000000000E+20
 30
1.000000000000000E+20
  9
$PEXTMAX
 10
-1.000000000000000E+20
 20
-1.000000000000000E+20
 30
-1.000000000000000E+20
  9
$PLIMMIN
 10
0.0
 20
0.0
  9
$PLIMMAX
 10
12.0
 20
9.0
  9
$UNITMODE
 70
     0
  9
$VISRETAIN
 70
     0
  9
$PLINEGEN
 70
     0
  9
$PSLTSCALE
 70
     1
  9
$TREEDEPTH
 70
  3020
  9
$PICKSTYLE
 70
     1
  9
$CMLSTYLE
  2
STANDARD
  9
$CMLJUST
 70
     0
  9
$CMLSCALE
 40
1.0
  9
$PROXYGRAPHICS
 70
     1
  9
$MEASUREMENT
 70
     0
  0
ENDSEC
  0
SECTION
  2
CLASSES
  0
CLASS
  1
ACDBDICTIONARYWDFLT
  2
AcDbDictionaryWithDefault
  3
AutoCAD 2000
 90
        0
280
     0
281
     0
  0
CLASS
  1
ACDBPLACEHOLDER
  2
AcDbPlaceHolder
  3
AutoCAD 2000
 90
        0
280
     0
281
     0
  0
CLASS
  1
LAYOUT
  2
AcDbLayout
  3
AutoCAD 2000
 90
        0
280
     0
281
     0
  0
CLASS
  1
DICTIONARYVAR
  2
AcDbDictionaryVar
  3
AutoCAD 2000
 90
        0
280
     0
281
     0
  0
CLASS
  1
LONG_TRANSACTION
  2
AcDbLongTransaction
  3
AutoCAD 2000
 90
        0
280
     0
281
     0
  0
CLASS
  1
LWPOLYLINE
  2
AcDbPolyline
  3
AutoCAD 2000
 90
        0
280
     0
281
     1
  0
CLASS
  1
HATCH
  2
AcDbHatch
  3
AutoCAD 2000
 90
        0
280
     0
281
     1
  0
CLASS
  1
XRECORD
  2
AcDbXrecord
  3
AutoCAD 2000
 90
        0
280
     0
281
     0
  0
CLASS
  1
LONG_TRANSACTION
  2
AcDbLongTransaction
  3
AutoCAD 2000
 90
        0
280
     0
281
     0
  0
CLASS
  1
LWPOLYLINE
  2
AcDbPolyline
  3
AutoCAD 2000
 90
        0
280
     0
281
     1
  0
CLASS
  1
HATCH
  2
AcDbHatch
  3
AutoCAD 2000
 90
        0
280
     0
281
     1
  0
CLASS
  1
XRECORD
  2
AcDbXrecord
  3
AutoCAD 2000
 90
        0
280
     0
281
     0
  0
CLASS
  1
LONG_TRANSACTION
  2
AcDbLongTransaction
  3
AutoCAD 2000
 90
        0
280
     0
281
     0
  0
CLASS
  1
LWPOLYLINE
  2
AcDbPolyline
  3
AutoCAD 2000
 90
        0
280
     0
281
     1
  0
CLASS
  1
HATCH
  2
AcDbHatch
  3
AutoCAD 2000
 90
        0
280
     0
281
     1
  0
CLASS
  1
XRECORD
  2
AcDbXrecord
  3
AutoCAD 2000
 90
        0
280
     0
281
     0
  0
CLASS
  1
LONG_TRANSACTION
  2
AcDbLongTransaction
  3
AutoCAD 2000
 90
        0
280
     0
281
     0
  0
CLASS
  1
LWPOLYLINE
  2
AcDbPolyline
  3
AutoCAD 2000
 90
        0
280
     0
281
     1
  0
CLASS
  1
HATCH
  2
AcDbHatch
  3
AutoCAD 2000
 90
        0
280
     0
281
     1
  0
CLASS
  1
XRECORD
  2
AcDbXrecord
  3
AutoCAD 2000
 90
        0
280
     0
281
     0
  0
CLASS
  1
LONG_TRANSACTION
  2
AcDbLongTransaction
  3
AutoCAD 2000
 90
        0
280
     0
281
     0
  0
CLASS
  1
LWPOLYLINE
  2
AcDbPolyline
  3
AutoCAD 2000
 90
        0
280
     0
281
     1
  0
CLASS
  1
HATCH
  2
AcDbHatch
  3
AutoCAD 2000
 90
        0
280
     0
281
     1
  0
CLASS
  1
XRECORD
  2
AcDbXrecord
  3
AutoCAD 2000
 90
        0
280
     0
281
     0
  0
ENDSEC
  0
SECTION
  2
TABLES
  0
TABLE
  2
VPORT
  5
8
330
0
100
AcDbSymbolTable
 70
     2
  0
VPORT
  5
252
330
8
100
AcDbSymbolTableRecord
100
AcDbViewportTableRecord
  2
*ACTIVE
 70
     0
 10
0.0
 20
0.0
 11
1.0
 21
1.0
 12
8.32044616169146
 22
1.284583807546771
 13
0.0
 23
0.0
 14
0.5740882589684922
 24
0.5740882589684922
 15
0.5
 25
0.5
 16
0.0
 26
0.0
 36
1.0
 17
0.0
 27
0.0
 37
0.0
 40
8.247671349982962
 41
1.570528967254408
 42
50.0
 43
0.0
 44
0.0
 50
0.0
 51
0.0
 71
     0
 72
   100
 73
     1
 74
     0
 75
     0
 76
     0
 77
     0
 78
     0
  0
ENDTAB
  0
TABLE
  2
LTYPE
  5
5
330
0
100
AcDbSymbolTable
 70
     1
  0
LTYPE
  5
12
330
5
100
AcDbSymbolTableRecord
100
AcDbLinetypeTableRecord
  2
BYBLOCK
 70
     0
  3

 72
    65
 73
     0
 40
0.0
  0
LTYPE
  5
13
330
5
100
AcDbSymbolTableRecord
100
AcDbLinetypeTableRecord
  2
BYLAYER
 70
     0
  3

 72
    65
 73
     0
 40
0.0
  0
LTYPE
  5
14
330
5
100
AcDbSymbolTableRecord
100
AcDbLinetypeTableRecord
  2
CONTINUOUS
 70
     0
  3
Solid line
 72
    65
 73
     0
 40
0.0
  0
ENDTAB
  0
TABLE
  2
LAYER
  5
2
330
0
100
AcDbSymbolTable
 70
     4
  0
LAYER
  5
F
330
2
100
AcDbSymbolTableRecord
100
AcDbLayerTableRecord
  2
0
 70
     0
 62
     7
  6
CONTINUOUS
  0
LAYER
  5
74
330
2
100
AcDbSymbolTableRecord
100
AcDbLayerTableRecord
  2
ADP1DETAIL
 70
     0
 62
     7
  6
CONTINUOUS
  0
LAYER
  5
76
330
2
100
AcDbSymbolTableRecord
100
AcDbLayerTableRecord
  2
DEFPOINTS
 70
     0
 62
     7
  6
CONTINUOUS
  0
LAYER
  5
77
330
2
100
AcDbSymbolTableRecord
100
AcDbLayerTableRecord
  2
ADPDIM
 70
     0
 62
     3
  6
CONTINUOUS
  0
ENDTAB
  0
TABLE
  2
STYLE
  5
3
330
0
100
AcDbSymbolTable
 70
     2
  0
STYLE
  5
10
330
3
100
AcDbSymbolTableRecord
100
AcDbTextStyleTableRecord
  2
STANDARD
 70
     0
 40
0.0
 41
1.0
 50
0.0
 71
     0
 42
0.2
  3
txt
  4

  0
STYLE
  5
10E
330
3
100
AcDbSymbolTableRecord
100
AcDbTextStyleTableRecord
  2
ARIAL_WIDE
 70
     0
 40
0.0
 41
1.25
 50
0.0
 71
     0
 42
0.2
  3
ARIAL.TTF
  4

1001
ACAD
1000
Arial
1071
       34
  0
ENDTAB
  0
TABLE
  2
VIEW
  5
6
330
0
100
AcDbSymbolTable
 70
     0
  0
ENDTAB
  0
TABLE
  2
UCS
  5
7
330
0
100
AcDbSymbolTable
 70
     0
  0
ENDTAB
  0
TABLE
  2
APPID
  5
9
330
0
100
AcDbSymbolTable
 70
     1
  0
APPID
  5
11
330
9
100
AcDbSymbolTableRecord
100
AcDbRegAppTableRecord
  2
ACAD
 70
     0
  0
ENDTAB
  0
TABLE
  2
DIMSTYLE
  5
A
330
0
100
AcDbSymbolTable
 70
     1
  0
DIMSTYLE
105
102
330
A
100
AcDbSymbolTableRecord
100
AcDbDimStyleTableRecord
  2
STANDARD
 70
     0
  3

  4

  5

  6

  7

 40
1.0
 41
0.18
 42
0.0625
 43
0.38
 44
0.18
 45
0.0
 46
0.0
 47
0.0
 48
0.0
140
0.18
141
0.09
142
0.0
143
25.4
144
1.0
145
0.0
146
1.0
147
0.09
 71
     0
 72
     0
 73
     1
 74
     1
 75
     0
 76
     0
 77
     0
 78
     0
170
     0
171
     2
172
     0
173
     0
174
     0
175
     0
176
     0
177
     0
178
     0
270
     2
271
     4
272
     4
273
     2
274
     2
340
10
275
     0
280
     0
281
     0
282
     0
283
     1
284
     0
285
     0
286
     0
287
     3
288
     0
  0
ENDTAB
  0
TABLE
  2
BLOCK_RECORD
  5
1
330
0
100
AcDbSymbolTable
 70
     5
  0
BLOCK_RECORD
  5
18
102
{ACAD_XDICTIONARY
360
163
102
}
330
1
100
AcDbSymbolTableRecord
100
AcDbBlockTableRecord
  2
*MODEL_SPACE
  0
BLOCK_RECORD
  5
15
102
{ACAD_XDICTIONARY
360
161
102
}
330
1
100
AcDbSymbolTableRecord
100
AcDbBlockTableRecord
  2
*PAPER_SPACE
  0
BLOCK_RECORD
  5
6C
330
1
100
AcDbSymbolTableRecord
100
AcDbBlockTableRecord
  2
*D0
  0
BLOCK_RECORD
  5
6D
330
1
100
AcDbSymbolTableRecord
100
AcDbBlockTableRecord
  2
*D1
  0
BLOCK_RECORD
  5
6E
330
1
100
AcDbSymbolTableRecord
100
AcDbBlockTableRecord
  2
*D2
  0
BLOCK_RECORD
  5
6F
330
1
100
AcDbSymbolTableRecord
100
AcDbBlockTableRecord
  2
*D3
  0
BLOCK_RECORD
  5
70
330
1
100
AcDbSymbolTableRecord
100
AcDbBlockTableRecord
  2
*D4
  0
ENDTAB
  0
ENDSEC
  0
SECTION
  2
BLOCKS
  0
BLOCK
  5
7A
330
18
100
AcDbEntity
  8
0
100
AcDbBlockBegin
  2
*MODEL_SPACE
 70
     0
 10
0.0
 20
0.0
 30
0.0
  3
*MODEL_SPACE
  1

  0
ENDBLK
  5
7B
330
18
100
AcDbEntity
  8
0
100
AcDbBlockEnd
  0
BLOCK
  5
78
330
15
100
AcDbEntity
 67
     1
  8
0
100
AcDbBlockBegin
  2
*PAPER_SPACE
 70
     0
 10
0.0
 20
0.0
 30
0.0
  3
*PAPER_SPACE
  1

  0
ENDBLK
  5
79
330
15
100
AcDbEntity
 67
     1
  8
0
100
AcDbBlockEnd
  0
BLOCK
  5
7D
330
6C
100
AcDbEntity
  8
0
100
AcDbBlockBegin
  2
*D0
 70
     1
 10
0.0
 20
0.0
 30
0.0
  3
*D0
  1

  0
LINE
  5
7E
330
6C
100
AcDbEntity
  8
0
  6
BYBLOCK
 62
     0
100
AcDbLine
 10
10.61174273451563
 20
3.708023005588332
 30
0.0
 11
12.40173792948123
 21
3.708023005588332
 31
0.0
  0
LINE
  5
7F
330
6C
100
AcDbEntity
  8
0
  6
BYBLOCK
 62
     0
100
AcDbLine
 10
10.61174273451563
 20
2.048023005588332
 30
0.0
 11
12.40173792948123
 21
2.048023005588332
 31
0.0
  0
LINE
  5
80
330
6C
100
AcDbEntity
  8
0
  6
BYBLOCK
 62
     0
100
AcDbLine
 10
12.22173792948123
 20
3.708023005588332
 30
0.0
 11
12.22173792948123
 21
3.221773005588332
 31
0.0
  0
LINE
  5
81
330
6C
100
AcDbEntity
  8
0
  6
BYBLOCK
 62
     0
100
AcDbLine
 10
12.22173792948123
 20
2.048023005588332
 30
0.0
 11
12.22173792948123
 21
2.534273005588332
 31
0.0
  0
LINE
  5
82
330
6C
100
AcDbEntity
  8
0
  6
BYBLOCK
 62
     0
100
AcDbLine
 10
12.34673792948123
 20
3.583023005588332
 30
0.0
 11
12.09673792948123
 21
3.833023005588332
 31
0.0
  0
LINE
  5
83
330
6C
100
AcDbEntity
  8
0
  6
BYBLOCK
 62
     0
100
AcDbLine
 10
12.34673792948123
 20
1.923023005588332
 30
0.0
 11
12.09673792948123
 21
2.173023005588332
 31
0.0
  0
TEXT
  5
84
330
6C
100
AcDbEntity
  8
0
  6
BYBLOCK
 62
     0
100
AcDbText
 10
12.28423792948123
 20
2.659273005588332
 30
0.0
 40
0.125
  1
1.660
 50
90.0
 72
     1
 11
12.22173792948123
 21
2.878023005588332
 31
0.0
100
AcDbText
 73
     2
  0
POINT
  5
85
330
6C
100
AcDbEntity
  8
DEFPOINTS
  6
BYBLOCK
 62
     0
100
AcDbPoint
 10
10.54924273451563
 20
3.708023005588332
 30
0.0
  0
POINT
  5
86
330
6C
100
AcDbEntity
  8
DEFPOINTS
  6
BYBLOCK
 62
     0
100
AcDbPoint
 10
10.54924273451563
 20
2.048023005588332
 30
0.0
  0
POINT
  5
87
330
6C
100
AcDbEntity
  8
DEFPOINTS
  6
BYBLOCK
 62
     0
100
AcDbPoint
 10
12.22173792948123
 20
2.048023005588332
 30
0.0
  0
ENDBLK
  5
88
330
6C
100
AcDbEntity
  8
0
100
AcDbBlockEnd
  0
BLOCK
  5
89
330
6D
100
AcDbEntity
  8
0
100
AcDbBlockBegin
  2
*D1
 70
     1
 10
0.0
 20
0.0
 30
0.0
  3
*D1
  1

  0
LINE
  5
8A
330
6D
100
AcDbEntity
  8
0
  6
BYBLOCK
 62
     0
100
AcDbLine
 10
8.84799273451563
 20
0.9713123541228313
 30
0.0
 11
7.164515168912566
 21
0.9713123541228313
 31
0.0
  0
LINE
  5
8B
330
6D
100
AcDbEntity
  8
0
  6
BYBLOCK
 62
     0
100
AcDbLine
 10
8.84799273451563
 20
-0.6886876458771681
 30
0.0
 11
7.164515168912566
 21
-0.688687645877168
 31
0.0
  0
LINE
  5
8C
330
6D
100
AcDbEntity
  8
0
  6
BYBLOCK
 62
     0
100
AcDbLine
 10
7.344515168912566
 20
0.9713123541228313
 30
0.0
 11
7.344515168912566
 21
0.4850623541228317
 31
0.0
  0
LINE
  5
8D
330
6D
100
AcDbEntity
  8
0
  6
BYBLOCK
 62
     0
100
AcDbLine
 10
7.344515168912566
 20
-0.688687645877168
 30
0.0
 11
7.344515168912566
 21
-0.2024376458771682
 31
0.0
  0
LINE
  5
8E
330
6D
100
AcDbEntity
  8
0
  6
BYBLOCK
 62
     0
100
AcDbLine
 10
7.469515168912566
 20
0.8463123541228313
 30
0.0
 11
7.219515168912566
 21
1.096312354122831
 31
0.0
  0
LINE
  5
8F
330
6D
100
AcDbEntity
  8
0
  6
BYBLOCK
 62
     0
100
AcDbLine
 10
7.469515168912566
 20
-0.8136876458771679
 30
0.0
 11
7.219515168912566
 21
-0.563687645877168
 31
0.0
  0
TEXT
  5
90
330
6D
100
AcDbEntity
  8
0
  6
BYBLOCK
 62
     0
100
AcDbText
 10
7.407015168912566
 20
-0.0774376458771682
 30
0.0
 40
0.125
  1
1.660
 50
90.0
 72
     1
 11
7.344515168912566
 21
0.1413123541228317
 31
0.0
100
AcDbText
 73
     2
  0
POINT
  5
91
330
6D
100
AcDbEntity
  8
DEFPOINTS
  6
BYBLOCK
 62
     0
100
AcDbPoint
 10
8.91049273451563
 20
0.9713123541228313
 30
0.0
  0
POINT
  5
92
330
6D
100
AcDbEntity
  8
DEFPOINTS
  6
BYBLOCK
 62
     0
100
AcDbPoint
 10
8.91049273451563
 20
-0.6886876458771681
 30
0.0
  0
POINT
  5
93
330
6D
100
AcDbEntity
  8
DEFPOINTS
  6
BYBLOCK
 62
     0
100
AcDbPoint
 10
7.344515168912566
 20
-0.688687645877168
 30
0.0
  0
ENDBLK
  5
94
330
6D
100
AcDbEntity
  8
0
100
AcDbBlockEnd
  0
BLOCK
  5
95
330
6E
100
AcDbEntity
  8
0
100
AcDbBlockBegin
  2
*D2
 70
     1
 10
0.0
 20
0.0
 30
0.0
  3
*D2
  1

  0
LINE
  5
96
330
6E
100
AcDbEntity
  8
0
  6
BYBLOCK
 62
     0
100
AcDbLine
 10
11.37924273451563
 20
0.9713123541228313
 30
0.0
 11
11.93273519000894
 21
0.9713123541228311
 31
0.0
  0
LINE
  5
97
330
6E
100
AcDbEntity
  8
0
  6
BYBLOCK
 62
     0
100
AcDbLine
 10
11.37924273451563
 20
0.5963123541228313
 30
0.0
 11
11.93273519000894
 21
0.5963123541228312
 31
0.0
  0
LINE
  5
98
330
6E
100
AcDbEntity
  8
0
  6
BYBLOCK
 62
     0
100
AcDbLine
 10
11.75273519000894
 20
0.9713123541228313
 30
0.0
 11
11.75273519000894
 21
1.221312354122831
 31
0.0
  0
LINE
  5
99
330
6E
100
AcDbEntity
  8
0
  6
BYBLOCK
 62
     0
100
AcDbLine
 10
11.75273519000894
 20
0.5963123541228313
 30
0.0
 11
11.75273519000894
 21
0.3463123541228312
 31
0.0
  0
LINE
  5
9A
330
6E
100
AcDbEntity
  8
0
  6
BYBLOCK
 62
     0
100
AcDbLine
 10
11.87773519000894
 20
0.8463123541228311
 30
0.0
 11
11.62773519000894
 21
1.096312354122831
 31
0.0
  0
LINE
  5
9B
330
6E
100
AcDbEntity
  8
0
  6
BYBLOCK
 62
     0
100
AcDbLine
 10
11.87773519000894
 20
0.4713123541228312
 30
0.0
 11
11.62773519000894
 21
0.7213123541228313
 31
0.0
  0
TEXT
  5
9C
330
6E
100
AcDbEntity
  8
0
  6
BYBLOCK
 62
     0
100
AcDbText
 10
11.81523519000894
 20
-0.1120209792105021
 30
0.0
 40
0.125
  1
3/8
 50
90.0
 72
     1
 11
11.75273519000894
 21
0.0546456874561646
 31
0.0
100
AcDbText
 73
     2
  0
POINT
  5
9D
330
6E
100
AcDbEntity
  8
DEFPOINTS
  6
BYBLOCK
 62
     0
100
AcDbPoint
 10
11.31674273451563
 20
0.9713123541228313
 30
0.0
  0
POINT
  5
9E
330
6E
100
AcDbEntity
  8
DEFPOINTS
  6
BYBLOCK
 62
     0
100
AcDbPoint
 10
11.31674273451563
 20
0.5963123541228313
 30
0.0
  0
POINT
  5
9F
330
6E
100
AcDbEntity
  8
DEFPOINTS
  6
BYBLOCK
 62
     0
100
AcDbPoint
 10
11.75273519000894
 20
0.5963123541228313
 30
0.0
  0
ENDBLK
  5
A0
330
6E
100
AcDbEntity
  8
0
100
AcDbBlockEnd
  0
BLOCK
  5
A1
330
6F
100
AcDbEntity
  8
0
100
AcDbBlockBegin
  2
*D3
 70
     1
 10
0.0
 20
0.0
 30
0.0
  3
*D3
  1

  0
LINE
  5
A2
330
6F
100
AcDbEntity
  8
0
  6
BYBLOCK
 62
     0
100
AcDbLine
 10
8.905196781003498
 20
3.761049398382735
 30
0.0
 11
8.905196781003498
 21
4.167422293101662
 31
0.0
  0
LINE
  5
A3
330
6F
100
AcDbEntity
  8
0
  6
BYBLOCK
 62
     0
100
AcDbLine
 10
11.37145912570282
 20
3.048496186010846
 30
0.0
 11
11.37145912570282
 21
4.167422293101662
 31
0.0
  0
LINE
  5
A4
330
6F
100
AcDbEntity
  8
0
  6
BYBLOCK
 62
     0
100
AcDbLine
 10
8.905196781003498
 20
3.987422293101662
 30
0.0
 11
9.679994620019824
 21
3.987422293101662
 31
0.0
  0
LINE
  5
A5
330
6F
100
AcDbEntity
  8
0
  6
BYBLOCK
 62
     0
100
AcDbLine
 10
11.37145912570282
 20
3.987422293101662
 30
0.0
 11
10.59666128668649
 21
3.987422293101662
 31
0.0
  0
LINE
  5
A6
330
6F
100
AcDbEntity
  8
0
  6
BYBLOCK
 62
     0
100
AcDbLine
 10
8.780196781003498
 20
3.862422293101662
 30
0.0
 11
9.030196781003498
 21
4.112422293101662
 31
0.0
  0
LINE
  5
A7
330
6F
100
AcDbEntity
  8
0
  6
BYBLOCK
 62
     0
100
AcDbLine
 10
11.24645912570282
 20
3.862422293101662
 30
0.0
 11
11.49645912570282
 21
4.112422293101662
 31
0.0
  0
TEXT
  5
A8
330
6F
100
AcDbEntity
  8
0
  6
BYBLOCK
 62
     0
100
AcDbText
 10
9.804994620019824
 20
3.924922293101662
 30
0.0
 40
0.125
  1
2 7/16
 72
     1
 11
10.13832795335315
 21
3.987422293101662
 31
0.0
100
AcDbText
 73
     2
  0
POINT
  5
A9
330
6F
100
AcDbEntity
  8
DEFPOINTS
  6
BYBLOCK
 62
     0
100
AcDbPoint
 10
8.905196781003498
 20
3.698549398382735
 30
0.0
  0
POINT
  5
AA
330
6F
100
AcDbEntity
  8
DEFPOINTS
  6
BYBLOCK
 62
     0
100
AcDbPoint
 10
11.37145912570282
 20
2.985996186010846
 30
0.0
  0
POINT
  5
AB
330
6F
100
AcDbEntity
  8
DEFPOINTS
  6
BYBLOCK
 62
     0
100
AcDbPoint
 10
11.37145912570282
 20
3.987422293101662
 30
0.0
  0
ENDBLK
  5
AC
330
6F
100
AcDbEntity
  8
0
100
AcDbBlockEnd
  0
BLOCK
  5
AD
330
70
100
AcDbEntity
  8
0
100
AcDbBlockBegin
  2
*D4
 70
     1
 10
0.0
 20
0.0
 30
0.0
  3
*D4
  1

  0
LINE
  5
AE
330
70
100
AcDbEntity
  8
0
  6
BYBLOCK
 62
     0
100
AcDbLine
 10
8.91049273451563
 20
3.770523005588332
 30
0.0
 11
8.91049273451563
 21
4.167422293101662
 31
0.0
  0
LINE
  5
AF
330
70
100
AcDbEntity
  8
0
  6
BYBLOCK
 62
     0
100
AcDbLine
 10
7.78549273451563
 20
3.489273005588332
 30
0.0
 11
7.78549273451563
 21
4.167422293101662
 31
0.0
  0
LINE
  5
B0
330
70
100
AcDbEntity
  8
0
  6
BYBLOCK
 62
     0
100
AcDbLine
 10
8.91049273451563
 20
3.987422293101662
 30
0.0
 11
9.16049273451563
 21
3.987422293101662
 31
0.0
  0
LINE
  5
B1
330
70
100
AcDbEntity
  8
0
  6
BYBLOCK
 62
     0
100
AcDbLine
 10
7.78549273451563
 20
3.987422293101662
 30
0.0
 11
7.53549273451563
 21
3.987422293101662
 31
0.0
  0
LINE
  5
B2
330
70
100
AcDbEntity
  8
0
  6
BYBLOCK
 62
     0
100
AcDbLine
 10
8.78549273451563
 20
3.862422293101662
 30
0.0
 11
9.03549273451563
 21
4.112422293101662
 31
0.0
  0
LINE
  5
B3
330
70
100
AcDbEntity
  8
0
  6
BYBLOCK
 62
     0
100
AcDbLine
 10
7.66049273451563
 20
3.862422293101662
 30
0.0
 11
7.91049273451563
 21
4.112422293101662
 31
0.0
  0
TEXT
  5
B4
330
70
100
AcDbEntity
  8
0
  6
BYBLOCK
 62
     0
100
AcDbText
 10
6.91049273451563
 20
3.924922293101662
 30
0.0
 40
0.125
  1
1 1/8
 72
     1
 11
7.16049273451563
 21
3.987422293101662
 31
0.0
100
AcDbText
 73
     2
  0
POINT
  5
B5
330
70
100
AcDbEntity
  8
DEFPOINTS
  6
BYBLOCK
 62
     0
100
AcDbPoint
 10
8.91049273451563
 20
3.708023005588332
 30
0.0
  0
POINT
  5
B6
330
70
100
AcDbEntity
  8
DEFPOINTS
  6
BYBLOCK
 62
     0
100
AcDbPoint
 10
7.78549273451563
 20
3.426773005588332
 30
0.0
  0
POINT
  5
B7
330
70
100
AcDbEntity
  8
DEFPOINTS
  6
BYBLOCK
 62
     0
100
AcDbPoint
 10
7.78549273451563
 20
3.987422293101662
 30
0.0
  0
ENDBLK
  5
B8
330
70
100
AcDbEntity
  8
0
100
AcDbBlockEnd
  0
ENDSEC
  0
SECTION
  2
ENTITIES
  0
DIMENSION
  5
B9
330
18
100
AcDbEntity
  8
ADPDIM
100
AcDbDimension
  2
*D2
 10
11.75273519000894
 20
0.5963123541228313
 30
0.0
 11
11.75273519000894
 21
0.0546456874561646
 31
0.0
100
AcDbAlignedDimension
 13
11.31674273451563
 23
0.9713123541228313
 33
0.0
 14
11.31674273451563
 24
0.5963123541228313
 34
0.0
 50
90.0
100
AcDbRotatedDimension
  0
DIMENSION
  5
BA
330
18
100
AcDbEntity
  8
ADPDIM
100
AcDbDimension
  2
*D1
 10
7.344515168912566
 20
-0.688687645877168
 30
0.0
 11
7.344515168912566
 21
0.1413123541228317
 31
0.0
  1
1.660
100
AcDbAlignedDimension
 13
8.91049273451563
 23
0.9713123541228313
 33
0.0
 14
8.91049273451563
 24
-0.6886876458771681
 34
0.0
 50
90.0
100
AcDbRotatedDimension
  0
LINE
  5
BB
330
18
100
AcDbEntity
  8
ADP1DETAIL
100
AcDbLine
 10
11.37924273451563
 20
0.6588123541228313
 30
0.0
 11
11.37924273451563
 21
0.9088123541228313
 31
0.0
  0
LINE
  5
BC
330
18
100
AcDbEntity
  8
ADP1DETAIL
100
AcDbLine
 10
8.91049273451563
 20
0.7213123541228313
 30
0.0
 11
8.78549273451563
 21
0.8463123541228313
 31
0.0
  0
LINE
  5
BD
330
18
100
AcDbEntity
  8
ADP1DETAIL
100
AcDbLine
 10
7.91049273451563
 20
0.8150623541228313
 30
0.0
 11
7.78549273451563
 21
0.6900623541228313
 31
0.0
  0
LINE
  5
BE
330
18
100
AcDbEntity
  8
ADP1DETAIL
100
AcDbLine
 10
8.91049273451563
 20
-0.6886876458771681
 30
0.0
 11
8.91049273451563
 21
0.9713123541228313
 31
0.0
  0
LINE
  5
BF
330
18
100
AcDbEntity
  8
ADP1DETAIL
100
AcDbLine
 10
8.91049273451563
 20
-0.6886876458771681
 30
0.0
 11
9.12924273451563
 21
-0.6886876458771681
 31
0.0
  0
LINE
  5
C0
330
18
100
AcDbEntity
  8
ADP1DETAIL
100
AcDbLine
 10
8.91049273451563
 20
0.2616971870258919
 30
0.0
 11
7.78549273451563
 21
0.2616971870258919
 31
0.0
  0
LINE
  5
C1
330
18
100
AcDbEntity
  8
ADP1DETAIL
100
AcDbLine
 10
7.78549273451563
 20
0.0209275212197704
 30
0.0
 11
8.91049273451563
 21
0.0209275212197704
 31
0.0
  0
LINE
  5
C2
330
18
100
AcDbEntity
  8
ADP1DETAIL
100
AcDbLine
 10
8.78549273451563
 20
-0.5636876458771681
 30
0.0
 11
7.91049273451563
 21
-0.5324376458771681
 31
0.0
  0
LINE
  5
C3
330
18
100
AcDbEntity
  8
ADP1DETAIL
100
AcDbLine
 10
7.78549273451563
 20
-0.4074376458771681
 30
0.0
 11
7.78549273451563
 21
0.6900623541228313
 31
0.0
  0
LINE
  5
C4
330
18
100
AcDbEntity
  8
ADP1DETAIL
100
AcDbLine
 10
7.78549273451563
 20
-0.4074376458771681
 30
0.0
 11
7.91049273451563
 21
-0.5324376458771681
 31
0.0
  0
LINE
  5
C5
330
18
100
AcDbEntity
  8
ADP1DETAIL
100
AcDbLine
 10
7.91049273451563
 20
0.0209275212197704
 30
0.0
 11
7.91049273451563
 21
0.2616971870258919
 31
0.0
  0
LINE
  5
C6
330
18
100
AcDbEntity
  8
ADP1DETAIL
100
AcDbLine
 10
8.78549273451563
 20
-0.5636876458771681
 30
0.0
 11
8.91049273451563
 21
-0.4386876458771681
 31
0.0
  0
LINE
  5
C7
330
18
100
AcDbEntity
  8
ADP1DETAIL
100
AcDbLine
 10
8.78549273451563
 20
0.0209275212197704
 30
0.0
 11
8.78549273451563
 21
0.2616971870258919
 31
0.0
  0
LINE
  5
C8
330
18
100
AcDbEntity
  8
ADP1DETAIL
100
AcDbLine
 10
9.290470881112423
 20
0.5963123541228313
 30
0.0
 11
11.31674273451563
 21
0.5963123541228313
 31
0.0
  0
LINE
  5
C9
330
18
100
AcDbEntity
  8
ADP1DETAIL
100
AcDbLine
 10
9.37924273451563
 20
-0.4386876458771681
 30
0.0
 11
9.37924273451563
 21
0.4083123541228316
 31
0.0
  0
ARC
  5
CA
330
18
100
AcDbEntity
  8
ADP1DETAIL
100
AcDbCircle
 10
10.08857193346191
 20
0.0365241908923211
 30
0.0
 40
0.9748477201359987
100
AcDbArc
 50
144.9541761461508
 51
211.9227248534783
  0
ARC
  5
CB
330
18
100
AcDbEntity
  8
ADP1DETAIL
100
AcDbCircle
 10
9.12924273451563
 20
-0.4386876458771681
 30
0.0
 40
0.25
100
AcDbArc
 50
270.0
 51
0.0
  0
ARC
  5
CC
330
18
100
AcDbEntity
  8
ADP1DETAIL
100
AcDbCircle
 10
9.56724273451563
 20
0.4083123541228316
 30
0.0
 40
0.188
100
AcDbArc
 50
90.0
 51
180.0
  0
ARC
  5
CD
330
18
100
AcDbEntity
  8
ADP1DETAIL
100
AcDbCircle
 10
11.31674273451563
 20
0.6588123541228313
 30
0.0
 40
0.0625
100
AcDbArc
 50
270.0
 51
0.0
  0
LINE
  5
CE
330
18
100
AcDbEntity
  8
ADP1DETAIL
100
AcDbLine
 10
5.140286717941922
 20
2.786360349801692
 30
0.0
 11
5.564448344798266
 21
2.715666745325634
 31
0.0
  0
LINE
  5
CF
330
18
100
AcDbEntity
  8
ADP1DETAIL
100
AcDbLine
 10
5.140286717941922
 20
2.977563306624631
 30
0.0
 11
5.564448344798267
 21
3.048256911100689
 31
0.0
  0
LINE
  5
D0
330
18
100
AcDbEntity
  8
ADP1DETAIL
100
AcDbLine
 10
5.128492794751643
 20
3.711961828213162
 30
0.0
 11
5.833492794751643
 21
3.711961828213162
 31
0.0
  0
LINE
  5
D1
330
18
100
AcDbEntity
  8
ADP1DETAIL
100
AcDbLine
 10
5.833492794751643
 20
2.051961828213162
 30
0.0
 11
5.128492794751642
 21
2.051961828213161
 31
0.0
  0
CIRCLE
  5
D2
330
18
100
AcDbEntity
  8
ADP1DETAIL
100
AcDbCircle
 10
5.833492794751643
 20
2.881961828213162
 30
0.0
 40
0.8299999999999998
  0
LINE
  5
D3
330
18
100
AcDbEntity
  8
ADP1DETAIL
100
AcDbLine
 10
5.003492794751642
 20
2.176961828213161
 30
0.0
 11
5.003492794751643
 21
3.586961828213162
 31
0.0
  0
ARC
  5
D4
330
18
100
AcDbEntity
  8
ADP1DETAIL
100
AcDbCircle
 10
5.128492794751642
 20
2.176961828213161
 30
0.0
 40
0.125
100
AcDbArc
 50
180.0
 51
270.0
  0
ARC
  5
D5
330
18
100
AcDbEntity
  8
ADP1DETAIL
100
AcDbCircle
 10
5.833492794751643
 20
2.881961828213162
 30
0.0
 40
0.6997673239015834
100
AcDbArc
 50
172.1477535328243
 51
187.8522464671756
  0
ARC
  5
D6
330
18
100
AcDbEntity
  8
ADP1DETAIL
100
AcDbCircle
 10
5.833492794751643
 20
2.881961828213162
 30
0.0
 40
0.6646442787080132
100
AcDbArc
 50
171.2013783105394
 51
188.7986216894605
  0
ARC
  5
D7
330
18
100
AcDbEntity
  8
ADP1DETAIL
100
AcDbCircle
 10
5.833492794751643
 20
2.881961828213162
 30
0.0
 40
0.5475674814285476
100
AcDbArc
 50
167.1074329265789
 51
192.892567073421
  0
ARC
  5
D8
330
18
100
AcDbEntity
  8
ADP1DETAIL
100
AcDbCircle
 10
5.128492794751643
 20
3.586961828213162
 30
0.0
 40
0.125
100
AcDbArc
 50
90.0
 51
180.0
  0
DIMENSION
  5
D9
330
18
100
AcDbEntity
  8
ADPDIM
100
AcDbDimension
  2
*D4
 10
7.78549273451563
 20
3.987422293101662
 30
0.0
 11
7.16049273451563
 21
3.987422293101662
 31
0.0
100
AcDbAlignedDimension
 13
8.91049273451563
 23
3.708023005588332
 33
0.0
 14
7.78549273451563
 24
3.426773005588332
 34
0.0
100
AcDbRotatedDimension
  0
DIMENSION
  5
DA
330
18
100
AcDbEntity
  8
ADPDIM
100
AcDbDimension
  2
*D3
 10
11.37145912570282
 20
3.987422293101662
 30
0.0
 11
10.13832795335315
 21
3.987422293101662
 31
0.0
100
AcDbAlignedDimension
 13
8.905196781003498
 23
3.698549398382735
 33
0.0
 14
11.37145912570282
 24
2.985996186010846
 34
0.0
100
AcDbRotatedDimension
  0
ARC
  5
DB
330
18
100
AcDbEntity
  8
ADP1DETAIL
100
AcDbCircle
 10
8.25424273451563
 20
2.878023005588332
 30
0.0
 40
1.125
100
AcDbArc
 50
312.4575411892207
 51
47.5424588107793
  0
LINE
  5
DC
330
18
100
AcDbEntity
  8
ADP1DETAIL
100
AcDbLine
 10
10.54924273451563
 20
2.048023005588332
 30
0.0
 11
8.91049273451563
 21
2.048023005588332
 31
0.0
  0
LINE
  5
DD
330
18
100
AcDbEntity
  8
ADP1DETAIL
100
AcDbLine
 10
8.91049273451563
 20
3.708023005588332
 30
0.0
 11
10.54924273451563
 21
3.708023005588332
 31
0.0
  0
LINE
  5
DE
330
18
100
AcDbEntity
  8
ADP1DETAIL
100
AcDbLine
 10
11.31674273451563
 20
0.9713123541228313
 30
0.0
 11
8.91049273451563
 21
0.9713123541228313
 31
0.0
  0
LINE
  5
DF
330
18
100
AcDbEntity
  8
ADP1DETAIL
100
AcDbLine
 10
5.929094273163112
 20
2.18875575140344
 30
0.0
 11
5.999787877639169
 21
2.612917378259785
 31
0.0
  0
LINE
  5
E0
330
18
100
AcDbEntity
  8
ADP1DETAIL
100
AcDbLine
 10
5.737891316340173
 20
2.188755751403441
 30
0.0
 11
5.667197711864115
 21
2.612917378259785
 31
0.0
  0
ARC
  5
E1
330
18
100
AcDbEntity
  8
ADP1DETAIL
100
AcDbCircle
 10
5.833492794751643
 20
2.881961828213162
 30
0.0
 40
0.5475674814285476
100
AcDbArc
 50
257.1074329265787
 51
282.892567073421
  0
ARC
  5
E2
330
18
100
AcDbEntity
  8
ADP1DETAIL
100
AcDbCircle
 10
5.833492794751643
 20
2.881961828213162
 30
0.0
 40
0.6646442787080132
100
AcDbArc
 50
261.2013783105394
 51
278.7986216894605
  0
ARC
  5
E3
330
18
100
AcDbEntity
  8
ADP1DETAIL
100
AcDbCircle
 10
5.833492794751643
 20
2.881961828213162
 30
0.0
 40
0.6997673239015834
100
AcDbArc
 50
262.1477535328242
 51
277.8522464671756
  0
LINE
  5
E4
330
18
100
AcDbEntity
  8
ADP1DETAIL
100
AcDbLine
 10
6.526698871561364
 20
2.786360349801691
 30
0.0
 11
6.102537244705018
 21
2.715666745325634
 31
0.0
  0
LINE
  5
E5
330
18
100
AcDbEntity
  8
ADP1DETAIL
100
AcDbLine
 10
6.526698871561364
 20
2.977563306624631
 30
0.0
 11
6.102537244705018
 21
3.048256911100688
 31
0.0
  0
LINE
  5
E6
330
18
100
AcDbEntity
  8
ADP1DETAIL
100
AcDbLine
 10
5.929094273163114
 20
3.575167905022882
 30
0.0
 11
5.999787877639171
 21
3.151006278166537
 31
0.0
  0
LINE
  5
E7
330
18
100
AcDbEntity
  8
ADP1DETAIL
100
AcDbLine
 10
5.737891316340173
 20
3.575167905022883
 30
0.0
 11
5.667197711864115
 21
3.151006278166538
 31
0.0
  0
ARC
  5
E8
330
18
100
AcDbEntity
  8
ADP1DETAIL
100
AcDbCircle
 10
5.543898471385098
 20
3.171556151579708
 30
0.0
 40
0.125
100
AcDbArc
 50
279.4623222080256
 51
350.5376777919743
  0
ARC
  5
E9
330
18
100
AcDbEntity
  8
ADP1DETAIL
100
AcDbCircle
 10
5.543898471385096
 20
2.592367504846615
 30
0.0
 40
0.125
100
AcDbArc
 50
9.462322208025621
 51
80.53767779197434
  0
ARC
  5
EA
330
18
100
AcDbEntity
  8
ADP1DETAIL
100
AcDbCircle
 10
6.123087118118188
 20
3.171556151579707
 30
0.0
 40
0.125
100
AcDbArc
 50
189.4623222080255
 51
260.5376777919743
  0
ARC
  5
EB
330
18
100
AcDbEntity
  8
ADP1DETAIL
100
AcDbCircle
 10
6.123087118118188
 20
2.592367504846615
 30
0.0
 40
0.125
100
AcDbArc
 50
99.46232220802558
 51
170.5376777919743
  0
ARC
  5
EC
330
18
100
AcDbEntity
  8
ADP1DETAIL
100
AcDbCircle
 10
5.833492794751643
 20
2.881961828213162
 30
0.0
 40
0.5475674814285476
100
AcDbArc
 50
77.10743292657884
 51
102.892567073421
  0
ARC
  5
ED
330
18
100
AcDbEntity
  8
ADP1DETAIL
100
AcDbCircle
 10
5.833492794751643
 20
2.881961828213162
 30
0.0
 40
0.6646442787080132
100
AcDbArc
 50
81.20137831053936
 51
98.79862168946061
  0
ARC
  5
EE
330
18
100
AcDbEntity
  8
ADP1DETAIL
100
AcDbCircle
 10
5.833492794751643
 20
2.881961828213162
 30
0.0
 40
0.6997673239015834
100
AcDbArc
 50
82.14775353282426
 51
97.85224646717569
  0
ARC
  5
EF
330
18
100
AcDbEntity
  8
ADP1DETAIL
100
AcDbCircle
 10
5.833492794751643
 20
2.881961828213162
 30
0.0
 40
0.6997673239015834
100
AcDbArc
 50
352.1477535328242
 51
7.852246467175663
  0
ARC
  5
F0
330
18
100
AcDbEntity
  8
ADP1DETAIL
100
AcDbCircle
 10
5.833492794751643
 20
2.881961828213162
 30
0.0
 40
0.6646442787080132
100
AcDbArc
 50
351.2013783105393
 51
8.798621689460556
  0
ARC
  5
F1
330
18
100
AcDbEntity
  8
ADP1DETAIL
100
AcDbCircle
 10
5.833492794751643
 20
2.881961828213162
 30
0.0
 40
0.5475674814285476
100
AcDbArc
 50
347.1074329265788
 51
12.89256707342105
  0
LINE
  5
F2
330
18
100
AcDbEntity
  8
ADP1DETAIL
100
AcDbLine
 10
8.91049273451563
 20
2.048023005588332
 30
0.0
 11
8.91049273451563
 21
3.708023005588332
 31
0.0
  0
LINE
  5
F3
330
18
100
AcDbEntity
  8
ADP1DETAIL
100
AcDbLine
 10
7.78549273451563
 20
2.329273005588333
 30
0.0
 11
7.78549273451563
 21
3.426773005588332
 31
0.0
  0
LINE
  5
F4
330
18
100
AcDbEntity
  8
ADP1DETAIL
100
AcDbLine
 10
8.78549273451563
 20
2.173023005588333
 30
0.0
 11
7.91049273451563
 21
2.204273005588333
 31
0.0
  0
LINE
  5
F5
330
18
100
AcDbEntity
  8
ADP1DETAIL
100
AcDbLine
 10
7.91049273451563
 20
0.8150623541228313
 30
0.0
 11
8.78549273451563
 21
0.8463123541228313
 31
0.0
  0
LINE
  5
F6
330
18
100
AcDbEntity
  8
ADP1DETAIL
100
AcDbLine
 10
7.78549273451563
 20
2.329273005588333
 30
0.0
 11
7.91049273451563
 21
2.204273005588333
 31
0.0
  0
LINE
  5
F7
330
18
100
AcDbEntity
  8
ADP1DETAIL
100
AcDbLine
 10
8.78549273451563
 20
2.173023005588333
 30
0.0
 11
8.91049273451563
 21
2.298023005588333
 31
0.0
  0
LINE
  5
F8
330
18
100
AcDbEntity
  8
ADP1DETAIL
100
AcDbLine
 10
7.78549273451563
 20
2.757638172685272
 30
0.0
 11
8.91049273451563
 21
2.757638172685272
 31
0.0
  0
LINE
  5
F9
330
18
100
AcDbEntity
  8
ADP1DETAIL
100
AcDbLine
 10
8.91049273451563
 20
2.998407838491393
 30
0.0
 11
7.78549273451563
 21
2.998407838491393
 31
0.0
  0
LINE
  5
FA
330
18
100
AcDbEntity
  8
ADP1DETAIL
100
AcDbLine
 10
7.91049273451563
 20
3.551773005588332
 30
0.0
 11
8.78549273451563
 21
3.583023005588332
 31
0.0
  0
LINE
  5
FB
330
18
100
AcDbEntity
  8
ADP1DETAIL
100
AcDbLine
 10
7.91049273451563
 20
2.757638172685272
 30
0.0
 11
7.91049273451563
 21
2.998407838491393
 31
0.0
  0
LINE
  5
FC
330
18
100
AcDbEntity
  8
ADP1DETAIL
100
AcDbLine
 10
7.91049273451563
 20
3.551773005588332
 30
0.0
 11
7.78549273451563
 21
3.426773005588332
 31
0.0
  0
LINE
  5
FD
330
18
100
AcDbEntity
  8
ADP1DETAIL
100
AcDbLine
 10
8.78549273451563
 20
2.757638172685272
 30
0.0
 11
8.78549273451563
 21
2.998407838491393
 31
0.0
  0
LINE
  5
FE
330
18
100
AcDbEntity
  8
ADP1DETAIL
100
AcDbLine
 10
8.91049273451563
 20
3.458023005588332
 30
0.0
 11
8.78549273451563
 21
3.583023005588332
 31
0.0
  0
DIMENSION
  5
FF
330
18
100
AcDbEntity
  8
ADPDIM
100
AcDbDimension
  2
*D0
 10
12.22173792948123
 20
2.048023005588332
 30
0.0
 11
12.22173792948123
 21
2.878023005588332
 31
0.0
  1
1.660
100
AcDbAlignedDimension
 13
10.54924273451563
 23
3.708023005588332
 33
0.0
 14
10.54924273451563
 24
2.048023005588332
 34
0.0
 50
90.0
100
AcDbRotatedDimension
  0
ARC
  5
100
330
18
100
AcDbEntity
  8
ADP1DETAIL
100
AcDbCircle
 10
10.54924273451563
 20
2.878023005588332
 30
0.0
 40
0.8299999999999998
100
AcDbArc
 50
270.0
 51
90.0
  0
ARC
  5
101
330
18
100
AcDbEntity
  8
ADP1DETAIL
100
AcDbCircle
 10
11.31674273451563
 20
0.9088123541228313
 30
0.0
 40
0.0625
100
AcDbArc
 50
0.0
 51
90.0
  0
TEXT
  5
10F
330
18
100
AcDbEntity
  8
ADPDIM
100
AcDbText
 10
1.874909080607291
 20
-1.562411097674645
 30
0.0
 40
0.125
  1
J U L I U S  B L U M  &  C O . ,  I N C .      ( 8 0 0 )  5 2 6 - 6 2 9 3        W W W . J U L I U S B L U M . C O M        P A R T  N o .  6 0 1
 41
1.25
  7
ARIAL_WIDE
 72
     1
 11
8.309616618124344
 21
-1.437411097674645
 31
0.0
100
AcDbText
 73
     3
  0
ENDSEC
  0
SECTION
  2
OBJECTS
  0
DICTIONARY
  5
C
330
0
100
AcDbDictionary
  3
ACAD_GROUP
350
D
  3
ACAD_LAYOUT
350
108
  3
ACAD_MLINESTYLE
350
E
  3
ACAD_PLOTSETTINGS
350
109
  3
ACAD_PLOTSTYLENAME
350
106
  3
ACDBHEADERROUNDTRIPXREC
350
253
  3
ACDBVARIABLEDICTIONARY
350
169
  0
DICTIONARY
  5
163
330
18
100
AcDbDictionary
280
     1
  3
ACAD_LAYOUTSELFREF
360
274
  0
DICTIONARY
  5
161
330
15
100
AcDbDictionary
280
     1
  3
ACAD_LAYOUTSELFREF
360
273
  0
DICTIONARY
  5
D
102
{ACAD_REACTORS
330
C
102
}
330
C
100
AcDbDictionary
  0
DICTIONARY
  5
108
102
{ACAD_REACTORS
330
C
102
}
330
C
100
AcDbDictionary
  0
DICTIONARY
  5
E
102
{ACAD_REACTORS
330
C
102
}
330
C
100
AcDbDictionary
  3
STANDARD
350
1B
  0
DICTIONARY
  5
109
102
{ACAD_REACTORS
330
C
102
}
330
C
100
AcDbDictionary
  0
ACDBDICTIONARYWDFLT
  5
106
102
{ACAD_REACTORS
330
C
102
}
330
C
100
AcDbDictionary
281
     1
  3
Normal
350
107
100
AcDbDictionaryWithDefault
340
107
  0
DICTIONARY
  5
253
102
{ACAD_REACTORS
330
C
102
}
330
C
100
AcDbDictionary
  3
CEPSNTYPE
350
25D
  3
FINGERPRINTGUID
350
25E
  3
HYPERLINKBASE
350
256
  3
INSUNITS
350
25C
  3
LAYOUTDICT
350
258
  3
LWETCUNION
350
25B
  3
PLOTSETDICT
350
259
  3
PLOTSTYLNAMDICT
350
25A
  3
PSVPSCALE
350
260
  3
PUCSBASE
350
263
  3
PUCSORGBACK
350
269
  3
PUCSORGBOTTOM
350
265
  3
PUCSORGFRONT
350
268
  3
PUCSORGLEFT
350
266
  3
PUCSORGRIGHT
350
267
  3
PUCSORGTOP
350
264
  3
PUCSORTHOREF
350
261
  3
PUCSORTHOVIEW
350
262
  3
STYLESHEET
350
257
  3
TSTACKALIGN
350
254
  3
TSTACKSIZE
350
255
  3
UCSBASE
350
26C
  3
UCSORGBACK
350
272
  3
UCSORGBOTTOM
350
26E
  3
UCSORGFRONT
350
271
  3
UCSORGLEFT
350
26F
  3
UCSORGRIGHT
350
270
  3
UCSORGTOP
350
26D
  3
UCSORTHOREF
350
26A
  3
UCSORTHOVIEW
350
26B
  3
VERSIONGUID
350
25F
  0
DICTIONARY
  5
169
102
{ACAD_REACTORS
330
C
102
}
330
C
100
AcDbDictionary
  3
DIMASSOC
350
16A
  0
XRECORD
  5
274
102
{ACAD_REACTORS
330
163
102
}
330
163
100
AcDbXrecord
340
18
  0
XRECORD
  5
273
102
{ACAD_REACTORS
330
161
102
}
330
161
100
AcDbXrecord
340
15
  0
MLINESTYLE
  5
1B
102
{ACAD_REACTORS
330
E
102
}
330
E
100
AcDbMlineStyle
  2
STANDARD
 70
     0
  3

 62
     0
 51
90.0
 52
90.0
 71
     2
 49
0.5
 62
   256
  6
BYLAYER
 49
-0.5
 62
   256
  6
BYLAYER
  0
ACDBPLACEHOLDER
  5
107
102
{ACAD_REACTORS
330
106
102
}
330
106
100
AcDbPlaceHolder
280
     0
  0
XRECORD
  5
25D
102
{ACAD_REACTORS
330
253
102
}
330
253
100
AcDbXrecord
 90
        0
  0
XRECORD
  5
25E
102
{ACAD_REACTORS
330
253
102
}
330
253
100
AcDbXrecord
  1
{E7D126BA-5799-4AE0-A9E4-91C829DA3E12}
  0
XRECORD
  5
256
102
{ACAD_REACTORS
330
253
102
}
330
253
100
AcDbXrecord
  1

  0
XRECORD
  5
25C
102
{ACAD_REACTORS
330
253
102
}
330
253
100
AcDbXrecord
 90
        0
  0
XRECORD
  5
258
102
{ACAD_REACTORS
330
253
102
}
330
253
100
AcDbXrecord
340
108
  0
XRECORD
  5
25B
102
{ACAD_REACTORS
330
253
102
}
330
253
100
AcDbXrecord
 90
    14877
  0
XRECORD
  5
259
102
{ACAD_REACTORS
330
253
102
}
330
253
100
AcDbXrecord
340
109
  0
XRECORD
  5
25A
102
{ACAD_REACTORS
330
253
102
}
330
253
100
AcDbXrecord
340
106
  0
XRECORD
  5
260
102
{ACAD_REACTORS
330
253
102
}
330
253
100
AcDbXrecord
 40
0.0
  0
XRECORD
  5
263
102
{ACAD_REACTORS
330
253
102
}
330
253
100
AcDbXrecord
340
0
  0
XRECORD
  5
269
102
{ACAD_REACTORS
330
253
102
}
330
253
100
AcDbXrecord
 10
0.0
 20
0.0
 30
0.0
  0
XRECORD
  5
265
102
{ACAD_REACTORS
330
253
102
}
330
253
100
AcDbXrecord
 10
0.0
 20
0.0
 30
0.0
  0
XRECORD
  5
268
102
{ACAD_REACTORS
330
253
102
}
330
253
100
AcDbXrecord
 10
0.0
 20
0.0
 30
0.0
  0
XRECORD
  5
266
102
{ACAD_REACTORS
330
253
102
}
330
253
100
AcDbXrecord
 10
0.0
 20
0.0
 30
0.0
  0
XRECORD
  5
267
102
{ACAD_REACTORS
330
253
102
}
330
253
100
AcDbXrecord
 10
0.0
 20
0.0
 30
0.0
  0
XRECORD
  5
264
102
{ACAD_REACTORS
330
253
102
}
330
253
100
AcDbXrecord
 10
0.0
 20
0.0
 30
0.0
  0
XRECORD
  5
261
102
{ACAD_REACTORS
330
253
102
}
330
253
100
AcDbXrecord
340
0
  0
XRECORD
  5
262
102
{ACAD_REACTORS
330
253
102
}
330
253
100
AcDbXrecord
 70
     0
  0
XRECORD
  5
257
102
{ACAD_REACTORS
330
253
102
}
330
253
100
AcDbXrecord
  1

  0
XRECORD
  5
254
102
{ACAD_REACTORS
330
253
102
}
330
253
100
AcDbXrecord
 90
        1
  0
XRECORD
  5
255
102
{ACAD_REACTORS
330
253
102
}
330
253
100
AcDbXrecord
 90
       70
  0
XRECORD
  5
26C
102
{ACAD_REACTORS
330
253
102
}
330
253
100
AcDbXrecord
340
0
  0
XRECORD
  5
272
102
{ACAD_REACTORS
330
253
102
}
330
253
100
AcDbXrecord
 10
0.0
 20
0.0
 30
0.0
  0
XRECORD
  5
26E
102
{ACAD_REACTORS
330
253
102
}
330
253
100
AcDbXrecord
 10
0.0
 20
0.0
 30
0.0
  0
XRECORD
  5
271
102
{ACAD_REACTORS
330
253
102
}
330
253
100
AcDbXrecord
 10
0.0
 20
0.0
 30
0.0
  0
XRECORD
  5
26F
102
{ACAD_REACTORS
330
253
102
}
330
253
100
AcDbXrecord
 10
0.0
 20
0.0
 30
0.0
  0
XRECORD
  5
270
102
{ACAD_REACTORS
330
253
102
}
330
253
100
AcDbXrecord
 10
0.0
 20
0.0
 30
0.0
  0
XRECORD
  5
26D
102
{ACAD_REACTORS
330
253
102
}
330
253
100
AcDbXrecord
 10
0.0
 20
0.0
 30
0.0
  0
XRECORD
  5
26A
102
{ACAD_REACTORS
330
253
102
}
330
253
100
AcDbXrecord
340
0
  0
XRECORD
  5
26B
102
{ACAD_REACTORS
330
253
102
}
330
253
100
AcDbXrecord
 70
     0
  0
XRECORD
  5
25F
102
{ACAD_REACTORS
330
253
102
}
330
253
100
AcDbXrecord
  1
{1ACAFD22-FDD3-41E5-B795-10933B2E9951}
  0
DICTIONARYVAR
  5
16A
102
{ACAD_REACTORS
330
169
102
}
330
169
100
DictionaryVariables
280
     0
  1
1
  0
ENDSEC
  0
EOF
