  0
SECTION
  2
HEADER
  9
$ACADVER
  1
AC1014
  9
$ACADMAINTVER
 70
     9
  9
$DWGCODEPAGE
  3
ANSI_1252
  9
$INSBASE
 10
9.922476535592357
 20
-38.0296261655264
 30
0.0
  9
$EXTMIN
 10
-8.289775890081255
 20
-40.00718517844545
 30
0.0
  9
$EXTMAX
 10
23.88376179750401
 20
-25.55792712359346
 30
0.0
  9
$LIMMIN
 10
0.0
 20
0.0
  9
$LIMMAX
 10
36.0
 20
36.0
  9
$ORTHOMODE
 70
     1
  9
$REGENMODE
 70
     1
  9
$FILLMODE
 70
     1
  9
$QTEXTMODE
 70
     0
  9
$MIRRTEXT
 70
     1
  9
$DRAGMODE
 70
     0
  9
$LTSCALE
 40
1.0
  9
$OSMODE
 70
    37
  9
$ATTMODE
 70
     1
  9
$TEXTSIZE
 40
0.2
  9
$TRACEWID
 40
0.05
  9
$TEXTSTYLE
  7
STANDARD
  9
$CLAYER
  8
ADPDIM
  9
$CELTYPE
  6
BYLAYER
  9
$CECOLOR
 62
   256
  9
$CELTSCALE
 40
1.0
  9
$DELOBJ
 70
     1
  9
$DISPSILH
 70
     0
  9
$DIMSCALE
 40
1.0
  9
$DIMASZ
 40
0.125
  9
$DIMEXO
 40
0.0625
  9
$DIMDLI
 40
0.38
  9
$DIMRND
 40
0.0
  9
$DIMDLE
 40
0.0
  9
$DIMEXE
 40
0.18
  9
$DIMTP
 40
0.0
  9
$DIMTM
 40
0.0
  9
$DIMTXT
 40
0.125
  9
$DIMCEN
 40
0.1875
  9
$DIMTSZ
 40
0.125
  9
$DIMTOL
 70
     0
  9
$DIMLIM
 70
     0
  9
$DIMTIH
 70
     0
  9
$DIMTOH
 70
     0
  9
$DIMSE1
 70
     0
  9
$DIMSE2
 70
     0
  9
$DIMTAD
 70
     0
  9
$DIMZIN
 70
     3
  9
$DIMBLK
  1

  9
$DIMASO
 70
     1
  9
$DIMSHO
 70
     1
  9
$DIMPOST
  1

  9
$DIMAPOST
  1

  9
$DIMALT
 70
     0
  9
$DIMALTD
 70
     1
  9
$DIMALTF
 40
25.4
  9
$DIMLFAC
 40
1.0
  9
$DIMTOFL
 70
     0
  9
$DIMTVP
 40
0.0
  9
$DIMTIX
 70
     0
  9
$DIMSOXD
 70
     0
  9
$DIMSAH
 70
     0
  9
$DIMBLK1
  1

  9
$DIMBLK2
  1

  9
$DIMSTYLE
  2
STANDARD
  9
$DIMCLRD
 70
     0
  9
$DIMCLRE
 70
     0
  9
$DIMCLRT
 70
     0
  9
$DIMTFAC
 40
1.0
  9
$DIMGAP
 40
0.125
  9
$DIMJUST
 70
     0
  9
$DIMSD1
 70
     0
  9
$DIMSD2
 70
     0
  9
$DIMTOLJ
 70
     1
  9
$DIMTZIN
 70
     0
  9
$DIMALTZ
 70
     0
  9
$DIMALTTZ
 70
     0
  9
$DIMFIT
 70
     3
  9
$DIMUPT
 70
     0
  9
$DIMUNIT
 70
     2
  9
$DIMDEC
 70
     4
  9
$DIMTDEC
 70
     4
  9
$DIMALTU
 70
     2
  9
$DIMALTTD
 70
     2
  9
$DIMTXSTY
  7
STANDARD
  9
$DIMAUNIT
 70
     0
  9
$LUNITS
 70
     5
  9
$LUPREC
 70
     5
  9
$SKETCHINC
 40
0.1
  9
$FILLETRAD
 40
0.062
  9
$AUNITS
 70
     0
  9
$AUPREC
 70
     0
  9
$MENU
  1
acad
  9
$ELEVATION
 40
0.0
  9
$PELEVATION
 40
0.0
  9
$THICKNESS
 40
0.0
  9
$LIMCHECK
 70
     0
  9
$BLIPMODE
 70
     0
  9
$CHAMFERA
 40
0.0
  9
$CHAMFERB
 40
0.0
  9
$CHAMFERC
 40
0.0
  9
$CHAMFERD
 40
0.0
  9
$SKPOLY
 70
     0
  9
$TDCREATE
 40
2450409.633669942
  9
$TDUPDATE
 40
2452297.073964837
  9
$TDINDWG
 40
0.0053988079
  9
$TDUSRTIMER
 40
0.0053988079
  9
$USRTIMER
 70
     1
  9
$ANGBASE
 50
0.0
  9
$ANGDIR
 70
     0
  9
$PDMODE
 70
     0
  9
$PDSIZE
 40
0.0
  9
$PLINEWID
 40
0.0
  9
$COORDS
 70
     2
  9
$SPLFRAME
 70
     0
  9
$SPLINETYPE
 70
     6
  9
$SPLINESEGS
 70
     8
  9
$ATTDIA
 70
     0
  9
$ATTREQ
 70
     1
  9
$HANDLING
 70
 22529
  9
$HANDSEED
  5
39F
  9
$SURFTAB1
 70
     6
  9
$SURFTAB2
 70
     6
  9
$SURFTYPE
 70
     6
  9
$SURFU
 70
     6
  9
$SURFV
 70
     6
  9
$UCSNAME
  2

  9
$UCSORG
 10
0.0
 20
0.0
 30
0.0
  9
$UCSXDIR
 10
1.0
 20
0.0
 30
0.0
  9
$UCSYDIR
 10
0.0
 20
1.0
 30
0.0
  9
$PUCSNAME
  2

  9
$PUCSORG
 10
0.0
 20
0.0
 30
0.0
  9
$PUCSXDIR
 10
1.0
 20
0.0
 30
0.0
  9
$PUCSYDIR
 10
0.0
 20
1.0
 30
0.0
  9
$USERI1
 70
     0
  9
$USERI2
 70
     0
  9
$USERI3
 70
     0
  9
$USERI4
 70
     0
  9
$USERI5
 70
     0
  9
$USERR1
 40
0.0
  9
$USERR2
 40
0.0
  9
$USERR3
 40
0.0
  9
$USERR4
 40
0.0
  9
$USERR5
 40
0.0
  9
$WORLDVIEW
 70
     1
  9
$SHADEDGE
 70
     3
  9
$SHADEDIF
 70
    70
  9
$TILEMODE
 70
     1
  9
$MAXACTVP
 70
    15
  9
$PINSBASE
 10
6.514626592329270E+99
 20
8.884592250273721E+99
 30
0.0
  9
$PLIMCHECK
 70
     0
  9
$PEXTMIN
 10
1.000000000000000E+20
 20
1.000000000000000E+20
 30
1.000000000000000E+20
  9
$PEXTMAX
 10
-1.000000000000000E+20
 20
-1.000000000000000E+20
 30
-1.000000000000000E+20
  9
$PLIMMIN
 10
0.0
 20
0.0
  9
$PLIMMAX
 10
12.0
 20
9.0
  9
$UNITMODE
 70
     0
  9
$VISRETAIN
 70
     0
  9
$PLINEGEN
 70
     0
  9
$PSLTSCALE
 70
     1
  9
$TREEDEPTH
 70
  3020
  9
$PICKSTYLE
 70
     1
  9
$CMLSTYLE
  2
STANDARD
  9
$CMLJUST
 70
     0
  9
$CMLSCALE
 40
1.0
  9
$PROXYGRAPHICS
 70
     1
  9
$MEASUREMENT
 70
     0
  0
ENDSEC
  0
SECTION
  2
CLASSES
  0
CLASS
  1
ACDBDICTIONARYWDFLT
  2
AcDbDictionaryWithDefault
  3
AutoCAD 2000
 90
        0
280
     0
281
     0
  0
CLASS
  1
ACDBPLACEHOLDER
  2
AcDbPlaceHolder
  3
AutoCAD 2000
 90
        0
280
     0
281
     0
  0
CLASS
  1
LAYOUT
  2
AcDbLayout
  3
AutoCAD 2000
 90
        0
280
     0
281
     0
  0
CLASS
  1
DICTIONARYVAR
  2
AcDbDictionaryVar
  3
AutoCAD 2000
 90
        0
280
     0
281
     0
  0
CLASS
  1
LONG_TRANSACTION
  2
AcDbLongTransaction
  3
AutoCAD 2000
 90
        0
280
     0
281
     0
  0
CLASS
  1
LWPOLYLINE
  2
AcDbPolyline
  3
AutoCAD 2000
 90
        0
280
     0
281
     1
  0
CLASS
  1
HATCH
  2
AcDbHatch
  3
AutoCAD 2000
 90
        0
280
     0
281
     1
  0
CLASS
  1
XRECORD
  2
AcDbXrecord
  3
AutoCAD 2000
 90
        0
280
     0
281
     0
  0
CLASS
  1
LONG_TRANSACTION
  2
AcDbLongTransaction
  3
AutoCAD 2000
 90
        0
280
     0
281
     0
  0
CLASS
  1
LWPOLYLINE
  2
AcDbPolyline
  3
AutoCAD 2000
 90
        0
280
     0
281
     1
  0
CLASS
  1
HATCH
  2
AcDbHatch
  3
AutoCAD 2000
 90
        0
280
     0
281
     1
  0
CLASS
  1
XRECORD
  2
AcDbXrecord
  3
AutoCAD 2000
 90
        0
280
     0
281
     0
  0
CLASS
  1
LONG_TRANSACTION
  2
AcDbLongTransaction
  3
AutoCAD 2000
 90
        0
280
     0
281
     0
  0
CLASS
  1
LWPOLYLINE
  2
AcDbPolyline
  3
AutoCAD 2000
 90
        0
280
     0
281
     1
  0
CLASS
  1
HATCH
  2
AcDbHatch
  3
AutoCAD 2000
 90
        0
280
     0
281
     1
  0
CLASS
  1
XRECORD
  2
AcDbXrecord
  3
AutoCAD 2000
 90
        0
280
     0
281
     0
  0
CLASS
  1
LONG_TRANSACTION
  2
AcDbLongTransaction
  3
AutoCAD 2000
 90
        0
280
     0
281
     0
  0
CLASS
  1
LWPOLYLINE
  2
AcDbPolyline
  3
AutoCAD 2000
 90
        0
280
     0
281
     1
  0
CLASS
  1
HATCH
  2
AcDbHatch
  3
AutoCAD 2000
 90
        0
280
     0
281
     1
  0
CLASS
  1
XRECORD
  2
AcDbXrecord
  3
AutoCAD 2000
 90
        0
280
     0
281
     0
  0
CLASS
  1
LONG_TRANSACTION
  2
AcDbLongTransaction
  3
AutoCAD 2000
 90
        0
280
     0
281
     0
  0
CLASS
  1
LWPOLYLINE
  2
AcDbPolyline
  3
AutoCAD 2000
 90
        0
280
     0
281
     1
  0
CLASS
  1
HATCH
  2
AcDbHatch
  3
AutoCAD 2000
 90
        0
280
     0
281
     1
  0
CLASS
  1
XRECORD
  2
AcDbXrecord
  3
AutoCAD 2000
 90
        0
280
     0
281
     0
  0
CLASS
  1
LONG_TRANSACTION
  2
AcDbLongTransaction
  3
AutoCAD 2000
 90
        0
280
     0
281
     0
  0
CLASS
  1
LWPOLYLINE
  2
AcDbPolyline
  3
AutoCAD 2000
 90
        0
280
     0
281
     1
  0
CLASS
  1
HATCH
  2
AcDbHatch
  3
AutoCAD 2000
 90
        0
280
     0
281
     1
  0
CLASS
  1
XRECORD
  2
AcDbXrecord
  3
AutoCAD 2000
 90
        0
280
     0
281
     0
  0
CLASS
  1
LONG_TRANSACTION
  2
AcDbLongTransaction
  3
AutoCAD 2000
 90
        0
280
     0
281
     0
  0
CLASS
  1
LWPOLYLINE
  2
AcDbPolyline
  3
AutoCAD 2000
 90
        0
280
     0
281
     1
  0
CLASS
  1
HATCH
  2
AcDbHatch
  3
AutoCAD 2000
 90
        0
280
     0
281
     1
  0
CLASS
  1
XRECORD
  2
AcDbXrecord
  3
AutoCAD 2000
 90
        0
280
     0
281
     0
  0
CLASS
  1
LONG_TRANSACTION
  2
AcDbLongTransaction
  3
AutoCAD 2000
 90
        0
280
     0
281
     0
  0
CLASS
  1
LWPOLYLINE
  2
AcDbPolyline
  3
AutoCAD 2000
 90
        0
280
     0
281
     1
  0
CLASS
  1
HATCH
  2
AcDbHatch
  3
AutoCAD 2000
 90
        0
280
     0
281
     1
  0
CLASS
  1
XRECORD
  2
AcDbXrecord
  3
AutoCAD 2000
 90
        0
280
     0
281
     0
  0
ENDSEC
  0
SECTION
  2
TABLES
  0
TABLE
  2
VPORT
  5
8
330
0
100
AcDbSymbolTable
 70
     2
  0
VPORT
  5
37C
330
8
100
AcDbSymbolTableRecord
100
AcDbViewportTableRecord
  2
*ACTIVE
 70
     0
 10
0.0
 20
0.0
 11
1.0
 21
1.0
 12
7.823077138877113
 22
-32.78332474804499
 13
0.0
 23
0.0
 14
0.5740882589684922
 24
0.5740882589684922
 15
0.5
 25
0.5
 16
0.0
 26
0.0
 36
1.0
 17
0.0
 27
0.0
 37
0.0
 40
20.62019657981547
 41
1.570528967254408
 42
50.0
 43
0.0
 44
0.0
 50
0.0
 51
0.0
 71
     0
 72
   100
 73
     1
 74
     0
 75
     0
 76
     0
 77
     0
 78
     0
  0
ENDTAB
  0
TABLE
  2
LTYPE
  5
5
330
0
100
AcDbSymbolTable
 70
     1
  0
LTYPE
  5
12
330
5
100
AcDbSymbolTableRecord
100
AcDbLinetypeTableRecord
  2
BYBLOCK
 70
     0
  3

 72
    65
 73
     0
 40
0.0
  0
LTYPE
  5
13
330
5
100
AcDbSymbolTableRecord
100
AcDbLinetypeTableRecord
  2
BYLAYER
 70
     0
  3

 72
    65
 73
     0
 40
0.0
  0
LTYPE
  5
14
330
5
100
AcDbSymbolTableRecord
100
AcDbLinetypeTableRecord
  2
CONTINUOUS
 70
     0
  3
Solid line
 72
    65
 73
     0
 40
0.0
  0
ENDTAB
  0
TABLE
  2
LAYER
  5
2
330
0
100
AcDbSymbolTable
 70
     3
  0
LAYER
  5
F
330
2
100
AcDbSymbolTableRecord
100
AcDbLayerTableRecord
  2
0
 70
     0
 62
     7
  6
CONTINUOUS
  0
LAYER
  5
96
330
2
100
AcDbSymbolTableRecord
100
AcDbLayerTableRecord
  2
DEFPOINTS
 70
     0
 62
     7
  6
CONTINUOUS
  0
LAYER
  5
99
330
2
100
AcDbSymbolTableRecord
100
AcDbLayerTableRecord
  2
ADPDIM
 70
     0
 62
     3
  6
CONTINUOUS
  0
ENDTAB
  0
TABLE
  2
STYLE
  5
3
330
0
100
AcDbSymbolTable
 70
     2
  0
STYLE
  5
10
330
3
100
AcDbSymbolTableRecord
100
AcDbTextStyleTableRecord
  2
STANDARD
 70
     0
 40
0.0
 41
1.0
 50
0.0
 71
     0
 42
0.2
  3
txt
  4

  0
STYLE
  5
1AB
330
3
100
AcDbSymbolTableRecord
100
AcDbTextStyleTableRecord
  2
ARIAL_WIDE
 70
     0
 40
0.0
 41
1.25
 50
0.0
 71
     0
 42
0.2
  3
ARIAL.TTF
  4

1001
ACAD
1000
Arial
1071
       34
  0
ENDTAB
  0
TABLE
  2
VIEW
  5
6
330
0
100
AcDbSymbolTable
 70
     0
  0
ENDTAB
  0
TABLE
  2
UCS
  5
7
330
0
100
AcDbSymbolTable
 70
     0
  0
ENDTAB
  0
TABLE
  2
APPID
  5
9
330
0
100
AcDbSymbolTable
 70
     1
  0
APPID
  5
11
330
9
100
AcDbSymbolTableRecord
100
AcDbRegAppTableRecord
  2
ACAD
 70
     0
  0
ENDTAB
  0
TABLE
  2
DIMSTYLE
  5
A
330
0
100
AcDbSymbolTable
 70
     1
  0
DIMSTYLE
105
19F
330
A
100
AcDbSymbolTableRecord
100
AcDbDimStyleTableRecord
  2
STANDARD
 70
     0
  3

  4

  5

  6

  7

 40
1.0
 41
0.18
 42
0.0625
 43
0.38
 44
0.18
 45
0.0
 46
0.0
 47
0.0
 48
0.0
140
0.18
141
0.09
142
0.0
143
25.4
144
1.0
145
0.0
146
1.0
147
0.09
 71
     0
 72
     0
 73
     1
 74
     1
 75
     0
 76
     0
 77
     0
 78
     0
170
     0
171
     2
172
     0
173
     0
174
     0
175
     0
176
     0
177
     0
178
     0
270
     2
271
     4
272
     4
273
     2
274
     2
340
10
275
     0
280
     0
281
     0
282
     0
283
     1
284
     0
285
     0
286
     0
287
     3
288
     0
  0
ENDTAB
  0
TABLE
  2
BLOCK_RECORD
  5
1
330
0
100
AcDbSymbolTable
 70
     2
  0
BLOCK_RECORD
  5
18
102
{ACAD_XDICTIONARY
360
200
102
}
330
1
100
AcDbSymbolTableRecord
100
AcDbBlockTableRecord
  2
*MODEL_SPACE
  0
BLOCK_RECORD
  5
15
102
{ACAD_XDICTIONARY
360
1FE
102
}
330
1
100
AcDbSymbolTableRecord
100
AcDbBlockTableRecord
  2
*PAPER_SPACE
  0
BLOCK_RECORD
  5
8B
330
1
100
AcDbSymbolTableRecord
100
AcDbBlockTableRecord
  2
*D0
  0
BLOCK_RECORD
  5
91
330
1
100
AcDbSymbolTableRecord
100
AcDbBlockTableRecord
  2
*D1
  0
ENDTAB
  0
ENDSEC
  0
SECTION
  2
BLOCKS
  0
BLOCK
  5
9C
330
18
100
AcDbEntity
  8
0
100
AcDbBlockBegin
  2
*MODEL_SPACE
 70
     0
 10
0.0
 20
0.0
 30
0.0
  3
*MODEL_SPACE
  1

  0
ENDBLK
  5
9D
330
18
100
AcDbEntity
  8
0
100
AcDbBlockEnd
  0
BLOCK
  5
9A
330
15
100
AcDbEntity
 67
     1
  8
0
100
AcDbBlockBegin
  2
*PAPER_SPACE
 70
     0
 10
0.0
 20
0.0
 30
0.0
  3
*PAPER_SPACE
  1

  0
ENDBLK
  5
9B
330
15
100
AcDbEntity
 67
     1
  8
0
100
AcDbBlockEnd
  0
BLOCK
  5
9F
330
8B
100
AcDbEntity
  8
0
100
AcDbBlockBegin
  2
*D0
 70
     1
 10
0.0
 20
0.0
 30
0.0
  3
*D0
  1

  0
LINE
  5
A0
330
8B
100
AcDbEntity
  8
0
  6
BYBLOCK
 62
     0
100
AcDbLine
 10
3.796992953711378
 20
-34.87618385528045
 30
0.0
 11
3.796992953711378
 21
-38.81012111151331
 31
0.0
  0
LINE
  5
A1
330
8B
100
AcDbEntity
  8
0
  6
BYBLOCK
 62
     0
100
AcDbLine
 10
11.79699295371137
 20
-34.84490155202614
 30
0.0
 11
11.79699295371137
 21
-38.81012111151331
 31
0.0
  0
LINE
  5
A2
330
8B
100
AcDbEntity
  8
0
  6
BYBLOCK
 62
     0
100
AcDbLine
 10
3.796992953711378
 20
-38.63012111151332
 30
0.0
 11
7.63032628704471
 21
-38.63012111151332
 31
0.0
  0
LINE
  5
A3
330
8B
100
AcDbEntity
  8
0
  6
BYBLOCK
 62
     0
100
AcDbLine
 10
11.79699295371137
 20
-38.63012111151332
 30
0.0
 11
7.963659620378044
 21
-38.63012111151332
 31
0.0
  0
LINE
  5
A4
330
8B
100
AcDbEntity
  8
0
  6
BYBLOCK
 62
     0
100
AcDbLine
 10
3.671992953711378
 20
-38.75512111151332
 30
0.0
 11
3.921992953711378
 21
-38.50512111151331
 31
0.0
  0
LINE
  5
A5
330
8B
100
AcDbEntity
  8
0
  6
BYBLOCK
 62
     0
100
AcDbLine
 10
11.67199295371137
 20
-38.75512111151332
 30
0.0
 11
11.92199295371137
 21
-38.50512111151331
 31
0.0
  0
TEXT
  5
A6
330
8B
100
AcDbEntity
  8
0
  6
BYBLOCK
 62
     0
100
AcDbText
 10
7.75532628704471
 20
-38.69262111151332
 30
0.0
 40
0.125
  1
8
 72
     1
 11
7.796992953711377
 21
-38.63012111151332
 31
0.0
100
AcDbText
 73
     2
  0
POINT
  5
A7
330
8B
100
AcDbEntity
  8
DEFPOINTS
  6
BYBLOCK
 62
     0
100
AcDbPoint
 10
3.796992953711378
 20
-34.81368385528045
 30
0.0
  0
POINT
  5
A8
330
8B
100
AcDbEntity
  8
DEFPOINTS
  6
BYBLOCK
 62
     0
100
AcDbPoint
 10
11.79699295371137
 20
-34.78240155202614
 30
0.0
  0
POINT
  5
A9
330
8B
100
AcDbEntity
  8
DEFPOINTS
  6
BYBLOCK
 62
     0
100
AcDbPoint
 10
11.79699295371137
 20
-38.63012111151332
 30
0.0
  0
ENDBLK
  5
AA
330
8B
100
AcDbEntity
  8
0
100
AcDbBlockEnd
  0
BLOCK
  5
AB
330
91
100
AcDbEntity
  8
0
100
AcDbBlockBegin
  2
*D1
 70
     1
 10
0.0
 20
0.0
 30
0.0
  3
*D1
  1

  0
LINE
  5
AC
330
91
100
AcDbEntity
  8
0
  6
BYBLOCK
 62
     0
100
AcDbLine
 10
9.922476535592357
 20
-38.05477668609883
 30
0.0
 11
12.69963344803187
 21
-38.05477668609883
 31
0.0
  0
LINE
  5
AD
330
91
100
AcDbEntity
  8
0
  6
BYBLOCK
 62
     0
100
AcDbLine
 10
10.11021709341216
 20
-26.17977668609883
 30
0.0
 11
12.69963344803187
 21
-26.17977668609883
 31
0.0
  0
LINE
  5
AE
330
91
100
AcDbEntity
  8
0
  6
BYBLOCK
 62
     0
100
AcDbLine
 10
12.51963344803187
 20
-38.05477668609883
 30
0.0
 11
12.51963344803187
 21
-32.55477668609883
 31
0.0
  0
LINE
  5
AF
330
91
100
AcDbEntity
  8
0
  6
BYBLOCK
 62
     0
100
AcDbLine
 10
12.51963344803187
 20
-26.17977668609883
 30
0.0
 11
12.51963344803187
 21
-31.67977668609883
 31
0.0
  0
LINE
  5
B0
330
91
100
AcDbEntity
  8
0
  6
BYBLOCK
 62
     0
100
AcDbLine
 10
12.64463344803187
 20
-38.17977668609883
 30
0.0
 11
12.39463344803187
 21
-37.92977668609883
 31
0.0
  0
LINE
  5
B1
330
91
100
AcDbEntity
  8
0
  6
BYBLOCK
 62
     0
100
AcDbLine
 10
12.64463344803187
 20
-26.30477668609883
 30
0.0
 11
12.39463344803187
 21
-26.05477668609883
 31
0.0
  0
TEXT
  5
B2
330
91
100
AcDbEntity
  8
0
  6
BYBLOCK
 62
     0
100
AcDbText
 10
12.58213344803187
 20
-32.42977668609883
 30
0.0
 40
0.125
  1
11 7/8
 50
90.0
 72
     1
 11
12.51963344803187
 21
-32.11727668609883
 31
0.0
100
AcDbText
 73
     2
  0
POINT
  5
B3
330
91
100
AcDbEntity
  8
DEFPOINTS
  6
BYBLOCK
 62
     0
100
AcDbPoint
 10
9.859976535592357
 20
-38.05477668609883
 30
0.0
  0
POINT
  5
B4
330
91
100
AcDbEntity
  8
DEFPOINTS
  6
BYBLOCK
 62
     0
100
AcDbPoint
 10
10.04771709341216
 20
-26.17977668609883
 30
0.0
  0
POINT
  5
B5
330
91
100
AcDbEntity
  8
DEFPOINTS
  6
BYBLOCK
 62
     0
100
AcDbPoint
 10
12.51963344803187
 20
-26.17977668609883
 30
0.0
  0
ENDBLK
  5
B6
330
91
100
AcDbEntity
  8
0
100
AcDbBlockEnd
  0
ENDSEC
  0
SECTION
  2
ENTITIES
  0
DIMENSION
  5
B7
330
18
100
AcDbEntity
  8
ADPDIM
100
AcDbDimension
  2
*D1
 10
12.51963344803187
 20
-26.1546261655264
 30
0.0
 11
12.51963344803187
 21
-32.0921261655264
 31
0.0
 12
0.0
 22
0.0251505205724243
 32
0.0
100
AcDbAlignedDimension
 13
9.859976535592357
 23
-38.0296261655264
 33
0.0
 14
10.04771709341216
 24
-26.1546261655264
 34
0.0
 50
90.0
100
AcDbRotatedDimension
  0
DIMENSION
  5
B8
330
18
100
AcDbEntity
  8
ADPDIM
100
AcDbDimension
  2
*D0
 10
11.79699295371137
 20
-38.63012111151332
 30
0.0
 11
7.796992953711377
 21
-38.63012111151332
 31
0.0
100
AcDbAlignedDimension
 13
3.796992953711378
 23
-34.81368385528045
 33
0.0
 14
11.79699295371137
 24
-34.78240155202614
 34
0.0
100
AcDbRotatedDimension
  0
LWPOLYLINE
  5
B9
330
18
100
AcDbEntity
  8
0
100
AcDbPolyline
 90
       16
 70
     0
 43
0.0
 10
8.174035043266268
 20
-35.81633898371667
 42
-0.1393912636799166
 10
8.522092672519931
 20
-34.15414938712086
 42
-0.2298943276920212
 10
9.93366022394343
 20
-33.16843226801134
 42
-0.3095849545540244
 10
11.63527578077851
 20
-33.94154371556762
 42
-0.2675484148142576
 10
11.59660262235125
 20
-35.48776661068017
 42
-0.3398119836605429
 10
10.08835251625603
 20
-35.66171674115595
 42
-0.4487470284822718
 10
10.18503518472656
 20
-34.50204949157066
 42
-0.466336844628339
 10
10.82314104698942
 20
-34.73398297278807
 42
-0.6497536343137837
 10
10.47508330393695
 20
-35.08188315548874
 42
-0.512459751535356
 10
10.45574672472332
 20
-34.81129413319386
 42
0.4185628315886
 10
10.24304480856864
 20
-35.27516101737781
 42
0.3848295495591143
 10
10.97783333930203
 20
-35.52642223000851
 42
0.322605639339208
 10
11.5579295777228
 20
-34.56003292056316
 42
0.3544527775494652
 10
10.32039101162434
 20
-33.51633245071201
 42
0.2890333664296716
 10
8.773467747101872
 20
-34.34742724900992
 42
0.0772640841143924
 10
8.425410004049403
 20
-35.81633898371667
 42
-0.9244860545156408
  0
LWPOLYLINE
  5
CB
330
18
100
AcDbEntity
  8
0
100
AcDbPolyline
 90
        8
 70
     0
 43
0.0
 10
8.10629607263273
 20
-27.28451976373278
 42
-0.2293577243006308
 10
8.859205412411416
 20
-26.40782379262515
 42
-0.5770406067311554
 10
11.8049137702555
 20
-28.39279572768532
 42
-0.1313362064129519
 10
11.39119075887758
 20
-30.57626459906328
 42
-0.0988873368461676
 10
10.61339133427657
 20
-31.53566762696999
 42
0.0018991777539452
 10
8.991596680846217
 20
-33.18981086721889
 42
0.1131375642439248
 10
8.577873669468296
 20
-33.83492661167414
 42
0.0431017255554102
 10
8.1972483901936
 20
-35.15824115711176
 42
-16.57887153171589
  0
LWPOLYLINE
  5
D5
330
18
100
AcDbEntity
  8
0
100
AcDbPolyline
 90
        9
 70
     0
 43
0.0
 10
8.52822673129156
 20
-27.29332142501361
 42
-0.0386039134348193
 10
8.627520607645038
 20
-27.08602259360751
 42
-0.2724703907849761
 10
9.93488544600715
 20
-26.5897795513906
 42
-0.3084487434553329
 10
11.37464189282597
 20
-27.97925997607496
 42
-0.1230895691235545
 10
11.04366321170611
 20
-30.36122601757819
 42
-0.069744905123636
 10
10.41480426161342
 20
-31.23792198868583
 42
-0.0151481291747617
 10
9.322575361966077
 20
-32.379280775358
 42
-0.0284797177462759
 10
8.776460742131451
 20
-32.99131369709361
 42
0.1926144779287384
 10
8.379286596805144
 20
-33.58680520746942
 42
-0.8112720862930284
  0
LINE
  5
E0
330
18
100
AcDbEntity
  8
0
100
AcDbLine
 10
8.531781484444763
 20
-36.41550037904805
 30
0.0
 11
8.531781484444763
 21
-36.62810605060129
 31
0.0
  0
LWPOLYLINE
  5
E1
330
18
100
AcDbEntity
  8
0
100
AcDbPolyline
 90
        5
 70
     0
 43
0.0
 10
8.483282240643386
 20
-36.59734859910129
 42
0.5309203925626839
 10
9.675349548335692
 20
-37.62499282987052
 42
0.286314430470217
 10
10.25083031756646
 20
-36.92619475294745
 42
0.3264465461162768
 10
9.963089932951078
 20
-36.55624282987052
 42
0.3027756377319881
 10
9.716455317566463
 20
-36.63845436833206
 42
-0.4890838056656927
  0
LINE
  5
E8
330
18
100
AcDbEntity
  8
0
100
AcDbLine
 10
7.062204422977993
 20
-36.62810605060129
 30
0.0
 11
7.062204422977993
 21
-36.41550037904805
 31
0.0
  0
LWPOLYLINE
  5
E9
330
18
100
AcDbEntity
  8
0
100
AcDbPolyline
 90
        7
 70
     0
 43
0.0
 10
9.716455317566463
 20
-36.63845436833206
 42
-0.6808574455132165
 10
9.880878394489538
 20
-37.00840629140898
 42
-0.9999999999999959
 10
9.428714932951077
 20
-36.47403129140899
 42
-0.3363886112001219
 10
10.08640724064338
 20
-36.30960821448592
 42
-0.3633416547566655
 10
10.62078224064338
 20
-36.96730052217822
 42
-0.2857142857142862
 10
9.83977262525877
 20
-37.91273321448591
 42
-0.5458524221187086
 10
8.195541856028004
 20
-36.59734859910129
 42
-19.35301510519436
  0
LWPOLYLINE
  5
F2
330
18
100
AcDbEntity
  8
0
100
AcDbPolyline
 90
        7
 70
     0
 43
0.0
 10
5.911242884516454
 20
-36.63845436833206
 42
0.6808574455132165
 10
5.746819807593377
 20
-37.00840629140898
 42
0.9999999999999959
 10
6.198983269131838
 20
-36.47403129140899
 42
0.3363886112001219
 10
5.54129096143953
 20
-36.30960821448592
 42
0.3633416547566655
 10
5.006915961439531
 20
-36.96730052217822
 42
0.2857142857142862
 10
5.787925576824147
 20
-37.91273321448591
 42
0.5458524221187086
 10
7.432156346054915
 20
-36.59734859910129
 42
19.35301510519436
  0
LWPOLYLINE
  5
FB
330
18
100
AcDbEntity
  8
0
100
AcDbPolyline
 90
        5
 70
     0
 43
0.0
 10
7.144415961439531
 20
-36.59734859910129
 42
-0.5309203925626839
 10
5.952348653747224
 20
-37.62499282987052
 42
-0.286314430470217
 10
5.376867884516453
 20
-36.92619475294745
 42
-0.3264465461162768
 10
5.664608269131839
 20
-36.55624282987052
 42
-0.3027756377319881
 10
5.911242884516454
 20
-36.63845436833206
 42
0.4890838056656927
  0
LINE
  5
102
330
18
100
AcDbEntity
  8
0
100
AcDbLine
 10
8.531781484444763
 20
-36.62810605060129
 30
0.0
 11
7.062204422977993
 21
-36.62810605060129
 31
0.0
  0
LINE
  5
103
330
18
100
AcDbEntity
  8
0
100
AcDbLine
 10
7.062204422977993
 20
-36.02894465526992
 30
0.0
 11
8.531781484444763
 21
-36.02894465526992
 31
0.0
  0
LINE
  5
104
330
18
100
AcDbEntity
  8
0
100
AcDbLine
 10
7.062204422977993
 20
-36.41550037904805
 30
0.0
 11
8.531781484444763
 21
-36.41550037904805
 31
0.0
  0
LWPOLYLINE
  5
105
330
18
100
AcDbEntity
  8
0
100
AcDbPolyline
 90
        4
 70
     1
 43
0.0
 10
7.038823686317901
 20
-27.28451976373278
 10
7.038823686317901
 20
-27.4333926997786
 10
8.52822673129156
 20
-27.4333926997786
 10
8.52822673129156
 20
-27.28451976373278
  0
LWPOLYLINE
  5
10B
330
18
100
AcDbEntity
  8
0
100
AcDbPolyline
 90
        4
 70
     1
 43
0.0
 10
7.038823686317901
 20
-27.88001127410859
 10
7.038823686317901
 20
-28.02888421015441
 10
8.52822673129156
 20
-28.02888421015441
 10
8.52822673129156
 20
-27.88001127410859
  0
LINE
  5
111
330
18
100
AcDbEntity
  8
0
100
AcDbLine
 10
8.531781484444763
 20
-35.81633898371667
 30
0.0
 11
7.062204422977993
 21
-35.81633898371667
 31
0.0
  0
LWPOLYLINE
  5
112
330
18
100
AcDbEntity
  8
0
100
AcDbPolyline
 90
        8
 70
     0
 43
0.0
 10
7.419448965592598
 20
-35.2244070363585
 10
7.287057697157797
 20
-33.95071672500033
 42
0.630500203607038
 10
7.253959625032667
 20
-33.63642944154888
 42
-0.2050065933848537
 10
7.369802027415857
 20
-32.42890500943744
 42
-0.3404219149421345
 10
7.204313026877832
 20
-32.04845208054672
 42
-0.1460055359498011
 10
7.320155429261021
 20
-31.61837491757655
 42
0.2592286791355618
 10
7.402900099540985
 20
-31.28754622276527
 42
-0.539229343321072
 10
7.800074244867293
 20
-30.84092764843529
 42
0.0726995412147418
  0
LWPOLYLINE
  5
11C
330
18
100
AcDbEntity
  8
0
100
AcDbPolyline
 90
        8
 70
     0
 43
0.0
 10
5.963143652722164
 20
-27.97925997607496
 42
0.3841314956127248
 10
5.698360775830657
 20
-28.19429855756005
 42
0.4622696905354401
 10
6.16173072538532
 20
-28.34317149360587
 42
0.738008428247246
 10
5.748007714007398
 20
-27.61534845854406
 42
0.4483164422018823
 10
5.168795362069547
 20
-28.22738138027968
 42
0.3984540815035096
 10
6.145181859333707
 20
-29.21986723090602
 42
0.4679131672385723
 10
7.469095903769337
 20
-28.04542562151423
 42
0.0032826615479721
 10
7.474525262386526
 20
-28.02888421015441
 42
0.5770406067311554
  0
LWPOLYLINE
  5
126
330
18
100
AcDbEntity
  8
0
100
AcDbPolyline
 90
       16
 70
     0
 43
0.0
 10
7.800074244867293
 20
-30.956717527954
 42
-0.2704871957154258
 10
7.402900099540985
 20
-30.80784482571566
 42
0.3325431245085124
 10
7.336704295312634
 20
-30.79130318054836
 42
-0.7547251386697852
 10
7.27050849108428
 20
-30.70859612374928
 42
-0.152186403466533
 10
7.138117222649478
 20
-30.36122601757819
 42
0.259173703350849
 10
6.85678547970636
 20
-29.93114885460802
 42
0.347433022801881
 10
6.261024261716896
 20
-29.9146074432482
 42
0.4971250522901649
 10
5.499773703167504
 20
-29.86498320916876
 42
-0.1357249406265586
 10
5.400480166835926
 20
-29.93114885460802
 42
0.2082364059811506
 10
5.052952959686358
 20
-30.12964602473329
 42
0.2426071972564027
 10
5.003306021509617
 20
-30.42739189682493
 42
0.7291158791566753
 10
5.201893094172772
 20
-30.42739189682493
 42
-0.1973498635304387
 10
5.830752384287363
 20
-30.21235308153237
 42
-0.3488872638687741
 10
6.989177088163064
 20
-31.10559046399982
 42
-0.0604108249045099
 10
7.105019490546254
 20
-31.94920361238782
 42
-0.0181601812056252
 10
7.204313026877832
 20
-33.60334661882924
 42
0.9766361940522346
  0
LWPOLYLINE
  5
138
330
18
100
AcDbEntity
  8
0
100
AcDbPolyline
 90
       16
 70
     0
 43
0.0
 10
7.410262052231654
 20
-35.81633898371667
 42
0.1393912636799166
 10
7.062204422977993
 20
-34.15414938712086
 42
0.2298943276920212
 10
5.650636871554493
 20
-33.16843226801134
 42
0.3095849545540244
 10
3.949021314719409
 20
-33.94154371556762
 42
0.2675484148142576
 10
3.987694473146666
 20
-35.48776661068017
 42
0.3398119836605429
 10
5.495944579241887
 20
-35.66171674115595
 42
0.4487470284822718
 10
5.399261910771359
 20
-34.50204949157066
 42
0.466336844628339
 10
4.761156048508501
 20
-34.73398297278807
 42
0.6497536343137837
 10
5.10921379156097
 20
-35.08188315548874
 42
0.512459751535356
 10
5.128550370774597
 20
-34.81129413319386
 42
-0.4185628315886
 10
5.341252286929282
 20
-35.27516101737781
 42
-0.3848295495591143
 10
4.606463756195896
 20
-35.52642223000851
 42
-0.322605639339208
 10
4.026367517775117
 20
-34.56003292056316
 42
-0.3544527775494652
 10
5.263906083873575
 20
-33.51633245071201
 42
-0.2890333664296716
 10
6.810829348396053
 20
-34.34742724900992
 42
-0.0772640841143924
 10
7.158887091448521
 20
-35.81633898371667
 42
0.9244860545156408
  0
LWPOLYLINE
  5
14A
330
18
100
AcDbEntity
  8
0
100
AcDbPolyline
 90
        8
 70
     0
 43
0.0
 10
7.493852417101855
 20
-27.28451976373278
 42
0.229357724300631
 10
6.740943077323169
 20
-26.40782379262515
 42
0.5770406067311554
 10
3.795234719479079
 20
-28.39279572768532
 42
0.1313362064129519
 10
4.208957730856999
 20
-30.57626459906328
 42
0.0988873368461676
 10
4.986757155458006
 20
-31.53566762696999
 42
-0.0018991777539452
 10
6.608551808888368
 20
-33.18981086721889
 42
-0.1131375642439248
 10
7.022274820266289
 20
-33.83492661167414
 42
-0.0431017255554102
 10
7.402900099540985
 20
-35.15824115711176
 42
16.57887153171589
  0
LWPOLYLINE
  5
154
330
18
100
AcDbEntity
  8
0
100
AcDbPolyline
 90
        9
 70
     0
 43
0.0
 10
7.068480567940651
 20
-27.28451976373278
 42
0.0370167941852878
 10
6.972627882089549
 20
-27.08602259360751
 42
0.2724703907849761
 10
5.665263043727433
 20
-26.5897795513906
 42
0.3084487434553329
 10
4.225506596908612
 20
-27.97925997607496
 42
0.1230895691235545
 10
4.556485278028471
 20
-30.36122601757819
 42
0.069744905123636
 10
5.185344228121159
 20
-31.23792198868583
 42
0.0151481291747617
 10
6.277573127768508
 20
-32.379280775358
 42
0.0284797177462759
 10
6.823687747603134
 20
-32.99131369709361
 42
-0.1926144779287384
 10
7.220861892929443
 20
-33.58680520746942
 42
0.8112720862930284
  0
LINE
  5
15F
330
18
100
AcDbEntity
  8
0
100
AcDbLine
 10
7.062204422977993
 20
-35.81633898371667
 30
0.0
 11
7.062204422977993
 21
-36.02894465526992
 31
0.0
  0
LINE
  5
160
330
18
100
AcDbEntity
  8
0
100
AcDbLine
 10
6.935299449883396
 20
-36.22222251715898
 30
0.0
 11
6.935299449883396
 21
-36.15086337055852
 31
0.0
  0
LINE
  5
161
330
18
100
AcDbEntity
  8
0
100
AcDbLine
 10
6.935299449883396
 20
-36.22222251715898
 30
0.0
 11
6.935299449883396
 21
-36.29358166375945
 31
0.0
  0
ARC
  5
162
330
18
100
AcDbEntity
  8
0
100
AcDbCircle
 10
7.060299449883396
 20
-36.29358166375945
 30
0.0
 40
0.125
100
AcDbArc
 50
180.0
 51
270.0
  0
ARC
  5
163
330
18
100
AcDbEntity
  8
0
100
AcDbCircle
 10
7.060299449883396
 20
-36.15086337055852
 30
0.0
 40
0.125
100
AcDbArc
 50
90.0
 51
180.0
  0
LWPOLYLINE
  5
164
330
18
100
AcDbEntity
  8
0
100
AcDbPolyline
 90
        5
 70
     0
 43
0.0
 10
5.963143652722164
 20
-27.97925997607496
 42
0.5188452632538292
 10
5.549420641344244
 20
-27.99580138743478
 42
0.3489155619502799
 10
5.665263043727433
 20
-28.67399995460967
 42
0.3882426222918933
 10
6.922981283934712
 20
-28.65745854324985
 42
0.1140915965584184
 10
7.159457927062266
 20
-28.02888421015441
 42
0.2724703907849761
  0
ARC
  5
16B
330
18
100
AcDbEntity
  8
0
100
AcDbCircle
 10
7.120830700157927
 20
-27.65510007537236
 30
0.0
 40
0.2363880511185591
100
AcDbArc
 50
110.2988554882589
 51
251.1889062774506
  0
LWPOLYLINE
  5
16C
330
18
100
AcDbEntity
  8
0
100
AcDbPolyline
 90
       16
 70
     0
 43
0.0
 10
7.800074244867293
 20
-30.956717527954
 42
0.2704871957154258
 10
8.1972483901936
 20
-30.80784482571566
 42
-0.3325431245085124
 10
8.26344419442195
 20
-30.79130318054836
 42
0.7547251386697852
 10
8.329639998650307
 20
-30.70859612374928
 42
0.152186403466533
 10
8.462031267085109
 20
-30.36122601757819
 42
-0.259173703350849
 10
8.743363010028225
 20
-29.93114885460802
 42
-0.347433022801881
 10
9.339124228017688
 20
-29.9146074432482
 42
-0.4971250522901649
 10
10.10037478656708
 20
-29.86498320916876
 42
0.1357249406265586
 10
10.19966832289866
 20
-29.93114885460802
 42
-0.2082364059811506
 10
10.54719553004822
 20
-30.12964602473329
 42
-0.2426071972564027
 10
10.59684246822497
 20
-30.42739189682493
 42
-0.7291158791566753
 10
10.39825539556181
 20
-30.42739189682493
 42
0.1973498635304387
 10
9.769396105447221
 20
-30.21235308153237
 42
0.3488872638687741
 10
8.610971401571521
 20
-31.10559046399982
 42
0.0604108249045099
 10
8.495128999188331
 20
-31.94920361238782
 42
0.0181601812056252
 10
8.395835462856751
 20
-33.60334661882924
 42
-0.9766361940522346
  0
LWPOLYLINE
  5
17E
330
18
100
AcDbEntity
  8
0
100
AcDbPolyline
 90
        8
 70
     0
 43
0.0
 10
8.180699524141985
 20
-35.2244070363585
 10
8.313090792576787
 20
-33.95071672500033
 42
-0.630500203607038
 10
8.346188864701918
 20
-33.63642944154888
 42
0.2050065933848537
 10
8.230346462318728
 20
-32.42890500943744
 42
0.3404219149421345
 10
8.395835462856751
 20
-32.04845208054672
 42
0.1460055359498011
 10
8.279993060473564
 20
-31.61837491757655
 42
-0.2592286791355618
 10
8.1972483901936
 20
-31.28754622276527
 42
0.539229343321072
 10
7.800074244867293
 20
-30.84092764843529
 42
-0.0726995412147418
  0
LINE
  5
188
330
18
100
AcDbEntity
  8
0
100
AcDbLine
 10
8.647800732128921
 20
-36.15086337055852
 30
0.0
 11
8.647800732128921
 21
-36.22222251715898
 31
0.0
  0
LINE
  5
189
330
18
100
AcDbEntity
  8
0
100
AcDbLine
 10
8.647800732128921
 20
-36.29358166375945
 30
0.0
 11
8.647800732128921
 21
-36.22222251715898
 31
0.0
  0
LINE
  5
18A
330
18
100
AcDbEntity
  8
0
100
AcDbLine
 10
8.531781484444763
 20
-36.02894465526992
 30
0.0
 11
8.531781484444763
 21
-35.81633898371667
 31
0.0
  0
ARC
  5
18B
330
18
100
AcDbEntity
  8
0
100
AcDbCircle
 10
8.522800732128921
 20
-36.29358166375945
 30
0.0
 40
0.125
100
AcDbArc
 50
270.0
 51
0.0
  0
ARC
  5
18C
330
18
100
AcDbEntity
  8
0
100
AcDbCircle
 10
8.522800732128921
 20
-36.15086337055852
 30
0.0
 40
0.125
100
AcDbArc
 50
0.0
 51
90.0
  0
LWPOLYLINE
  5
18D
330
18
100
AcDbEntity
  8
0
100
AcDbPolyline
 90
        5
 70
     0
 43
0.0
 10
9.637004837012419
 20
-27.97925997607496
 42
-0.5188452632538292
 10
10.05072784839034
 20
-27.99580138743478
 42
-0.3489155619502799
 10
9.93488544600715
 20
-28.67399995460967
 42
-0.3882426222918933
 10
8.677167205799875
 20
-28.65745854324985
 42
-0.1140915965584183
 10
8.440690562672322
 20
-28.02888421015441
 42
-0.2724703907849761
  0
LWPOLYLINE
  5
194
330
18
100
AcDbEntity
  8
0
100
AcDbPolyline
 90
        8
 70
     0
 43
0.0
 10
9.637004837012419
 20
-27.97925997607496
 42
-0.3841314956127248
 10
9.901787713903928
 20
-28.19429855756005
 42
-0.4622696905354401
 10
9.438417764349267
 20
-28.34317149360587
 42
-0.738008428247246
 10
9.852140775727185
 20
-27.61534845854406
 42
-0.4483164422018823
 10
10.43135312766504
 20
-28.22738138027968
 42
-0.3984540815035096
 10
9.454966630400878
 20
-29.21986723090602
 42
-0.4679131672385723
 10
8.13105258596525
 20
-28.04542562151423
 42
-0.0032826615479721
 10
8.125623227348061
 20
-28.02888421015441
 42
-0.5770406067311554
  0
ARC
  5
19E
330
18
100
AcDbEntity
  8
0
100
AcDbCircle
 10
8.479317789576658
 20
-27.65510007537236
 30
0.0
 40
0.2363880511185591
100
AcDbArc
 50
288.8110937225492
 51
69.70114451174108
  0
TEXT
  5
1AC
330
18
100
AcDbEntity
  8
ADPDIM
100
AcDbText
 10
-8.289775890081255
 20
-39.91467153588065
 30
0.0
 40
0.3125
  1
J U L I U S  B L U M  &  C O . ,  I N C .      ( 8 0 0 )  5 2 6 - 6 2 9 3        W W W . J U L I U S B L U M . C O M        P A R T  N o .  5 9 9
 41
1.25
  7
ARIAL_WIDE
 72
     1
 11
7.796992953711378
 21
-39.60217153588065
 31
0.0
100
AcDbText
 73
     3
  0
ENDSEC
  0
SECTION
  2
OBJECTS
  0
DICTIONARY
  5
C
330
0
100
AcDbDictionary
  3
ACAD_GROUP
350
D
  3
ACAD_LAYOUT
350
1A5
  3
ACAD_MLINESTYLE
350
E
  3
ACAD_PLOTSETTINGS
350
1A6
  3
ACAD_PLOTSTYLENAME
350
1A3
  3
ACDBHEADERROUNDTRIPXREC
350
37D
  3
ACDBVARIABLEDICTIONARY
350
206
  0
DICTIONARY
  5
200
330
18
100
AcDbDictionary
280
     1
  3
ACAD_LAYOUTSELFREF
360
39E
  0
DICTIONARY
  5
1FE
330
15
100
AcDbDictionary
280
     1
  3
ACAD_LAYOUTSELFREF
360
39D
  0
DICTIONARY
  5
D
102
{ACAD_REACTORS
330
C
102
}
330
C
100
AcDbDictionary
  0
DICTIONARY
  5
1A5
102
{ACAD_REACTORS
330
C
102
}
330
C
100
AcDbDictionary
  0
DICTIONARY
  5
E
102
{ACAD_REACTORS
330
C
102
}
330
C
100
AcDbDictionary
  3
STANDARD
350
1B
  0
DICTIONARY
  5
1A6
102
{ACAD_REACTORS
330
C
102
}
330
C
100
AcDbDictionary
  0
ACDBDICTIONARYWDFLT
  5
1A3
102
{ACAD_REACTORS
330
C
102
}
330
C
100
AcDbDictionary
281
     1
  3
Normal
350
1A4
100
AcDbDictionaryWithDefault
340
1A4
  0
DICTIONARY
  5
37D
102
{ACAD_REACTORS
330
C
102
}
330
C
100
AcDbDictionary
  3
CEPSNTYPE
350
387
  3
FINGERPRINTGUID
350
388
  3
HYPERLINKBASE
350
380
  3
INSUNITS
350
386
  3
LAYOUTDICT
350
382
  3
LWETCUNION
350
385
  3
PLOTSETDICT
350
383
  3
PLOTSTYLNAMDICT
350
384
  3
PSVPSCALE
350
38A
  3
PUCSBASE
350
38D
  3
PUCSORGBACK
350
393
  3
PUCSORGBOTTOM
350
38F
  3
PUCSORGFRONT
350
392
  3
PUCSORGLEFT
350
390
  3
PUCSORGRIGHT
350
391
  3
PUCSORGTOP
350
38E
  3
PUCSORTHOREF
350
38B
  3
PUCSORTHOVIEW
350
38C
  3
STYLESHEET
350
381
  3
TSTACKALIGN
350
37E
  3
TSTACKSIZE
350
37F
  3
UCSBASE
350
396
  3
UCSORGBACK
350
39C
  3
UCSORGBOTTOM
350
398
  3
UCSORGFRONT
350
39B
  3
UCSORGLEFT
350
399
  3
UCSORGRIGHT
350
39A
  3
UCSORGTOP
350
397
  3
UCSORTHOREF
350
394
  3
UCSORTHOVIEW
350
395
  3
VERSIONGUID
350
389
  0
DICTIONARY
  5
206
102
{ACAD_REACTORS
330
C
102
}
330
C
100
AcDbDictionary
  3
DIMASSOC
350
207
  0
XRECORD
  5
39E
102
{ACAD_REACTORS
330
200
102
}
330
200
100
AcDbXrecord
340
18
  0
XRECORD
  5
39D
102
{ACAD_REACTORS
330
1FE
102
}
330
1FE
100
AcDbXrecord
340
15
  0
MLINESTYLE
  5
1B
102
{ACAD_REACTORS
330
E
102
}
330
E
100
AcDbMlineStyle
  2
STANDARD
 70
     0
  3

 62
     0
 51
90.0
 52
90.0
 71
     2
 49
0.5
 62
   256
  6
BYLAYER
 49
-0.5
 62
   256
  6
BYLAYER
  0
ACDBPLACEHOLDER
  5
1A4
102
{ACAD_REACTORS
330
1A3
102
}
330
1A3
100
AcDbPlaceHolder
280
     0
  0
XRECORD
  5
387
102
{ACAD_REACTORS
330
37D
102
}
330
37D
100
AcDbXrecord
 90
        0
  0
XRECORD
  5
388
102
{ACAD_REACTORS
330
37D
102
}
330
37D
100
AcDbXrecord
  1
{D3E03842-75B4-4482-9956-4AAA549A5A0B}
  0
XRECORD
  5
380
102
{ACAD_REACTORS
330
37D
102
}
330
37D
100
AcDbXrecord
  1

  0
XRECORD
  5
386
102
{ACAD_REACTORS
330
37D
102
}
330
37D
100
AcDbXrecord
 90
        0
  0
XRECORD
  5
382
102
{ACAD_REACTORS
330
37D
102
}
330
37D
100
AcDbXrecord
340
1A5
  0
XRECORD
  5
385
102
{ACAD_REACTORS
330
37D
102
}
330
37D
100
AcDbXrecord
 90
    14877
  0
XRECORD
  5
383
102
{ACAD_REACTORS
330
37D
102
}
330
37D
100
AcDbXrecord
340
1A6
  0
XRECORD
  5
384
102
{ACAD_REACTORS
330
37D
102
}
330
37D
100
AcDbXrecord
340
1A3
  0
XRECORD
  5
38A
102
{ACAD_REACTORS
330
37D
102
}
330
37D
100
AcDbXrecord
 40
0.0
  0
XRECORD
  5
38D
102
{ACAD_REACTORS
330
37D
102
}
330
37D
100
AcDbXrecord
340
0
  0
XRECORD
  5
393
102
{ACAD_REACTORS
330
37D
102
}
330
37D
100
AcDbXrecord
 10
0.0
 20
0.0
 30
0.0
  0
XRECORD
  5
38F
102
{ACAD_REACTORS
330
37D
102
}
330
37D
100
AcDbXrecord
 10
0.0
 20
0.0
 30
0.0
  0
XRECORD
  5
392
102
{ACAD_REACTORS
330
37D
102
}
330
37D
100
AcDbXrecord
 10
0.0
 20
0.0
 30
0.0
  0
XRECORD
  5
390
102
{ACAD_REACTORS
330
37D
102
}
330
37D
100
AcDbXrecord
 10
0.0
 20
0.0
 30
0.0
  0
XRECORD
  5
391
102
{ACAD_REACTORS
330
37D
102
}
330
37D
100
AcDbXrecord
 10
0.0
 20
0.0
 30
0.0
  0
XRECORD
  5
38E
102
{ACAD_REACTORS
330
37D
102
}
330
37D
100
AcDbXrecord
 10
0.0
 20
0.0
 30
0.0
  0
XRECORD
  5
38B
102
{ACAD_REACTORS
330
37D
102
}
330
37D
100
AcDbXrecord
340
0
  0
XRECORD
  5
38C
102
{ACAD_REACTORS
330
37D
102
}
330
37D
100
AcDbXrecord
 70
     0
  0
XRECORD
  5
381
102
{ACAD_REACTORS
330
37D
102
}
330
37D
100
AcDbXrecord
  1

  0
XRECORD
  5
37E
102
{ACAD_REACTORS
330
37D
102
}
330
37D
100
AcDbXrecord
 90
        1
  0
XRECORD
  5
37F
102
{ACAD_REACTORS
330
37D
102
}
330
37D
100
AcDbXrecord
 90
       70
  0
XRECORD
  5
396
102
{ACAD_REACTORS
330
37D
102
}
330
37D
100
AcDbXrecord
340
0
  0
XRECORD
  5
39C
102
{ACAD_REACTORS
330
37D
102
}
330
37D
100
AcDbXrecord
 10
0.0
 20
0.0
 30
0.0
  0
XRECORD
  5
398
102
{ACAD_REACTORS
330
37D
102
}
330
37D
100
AcDbXrecord
 10
0.0
 20
0.0
 30
0.0
  0
XRECORD
  5
39B
102
{ACAD_REACTORS
330
37D
102
}
330
37D
100
AcDbXrecord
 10
0.0
 20
0.0
 30
0.0
  0
XRECORD
  5
399
102
{ACAD_REACTORS
330
37D
102
}
330
37D
100
AcDbXrecord
 10
0.0
 20
0.0
 30
0.0
  0
XRECORD
  5
39A
102
{ACAD_REACTORS
330
37D
102
}
330
37D
100
AcDbXrecord
 10
0.0
 20
0.0
 30
0.0
  0
XRECORD
  5
397
102
{ACAD_REACTORS
330
37D
102
}
330
37D
100
AcDbXrecord
 10
0.0
 20
0.0
 30
0.0
  0
XRECORD
  5
394
102
{ACAD_REACTORS
330
37D
102
}
330
37D
100
AcDbXrecord
340
0
  0
XRECORD
  5
395
102
{ACAD_REACTORS
330
37D
102
}
330
37D
100
AcDbXrecord
 70
     0
  0
XRECORD
  5
389
102
{ACAD_REACTORS
330
37D
102
}
330
37D
100
AcDbXrecord
  1
{AFE03176-36CB-4AC3-9FBD-0395B3DFD1B1}
  0
DICTIONARYVAR
  5
207
102
{ACAD_REACTORS
330
206
102
}
330
206
100
DictionaryVariables
280
     0
  1
1
  0
ENDSEC
  0
EOF
