  0
SECTION
  2
HEADER
  9
$ACADVER
  1
AC1014
  9
$ACADMAINTVER
 70
     9
  9
$DWGCODEPAGE
  3
ANSI_1252
  9
$INSBASE
 10
-8.382386852585907
 20
-19.064752071611
 30
0.0
  9
$EXTMIN
 10
-22.18159781861612
 20
-21.10602256345414
 30
0.0
  9
$EXTMAX
 10
3.557232331452087
 20
-8.278725780215893
 30
0.0
  9
$LIMMIN
 10
0.0
 20
0.0
  9
$LIMMAX
 10
36.0
 20
36.0
  9
$ORTHOMODE
 70
     1
  9
$REGENMODE
 70
     1
  9
$FILLMODE
 70
     1
  9
$QTEXTMODE
 70
     0
  9
$MIRRTEXT
 70
     1
  9
$DRAGMODE
 70
     0
  9
$LTSCALE
 40
1.0
  9
$OSMODE
 70
    37
  9
$ATTMODE
 70
     1
  9
$TEXTSIZE
 40
0.2
  9
$TRACEWID
 40
0.05
  9
$TEXTSTYLE
  7
STANDARD
  9
$CLAYER
  8
ADPDIM
  9
$CELTYPE
  6
BYLAYER
  9
$CECOLOR
 62
   256
  9
$CELTSCALE
 40
1.0
  9
$DELOBJ
 70
     1
  9
$DISPSILH
 70
     0
  9
$DIMSCALE
 40
1.0
  9
$DIMASZ
 40
0.125
  9
$DIMEXO
 40
0.0625
  9
$DIMDLI
 40
0.38
  9
$DIMRND
 40
0.0
  9
$DIMDLE
 40
0.0
  9
$DIMEXE
 40
0.18
  9
$DIMTP
 40
0.0
  9
$DIMTM
 40
0.0
  9
$DIMTXT
 40
0.125
  9
$DIMCEN
 40
0.1875
  9
$DIMTSZ
 40
0.125
  9
$DIMTOL
 70
     0
  9
$DIMLIM
 70
     0
  9
$DIMTIH
 70
     0
  9
$DIMTOH
 70
     0
  9
$DIMSE1
 70
     0
  9
$DIMSE2
 70
     0
  9
$DIMTAD
 70
     0
  9
$DIMZIN
 70
     3
  9
$DIMBLK
  1

  9
$DIMASO
 70
     1
  9
$DIMSHO
 70
     1
  9
$DIMPOST
  1

  9
$DIMAPOST
  1

  9
$DIMALT
 70
     0
  9
$DIMALTD
 70
     1
  9
$DIMALTF
 40
25.4
  9
$DIMLFAC
 40
1.0
  9
$DIMTOFL
 70
     0
  9
$DIMTVP
 40
0.0
  9
$DIMTIX
 70
     0
  9
$DIMSOXD
 70
     0
  9
$DIMSAH
 70
     0
  9
$DIMBLK1
  1

  9
$DIMBLK2
  1

  9
$DIMSTYLE
  2
STANDARD
  9
$DIMCLRD
 70
     0
  9
$DIMCLRE
 70
     0
  9
$DIMCLRT
 70
     0
  9
$DIMTFAC
 40
1.0
  9
$DIMGAP
 40
0.125
  9
$DIMJUST
 70
     0
  9
$DIMSD1
 70
     0
  9
$DIMSD2
 70
     0
  9
$DIMTOLJ
 70
     1
  9
$DIMTZIN
 70
     0
  9
$DIMALTZ
 70
     0
  9
$DIMALTTZ
 70
     0
  9
$DIMFIT
 70
     3
  9
$DIMUPT
 70
     0
  9
$DIMUNIT
 70
     2
  9
$DIMDEC
 70
     4
  9
$DIMTDEC
 70
     4
  9
$DIMALTU
 70
     2
  9
$DIMALTTD
 70
     2
  9
$DIMTXSTY
  7
STANDARD
  9
$DIMAUNIT
 70
     0
  9
$LUNITS
 70
     5
  9
$LUPREC
 70
     5
  9
$SKETCHINC
 40
0.1
  9
$FILLETRAD
 40
0.062
  9
$AUNITS
 70
     0
  9
$AUPREC
 70
     0
  9
$MENU
  1
acad
  9
$ELEVATION
 40
0.0
  9
$PELEVATION
 40
0.0
  9
$THICKNESS
 40
0.0
  9
$LIMCHECK
 70
     0
  9
$BLIPMODE
 70
     0
  9
$CHAMFERA
 40
0.0
  9
$CHAMFERB
 40
0.0
  9
$CHAMFERC
 40
0.0
  9
$CHAMFERD
 40
0.0
  9
$SKPOLY
 70
     0
  9
$TDCREATE
 40
2450409.628556898
  9
$TDUPDATE
 40
2452297.073881470
  9
$TDINDWG
 40
0.0031408218
  9
$TDUSRTIMER
 40
0.0031408218
  9
$USRTIMER
 70
     1
  9
$ANGBASE
 50
0.0
  9
$ANGDIR
 70
     0
  9
$PDMODE
 70
     0
  9
$PDSIZE
 40
0.0
  9
$PLINEWID
 40
0.0
  9
$COORDS
 70
     2
  9
$SPLFRAME
 70
     0
  9
$SPLINETYPE
 70
     6
  9
$SPLINESEGS
 70
     8
  9
$ATTDIA
 70
     0
  9
$ATTREQ
 70
     1
  9
$HANDLING
 70
 22529
  9
$HANDSEED
  5
2DB
  9
$SURFTAB1
 70
     6
  9
$SURFTAB2
 70
     6
  9
$SURFTYPE
 70
     6
  9
$SURFU
 70
     6
  9
$SURFV
 70
     6
  9
$UCSNAME
  2

  9
$UCSORG
 10
0.0
 20
0.0
 30
0.0
  9
$UCSXDIR
 10
1.0
 20
0.0
 30
0.0
  9
$UCSYDIR
 10
0.0
 20
1.0
 30
0.0
  9
$PUCSNAME
  2

  9
$PUCSORG
 10
0.0
 20
0.0
 30
0.0
  9
$PUCSXDIR
 10
1.0
 20
0.0
 30
0.0
  9
$PUCSYDIR
 10
0.0
 20
1.0
 30
0.0
  9
$USERI1
 70
     0
  9
$USERI2
 70
     0
  9
$USERI3
 70
     0
  9
$USERI4
 70
     0
  9
$USERI5
 70
     0
  9
$USERR1
 40
0.0
  9
$USERR2
 40
0.0
  9
$USERR3
 40
0.0
  9
$USERR4
 40
0.0
  9
$USERR5
 40
0.0
  9
$WORLDVIEW
 70
     1
  9
$SHADEDGE
 70
     3
  9
$SHADEDIF
 70
    70
  9
$TILEMODE
 70
     1
  9
$MAXACTVP
 70
    15
  9
$PINSBASE
 10
0.0009765857830644
 20
1.500170956078392
 30
0.0
  9
$PLIMCHECK
 70
     0
  9
$PEXTMIN
 10
1.000000000000000E+20
 20
1.000000000000000E+20
 30
1.000000000000000E+20
  9
$PEXTMAX
 10
-1.000000000000000E+20
 20
-1.000000000000000E+20
 30
-1.000000000000000E+20
  9
$PLIMMIN
 10
0.0
 20
0.0
  9
$PLIMMAX
 10
12.0
 20
9.0
  9
$UNITMODE
 70
     0
  9
$VISRETAIN
 70
     0
  9
$PLINEGEN
 70
     0
  9
$PSLTSCALE
 70
     1
  9
$TREEDEPTH
 70
  3020
  9
$PICKSTYLE
 70
     1
  9
$CMLSTYLE
  2
STANDARD
  9
$CMLJUST
 70
     0
  9
$CMLSCALE
 40
1.0
  9
$PROXYGRAPHICS
 70
     1
  9
$MEASUREMENT
 70
     0
  0
ENDSEC
  0
SECTION
  2
CLASSES
  0
CLASS
  1
ACDBDICTIONARYWDFLT
  2
AcDbDictionaryWithDefault
  3
AutoCAD 2000
 90
        0
280
     0
281
     0
  0
CLASS
  1
ACDBPLACEHOLDER
  2
AcDbPlaceHolder
  3
AutoCAD 2000
 90
        0
280
     0
281
     0
  0
CLASS
  1
LAYOUT
  2
AcDbLayout
  3
AutoCAD 2000
 90
        0
280
     0
281
     0
  0
CLASS
  1
DICTIONARYVAR
  2
AcDbDictionaryVar
  3
AutoCAD 2000
 90
        0
280
     0
281
     0
  0
CLASS
  1
LONG_TRANSACTION
  2
AcDbLongTransaction
  3
AutoCAD 2000
 90
        0
280
     0
281
     0
  0
CLASS
  1
LWPOLYLINE
  2
AcDbPolyline
  3
AutoCAD 2000
 90
        0
280
     0
281
     1
  0
CLASS
  1
HATCH
  2
AcDbHatch
  3
AutoCAD 2000
 90
        0
280
     0
281
     1
  0
CLASS
  1
XRECORD
  2
AcDbXrecord
  3
AutoCAD 2000
 90
        0
280
     0
281
     0
  0
CLASS
  1
LONG_TRANSACTION
  2
AcDbLongTransaction
  3
AutoCAD 2000
 90
        0
280
     0
281
     0
  0
CLASS
  1
LWPOLYLINE
  2
AcDbPolyline
  3
AutoCAD 2000
 90
        0
280
     0
281
     1
  0
CLASS
  1
HATCH
  2
AcDbHatch
  3
AutoCAD 2000
 90
        0
280
     0
281
     1
  0
CLASS
  1
XRECORD
  2
AcDbXrecord
  3
AutoCAD 2000
 90
        0
280
     0
281
     0
  0
CLASS
  1
LONG_TRANSACTION
  2
AcDbLongTransaction
  3
AutoCAD 2000
 90
        0
280
     0
281
     0
  0
CLASS
  1
LWPOLYLINE
  2
AcDbPolyline
  3
AutoCAD 2000
 90
        0
280
     0
281
     1
  0
CLASS
  1
HATCH
  2
AcDbHatch
  3
AutoCAD 2000
 90
        0
280
     0
281
     1
  0
CLASS
  1
XRECORD
  2
AcDbXrecord
  3
AutoCAD 2000
 90
        0
280
     0
281
     0
  0
CLASS
  1
LONG_TRANSACTION
  2
AcDbLongTransaction
  3
AutoCAD 2000
 90
        0
280
     0
281
     0
  0
CLASS
  1
LWPOLYLINE
  2
AcDbPolyline
  3
AutoCAD 2000
 90
        0
280
     0
281
     1
  0
CLASS
  1
HATCH
  2
AcDbHatch
  3
AutoCAD 2000
 90
        0
280
     0
281
     1
  0
CLASS
  1
XRECORD
  2
AcDbXrecord
  3
AutoCAD 2000
 90
        0
280
     0
281
     0
  0
CLASS
  1
LONG_TRANSACTION
  2
AcDbLongTransaction
  3
AutoCAD 2000
 90
        0
280
     0
281
     0
  0
CLASS
  1
LWPOLYLINE
  2
AcDbPolyline
  3
AutoCAD 2000
 90
        0
280
     0
281
     1
  0
CLASS
  1
HATCH
  2
AcDbHatch
  3
AutoCAD 2000
 90
        0
280
     0
281
     1
  0
CLASS
  1
XRECORD
  2
AcDbXrecord
  3
AutoCAD 2000
 90
        0
280
     0
281
     0
  0
ENDSEC
  0
SECTION
  2
TABLES
  0
TABLE
  2
VPORT
  5
8
330
0
100
AcDbSymbolTable
 70
     2
  0
VPORT
  5
2B8
330
8
100
AcDbSymbolTableRecord
100
AcDbViewportTableRecord
  2
*ACTIVE
 70
     0
 10
0.0
 20
0.0
 11
1.0
 21
1.0
 12
-9.29010260170126
 22
-14.69417655541643
 13
0.0
 23
0.0
 14
0.5740882589684922
 24
0.5740882589684922
 15
0.5
 25
0.5
 16
0.0
 26
0.0
 36
1.0
 17
0.0
 27
0.0
 37
0.0
 40
16.49642039300231
 41
1.570528967254408
 42
50.0
 43
0.0
 44
0.0
 50
0.0
 51
0.0
 71
     0
 72
   100
 73
     1
 74
     0
 75
     0
 76
     0
 77
     0
 78
     0
  0
ENDTAB
  0
TABLE
  2
LTYPE
  5
5
330
0
100
AcDbSymbolTable
 70
     1
  0
LTYPE
  5
12
330
5
100
AcDbSymbolTableRecord
100
AcDbLinetypeTableRecord
  2
BYBLOCK
 70
     0
  3

 72
    65
 73
     0
 40
0.0
  0
LTYPE
  5
13
330
5
100
AcDbSymbolTableRecord
100
AcDbLinetypeTableRecord
  2
BYLAYER
 70
     0
  3

 72
    65
 73
     0
 40
0.0
  0
LTYPE
  5
14
330
5
100
AcDbSymbolTableRecord
100
AcDbLinetypeTableRecord
  2
CONTINUOUS
 70
     0
  3
Solid line
 72
    65
 73
     0
 40
0.0
  0
ENDTAB
  0
TABLE
  2
LAYER
  5
2
330
0
100
AcDbSymbolTable
 70
     3
  0
LAYER
  5
F
330
2
100
AcDbSymbolTableRecord
100
AcDbLayerTableRecord
  2
0
 70
     0
 62
     7
  6
CONTINUOUS
  0
LAYER
  5
86
330
2
100
AcDbSymbolTableRecord
100
AcDbLayerTableRecord
  2
DEFPOINTS
 70
     0
 62
     7
  6
CONTINUOUS
  0
LAYER
  5
89
330
2
100
AcDbSymbolTableRecord
100
AcDbLayerTableRecord
  2
ADPDIM
 70
     0
 62
     3
  6
CONTINUOUS
  0
ENDTAB
  0
TABLE
  2
STYLE
  5
3
330
0
100
AcDbSymbolTable
 70
     2
  0
STYLE
  5
10
330
3
100
AcDbSymbolTableRecord
100
AcDbTextStyleTableRecord
  2
STANDARD
 70
     0
 40
0.0
 41
1.0
 50
0.0
 71
     0
 42
0.2
  3
txt
  4

  0
STYLE
  5
174
330
3
100
AcDbSymbolTableRecord
100
AcDbTextStyleTableRecord
  2
ARIAL_WIDE
 70
     0
 40
0.0
 41
1.25
 50
0.0
 71
     0
 42
0.2
  3
ARIAL.TTF
  4

1001
ACAD
1000
Arial
1071
       34
  0
ENDTAB
  0
TABLE
  2
VIEW
  5
6
330
0
100
AcDbSymbolTable
 70
     0
  0
ENDTAB
  0
TABLE
  2
UCS
  5
7
330
0
100
AcDbSymbolTable
 70
     0
  0
ENDTAB
  0
TABLE
  2
APPID
  5
9
330
0
100
AcDbSymbolTable
 70
     1
  0
APPID
  5
11
330
9
100
AcDbSymbolTableRecord
100
AcDbRegAppTableRecord
  2
ACAD
 70
     0
  0
ENDTAB
  0
TABLE
  2
DIMSTYLE
  5
A
330
0
100
AcDbSymbolTable
 70
     1
  0
DIMSTYLE
105
168
330
A
100
AcDbSymbolTableRecord
100
AcDbDimStyleTableRecord
  2
STANDARD
 70
     0
  3

  4

  5

  6

  7

 40
1.0
 41
0.18
 42
0.0625
 43
0.38
 44
0.18
 45
0.0
 46
0.0
 47
0.0
 48
0.0
140
0.18
141
0.09
142
0.0
143
25.4
144
1.0
145
0.0
146
1.0
147
0.09
 71
     0
 72
     0
 73
     1
 74
     1
 75
     0
 76
     0
 77
     0
 78
     0
170
     0
171
     2
172
     0
173
     0
174
     0
175
     0
176
     0
177
     0
178
     0
270
     2
271
     4
272
     4
273
     2
274
     2
340
10
275
     0
280
     0
281
     0
282
     0
283
     1
284
     0
285
     0
286
     0
287
     3
288
     0
  0
ENDTAB
  0
TABLE
  2
BLOCK_RECORD
  5
1
330
0
100
AcDbSymbolTable
 70
     2
  0
BLOCK_RECORD
  5
18
102
{ACAD_XDICTIONARY
360
1C9
102
}
330
1
100
AcDbSymbolTableRecord
100
AcDbBlockTableRecord
  2
*MODEL_SPACE
  0
BLOCK_RECORD
  5
15
102
{ACAD_XDICTIONARY
360
1C7
102
}
330
1
100
AcDbSymbolTableRecord
100
AcDbBlockTableRecord
  2
*PAPER_SPACE
  0
BLOCK_RECORD
  5
7D
330
1
100
AcDbSymbolTableRecord
100
AcDbBlockTableRecord
  2
*D0
  0
BLOCK_RECORD
  5
81
330
1
100
AcDbSymbolTableRecord
100
AcDbBlockTableRecord
  2
*D1
  0
ENDTAB
  0
ENDSEC
  0
SECTION
  2
BLOCKS
  0
BLOCK
  5
8C
330
18
100
AcDbEntity
  8
0
100
AcDbBlockBegin
  2
*MODEL_SPACE
 70
     0
 10
0.0
 20
0.0
 30
0.0
  3
*MODEL_SPACE
  1

  0
ENDBLK
  5
8D
330
18
100
AcDbEntity
  8
0
100
AcDbBlockEnd
  0
BLOCK
  5
8A
330
15
100
AcDbEntity
 67
     1
  8
0
100
AcDbBlockBegin
  2
*PAPER_SPACE
 70
     0
 10
0.0
 20
0.0
 30
0.0
  3
*PAPER_SPACE
  1

  0
ENDBLK
  5
8B
330
15
100
AcDbEntity
 67
     1
  8
0
100
AcDbBlockEnd
  0
BLOCK
  5
8F
330
7D
100
AcDbEntity
  8
0
100
AcDbBlockBegin
  2
*D0
 70
     1
 10
0.0
 20
0.0
 30
0.0
  3
*D0
  1

  0
LINE
  5
90
330
7D
100
AcDbEntity
  8
0
  6
BYBLOCK
 62
     0
100
AcDbLine
 10
-13.30415786138059
 20
-17.31178845513849
 30
0.0
 11
-13.30415786138059
 21
-20.13792195781957
 31
0.0
  0
LINE
  5
91
330
7D
100
AcDbEntity
  8
0
  6
BYBLOCK
 62
     0
100
AcDbLine
 10
-5.304157861380595
 20
-17.58724278759596
 30
0.0
 11
-5.304157861380595
 21
-20.13792195781957
 31
0.0
  0
LINE
  5
92
330
7D
100
AcDbEntity
  8
0
  6
BYBLOCK
 62
     0
100
AcDbLine
 10
-13.30415786138059
 20
-19.95792195781957
 30
0.0
 11
-9.470824528047261
 21
-19.95792195781957
 31
0.0
  0
LINE
  5
93
330
7D
100
AcDbEntity
  8
0
  6
BYBLOCK
 62
     0
100
AcDbLine
 10
-5.304157861380595
 20
-19.95792195781957
 30
0.0
 11
-9.137491194713929
 21
-19.95792195781957
 31
0.0
  0
LINE
  5
94
330
7D
100
AcDbEntity
  8
0
  6
BYBLOCK
 62
     0
100
AcDbLine
 10
-13.42915786138059
 20
-20.08292195781957
 30
0.0
 11
-13.17915786138059
 21
-19.83292195781957
 31
0.0
  0
LINE
  5
95
330
7D
100
AcDbEntity
  8
0
  6
BYBLOCK
 62
     0
100
AcDbLine
 10
-5.429157861380595
 20
-20.08292195781957
 30
0.0
 11
-5.179157861380595
 21
-19.83292195781957
 31
0.0
  0
TEXT
  5
96
330
7D
100
AcDbEntity
  8
0
  6
BYBLOCK
 62
     0
100
AcDbText
 10
-9.345824528047261
 20
-20.02042195781957
 30
0.0
 40
0.125
  1
8
 72
     1
 11
-9.304157861380595
 21
-19.95792195781957
 31
0.0
100
AcDbText
 73
     2
  0
POINT
  5
97
330
7D
100
AcDbEntity
  8
DEFPOINTS
  6
BYBLOCK
 62
     0
100
AcDbPoint
 10
-13.30415786138059
 20
-17.24928845513849
 30
0.0
  0
POINT
  5
98
330
7D
100
AcDbEntity
  8
DEFPOINTS
  6
BYBLOCK
 62
     0
100
AcDbPoint
 10
-5.304157861380595
 20
-17.52474278759596
 30
0.0
  0
POINT
  5
99
330
7D
100
AcDbEntity
  8
DEFPOINTS
  6
BYBLOCK
 62
     0
100
AcDbPoint
 10
-5.304157861380595
 20
-19.95792195781957
 30
0.0
  0
ENDBLK
  5
9A
330
7D
100
AcDbEntity
  8
0
100
AcDbBlockEnd
  0
BLOCK
  5
9B
330
81
100
AcDbEntity
  8
0
100
AcDbBlockBegin
  2
*D1
 70
     1
 10
0.0
 20
0.0
 30
0.0
  3
*D1
  1

  0
LINE
  5
9C
330
81
100
AcDbEntity
  8
0
  6
BYBLOCK
 62
     0
100
AcDbLine
 10
-8.382386852585907
 20
-19.064752071611
 30
0.0
 11
-4.269803314693692
 21
-19.064752071611
 31
0.0
  0
LINE
  5
9D
330
81
100
AcDbEntity
  8
0
  6
BYBLOCK
 62
     0
100
AcDbLine
 10
-7.14253323005695
 20
-8.939752071611005
 30
0.0
 11
-4.269803314693692
 21
-8.939752071611005
 31
0.0
  0
LINE
  5
9E
330
81
100
AcDbEntity
  8
0
  6
BYBLOCK
 62
     0
100
AcDbLine
 10
-4.449803314693692
 20
-19.064752071611
 30
0.0
 11
-4.449803314693692
 21
-14.42933540494433
 31
0.0
  0
LINE
  5
9F
330
81
100
AcDbEntity
  8
0
  6
BYBLOCK
 62
     0
100
AcDbLine
 10
-4.449803314693692
 20
-8.939752071611005
 30
0.0
 11
-4.449803314693692
 21
-13.57516873827766
 31
0.0
  0
LINE
  5
A0
330
81
100
AcDbEntity
  8
0
  6
BYBLOCK
 62
     0
100
AcDbLine
 10
-4.324803314693692
 20
-19.189752071611
 30
0.0
 11
-4.574803314693692
 21
-18.939752071611
 31
0.0
  0
LINE
  5
A1
330
81
100
AcDbEntity
  8
0
  6
BYBLOCK
 62
     0
100
AcDbLine
 10
-4.324803314693692
 20
-9.064752071611005
 30
0.0
 11
-4.574803314693692
 21
-8.814752071611005
 31
0.0
  0
TEXT
  5
A2
330
81
100
AcDbEntity
  8
0
  6
BYBLOCK
 62
     0
100
AcDbText
 10
-4.387303314693692
 20
-14.30433540494433
 30
0.0
 40
0.125
  1
10 1/8
 50
90.0
 72
     1
 11
-4.449803314693692
 21
-14.002252071611
 31
0.0
100
AcDbText
 73
     2
  0
POINT
  5
A3
330
81
100
AcDbEntity
  8
DEFPOINTS
  6
BYBLOCK
 62
     0
100
AcDbPoint
 10
-8.444886852585907
 20
-19.064752071611
 30
0.0
  0
POINT
  5
A4
330
81
100
AcDbEntity
  8
DEFPOINTS
  6
BYBLOCK
 62
     0
100
AcDbPoint
 10
-7.20503323005695
 20
-8.939752071611005
 30
0.0
  0
POINT
  5
A5
330
81
100
AcDbEntity
  8
DEFPOINTS
  6
BYBLOCK
 62
     0
100
AcDbPoint
 10
-4.449803314693692
 20
-8.939752071611005
 30
0.0
  0
ENDBLK
  5
A6
330
81
100
AcDbEntity
  8
0
100
AcDbBlockEnd
  0
ENDSEC
  0
SECTION
  2
ENTITIES
  0
LWPOLYLINE
  5
A7
330
18
100
AcDbEntity
  8
0
100
AcDbPolyline
 90
       16
 70
     0
 43
0.0
 10
-9.61992553248317
 20
-18.65886853816869
 42
0.1292678870731361
 10
-10.03350352940875
 20
-16.87494804374329
 42
0.2298943276920212
 10
-11.44507108083225
 20
-15.88923092463378
 42
0.3095849545540244
 10
-13.14668663766734
 20
-16.66234237219005
 42
0.2675484148142576
 10
-13.10801347924008
 20
-18.20856526730261
 42
0.3398119836605429
 10
-11.59976337314486
 20
-18.38251539777838
 42
0.4487470284822718
 10
-11.69644604161539
 20
-17.22284814819309
 42
0.466336844628339
 10
-12.33455190387825
 20
-17.4547816294105
 42
0.6497536343137837
 10
-11.98649416082578
 20
-17.80268181211117
 42
0.512459751535356
 10
-11.96715758161215
 20
-17.5320927898163
 42
-0.4185628315886
 10
-11.75445566545747
 20
-17.99595967400024
 42
-0.3848295495591143
 10
-12.48924419619085
 20
-18.24722088663095
 42
-0.322605639339208
 10
-13.06934043461163
 20
-17.2808315771856
 42
-0.3544527775494652
 10
-11.83180186851317
 20
-16.23713110733445
 42
-0.2890333664296716
 10
-10.28487860399069
 20
-17.06822590563236
 42
-0.0709671727544968
 10
-9.871300493266305
 20
-18.65886853816869
 42
0.9244860545156408
  0
DIMENSION
  5
B9
330
18
100
AcDbEntity
  8
ADPDIM
100
AcDbDimension
  2
*D0
 10
-5.304157861380595
 20
-19.95792195781957
 30
0.0
 11
-9.304157861380595
 21
-19.95792195781957
 31
0.0
100
AcDbAlignedDimension
 13
-13.30415786138059
 23
-17.24928845513849
 33
0.0
 14
-5.304157861380595
 24
-17.52474278759596
 34
0.0
100
AcDbRotatedDimension
  0
LWPOLYLINE
  5
BA
330
18
100
AcDbEntity
  8
0
100
AcDbPolyline
 90
        8
 70
     0
 43
0.0
 10
-9.601855535284897
 20
-10.00531842035522
 42
0.229357724300631
 10
-10.35476487506358
 20
-9.128622449247588
 42
0.5770406067311554
 10
-13.30047323290767
 20
-11.11359438430775
 42
0.1313362064129519
 10
-12.88675022152975
 20
-13.29706325568571
 42
0.0988873368461676
 10
-12.10895079692874
 20
-14.25646628359243
 42
-0.0018991777539452
 10
-10.48715614349838
 20
-15.91060952384132
 42
-0.1131375642439248
 10
-10.07343313212046
 20
-16.55572526829658
 42
-0.0431017255554102
 10
-9.692807852845767
 20
-17.8790398137342
 42
16.57887153171589
  0
DIMENSION
  5
C4
330
18
100
AcDbEntity
  8
ADPDIM
100
AcDbDimension
  2
*D1
 10
-4.449803314693692
 20
-8.939752071611005
 30
0.0
 11
-4.449803314693692
 21
-14.002252071611
 31
0.0
100
AcDbAlignedDimension
 13
-8.444886852585907
 23
-19.064752071611
 33
0.0
 14
-7.20503323005695
 24
-8.939752071611005
 34
0.0
 50
90.0
100
AcDbRotatedDimension
  0
LWPOLYLINE
  5
C5
330
18
100
AcDbEntity
  8
0
100
AcDbPolyline
 90
       16
 70
     0
 43
0.0
 10
-9.295633707519456
 20
-13.67751618457644
 42
-0.2704871957154258
 10
-9.692807852845767
 20
-13.52864348233809
 42
0.3325431245085124
 10
-9.759003657074117
 20
-13.5121018371708
 42
-0.7547251386697852
 10
-9.825199461302471
 20
-13.42939478037172
 42
-0.152186403466533
 10
-9.957590729737272
 20
-13.08202467420063
 42
0.259173703350849
 10
-10.23892247268039
 20
-12.65194751123046
 42
0.347433022801881
 10
-10.83468369066985
 20
-12.63540609987064
 42
0.4971250522901649
 10
-11.59593424921924
 20
-12.58578186579119
 42
-0.1357249406265586
 10
-11.69522778555082
 20
-12.65194751123046
 42
0.2082364059811506
 10
-12.04275499270039
 20
-12.85044468135573
 42
0.2426071972564027
 10
-12.09240193087713
 20
-13.14819055344737
 42
0.7291158791566753
 10
-11.89381485821398
 20
-13.14819055344737
 42
-0.1973498635304387
 10
-11.26495556809938
 20
-12.93315173815481
 42
-0.3488872638687741
 10
-10.10653086422368
 20
-13.82638912062225
 42
-0.0604108249045099
 10
-9.990688461840498
 20
-14.67000226901026
 42
-0.0181601812056252
 10
-9.891394925508919
 20
-16.32414527545168
 42
0.9766361940522346
  0
LWPOLYLINE
  5
D7
330
18
100
AcDbEntity
  8
0
100
AcDbPolyline
 90
        9
 70
     0
 43
0.0
 10
-10.0272273844461
 20
-10.00531842035522
 42
0.0370167941852878
 10
-10.1230800702972
 20
-9.806821250229953
 42
0.2724703907849761
 10
-11.43044490865931
 20
-9.310578208013042
 42
0.3084487434553329
 10
-12.87020135547814
 20
-10.7000586326974
 42
0.1230895691235545
 10
-12.53922267435827
 20
-13.08202467420063
 42
0.069744905123636
 10
-11.91036372426559
 20
-13.95872064530826
 42
0.0151481291747617
 10
-10.81813482461824
 20
-15.10007943198043
 42
0.0284797177462759
 10
-10.27202020478361
 20
-15.71211235371605
 42
-0.1926144779287384
 10
-9.874846059457308
 20
-16.30760386409186
 42
0.8112720862930284
  0
LWPOLYLINE
  5
E2
330
18
100
AcDbEntity
  8
0
100
AcDbPolyline
 90
       16
 70
     0
 43
0.0
 10
-9.295633707519456
 20
-13.67751618457644
 42
0.2704871957154258
 10
-8.898459562193153
 20
-13.52864348233809
 42
-0.3325431245085124
 10
-8.832263757964803
 20
-13.5121018371708
 42
0.7547251386697852
 10
-8.766067953736445
 20
-13.42939478037172
 42
0.152186403466533
 10
-8.633676685301644
 20
-13.08202467420063
 42
-0.259173703350849
 10
-8.352344942358527
 20
-12.65194751123046
 42
-0.347433022801881
 10
-7.756583724369065
 20
-12.63540609987064
 42
-0.4971250522901649
 10
-6.995333165819673
 20
-12.58578186579119
 42
0.1357249406265586
 10
-6.896039629488093
 20
-12.65194751123046
 42
-0.2082364059811506
 10
-6.548512422338525
 20
-12.85044468135573
 42
-0.2426071972564027
 10
-6.498865484161783
 20
-13.14819055344737
 42
-0.7291158791566753
 10
-6.697452556824941
 20
-13.14819055344737
 42
0.1973498635304387
 10
-7.326311846939532
 20
-12.93315173815481
 42
0.3488872638687741
 10
-8.484736550815227
 20
-13.82638912062225
 42
0.0604108249045099
 10
-8.600578953198422
 20
-14.67000226901026
 42
0.0181601812056252
 10
-8.699872489530001
 20
-16.32414527545168
 42
-0.9766361940522346
  0
LWPOLYLINE
  5
F4
330
18
100
AcDbEntity
  8
0
100
AcDbPolyline
 90
        8
 70
     0
 43
0.0
 10
-8.989411879754023
 20
-10.00531842035522
 42
-0.2293577243006308
 10
-8.236502539975333
 20
-9.128622449247588
 42
-0.5770406067311554
 10
-5.290794182131243
 20
-11.11359438430775
 42
-0.1313362064129519
 10
-5.704517193509168
 20
-13.29706325568571
 42
-0.0988873368461676
 10
-6.482316618110175
 20
-14.25646628359243
 42
0.0018991777539452
 10
-8.104111271540531
 20
-15.91060952384132
 42
0.1131375642439248
 10
-8.517834282918457
 20
-16.55572526829658
 42
0.0431017255554102
 10
-8.898459562193153
 20
-17.8790398137342
 42
-16.57887153171589
  0
LWPOLYLINE
  5
FE
330
18
100
AcDbEntity
  8
0
100
AcDbPolyline
 90
        9
 70
     0
 43
0.0
 10
-8.567481221095192
 20
-10.01412008163604
 42
-0.0386039134348193
 10
-8.468187344741714
 20
-9.806821250229953
 42
-0.2724703907849761
 10
-7.160822506379602
 20
-9.310578208013042
 42
-0.3084487434553329
 10
-5.721066059560776
 20
-10.7000586326974
 42
-0.1230895691235545
 10
-6.052044740680635
 20
-13.08202467420063
 42
-0.069744905123636
 10
-6.680903690773327
 20
-13.95872064530826
 42
-0.0151481291747617
 10
-7.773132590420672
 20
-15.10007943198043
 42
-0.0284797177462759
 10
-8.319247210255298
 20
-15.71211235371605
 42
0.1926144779287384
 10
-8.716421355581609
 20
-16.30760386409186
 42
-0.8112720862930284
  0
LWPOLYLINE
  5
109
330
18
100
AcDbEntity
  8
0
100
AcDbPolyline
 90
       16
 70
     0
 43
0.0
 10
-8.856152541448556
 20
-18.65886853816869
 42
-0.13106275686314
 10
-8.573615279866821
 20
-16.87494804374329
 42
-0.2298943276920212
 10
-7.162047728443319
 20
-15.88923092463378
 42
-0.3095849545540244
 10
-5.460432171608236
 20
-16.66234237219005
 42
-0.2675484148142576
 10
-5.49910533003549
 20
-18.20856526730261
 42
-0.3398119836605429
 10
-7.007355436130715
 20
-18.38251539777838
 42
-0.4487470284822718
 10
-6.910672767660187
 20
-17.22284814819309
 42
-0.466336844628339
 10
-6.272566905397326
 20
-17.4547816294105
 42
-0.6497536343137837
 10
-6.620624648449798
 20
-17.80268181211117
 42
-0.512459751535356
 10
-6.639961227663423
 20
-17.5320927898163
 42
0.4185628315886
 10
-6.852663143818109
 20
-17.99595967400024
 42
0.3848295495591143
 10
-6.117874613084723
 20
-18.24722088663095
 42
0.322605639339208
 10
-5.537778374663943
 20
-17.2808315771856
 42
0.3544527775494652
 10
-6.775316940762401
 20
-16.23713110733445
 42
0.2890333664296716
 10
-8.322240205284877
 20
-17.06822590563236
 42
0.072196686776473
 10
-8.604777580665425
 20
-18.65886853816869
 42
-0.9244860545156408
  0
ARC
  5
11B
330
18
100
AcDbEntity
  8
0
100
AcDbCircle
 10
-8.507386852585907
 20
-18.99339292501053
 30
0.0
 40
0.125
100
AcDbArc
 50
0.0
 51
90.0
  0
ARC
  5
11C
330
18
100
AcDbEntity
  8
0
100
AcDbCircle
 10
-9.96988813483143
 20
-18.99339292501053
 30
0.0
 40
0.125
100
AcDbArc
 50
90.0
 51
180.0
  0
LINE
  5
11D
330
18
100
AcDbEntity
  8
0
100
AcDbLine
 10
-8.382386852585907
 20
-19.064752071611
 30
0.0
 11
-10.09488813483143
 21
-19.064752071611
 31
0.0
  0
LINE
  5
11E
330
18
100
AcDbEntity
  8
0
100
AcDbLine
 10
-10.09488813483143
 20
-19.064752071611
 30
0.0
 11
-10.09488813483143
 21
-18.99339292501053
 31
0.0
  0
LINE
  5
11F
330
18
100
AcDbEntity
  8
0
100
AcDbLine
 10
-8.382386852585907
 20
-18.99339292501053
 30
0.0
 11
-8.382386852585907
 21
-19.064752071611
 31
0.0
  0
LWPOLYLINE
  5
120
330
18
100
AcDbEntity
  8
0
100
AcDbPolyline
 90
        8
 70
     0
 43
0.0
 10
-9.676258986794152
 20
-17.94520569298094
 10
-9.808650255228954
 20
-16.67151538162277
 42
0.630500203607038
 10
-9.841748327354082
 20
-16.35722809817131
 42
-0.2050065933848537
 10
-9.725905924970895
 20
-15.14970366605988
 42
-0.3404219149421345
 10
-9.891394925508919
 20
-14.76925073716915
 42
-0.1460055359498011
 10
-9.775552523125732
 20
-14.33917357419898
 42
0.2592286791355618
 10
-9.692807852845767
 20
-14.00834487938771
 42
-0.539229343321072
 10
-9.295633707519456
 20
-13.56172630505772
 42
0.0726995412147418
  0
LWPOLYLINE
  5
12A
330
18
100
AcDbEntity
  8
0
100
AcDbPolyline
 90
        8
 70
     0
 43
0.0
 10
-8.915008428244767
 20
-17.94520569298094
 10
-8.782617159809966
 20
-16.67151538162277
 42
-0.630500203607038
 10
-8.749519087684831
 20
-16.35722809817131
 42
0.2050065933848537
 10
-8.865361490068025
 20
-15.14970366605988
 42
0.3404219149421345
 10
-8.699872489530001
 20
-14.76925073716915
 42
0.1460055359498011
 10
-8.815714891913188
 20
-14.33917357419898
 42
-0.2592286791355618
 10
-8.898459562193153
 20
-14.00834487938771
 42
0.539229343321072
 10
-9.295633707519456
 20
-13.56172630505772
 42
-0.0726995412147418
  0
LINE
  5
134
330
18
100
AcDbEntity
  8
0
100
AcDbLine
 10
-9.967983161736833
 20
-18.87147420972193
 30
0.0
 11
-8.498406100270061
 21
-18.87147420972193
 31
0.0
  0
LINE
  5
135
330
18
100
AcDbEntity
  8
0
100
AcDbLine
 10
-8.498406100270061
 20
-18.65886853816869
 30
0.0
 11
-9.967983161736833
 21
-18.65886853816869
 31
0.0
  0
LINE
  5
136
330
18
100
AcDbEntity
  8
0
100
AcDbLine
 10
-9.967983161736833
 20
-18.65886853816869
 30
0.0
 11
-9.967983161736833
 21
-18.87147420972193
 31
0.0
  0
LINE
  5
137
330
18
100
AcDbEntity
  8
0
100
AcDbLine
 10
-8.498406100270061
 20
-18.87147420972193
 30
0.0
 11
-8.498406100270061
 21
-18.65886853816869
 31
0.0
  0
LWPOLYLINE
  5
138
330
18
100
AcDbEntity
  8
0
100
AcDbPolyline
 90
        8
 70
     0
 43
0.0
 10
-7.458703115374333
 20
-10.7000586326974
 42
-0.3841314956127248
 10
-7.193920238482824
 20
-10.91509721418248
 42
-0.4622696905354401
 10
-7.657290188037485
 20
-11.0639701502283
 42
-0.738008428247246
 10
-7.243567176659567
 20
-10.33614711516649
 42
-0.4483164422018823
 10
-6.664354824721712
 20
-10.94818003690212
 42
-0.3984540815035096
 10
-7.640741321985871
 20
-11.94066588752846
 42
-0.4679131672385723
 10
-8.964655366421503
 20
-10.76622427813666
 42
-0.0032826615479721
 10
-8.970084725038688
 20
-10.74968286677685
 42
-0.5770406067311554
  0
LWPOLYLINE
  5
142
330
18
100
AcDbEntity
  8
0
100
AcDbPolyline
 90
        5
 70
     0
 43
0.0
 10
-7.458703115374333
 20
-10.7000586326974
 42
-0.5188452632538292
 10
-7.044980103996408
 20
-10.71660004405721
 42
-0.3489155619502799
 10
-7.160822506379602
 20
-11.3947986112321
 42
-0.3882426222918933
 10
-8.418540746586877
 20
-11.37825719987229
 42
-0.1140915965584183
 10
-8.65501738971443
 20
-10.74968286677685
 42
-0.2724703907849761
  0
LWPOLYLINE
  5
149
330
18
100
AcDbEntity
  8
0
100
AcDbPolyline
 90
        8
 70
     0
 43
0.0
 10
-11.13256429966458
 20
-10.7000586326974
 42
0.3841314956127248
 10
-11.39734717655609
 20
-10.91509721418248
 42
0.4622696905354401
 10
-10.93397722700143
 20
-11.0639701502283
 42
0.738008428247246
 10
-11.34770023837935
 20
-10.33614711516649
 42
0.4483164422018823
 10
-11.9269125903172
 20
-10.94818003690212
 42
0.3984540815035096
 10
-10.95052609305304
 20
-11.94066588752846
 42
0.4679131672385723
 10
-9.626612048617413
 20
-10.76622427813666
 42
0.0032826615479721
 10
-9.621182690000225
 20
-10.74968286677685
 42
0.5770406067311554
  0
LWPOLYLINE
  5
153
330
18
100
AcDbEntity
  8
0
100
AcDbPolyline
 90
        5
 70
     0
 43
0.0
 10
-11.13256429966458
 20
-10.7000586326974
 42
0.5188452632538292
 10
-11.5462873110425
 20
-10.71660004405721
 42
0.3489155619502799
 10
-11.43044490865931
 20
-11.3947986112321
 42
0.3882426222918933
 10
-10.17272666845203
 20
-11.37825719987229
 42
0.1140915965584184
 10
-9.936250025324483
 20
-10.74968286677685
 42
0.2724703907849761
  0
ARC
  5
15A
330
18
100
AcDbEntity
  8
0
100
AcDbCircle
 10
-9.974877252228822
 20
-10.3758987319948
 30
0.0
 40
0.2363880511185591
100
AcDbArc
 50
110.2988554882589
 51
251.1889062774506
  0
ARC
  5
15B
330
18
100
AcDbEntity
  8
0
100
AcDbCircle
 10
-8.616390162810091
 20
-10.3758987319948
 30
0.0
 40
0.2363880511185591
100
AcDbArc
 50
288.8110937225492
 51
69.70114451174108
  0
LWPOLYLINE
  5
15C
330
18
100
AcDbEntity
  8
0
100
AcDbPolyline
 90
        4
 70
     1
 43
0.0
 10
-10.05688426606884
 20
-10.60080993073102
 10
-10.05688426606884
 20
-10.74968286677685
 10
-8.567481221095192
 20
-10.74968286677685
 10
-8.567481221095192
 20
-10.60080993073102
  0
LWPOLYLINE
  5
162
330
18
100
AcDbEntity
  8
0
100
AcDbPolyline
 90
        4
 70
     1
 43
0.0
 10
-10.05688426606884
 20
-10.00531842035522
 10
-10.05688426606884
 20
-10.15419135640104
 10
-8.567481221095192
 20
-10.15419135640104
 10
-8.567481221095192
 20
-10.00531842035522
  0
TEXT
  5
175
330
18
100
AcDbEntity
  8
ADPDIM
100
AcDbText
 10
-22.18159781861612
 20
-21.0320116494023
 30
0.0
 40
0.25
  1
J U L I U S  B L U M  &  C O . ,  I N C .      ( 8 0 0 )  5 2 6 - 6 2 9 3        W W W . J U L I U S B L U M . C O M        P A R T  N o .  5 9 6
 41
1.25
  7
ARIAL_WIDE
 72
     1
 11
-9.31218274358202
 21
-20.7820116494023
 31
0.0
100
AcDbText
 73
     3
  0
ENDSEC
  0
SECTION
  2
OBJECTS
  0
DICTIONARY
  5
C
330
0
100
AcDbDictionary
  3
ACAD_GROUP
350
D
  3
ACAD_LAYOUT
350
16E
  3
ACAD_MLINESTYLE
350
E
  3
ACAD_PLOTSETTINGS
350
16F
  3
ACAD_PLOTSTYLENAME
350
16C
  3
ACDBHEADERROUNDTRIPXREC
350
2B9
  3
ACDBVARIABLEDICTIONARY
350
1CF
  0
DICTIONARY
  5
1C9
330
18
100
AcDbDictionary
280
     1
  3
ACAD_LAYOUTSELFREF
360
2DA
  0
DICTIONARY
  5
1C7
330
15
100
AcDbDictionary
280
     1
  3
ACAD_LAYOUTSELFREF
360
2D9
  0
DICTIONARY
  5
D
102
{ACAD_REACTORS
330
C
102
}
330
C
100
AcDbDictionary
  0
DICTIONARY
  5
16E
102
{ACAD_REACTORS
330
C
102
}
330
C
100
AcDbDictionary
  0
DICTIONARY
  5
E
102
{ACAD_REACTORS
330
C
102
}
330
C
100
AcDbDictionary
  3
STANDARD
350
1B
  0
DICTIONARY
  5
16F
102
{ACAD_REACTORS
330
C
102
}
330
C
100
AcDbDictionary
  0
ACDBDICTIONARYWDFLT
  5
16C
102
{ACAD_REACTORS
330
C
102
}
330
C
100
AcDbDictionary
281
     1
  3
Normal
350
16D
100
AcDbDictionaryWithDefault
340
16D
  0
DICTIONARY
  5
2B9
102
{ACAD_REACTORS
330
C
102
}
330
C
100
AcDbDictionary
  3
CEPSNTYPE
350
2C3
  3
FINGERPRINTGUID
350
2C4
  3
HYPERLINKBASE
350
2BC
  3
INSUNITS
350
2C2
  3
LAYOUTDICT
350
2BE
  3
LWETCUNION
350
2C1
  3
PLOTSETDICT
350
2BF
  3
PLOTSTYLNAMDICT
350
2C0
  3
PSVPSCALE
350
2C6
  3
PUCSBASE
350
2C9
  3
PUCSORGBACK
350
2CF
  3
PUCSORGBOTTOM
350
2CB
  3
PUCSORGFRONT
350
2CE
  3
PUCSORGLEFT
350
2CC
  3
PUCSORGRIGHT
350
2CD
  3
PUCSORGTOP
350
2CA
  3
PUCSORTHOREF
350
2C7
  3
PUCSORTHOVIEW
350
2C8
  3
STYLESHEET
350
2BD
  3
TSTACKALIGN
350
2BA
  3
TSTACKSIZE
350
2BB
  3
UCSBASE
350
2D2
  3
UCSORGBACK
350
2D8
  3
UCSORGBOTTOM
350
2D4
  3
UCSORGFRONT
350
2D7
  3
UCSORGLEFT
350
2D5
  3
UCSORGRIGHT
350
2D6
  3
UCSORGTOP
350
2D3
  3
UCSORTHOREF
350
2D0
  3
UCSORTHOVIEW
350
2D1
  3
VERSIONGUID
350
2C5
  0
DICTIONARY
  5
1CF
102
{ACAD_REACTORS
330
C
102
}
330
C
100
AcDbDictionary
  3
DIMASSOC
350
1D0
  0
XRECORD
  5
2DA
102
{ACAD_REACTORS
330
1C9
102
}
330
1C9
100
AcDbXrecord
340
18
  0
XRECORD
  5
2D9
102
{ACAD_REACTORS
330
1C7
102
}
330
1C7
100
AcDbXrecord
340
15
  0
MLINESTYLE
  5
1B
102
{ACAD_REACTORS
330
E
102
}
330
E
100
AcDbMlineStyle
  2
STANDARD
 70
     0
  3

 62
     0
 51
90.0
 52
90.0
 71
     2
 49
0.5
 62
   256
  6
BYLAYER
 49
-0.5
 62
   256
  6
BYLAYER
  0
ACDBPLACEHOLDER
  5
16D
102
{ACAD_REACTORS
330
16C
102
}
330
16C
100
AcDbPlaceHolder
280
     0
  0
XRECORD
  5
2C3
102
{ACAD_REACTORS
330
2B9
102
}
330
2B9
100
AcDbXrecord
 90
        0
  0
XRECORD
  5
2C4
102
{ACAD_REACTORS
330
2B9
102
}
330
2B9
100
AcDbXrecord
  1
{A2857EBE-D935-4560-987B-0CEC917F79C8}
  0
XRECORD
  5
2BC
102
{ACAD_REACTORS
330
2B9
102
}
330
2B9
100
AcDbXrecord
  1

  0
XRECORD
  5
2C2
102
{ACAD_REACTORS
330
2B9
102
}
330
2B9
100
AcDbXrecord
 90
        0
  0
XRECORD
  5
2BE
102
{ACAD_REACTORS
330
2B9
102
}
330
2B9
100
AcDbXrecord
340
16E
  0
XRECORD
  5
2C1
102
{ACAD_REACTORS
330
2B9
102
}
330
2B9
100
AcDbXrecord
 90
    14877
  0
XRECORD
  5
2BF
102
{ACAD_REACTORS
330
2B9
102
}
330
2B9
100
AcDbXrecord
340
16F
  0
XRECORD
  5
2C0
102
{ACAD_REACTORS
330
2B9
102
}
330
2B9
100
AcDbXrecord
340
16C
  0
XRECORD
  5
2C6
102
{ACAD_REACTORS
330
2B9
102
}
330
2B9
100
AcDbXrecord
 40
0.0
  0
XRECORD
  5
2C9
102
{ACAD_REACTORS
330
2B9
102
}
330
2B9
100
AcDbXrecord
340
0
  0
XRECORD
  5
2CF
102
{ACAD_REACTORS
330
2B9
102
}
330
2B9
100
AcDbXrecord
 10
0.0
 20
0.0
 30
0.0
  0
XRECORD
  5
2CB
102
{ACAD_REACTORS
330
2B9
102
}
330
2B9
100
AcDbXrecord
 10
0.0
 20
0.0
 30
0.0
  0
XRECORD
  5
2CE
102
{ACAD_REACTORS
330
2B9
102
}
330
2B9
100
AcDbXrecord
 10
0.0
 20
0.0
 30
0.0
  0
XRECORD
  5
2CC
102
{ACAD_REACTORS
330
2B9
102
}
330
2B9
100
AcDbXrecord
 10
0.0
 20
0.0
 30
0.0
  0
XRECORD
  5
2CD
102
{ACAD_REACTORS
330
2B9
102
}
330
2B9
100
AcDbXrecord
 10
0.0
 20
0.0
 30
0.0
  0
XRECORD
  5
2CA
102
{ACAD_REACTORS
330
2B9
102
}
330
2B9
100
AcDbXrecord
 10
0.0
 20
0.0
 30
0.0
  0
XRECORD
  5
2C7
102
{ACAD_REACTORS
330
2B9
102
}
330
2B9
100
AcDbXrecord
340
0
  0
XRECORD
  5
2C8
102
{ACAD_REACTORS
330
2B9
102
}
330
2B9
100
AcDbXrecord
 70
     0
  0
XRECORD
  5
2BD
102
{ACAD_REACTORS
330
2B9
102
}
330
2B9
100
AcDbXrecord
  1

  0
XRECORD
  5
2BA
102
{ACAD_REACTORS
330
2B9
102
}
330
2B9
100
AcDbXrecord
 90
        1
  0
XRECORD
  5
2BB
102
{ACAD_REACTORS
330
2B9
102
}
330
2B9
100
AcDbXrecord
 90
       70
  0
XRECORD
  5
2D2
102
{ACAD_REACTORS
330
2B9
102
}
330
2B9
100
AcDbXrecord
340
0
  0
XRECORD
  5
2D8
102
{ACAD_REACTORS
330
2B9
102
}
330
2B9
100
AcDbXrecord
 10
0.0
 20
0.0
 30
0.0
  0
XRECORD
  5
2D4
102
{ACAD_REACTORS
330
2B9
102
}
330
2B9
100
AcDbXrecord
 10
0.0
 20
0.0
 30
0.0
  0
XRECORD
  5
2D7
102
{ACAD_REACTORS
330
2B9
102
}
330
2B9
100
AcDbXrecord
 10
0.0
 20
0.0
 30
0.0
  0
XRECORD
  5
2D5
102
{ACAD_REACTORS
330
2B9
102
}
330
2B9
100
AcDbXrecord
 10
0.0
 20
0.0
 30
0.0
  0
XRECORD
  5
2D6
102
{ACAD_REACTORS
330
2B9
102
}
330
2B9
100
AcDbXrecord
 10
0.0
 20
0.0
 30
0.0
  0
XRECORD
  5
2D3
102
{ACAD_REACTORS
330
2B9
102
}
330
2B9
100
AcDbXrecord
 10
0.0
 20
0.0
 30
0.0
  0
XRECORD
  5
2D0
102
{ACAD_REACTORS
330
2B9
102
}
330
2B9
100
AcDbXrecord
340
0
  0
XRECORD
  5
2D1
102
{ACAD_REACTORS
330
2B9
102
}
330
2B9
100
AcDbXrecord
 70
     0
  0
XRECORD
  5
2C5
102
{ACAD_REACTORS
330
2B9
102
}
330
2B9
100
AcDbXrecord
  1
{BA96C492-57FE-4770-8FF4-006B4BE37791}
  0
DICTIONARYVAR
  5
1D0
102
{ACAD_REACTORS
330
1CF
102
}
330
1CF
100
DictionaryVariables
280
     0
  1
1
  0
ENDSEC
  0
EOF
