  0
SECTION
  2
HEADER
  9
$ACADVER
  1
AC1014
  9
$ACADMAINTVER
 70
     9
  9
$DWGCODEPAGE
  3
ANSI_1252
  9
$INSBASE
 10
10.96532389001749
 20
-19.95152011677641
 30
0.0
  9
$EXTMIN
 10
-3.379655609429841
 20
-21.75194676991947
 30
0.0
  9
$EXTMAX
 10
22.35917454063837
 20
-9.060977214392675
 30
0.0
  9
$LIMMIN
 10
0.0
 20
0.0
  9
$LIMMAX
 10
36.0
 20
36.0
  9
$ORTHOMODE
 70
     1
  9
$REGENMODE
 70
     1
  9
$FILLMODE
 70
     1
  9
$QTEXTMODE
 70
     0
  9
$MIRRTEXT
 70
     1
  9
$DRAGMODE
 70
     0
  9
$LTSCALE
 40
1.0
  9
$OSMODE
 70
    37
  9
$ATTMODE
 70
     1
  9
$TEXTSIZE
 40
0.2
  9
$TRACEWID
 40
0.05
  9
$TEXTSTYLE
  7
STANDARD
  9
$CLAYER
  8
ADPDIM
  9
$CELTYPE
  6
BYLAYER
  9
$CECOLOR
 62
   256
  9
$CELTSCALE
 40
1.0
  9
$DELOBJ
 70
     1
  9
$DISPSILH
 70
     0
  9
$DIMSCALE
 40
1.0
  9
$DIMASZ
 40
0.125
  9
$DIMEXO
 40
0.0625
  9
$DIMDLI
 40
0.38
  9
$DIMRND
 40
0.0
  9
$DIMDLE
 40
0.0
  9
$DIMEXE
 40
0.18
  9
$DIMTP
 40
0.0
  9
$DIMTM
 40
0.0
  9
$DIMTXT
 40
0.125
  9
$DIMCEN
 40
0.1875
  9
$DIMTSZ
 40
0.125
  9
$DIMTOL
 70
     0
  9
$DIMLIM
 70
     0
  9
$DIMTIH
 70
     0
  9
$DIMTOH
 70
     0
  9
$DIMSE1
 70
     0
  9
$DIMSE2
 70
     0
  9
$DIMTAD
 70
     0
  9
$DIMZIN
 70
     3
  9
$DIMBLK
  1

  9
$DIMASO
 70
     1
  9
$DIMSHO
 70
     1
  9
$DIMPOST
  1

  9
$DIMAPOST
  1

  9
$DIMALT
 70
     0
  9
$DIMALTD
 70
     1
  9
$DIMALTF
 40
25.4
  9
$DIMLFAC
 40
1.0
  9
$DIMTOFL
 70
     0
  9
$DIMTVP
 40
0.0
  9
$DIMTIX
 70
     0
  9
$DIMSOXD
 70
     0
  9
$DIMSAH
 70
     0
  9
$DIMBLK1
  1

  9
$DIMBLK2
  1

  9
$DIMSTYLE
  2
STANDARD
  9
$DIMCLRD
 70
     0
  9
$DIMCLRE
 70
     0
  9
$DIMCLRT
 70
     0
  9
$DIMTFAC
 40
1.0
  9
$DIMGAP
 40
0.125
  9
$DIMJUST
 70
     0
  9
$DIMSD1
 70
     0
  9
$DIMSD2
 70
     0
  9
$DIMTOLJ
 70
     1
  9
$DIMTZIN
 70
     0
  9
$DIMALTZ
 70
     0
  9
$DIMALTTZ
 70
     0
  9
$DIMFIT
 70
     3
  9
$DIMUPT
 70
     0
  9
$DIMUNIT
 70
     2
  9
$DIMDEC
 70
     4
  9
$DIMTDEC
 70
     4
  9
$DIMALTU
 70
     2
  9
$DIMALTTD
 70
     2
  9
$DIMTXSTY
  7
STANDARD
  9
$DIMAUNIT
 70
     0
  9
$LUNITS
 70
     5
  9
$LUPREC
 70
     5
  9
$SKETCHINC
 40
0.1
  9
$FILLETRAD
 40
0.062
  9
$AUNITS
 70
     0
  9
$AUPREC
 70
     0
  9
$MENU
  1
acad
  9
$ELEVATION
 40
0.0
  9
$PELEVATION
 40
0.0
  9
$THICKNESS
 40
0.0
  9
$LIMCHECK
 70
     0
  9
$BLIPMODE
 70
     0
  9
$CHAMFERA
 40
0.0
  9
$CHAMFERB
 40
0.0
  9
$CHAMFERC
 40
0.0
  9
$CHAMFERD
 40
0.0
  9
$SKPOLY
 70
     0
  9
$TDCREATE
 40
2450409.622453888
  9
$TDUPDATE
 40
2452297.073854699
  9
$TDINDWG
 40
0.0035984491
  9
$TDUSRTIMER
 40
0.0035984491
  9
$USRTIMER
 70
     1
  9
$ANGBASE
 50
0.0
  9
$ANGDIR
 70
     0
  9
$PDMODE
 70
     0
  9
$PDSIZE
 40
0.0
  9
$PLINEWID
 40
0.0
  9
$COORDS
 70
     2
  9
$SPLFRAME
 70
     0
  9
$SPLINETYPE
 70
     6
  9
$SPLINESEGS
 70
     8
  9
$ATTDIA
 70
     0
  9
$ATTREQ
 70
     1
  9
$HANDLING
 70
 22529
  9
$HANDSEED
  5
37A
  9
$SURFTAB1
 70
     6
  9
$SURFTAB2
 70
     6
  9
$SURFTYPE
 70
     6
  9
$SURFU
 70
     6
  9
$SURFV
 70
     6
  9
$UCSNAME
  2

  9
$UCSORG
 10
0.0
 20
0.0
 30
0.0
  9
$UCSXDIR
 10
1.0
 20
0.0
 30
0.0
  9
$UCSYDIR
 10
0.0
 20
1.0
 30
0.0
  9
$PUCSNAME
  2

  9
$PUCSORG
 10
0.0
 20
0.0
 30
0.0
  9
$PUCSXDIR
 10
1.0
 20
0.0
 30
0.0
  9
$PUCSYDIR
 10
0.0
 20
1.0
 30
0.0
  9
$USERI1
 70
     0
  9
$USERI2
 70
     0
  9
$USERI3
 70
     0
  9
$USERI4
 70
     0
  9
$USERI5
 70
     0
  9
$USERR1
 40
0.0
  9
$USERR2
 40
0.0
  9
$USERR3
 40
0.0
  9
$USERR4
 40
0.0
  9
$USERR5
 40
0.0
  9
$WORLDVIEW
 70
     1
  9
$SHADEDGE
 70
     3
  9
$SHADEDIF
 70
    70
  9
$TILEMODE
 70
     1
  9
$MAXACTVP
 70
    15
  9
$PINSBASE
 10
0.0009765857830644
 20
1.500170956078392
 30
0.0
  9
$PLIMCHECK
 70
     0
  9
$PEXTMIN
 10
1.000000000000000E+20
 20
1.000000000000000E+20
 30
1.000000000000000E+20
  9
$PEXTMAX
 10
-1.000000000000000E+20
 20
-1.000000000000000E+20
 30
-1.000000000000000E+20
  9
$PLIMMIN
 10
0.0
 20
0.0
  9
$PLIMMAX
 10
12.0
 20
9.0
  9
$UNITMODE
 70
     0
  9
$VISRETAIN
 70
     0
  9
$PLINEGEN
 70
     0
  9
$PSLTSCALE
 70
     1
  9
$TREEDEPTH
 70
  3020
  9
$PICKSTYLE
 70
     1
  9
$CMLSTYLE
  2
STANDARD
  9
$CMLJUST
 70
     0
  9
$CMLSCALE
 40
1.0
  9
$PROXYGRAPHICS
 70
     1
  9
$MEASUREMENT
 70
     0
  0
ENDSEC
  0
SECTION
  2
CLASSES
  0
CLASS
  1
ACDBDICTIONARYWDFLT
  2
AcDbDictionaryWithDefault
  3
AutoCAD 2000
 90
        0
280
     0
281
     0
  0
CLASS
  1
ACDBPLACEHOLDER
  2
AcDbPlaceHolder
  3
AutoCAD 2000
 90
        0
280
     0
281
     0
  0
CLASS
  1
LAYOUT
  2
AcDbLayout
  3
AutoCAD 2000
 90
        0
280
     0
281
     0
  0
CLASS
  1
DICTIONARYVAR
  2
AcDbDictionaryVar
  3
AutoCAD 2000
 90
        0
280
     0
281
     0
  0
CLASS
  1
LONG_TRANSACTION
  2
AcDbLongTransaction
  3
AutoCAD 2000
 90
        0
280
     0
281
     0
  0
CLASS
  1
LWPOLYLINE
  2
AcDbPolyline
  3
AutoCAD 2000
 90
        0
280
     0
281
     1
  0
CLASS
  1
HATCH
  2
AcDbHatch
  3
AutoCAD 2000
 90
        0
280
     0
281
     1
  0
CLASS
  1
XRECORD
  2
AcDbXrecord
  3
AutoCAD 2000
 90
        0
280
     0
281
     0
  0
CLASS
  1
LONG_TRANSACTION
  2
AcDbLongTransaction
  3
AutoCAD 2000
 90
        0
280
     0
281
     0
  0
CLASS
  1
LWPOLYLINE
  2
AcDbPolyline
  3
AutoCAD 2000
 90
        0
280
     0
281
     1
  0
CLASS
  1
HATCH
  2
AcDbHatch
  3
AutoCAD 2000
 90
        0
280
     0
281
     1
  0
CLASS
  1
XRECORD
  2
AcDbXrecord
  3
AutoCAD 2000
 90
        0
280
     0
281
     0
  0
CLASS
  1
LONG_TRANSACTION
  2
AcDbLongTransaction
  3
AutoCAD 2000
 90
        0
280
     0
281
     0
  0
CLASS
  1
LWPOLYLINE
  2
AcDbPolyline
  3
AutoCAD 2000
 90
        0
280
     0
281
     1
  0
CLASS
  1
HATCH
  2
AcDbHatch
  3
AutoCAD 2000
 90
        0
280
     0
281
     1
  0
CLASS
  1
XRECORD
  2
AcDbXrecord
  3
AutoCAD 2000
 90
        0
280
     0
281
     0
  0
CLASS
  1
LONG_TRANSACTION
  2
AcDbLongTransaction
  3
AutoCAD 2000
 90
        0
280
     0
281
     0
  0
CLASS
  1
LWPOLYLINE
  2
AcDbPolyline
  3
AutoCAD 2000
 90
        0
280
     0
281
     1
  0
CLASS
  1
HATCH
  2
AcDbHatch
  3
AutoCAD 2000
 90
        0
280
     0
281
     1
  0
CLASS
  1
XRECORD
  2
AcDbXrecord
  3
AutoCAD 2000
 90
        0
280
     0
281
     0
  0
CLASS
  1
LONG_TRANSACTION
  2
AcDbLongTransaction
  3
AutoCAD 2000
 90
        0
280
     0
281
     0
  0
CLASS
  1
LWPOLYLINE
  2
AcDbPolyline
  3
AutoCAD 2000
 90
        0
280
     0
281
     1
  0
CLASS
  1
HATCH
  2
AcDbHatch
  3
AutoCAD 2000
 90
        0
280
     0
281
     1
  0
CLASS
  1
XRECORD
  2
AcDbXrecord
  3
AutoCAD 2000
 90
        0
280
     0
281
     0
  0
ENDSEC
  0
SECTION
  2
TABLES
  0
TABLE
  2
VPORT
  5
8
330
0
100
AcDbSymbolTable
 70
     2
  0
VPORT
  5
357
330
8
100
AcDbSymbolTableRecord
100
AcDbViewportTableRecord
  2
*ACTIVE
 70
     0
 10
0.0
 20
0.0
 11
1.0
 21
1.0
 12
9.51088635961422
 22
-15.40580021960739
 13
0.0
 23
0.0
 14
0.5740882589684922
 24
0.5740882589684922
 15
0.5
 25
0.5
 16
0.0
 26
0.0
 36
1.0
 17
0.0
 27
0.0
 37
0.0
 40
16.49498601189157
 41
1.570528967254408
 42
50.0
 43
0.0
 44
0.0
 50
0.0
 51
0.0
 71
     0
 72
   100
 73
     1
 74
     0
 75
     0
 76
     0
 77
     0
 78
     0
  0
ENDTAB
  0
TABLE
  2
LTYPE
  5
5
330
0
100
AcDbSymbolTable
 70
     1
  0
LTYPE
  5
12
330
5
100
AcDbSymbolTableRecord
100
AcDbLinetypeTableRecord
  2
BYBLOCK
 70
     0
  3

 72
    65
 73
     0
 40
0.0
  0
LTYPE
  5
13
330
5
100
AcDbSymbolTableRecord
100
AcDbLinetypeTableRecord
  2
BYLAYER
 70
     0
  3

 72
    65
 73
     0
 40
0.0
  0
LTYPE
  5
14
330
5
100
AcDbSymbolTableRecord
100
AcDbLinetypeTableRecord
  2
CONTINUOUS
 70
     0
  3
Solid line
 72
    65
 73
     0
 40
0.0
  0
ENDTAB
  0
TABLE
  2
LAYER
  5
2
330
0
100
AcDbSymbolTable
 70
     3
  0
LAYER
  5
F
330
2
100
AcDbSymbolTableRecord
100
AcDbLayerTableRecord
  2
0
 70
     0
 62
     7
  6
CONTINUOUS
  0
LAYER
  5
75
330
2
100
AcDbSymbolTableRecord
100
AcDbLayerTableRecord
  2
DEFPOINTS
 70
     0
 62
     7
  6
CONTINUOUS
  0
LAYER
  5
78
330
2
100
AcDbSymbolTableRecord
100
AcDbLayerTableRecord
  2
ADPDIM
 70
     0
 62
     3
  6
CONTINUOUS
  0
ENDTAB
  0
TABLE
  2
STYLE
  5
3
330
0
100
AcDbSymbolTable
 70
     2
  0
STYLE
  5
10
330
3
100
AcDbSymbolTableRecord
100
AcDbTextStyleTableRecord
  2
STANDARD
 70
     0
 40
0.0
 41
1.0
 50
0.0
 71
     0
 42
0.2
  3
txt
  4

  0
STYLE
  5
213
330
3
100
AcDbSymbolTableRecord
100
AcDbTextStyleTableRecord
  2
ARIAL_WIDE
 70
     0
 40
0.0
 41
1.25
 50
0.0
 71
     0
 42
0.2
  3
ARIAL.TTF
  4

1001
ACAD
1000
Arial
1071
       34
  0
ENDTAB
  0
TABLE
  2
VIEW
  5
6
330
0
100
AcDbSymbolTable
 70
     0
  0
ENDTAB
  0
TABLE
  2
UCS
  5
7
330
0
100
AcDbSymbolTable
 70
     0
  0
ENDTAB
  0
TABLE
  2
APPID
  5
9
330
0
100
AcDbSymbolTable
 70
     1
  0
APPID
  5
11
330
9
100
AcDbSymbolTableRecord
100
AcDbRegAppTableRecord
  2
ACAD
 70
     0
  0
ENDTAB
  0
TABLE
  2
DIMSTYLE
  5
A
330
0
100
AcDbSymbolTable
 70
     1
  0
DIMSTYLE
105
207
330
A
100
AcDbSymbolTableRecord
100
AcDbDimStyleTableRecord
  2
STANDARD
 70
     0
  3

  4

  5

  6

  7

 40
1.0
 41
0.18
 42
0.0625
 43
0.38
 44
0.18
 45
0.0
 46
0.0
 47
0.0
 48
0.0
140
0.18
141
0.09
142
0.0
143
25.4
144
1.0
145
0.0
146
1.0
147
0.09
 71
     0
 72
     0
 73
     1
 74
     1
 75
     0
 76
     0
 77
     0
 78
     0
170
     0
171
     2
172
     0
173
     0
174
     0
175
     0
176
     0
177
     0
178
     0
270
     2
271
     4
272
     4
273
     2
274
     2
340
10
275
     0
280
     0
281
     0
282
     0
283
     1
284
     0
285
     0
286
     0
287
     3
288
     0
  0
ENDTAB
  0
TABLE
  2
BLOCK_RECORD
  5
1
330
0
100
AcDbSymbolTable
 70
     3
  0
BLOCK_RECORD
  5
18
102
{ACAD_XDICTIONARY
360
268
102
}
330
1
100
AcDbSymbolTableRecord
100
AcDbBlockTableRecord
  2
*MODEL_SPACE
  0
BLOCK_RECORD
  5
15
102
{ACAD_XDICTIONARY
360
266
102
}
330
1
100
AcDbSymbolTableRecord
100
AcDbBlockTableRecord
  2
*PAPER_SPACE
  0
BLOCK_RECORD
  5
6E
330
1
100
AcDbSymbolTableRecord
100
AcDbBlockTableRecord
  2
*D0
  0
BLOCK_RECORD
  5
6F
330
1
100
AcDbSymbolTableRecord
100
AcDbBlockTableRecord
  2
*D1
  0
BLOCK_RECORD
  5
70
330
1
100
AcDbSymbolTableRecord
100
AcDbBlockTableRecord
  2
*D2
  0
ENDTAB
  0
ENDSEC
  0
SECTION
  2
BLOCKS
  0
BLOCK
  5
7B
330
18
100
AcDbEntity
  8
0
100
AcDbBlockBegin
  2
*MODEL_SPACE
 70
     0
 10
0.0
 20
0.0
 30
0.0
  3
*MODEL_SPACE
  1

  0
ENDBLK
  5
7C
330
18
100
AcDbEntity
  8
0
100
AcDbBlockEnd
  0
BLOCK
  5
79
330
15
100
AcDbEntity
 67
     1
  8
0
100
AcDbBlockBegin
  2
*PAPER_SPACE
 70
     0
 10
0.0
 20
0.0
 30
0.0
  3
*PAPER_SPACE
  1

  0
ENDBLK
  5
7A
330
15
100
AcDbEntity
 67
     1
  8
0
100
AcDbBlockEnd
  0
BLOCK
  5
7E
330
6E
100
AcDbEntity
  8
0
100
AcDbBlockBegin
  2
*D0
 70
     1
 10
0.0
 20
0.0
 30
0.0
  3
*D0
  1

  0
LINE
  5
7F
330
6E
100
AcDbEntity
  8
0
  6
BYBLOCK
 62
     0
100
AcDbLine
 10
5.873543752117337
 20
7.890999620248548
 30
0.0
 11
5.873543752117337
 21
12.27361431566457
 31
0.0
  0
LINE
  5
80
330
6E
100
AcDbEntity
  8
0
  6
BYBLOCK
 62
     0
100
AcDbLine
 10
15.87354375211733
 20
7.430946598977843
 30
0.0
 11
15.87354375211733
 21
12.27361431566457
 31
0.0
  0
LINE
  5
81
330
6E
100
AcDbEntity
  8
0
  6
BYBLOCK
 62
     0
100
AcDbLine
 10
5.873543752117337
 20
12.09361431566457
 30
0.0
 11
10.67562708545067
 21
12.09361431566457
 31
0.0
  0
LINE
  5
82
330
6E
100
AcDbEntity
  8
0
  6
BYBLOCK
 62
     0
100
AcDbLine
 10
15.87354375211733
 20
12.09361431566457
 30
0.0
 11
11.071460418784
 21
12.09361431566457
 31
0.0
  0
LINE
  5
83
330
6E
100
AcDbEntity
  8
0
  6
BYBLOCK
 62
     0
100
AcDbLine
 10
5.748543752117337
 20
11.96861431566457
 30
0.0
 11
5.998543752117337
 21
12.21861431566457
 31
0.0
  0
LINE
  5
84
330
6E
100
AcDbEntity
  8
0
  6
BYBLOCK
 62
     0
100
AcDbLine
 10
15.74854375211733
 20
11.96861431566457
 30
0.0
 11
15.99854375211733
 21
12.21861431566457
 31
0.0
  0
TEXT
  5
85
330
6E
100
AcDbEntity
  8
0
  6
BYBLOCK
 62
     0
100
AcDbText
 10
10.80062708545067
 20
12.03111431566457
 30
0.0
 40
0.125
  1
10
 72
     1
 11
10.87354375211733
 21
12.09361431566457
 31
0.0
100
AcDbText
 73
     2
  0
POINT
  5
86
330
6E
100
AcDbEntity
  8
DEFPOINTS
  6
BYBLOCK
 62
     0
100
AcDbPoint
 10
5.873543752117337
 20
7.828499620248548
 30
0.0
  0
POINT
  5
87
330
6E
100
AcDbEntity
  8
DEFPOINTS
  6
BYBLOCK
 62
     0
100
AcDbPoint
 10
15.87354375211733
 20
7.368446598977843
 30
0.0
  0
POINT
  5
88
330
6E
100
AcDbEntity
  8
DEFPOINTS
  6
BYBLOCK
 62
     0
100
AcDbPoint
 10
15.87354375211733
 20
12.09361431566457
 30
0.0
  0
ENDBLK
  5
89
330
6E
100
AcDbEntity
  8
0
100
AcDbBlockEnd
  0
BLOCK
  5
8A
330
6F
100
AcDbEntity
  8
0
100
AcDbBlockBegin
  2
*D1
 70
     1
 10
0.0
 20
0.0
 30
0.0
  3
*D1
  1

  0
LINE
  5
8B
330
6F
100
AcDbEntity
  8
0
  6
BYBLOCK
 62
     0
100
AcDbLine
 10
9.167620064603072
 20
1.357815864998237
 30
0.0
 11
4.979416441448166
 21
1.357815864998237
 31
0.0
  0
LINE
  5
8C
330
6F
100
AcDbEntity
  8
0
  6
BYBLOCK
 62
     0
100
AcDbLine
 10
9.167620064603072
 20
11.35781586499823
 30
0.0
 11
4.979416441448167
 21
11.35781586499823
 31
0.0
  0
LINE
  5
8D
330
6F
100
AcDbEntity
  8
0
  6
BYBLOCK
 62
     0
100
AcDbLine
 10
5.159416441448166
 20
1.357815864998237
 30
0.0
 11
5.159416441448166
 21
6.15989919833157
 31
0.0
  0
LINE
  5
8E
330
6F
100
AcDbEntity
  8
0
  6
BYBLOCK
 62
     0
100
AcDbLine
 10
5.159416441448167
 20
11.35781586499823
 30
0.0
 11
5.159416441448166
 21
6.555732531664903
 31
0.0
  0
LINE
  5
8F
330
6F
100
AcDbEntity
  8
0
  6
BYBLOCK
 62
     0
100
AcDbLine
 10
5.284416441448166
 20
1.232815864998237
 30
0.0
 11
5.034416441448166
 21
1.482815864998237
 31
0.0
  0
LINE
  5
90
330
6F
100
AcDbEntity
  8
0
  6
BYBLOCK
 62
     0
100
AcDbLine
 10
5.284416441448167
 20
11.23281586499823
 30
0.0
 11
5.034416441448167
 21
11.48281586499823
 31
0.0
  0
TEXT
  5
91
330
6F
100
AcDbEntity
  8
0
  6
BYBLOCK
 62
     0
100
AcDbText
 10
5.221916441448166
 20
6.28489919833157
 30
0.0
 40
0.125
  1
10
 50
90.0
 72
     1
 11
5.159416441448166
 21
6.357815864998237
 31
0.0
100
AcDbText
 73
     2
  0
POINT
  5
92
330
6F
100
AcDbEntity
  8
DEFPOINTS
  6
BYBLOCK
 62
     0
100
AcDbPoint
 10
9.230120064603072
 20
1.357815864998237
 30
0.0
  0
POINT
  5
93
330
6F
100
AcDbEntity
  8
DEFPOINTS
  6
BYBLOCK
 62
     0
100
AcDbPoint
 10
9.230120064603072
 20
11.35781586499823
 30
0.0
  0
POINT
  5
94
330
6F
100
AcDbEntity
  8
DEFPOINTS
  6
BYBLOCK
 62
     0
100
AcDbPoint
 10
5.159416441448167
 20
11.35781586499823
 30
0.0
  0
ENDBLK
  5
95
330
6F
100
AcDbEntity
  8
0
100
AcDbBlockEnd
  0
BLOCK
  5
96
330
70
100
AcDbEntity
  8
0
100
AcDbBlockBegin
  2
*D2
 70
     1
 10
0.0
 20
0.0
 30
0.0
  3
*D2
  1

  0
LINE
  5
97
330
70
100
AcDbEntity
  8
0
  6
BYBLOCK
 62
     0
100
AcDbLine
 10
9.230120064603072
 20
1.295315864998237
 30
0.0
 11
9.230120064603072
 21
0.6423150152787056
 31
0.0
  0
LINE
  5
98
330
70
100
AcDbEntity
  8
0
  6
BYBLOCK
 62
     0
100
AcDbLine
 10
9.743881783095881
 20
1.295315864998237
 30
0.0
 11
9.743881783095881
 21
0.6423150152787056
 31
0.0
  0
LINE
  5
99
330
70
100
AcDbEntity
  8
0
  6
BYBLOCK
 62
     0
100
AcDbLine
 10
9.230120064603072
 20
0.8223150152787056
 30
0.0
 11
8.980120064603072
 21
0.8223150152787056
 31
0.0
  0
LINE
  5
9A
330
70
100
AcDbEntity
  8
0
  6
BYBLOCK
 62
     0
100
AcDbLine
 10
9.743881783095881
 20
0.8223150152787056
 30
0.0
 11
9.993881783095881
 21
0.8223150152787056
 31
0.0
  0
LINE
  5
9B
330
70
100
AcDbEntity
  8
0
  6
BYBLOCK
 62
     0
100
AcDbLine
 10
9.105120064603072
 20
0.6973150152787056
 30
0.0
 11
9.355120064603072
 21
0.9473150152787056
 31
0.0
  0
LINE
  5
9C
330
70
100
AcDbEntity
  8
0
  6
BYBLOCK
 62
     0
100
AcDbLine
 10
9.618881783095881
 20
0.6973150152787056
 30
0.0
 11
9.868881783095881
 21
0.9473150152787056
 31
0.0
  0
TEXT
  5
9D
330
70
100
AcDbEntity
  8
0
  6
BYBLOCK
 62
     0
100
AcDbText
 10
10.11888178309588
 20
0.7598150152787056
 30
0.0
 40
0.125
  1
1/2
 72
     1
 11
10.26471511642921
 21
0.8223150152787056
 31
0.0
100
AcDbText
 73
     2
  0
POINT
  5
9E
330
70
100
AcDbEntity
  8
DEFPOINTS
  6
BYBLOCK
 62
     0
100
AcDbPoint
 10
9.230120064603072
 20
1.357815864998237
 30
0.0
  0
POINT
  5
9F
330
70
100
AcDbEntity
  8
DEFPOINTS
  6
BYBLOCK
 62
     0
100
AcDbPoint
 10
9.743881783095881
 20
1.357815864998237
 30
0.0
  0
POINT
  5
A0
330
70
100
AcDbEntity
  8
DEFPOINTS
  6
BYBLOCK
 62
     0
100
AcDbPoint
 10
9.743881783095881
 20
0.8223150152787056
 30
0.0
  0
ENDBLK
  5
A1
330
70
100
AcDbEntity
  8
0
100
AcDbBlockEnd
  0
ENDSEC
  0
SECTION
  2
ENTITIES
  0
LWPOLYLINE
  5
A2
330
18
100
AcDbEntity
  8
0
100
AcDbPolyline
 90
        2
 70
     0
 43
0.0
 10
7.980077852108589
 20
-10.99983665939055
 10
5.62599824992148
 20
-10.99983665939055
  0
LWPOLYLINE
  5
A6
330
18
100
AcDbEntity
  8
0
100
AcDbPolyline
 90
        3
 70
     0
 43
0.0
 10
5.62599824992148
 20
-16.49133794771761
 10
5.62599824992148
 20
-18.94552148755126
 10
7.980077852108589
 20
-18.94552148755126
  0
DIMENSION
  5
AB
330
18
100
AcDbEntity
  8
ADPDIM
100
AcDbDimension
  2
*D1
 10
3.922475189892384
 20
-9.97677566505901
 30
0.0
 11
3.922475189892384
 21
-14.97677566505901
 31
0.0
 12
-1.236941251555782
 22
-21.33459153005724
 32
0.0
100
AcDbAlignedDimension
 13
7.99317881304729
 23
-19.97677566505901
 33
0.0
 14
7.99317881304729
 24
-9.97677566505901
 34
0.0
 50
90.0
100
AcDbRotatedDimension
  0
DIMENSION
  5
AC
330
18
100
AcDbEntity
  8
ADPDIM
100
AcDbDimension
  2
*D0
 10
14.63660250056155
 20
-9.240977214392676
 30
0.0
 11
9.636602500561554
 21
-9.240977214392676
 31
0.0
 12
-1.236941251555782
 22
-21.33459153005724
 32
0.0
100
AcDbAlignedDimension
 13
4.636602500561554
 23
-13.50609190980869
 33
0.0
 14
14.63660250056155
 24
-13.9661449310794
 34
0.0
100
AcDbRotatedDimension
  0
LWPOLYLINE
  5
AD
330
18
100
AcDbEntity
  8
0
100
AcDbPolyline
 90
        2
 70
     0
 43
0.0
 10
5.62599824992148
 20
-10.99983665939055
 10
5.62599824992148
 20
-13.50609190980869
  0
LWPOLYLINE
  5
B1
330
18
100
AcDbEntity
  8
0
100
AcDbPolyline
 90
        3
 70
     0
 43
0.0
 10
5.62599824992148
 20
-15.97958147849642
 10
4.636602500561554
 20
-15.97958147849642
 10
4.636602500561554
 20
-16.49133794771761
  0
LWPOLYLINE
  5
B6
330
18
100
AcDbEntity
  8
0
100
AcDbPolyline
 90
        2
 70
     0
 43
0.0
 10
4.636602500561554
 20
-16.49133794771761
 10
5.62599824992148
 20
-16.49133794771761
  0
LWPOLYLINE
  5
BA
330
18
100
AcDbEntity
  8
0
100
AcDbPolyline
 90
        2
 70
     0
 43
0.0
 10
4.636602500561554
 20
-13.98373118994744
 10
5.62599824992148
 20
-13.98373118994744
  0
LWPOLYLINE
  5
BE
330
18
100
AcDbEntity
  8
0
100
AcDbPolyline
 90
        3
 70
     0
 43
0.0
 10
5.62599824992148
 20
-13.50609190980869
 10
4.636602500561554
 20
-13.50609190980869
 10
4.636602500561554
 20
-13.98373118994744
  0
LWPOLYLINE
  5
C3
330
18
100
AcDbEntity
  8
0
100
AcDbPolyline
 90
        2
 70
     0
 43
0.0
 10
5.62599824992148
 20
-13.98373118994744
 10
5.62599824992148
 20
-15.97958147849642
  0
LWPOLYLINE
  5
C7
330
18
100
AcDbEntity
  8
0
100
AcDbPolyline
 90
        3
 70
     0
 43
0.0
 10
13.59234041900037
 20
-13.50609190980869
 10
13.59234041900037
 20
-10.99983665939055
 10
10.9653238900175
 20
-10.99983665939055
  0
LWPOLYLINE
  5
CC
330
18
100
AcDbEntity
  8
0
100
AcDbPolyline
 90
       16
 70
     0
 43
0.0
 10
13.11470094357372
 20
-12.01526395524729
 42
0.2300927468782751
 10
12.42962611620065
 20
-11.76885810456503
 42
0.2322541937387182
 10
11.57938125301244
 20
-12.35855681029478
 42
0.1237331554814705
 10
11.24969456629925
 20
-13.15638444141928
 42
-0.0562723603247249
 10
10.95471158744641
 20
-14.0756206961353
 42
-0.0063173619833698
 10
10.10446672425821
 20
-14.87344832725981
 42
0.1020233991329577
 10
9.896243563321192
 20
-15.96612531124919
 42
-0.0222721639093541
 10
10.2085783961042
 20
-15.34173853506488
 42
0.1741801428790416
 10
10.43415359372638
 20
-15.06423321742729
 42
0.2874918249046798
 10
10.81589620774006
 20
-14.82141609591112
 42
-0.202456361307754
 10
11.2323425296141
 20
-14.64797536663776
 42
-0.1695150296051734
 10
11.61408514362777
 20
-14.54391077827353
 42
-0.3104737917021483
 10
12.09993924673248
 20
-14.35312601377289
 42
-0.3902689502485017
 10
12.72460891229851
 20
-14.38781408422745
 42
-0.4229356043128158
 10
12.98488800053602
 20
-14.75203982933514
 42
0.0408865367083972
 10
13.11470094357372
 20
-15.18956313724882
 42
0.0990278940124485
  0
LWPOLYLINE
  5
DE
330
18
100
AcDbEntity
  8
0
100
AcDbPolyline
 90
        4
 70
     1
 43
0.0
 10
6.154813313683881
 20
-11.51136144756757
 10
6.154813313683881
 20
-18.46809832506241
 10
13.11470094357372
 20
-18.46809832506241
 10
13.11470094357372
 20
-11.51136144756757
  0
LWPOLYLINE
  5
E4
330
18
100
AcDbEntity
  8
0
100
AcDbPolyline
 90
       30
 70
     0
 43
0.0
 10
7.413167703329609
 20
-11.51136144756757
 42
-0.0642659576642926
 10
7.675195843224752
 20
-11.66479364186765
 42
-0.4029441883179659
 10
8.05693845723843
 20
-11.82089033591373
 42
0.2019189514041395
 10
8.438681071252112
 20
-12.08105149265719
 42
0.2052944166008348
 10
8.803071648580637
 20
-12.65340616315964
 42
0.192663495009913
 10
8.941887211041969
 20
-13.29513710023808
 42
0.0710993813703345
 10
8.959239064972145
 20
-13.69405091580033
 42
-0.2770481870278026
 10
9.063350736818144
 20
-13.9021798411951
 42
-0.1732875476334472
 10
9.150110371978986
 20
-14.23171739018138
 42
0.3160237361596753
 10
9.306277788370493
 20
-14.43984631557615
 42
0.6441777030579674
 10
9.27157389775516
 20
-14.59594300962222
 42
-0.1093035275511285
 10
9.531852985992667
 20
-14.87344832725981
 42
-0.1339788238036922
 10
9.531852985992667
 20
-14.35312601377289
 42
-0.3147730031746635
 10
9.635964475083689
 20
-14.26640558630279
 42
-0.5775735499432038
 10
9.80948392816035
 20
-14.50922270781896
 42
-0.1168576948911313
 10
9.80948392816035
 20
-14.82141609591112
 42
-0.0316844855943812
 10
10.03505912578252
 20
-14.37047004900017
 42
0.4829455846898272
 10
10.15652265155869
 20
-14.09296473136258
 42
0.7386730209522972
 10
10.38209766642589
 20
-13.86749177074053
 42
-0.0344489864360377
 10
10.52091322888722
 20
-13.64201868445164
 42
0.1900615418943367
 10
10.55561711950255
 20
-13.50326602563284
 42
0.0334752405540152
 10
10.52091322888722
 20
-13.32982529635948
 42
0.0453595393291225
 10
10.69443249920891
 20
-13.17372860231341
 42
-0.0710993085175665
 10
10.67708064527873
 20
-12.87887924944854
 42
-0.0622617749088169
 10
10.93735973351623
 20
-12.58402989658367
 42
0.2596779495901604
 10
11.04147122260725
 20
-12.2891805437188
 42
-0.5892632893779162
 10
11.12823104052307
 20
-12.21980415147598
 42
0.2648085659443526
 10
11.45791772723627
 20
-11.76885810456503
 42
0.3026615382934993
 10
11.71819681547377
 20
-11.66479364186765
 42
-0.0275352517712298
 10
12.04856587895498
 20
-11.51136144756757
 42
0.0397168342382783
  0
LWPOLYLINE
  5
104
330
18
100
AcDbEntity
  8
0
100
AcDbPolyline
 90
       21
 70
     0
 43
0.0
 10
6.154813313683881
 20
-14.93941249962765
 42
-0.0211236674591547
 10
6.182929460540339
 20
-14.9254805586085
 42
-0.0190389280883261
 10
6.460560402708022
 20
-14.68266343709232
 42
0.3699601827961696
 10
6.61672781909953
 20
-14.42250228034886
 42
0.1644049318997944
 10
6.981118579183032
 20
-14.2143733549541
 42
-0.0234673385228091
 10
7.397564901057069
 20
-14.30109365675735
 42
-0.1058969249975429
 10
7.709899733840085
 20
-14.23171739018138
 42
-0.1059207696734785
 10
7.900771040846922
 20
-14.35312601377289
 42
0.1660928067890854
 10
8.213105873629938
 20
-14.33578185287876
 42
0.0710912216176428
 10
8.317217545475937
 20
-14.59594300962222
 42
-0.1198268357635437
 10
8.525440706412954
 20
-14.64797536663776
 42
-0.0863377033458456
 10
8.646904232189132
 20
-14.96016875472991
 42
0.0000004782938017
 10
8.889831283741482
 20
-15.02954502130589
 42
0.1789328216335249
 10
8.976591101657302
 20
-15.25501810759478
 42
-0.3550905782016655
 10
9.601260767223333
 20
-15.82737265243039
 42
0.1662320535355217
 10
9.445093350831825
 20
-15.0989214135487
 42
-0.1726585839627622
 10
8.976591101657302
 20
-14.68266343709232
 42
-0.1244115670743962
 10
8.59484848764362
 20
-13.93686803731651
 42
0.0241817111429001
 10
8.126346238469096
 20
-12.72278242973562
 42
0.2046502668296384
 10
7.13728599557454
 20
-11.92495479861111
 42
0.2704187706845212
 10
6.154813313683881
 20
-11.84919863977506
 42
-0.1407906533427563
  0
ARC
  5
11B
330
18
100
AcDbEntity
  8
0
100
AcDbCircle
 10
10.86795195228557
 20
-16.10050669924768
 30
0.0
 40
0.0564035021689917
100
AcDbArc
 50
202.6436937186558
 51
337.3563062813456
  0
LWPOLYLINE
  5
11C
330
18
100
AcDbEntity
  8
0
100
AcDbPolyline
 90
        4
 70
     0
 43
0.0
 10
10.48768460987876
 20
-18.94552148755126
 10
10.48768460987876
 20
-19.95152011677641
 10
10.96532389001749
 20
-19.95152011677641
 10
10.96532389001749
 20
-18.94552148755126
  0
LWPOLYLINE
  5
122
330
18
100
AcDbEntity
  8
0
100
AcDbPolyline
 90
       12
 70
     0
 43
0.0
 10
12.30816259042447
 20
-16.34769509158416
 42
-0.4539614789830251
 10
12.70725705836833
 20
-16.65988847967631
 42
-0.435317975601319
 10
12.96753614660584
 20
-17.04145826001128
 42
-0.0622854293347408
 10
12.98488800053602
 20
-17.33630761287615
 42
-0.3728115067815638
 10
12.55108964197682
 20
-18.44632875775966
 42
-0.0131615133912956
 10
12.568441495907
 20
-17.42302804034625
 42
0.2005689469145712
 10
11.89171608579546
 20
-16.59051221310034
 42
0.2956024364328984
 10
10.48620933827189
 20
-16.62520040922174
 42
0.2890965838407404
 10
10.13917061487354
 20
-18.01272674607599
 42
0.0000013990058676
 10
10.26063414064972
 20
-17.89131812248448
 42
-1.116765711574289
 10
10.33004192188038
 20
-17.97803854995458
 42
0.0598080238759171
 10
10.36805058272348
 20
-18.46809832506241
 42
0.4386858005672348
  0
LWPOLYLINE
  5
130
330
18
100
AcDbEntity
  8
0
100
AcDbPolyline
 90
       13
 70
     0
 43
0.0
 10
13.11470094357372
 20
-15.20829678693027
 42
0.0887727305986071
 10
12.81136873021432
 20
-14.85610429203252
 42
0.179345115092702
 10
12.22140295526363
 20
-14.76938386456242
 42
0.3285943500564543
 10
12.0825873928023
 20
-14.9254805586085
 42
0.0566782853686652
 10
11.24969456629925
 20
-15.04688918220001
 42
0.0266343992225856
 10
10.29533803126505
 20
-15.81002861720311
 42
0.1221689945706386
 10
9.948299307866705
 20
-16.78129710326782
 42
-0.1623007828401567
 10
10.12181876094336
 20
-16.52113594652436
 42
-0.5197149651794076
 10
10.45150544765656
 20
-16.22628659365949
 42
-0.4737432696475387
 10
10.88530380621575
 20
-16.035501703492
 42
-0.6010851201223309
 10
11.3885099460056
 20
-16.01815754259788
 42
-0.5617916708119502
 10
11.90906812248061
 20
-16.10487797006798
 42
-0.425499985027898
 10
12.32551444435465
 20
-16.31300689546275
 42
0.7353012442641333
  0
LWPOLYLINE
  5
13F
330
18
100
AcDbEntity
  8
0
100
AcDbPolyline
 90
        4
 70
     0
 43
0.0
 10
7.980077852108589
 20
-18.94552148755126
 10
7.980077852108589
 20
-19.95152011677641
 10
8.491834321329772
 20
-19.95152011677641
 10
8.491834321329772
 20
-18.94552148755126
  0
DIMENSION
  5
145
330
18
100
AcDbEntity
  8
ADPDIM
100
AcDbDimension
  2
*D2
 10
8.506940531540099
 20
-20.51227651477854
 30
0.0
 11
9.027773864873431
 21
-20.51227651477854
 31
0.0
 12
-1.236941251555782
 22
-21.33459153005724
 32
0.0
100
AcDbAlignedDimension
 13
7.99317881304729
 23
-19.97677566505901
 33
0.0
 14
8.506940531540099
 24
-19.97677566505901
 34
0.0
100
AcDbRotatedDimension
  0
LWPOLYLINE
  5
146
330
18
100
AcDbEntity
  8
0
100
AcDbPolyline
 90
       13
 70
     0
 43
0.0
 10
9.13275851804881
 20
-16.52113594652436
 10
9.306277788370493
 20
-16.52113594652436
 42
0.0365529993135767
 10
9.340981678985826
 20
-16.74660890714641
 42
0.2342279665772598
 10
9.497149095377334
 20
-16.9373937973139
 42
0.0990641068898913
 10
9.479797058692181
 20
-16.38238328770557
 42
0.214322793020969
 10
9.011294809517657
 20
-15.72330818973301
 42
-0.0399319258639264
 10
8.698959976734641
 20
-15.48049106821683
 42
-0.042326498827143
 10
8.282513654860604
 20
-15.06423321742729
 42
0.205738727228468
 10
7.553732317448577
 20
-14.82141609591112
 42
0.1503125215471086
 10
6.651431709714863
 20
-15.0989214135487
 42
0.2969557785797242
 10
6.564672074554017
 20
-15.8620608485518
 42
-0.0567587730475501
 10
6.269689095701181
 20
-15.75799638585442
 42
0.0868240899517774
 10
6.154813313683881
 20
-15.58795333685503
 42
-0.4923673037941656
  0
LWPOLYLINE
  5
155
330
18
100
AcDbEntity
  8
0
100
AcDbPolyline
 90
       14
 70
     0
 43
0.0
 10
6.154813313683881
 20
-17.51465340638385
 42
-0.0227495877281843
 10
6.182929460540339
 20
-17.45771623646766
 42
-0.1336269026102552
 10
6.495264293323355
 20
-16.97208199343531
 42
0.2323301930702564
 10
6.529968183938684
 20
-16.8853615659652
 42
0.2656691084829235
 10
6.59937596516935
 20
-16.67723264057044
 42
0.4193431958450763
 10
6.877006907337033
 20
-16.60785624832762
 42
-0.0282207436503491
 10
7.015822287043388
 20
-16.39972732293285
 42
-0.0123379006578204
 10
7.328157119826403
 20
-16.36503912681144
 42
-0.4077656547905998
 10
7.83136325961626
 20
-16.20894243276536
 42
-0.0453590309674371
 10
8.039586603308254
 20
-16.01815754259788
 42
-0.0344347091453909
 10
8.265161618175451
 20
-16.15691020141667
 42
-0.1513282983204216
 10
8.542792560343134
 20
-16.05284573871929
 42
0.0553880248327216
 10
8.716312013419795
 20
-16.24363062888677
 42
-0.6179088762227592
 10
9.115406481363653
 20
-16.48644775040295
 42
2.414983163189815
  0
LWPOLYLINE
  5
165
330
18
100
AcDbEntity
  8
0
100
AcDbPolyline
 90
       10
 70
     0
 43
0.0
 10
9.210785035788319
 20
-18.46809832506241
 42
0.0837261200022846
 10
9.150110371978986
 20
-18.03007078130328
 42
-1.150372538994839
 10
9.254222043824984
 20
-18.01272674607599
 42
-0.108055136550709
 10
9.445093350831825
 20
-18.06475897742468
 42
0.0914370877706133
 10
9.410389460216492
 20
-17.33630761287615
 42
0.1767451410956553
 10
8.83777553919597
 20
-16.69457667579772
 42
0.1957991092466988
 10
7.605788061994086
 20
-16.76395306804054
 42
0.0495092881725118
 10
6.807599126106371
 20
-17.37099580899756
 42
0.1647972805173636
 10
6.686135600330192
 20
-18.18616747534935
 42
-0.0493269706553873
 10
6.708786300974541
 20
-18.46809832506241
 42
0.0458128260744001
  0
LWPOLYLINE
  5
171
330
18
100
AcDbEntity
  8
0
100
AcDbPolyline
 90
        3
 70
     0
 43
0.0
 10
6.56423768833434
 20
-18.46809832506241
 42
0.0234951973238617
 10
6.40850465816251
 20
-18.37695236551684
 42
-0.1440493418449438
 10
6.154813313683881
 20
-18.07534491300397
 42
-0.1336269026102552
  0
ARC
  5
176
330
18
100
AcDbEntity
  8
0
100
AcDbCircle
 10
6.651431709714863
 20
-17.00676228226864
 30
0.0
 40
0.0625501636588656
100
AcDbArc
 50
236.301892770323
 51
33.6721257198314
  0
ARC
  5
177
330
18
100
AcDbEntity
  8
0
100
AcDbCircle
 10
6.215708550365249
 20
-17.28178968922922
 30
0.0
 40
0.1593309989526066
100
AcDbArc
 50
264.4436927964706
 51
48.27848894697346
  0
ARC
  5
178
330
18
100
AcDbEntity
  8
0
100
AcDbCircle
 10
6.908249840159388
 20
-16.68933587043144
 30
0.0
 40
0.0930044645034592
100
AcDbArc
 50
261.4102028667736
 51
345.9460105916456
  0
ARC
  5
179
330
18
100
AcDbEntity
  8
0
100
AcDbCircle
 10
7.831359692263838
 20
-16.1914989130024
 30
0.0
 40
0.1399326077282943
100
AcDbArc
 50
240.2653995213421
 51
330.2316612342016
  0
ARC
  5
17A
330
18
100
AcDbEntity
  8
0
100
AcDbCircle
 10
7.334668935719236
 20
-16.28470757452212
 30
0.0
 40
0.1934737600389816
100
AcDbArc
 50
252.3792075052341
 51
329.6784379269111
  0
ARC
  5
17B
330
18
100
AcDbEntity
  8
0
100
AcDbCircle
 10
8.248597093829335
 20
-16.23174487835782
 30
0.0
 40
0.0829330988856328
100
AcDbArc
 50
230.4183540131627
 51
325.8345493922503
  0
ARC
  5
17C
330
18
100
AcDbEntity
  8
0
100
AcDbCircle
 10
6.539430843393702
 20
-14.61786740711092
 30
0.0
 40
0.1863717049384847
100
AcDbArc
 50
244.9639182612494
 51
313.952255046558
  0
ARC
  5
17D
330
18
100
AcDbEntity
  8
0
100
AcDbCircle
 10
6.806372728393021
 20
-14.2699193346977
 30
0.0
 40
0.2935428760015454
100
AcDbArc
 50
277.0307596482043
 51
310.8750084992707
  0
ARC
  5
17E
330
18
100
AcDbEntity
  8
0
100
AcDbCircle
 10
8.265154132544036
 20
-14.56117578610876
 30
0.0
 40
0.1399129193616566
100
AcDbArc
 50
209.7633587972888
 51
277.1272698865652
  0
ARC
  5
17F
330
18
100
AcDbEntity
  8
0
100
AcDbCircle
 10
7.892097834186621
 20
-14.37905871858603
 30
0.0
 40
0.1131531377595595
100
AcDbArc
 50
212.4942727822998
 51
302.4590721026754
  0
ARC
  5
180
330
18
100
AcDbEntity
  8
0
100
AcDbCircle
 10
7.414916846364736
 20
-14.2922957916744
 30
0.0
 40
0.1475505239017698
100
AcDbArc
 50
241.9397691711857
 51
298.0602308288131
  0
LWPOLYLINE
  5
181
330
18
100
AcDbEntity
  8
0
100
AcDbPolyline
 90
        5
 70
     0
 43
0.0
 10
9.583908730538176
 20
-16.27831882500818
 42
0.0990633437466919
 10
9.635964475083689
 20
-15.49783522911096
 10
9.705372256314355
 20
-15.35908257029216
 10
9.82683578209053
 20
-15.44580299776226
 10
9.82683578209053
 20
-16.33035105635688
  0
ARC
  5
188
330
18
100
AcDbEntity
  8
0
100
AcDbCircle
 10
9.601260675845846
 20
-11.1121506751045
 30
0.0
 40
6.954773265490113
100
AcDbArc
 50
268.5703403330067
 51
274.29254841123
  0
LWPOLYLINE
  5
189
330
18
100
AcDbEntity
  8
0
100
AcDbPolyline
 90
        9
 70
     0
 43
0.0
 10
9.531852985992667
 20
-18.06475897742468
 42
0.0304101743057446
 10
9.601260767223333
 20
-17.04145826001128
 10
9.601260767223333
 20
-16.55582401697893
 10
9.688020402384175
 20
-16.36503912681144
 10
9.844187818775683
 20
-16.60785624832762
 10
9.861539672705863
 20
-17.38833984422484
 42
0.0827995645749086
 10
9.930947453936525
 20
-18.08210301265197
 10
9.757428183614841
 20
-17.97803854995458
 10
9.583908730538176
 20
-18.06475897742468
  0
LWPOLYLINE
  5
194
330
18
100
AcDbEntity
  8
0
100
AcDbPolyline
 90
        2
 70
     0
 43
0.0
 10
8.491834321329772
 20
-18.94552148755125
 10
10.48768460987876
 20
-18.94552148755125
  0
ARC
  5
198
330
18
100
AcDbEntity
  8
0
100
AcDbCircle
 10
9.002612525071029
 20
-16.42567760044876
 30
0.0
 40
0.137187644932594
100
AcDbArc
 50
198.4541320008345
 51
288.436548025801
  0
ARC
  5
199
330
18
100
AcDbEntity
  8
0
100
AcDbCircle
 10
8.756033907922901
 20
-16.27781010069536
 30
0.0
 40
0.1146651668452745
100
AcDbArc
 50
197.875688066032
 51
294.2185437864896
  0
LINE
  5
19A
330
18
100
AcDbEntity
  8
0
100
AcDbLine
 10
9.358333532916006
 20
-16.38238328770557
 30
0.0
 11
9.479797058692181
 21
-16.39972732293285
 31
0.0
  0
ARC
  5
19B
330
18
100
AcDbEntity
  8
0
100
AcDbCircle
 10
9.236870098517318
 20
-16.78129710326782
 30
0.0
 40
0.0625546241600062
100
AcDbArc
 50
146.3218932707912
 51
326.3218932707915
  0
LINE
  5
19C
330
18
100
AcDbEntity
  8
0
100
AcDbLine
 10
9.393037423531339
 20
-16.83332933461651
 30
0.0
 11
9.358333532916006
 21
-16.38238328770557
 31
0.0
  0
LINE
  5
19D
330
18
100
AcDbEntity
  8
0
100
AcDbLine
 10
10.0524109797127
 20
-16.33035105635688
 30
0.0
 11
10.12181876094336
 21
-16.31300689546275
 31
0.0
  0
LINE
  5
19E
330
18
100
AcDbEntity
  8
0
100
AcDbLine
 10
10.12181876094336
 20
-16.31300689546275
 30
0.0
 11
10.06976283364288
 21
-16.57316817787305
 31
0.0
  0
ARC
  5
19F
330
18
100
AcDbEntity
  8
0
100
AcDbCircle
 10
9.443758536646299
 20
-15.06423321742729
 30
0.0
 40
0.203478164099613
100
AcDbArc
 50
329.240994454082
 51
69.65538449966847
  0
LWPOLYLINE
  5
1A0
330
18
100
AcDbEntity
  8
0
100
AcDbPolyline
 90
       11
 70
     0
 43
0.0
 10
9.635964475083689
 20
-14.26640558630279
 42
-0.3291331321336487
 10
9.445093350831825
 20
-13.9889002686652
 42
0.0650667808421778
 10
9.393037423531339
 20
-13.45123379428415
 10
9.531852985992667
 20
-13.55529825698154
 10
9.688020402384175
 20
-13.38185752770818
 10
9.774780037545017
 20
-13.52061018652697
 10
9.896243563321192
 20
-13.43388975905687
 10
9.896243563321192
 20
-14.11030889225671
 42
-0.284428387459999
 10
9.653316511768842
 20
-14.26640558630279
 42
-0.2869062155477351
 10
9.566556876608
 20
-13.93686803731651
 10
9.549204839922847
 20
-13.53795422175425
  0
LINE
  5
1AD
330
18
100
AcDbEntity
  8
0
100
AcDbLine
 10
9.167462225909165
 20
-14.66531940186504
 30
0.0
 11
9.167462225909165
 21
-14.56125493916766
 31
0.0
  0
ARC
  5
1AE
330
18
100
AcDbEntity
  8
0
100
AcDbCircle
 10
8.597544268743568
 20
-14.97899285960706
 30
0.0
 40
0.0745202698947785
100
AcDbArc
 50
165.3683534734755
 51
333.5366401845656
  0
ARC
  5
1AF
330
18
100
AcDbEntity
  8
0
100
AcDbCircle
 10
9.123988999303488
 20
-15.10749795748286
 30
0.0
 40
0.3066736995004665
100
AcDbArc
 50
208.7528864536099
 51
241.2731629221315
  0
LINE
  5
1B0
330
18
100
AcDbEntity
  8
0
100
AcDbLine
 10
9.462445204762001
 20
-15.54986746045965
 30
0.0
 11
9.445093350831825
 21
-15.37642660551945
 31
0.0
  0
LINE
  5
1B1
330
18
100
AcDbEntity
  8
0
100
AcDbLine
 10
9.445093350831825
 20
-15.37642660551945
 30
0.0
 11
9.583908730538176
 21
-15.42845883686814
 31
0.0
  0
LINE
  5
1B2
330
18
100
AcDbEntity
  8
0
100
AcDbLine
 10
8.751015904035128
 20
-13.58998645310294
 30
0.0
 11
8.889831283741482
 21
-13.39920156293546
 31
0.0
  0
LINE
  5
1B3
330
18
100
AcDbEntity
  8
0
100
AcDbLine
 10
8.959239064972145
 20
-14.23171739018138
 30
0.0
 11
8.993942955587478
 21
-14.0756206961353
 31
0.0
  0
ARC
  5
1B4
330
18
100
AcDbEntity
  8
0
100
AcDbCircle
 10
10.11286769148073
 20
-14.98618480757083
 30
0.0
 40
0.3217891987165136
100
AcDbArc
 50
152.7328152781635
 51
207.2671847218363
  0
LINE
  5
1B5
330
18
100
AcDbEntity
  8
0
100
AcDbLine
 10
10.10446672425821
 20
-15.32439437417076
 30
0.0
 11
10.06976283364288
 21
-15.58455565658106
 31
0.0
  0
LINE
  5
1B6
330
18
100
AcDbEntity
  8
0
100
AcDbLine
 10
9.983003198482037
 20
-15.37642660551945
 30
0.0
 11
10.10446672425821
 21
-15.32439437417076
 31
0.0
  0
ARC
  5
1B7
330
18
100
AcDbEntity
  8
0
100
AcDbCircle
 10
10.61462276004496
 20
-14.82121913290287
 30
0.0
 40
0.2778970334616737
100
AcDbArc
 50
272.1451759239895
 51
311.4398135697345
  0
ARC
  5
1B8
330
18
100
AcDbEntity
  8
0
100
AcDbCircle
 10
10.36355189930119
 20
-15.28404482891108
 30
0.0
 40
0.1054576622995907
100
AcDbArc
 50
192.6003528164215
 51
356.922607418422
  0
ARC
  5
1B9
330
18
100
AcDbEntity
  8
0
100
AcDbCircle
 10
10.16519857852378
 20
-14.340090428671
 30
0.0
 40
0.078202489160876
100
AcDbArc
 50
236.3091562705811
 51
3.158317251131235
  0
LWPOLYLINE
  5
1BA
330
18
100
AcDbEntity
  8
0
100
AcDbPolyline
 90
        2
 70
     0
 43
0.0
 10
9.688020402384175
 20
-13.39920156293546
 10
9.670668365699022
 20
-14.24906142540866
 42
9.387723308932381
  0
ARC
  5
1BE
330
18
100
AcDbEntity
  8
0
100
AcDbCircle
 10
11.49700290722774
 20
-13.83721593734368
 30
0.0
 40
1.742426687141217
100
AcDbArc
 50
171.2663128485372
 51
191.9173938448685
  0
ARC
  5
1BF
330
18
100
AcDbEntity
  8
0
100
AcDbCircle
 10
10.71468694665824
 20
-13.24598498540341
 30
0.0
 40
0.069512449349304
100
AcDbArc
 50
253.0594849019221
 51
16.91441289758228
  0
ARC
  5
1C0
330
18
100
AcDbEntity
  8
0
100
AcDbCircle
 10
10.61264758195607
 20
-13.65687844095059
 30
0.0
 40
0.0720326582231138
100
AcDbArc
 50
266.0398878342913
 51
26.55598747960457
  0
ARC
  5
1C1
330
18
100
AcDbEntity
  8
0
100
AcDbCircle
 10
10.46018146599913
 20
-14.03223695054171
 30
0.0
 40
0.0989119563381726
100
AcDbArc
 50
232.1208364602486
 51
15.23534408294072
  0
LWPOLYLINE
  5
1C2
330
18
100
AcDbEntity
  8
0
100
AcDbPolyline
 90
        3
 70
     0
 43
0.0
 10
10.96532389001749
 20
-18.94552148755125
 10
13.59234041900037
 20
-18.94552148755126
 10
13.59234041900037
 20
-16.49133794771761
  0
ARC
  5
1C7
330
18
100
AcDbEntity
  8
0
100
AcDbCircle
 10
11.40295965266203
 20
-16.03831894675846
 30
0.0
 40
0.1359663955578066
100
AcDbArc
 50
209.3094015163031
 51
271.2231249619851
  0
ARC
  5
1C8
330
18
100
AcDbEntity
  8
0
100
AcDbCircle
 10
11.83966034124994
 20
-16.07660542949026
 30
0.0
 40
0.1368117043957722
100
AcDbArc
 50
207.4000093305942
 51
284.6942995343955
  0
ARC
  5
1C9
330
18
100
AcDbEntity
  8
0
100
AcDbCircle
 10
12.21272684554356
 20
-16.33892894676371
 30
0.0
 40
0.1372125318781695
100
AcDbArc
 50
214.7153028318359
 51
325.2846971681641
  0
ARC
  5
1CA
330
18
100
AcDbEntity
  8
0
100
AcDbCircle
 10
12.61969503652014
 20
-16.55017571632914
 30
0.0
 40
0.2144169933092772
100
AcDbArc
 50
216.3395451725211
 51
265.5732560480475
  0
ARC
  5
1CB
330
18
100
AcDbEntity
  8
0
100
AcDbCircle
 10
12.90359256428695
 20
-17.30634524893471
 30
0.0
 40
0.1234031978023615
100
AcDbArc
 50
152.6167658286539
 51
251.0039587212314
  0
ARC
  5
1CC
330
18
100
AcDbEntity
  8
0
100
AcDbCircle
 10
13.01421053371079
 20
-16.9373937973139
 30
0.0
 40
0.2431775275188508
100
AcDbArc
 50
167.6450054757014
 51
231.6790630631341
  0
ARC
  5
1CD
330
18
100
AcDbEntity
  8
0
100
AcDbCircle
 10
12.08981599840791
 20
-14.30672803033267
 30
0.0
 40
0.1871780037309711
100
AcDbArc
 50
233.4990344344467
 51
314.6685457597307
  0
ARC
  5
1CE
330
18
100
AcDbEntity
  8
0
100
AcDbCircle
 10
11.15425882141835
 20
-14.74332843945694
 30
0.0
 40
0.0785681474849066
100
AcDbArc
 50
186.3658654472523
 51
353.6341345527473
  0
ARC
  5
1CF
330
18
100
AcDbEntity
  8
0
100
AcDbCircle
 10
11.54467736239711
 20
-14.37021035075799
 30
0.0
 40
0.3031613302198451
100
AcDbArc
 50
256.7649334367607
 51
293.6192193344932
  0
ARC
  5
1D0
330
18
100
AcDbEntity
  8
0
100
AcDbCircle
 10
12.73321312819981
 20
-14.37908052900082
 30
0.0
 40
0.2211376814156507
100
AcDbArc
 50
205.5722909401569
 51
244.4535949877058
  0
LWPOLYLINE
  5
1D1
330
18
100
AcDbEntity
  8
0
100
AcDbPolyline
 90
        4
 70
     0
 43
0.0
 10
13.59234041900037
 20
-16.49133794771761
 10
14.59428472145736
 20
-16.49133794771761
 10
14.59428472145736
 20
-15.97958147849642
 10
13.59234041900037
 20
-15.97958147849642
  0
LWPOLYLINE
  5
1D7
330
18
100
AcDbEntity
  8
0
100
AcDbPolyline
 90
        4
 70
     0
 43
0.0
 10
13.59234041900037
 20
-13.98373118994744
 10
14.59428472145736
 20
-13.98373118994744
 10
14.59428472145736
 20
-13.50609190980869
 10
13.59234041900037
 20
-13.50609190980869
  0
LWPOLYLINE
  5
1DD
330
18
100
AcDbEntity
  8
0
100
AcDbPolyline
 90
        2
 70
     0
 43
0.0
 10
13.59234041900037
 20
-15.97958147849642
 10
13.59234041900037
 20
-13.98373118994744
  0
LWPOLYLINE
  5
1E1
330
18
100
AcDbEntity
  8
0
100
AcDbPolyline
 90
        3
 70
     0
 43
0.0
 10
10.96532389001749
 20
-10.99983665939055
 10
10.96532389001749
 20
-9.9938378958806
 10
10.48768460987876
 20
-9.9938378958806
  0
LWPOLYLINE
  5
1E6
330
18
100
AcDbEntity
  8
0
100
AcDbPolyline
 90
        3
 70
     0
 43
0.0
 10
8.491834321329772
 20
-10.99983665939055
 10
8.491834321329772
 20
-9.9938378958806
 10
7.980077852108589
 20
-9.9938378958806
  0
LWPOLYLINE
  5
1EB
330
18
100
AcDbEntity
  8
0
100
AcDbPolyline
 90
        2
 70
     0
 43
0.0
 10
7.980077852108589
 20
-9.9938378958806
 10
7.980077852108589
 20
-10.99983665939055
  0
LWPOLYLINE
  5
1EF
330
18
100
AcDbEntity
  8
0
100
AcDbPolyline
 90
        2
 70
     0
 43
0.0
 10
6.154813313683881
 20
-11.78854762517702
 42
-0.1101491718126333
 10
6.519885540535071
 20
-11.51136144756757
 42
-0.1894252331881494
  0
LINE
  5
1F3
330
18
100
AcDbEntity
  8
0
100
AcDbLine
 10
7.571084354133731
 20
-11.73416990844363
 30
0.0
 11
7.692547879909906
 21
-11.78620213979232
 31
0.0
  0
LINE
  5
1F4
330
18
100
AcDbEntity
  8
0
100
AcDbLine
 10
8.334569399406117
 20
-12.46262127299216
 30
0.0
 11
8.421329034566959
 21
-12.30652457894608
 31
0.0
  0
LINE
  5
1F5
330
18
100
AcDbEntity
  8
0
100
AcDbLine
 10
8.004882712692921
 20
-12.0290192613085
 30
0.0
 11
8.022234566623101
 21
-11.89026672815654
 31
0.0
  0
LWPOLYLINE
  5
1F6
330
18
100
AcDbEntity
  8
0
100
AcDbPolyline
 90
        2
 70
     0
 43
0.0
 10
10.48768460987876
 20
-9.9938378958806
 10
10.48768460987876
 20
-10.99983665939055
  0
LWPOLYLINE
  5
1FA
330
18
100
AcDbEntity
  8
0
100
AcDbPolyline
 90
        2
 70
     0
 43
0.0
 10
10.48768460987876
 20
-10.99983665939055
 10
8.491834321329772
 20
-10.99983665939055
  0
LINE
  5
1FE
330
18
100
AcDbEntity
  8
0
100
AcDbLine
 10
8.681608122804462
 20
-13.0523199787219
 30
0.0
 11
8.733663867349974
 21
-12.93091148079723
 31
0.0
  0
ARC
  5
1FF
330
18
100
AcDbEntity
  8
0
100
AcDbCircle
 10
10.97601568753072
 20
-12.67783129166025
 30
0.0
 40
0.065837443404959
100
AcDbArc
 50
251.120046674388
 51
6.174344772407118
  0
ARC
  5
200
330
18
100
AcDbEntity
  8
0
100
AcDbCircle
 10
11.17510312515227
 20
-12.00634006254341
 30
0.0
 40
0.2482064199565291
100
AcDbArc
 50
271.1966790787956
 51
329.2936555687409
  0
ARC
  5
201
330
18
100
AcDbEntity
  8
0
100
AcDbCircle
 10
11.38858979455422
 20
-11.43036791829425
 30
0.0
 40
0.5463284466106258
100
AcDbArc
 50
290.4399095420288
 51
316.9163024356884
  0
LWPOLYLINE
  5
202
330
18
100
AcDbEntity
  8
0
100
AcDbPolyline
 90
        3
 70
     0
 43
0.0
 10
12.59212308478096
 20
-11.51136144756757
 42
0.022804879340992
 10
12.91548021930535
 20
-11.63010544574624
 42
-0.0599942810308185
 10
13.11470094357372
 20
-11.95763262287578
 42
0.2508146034565733
  0
TEXT
  5
214
330
18
100
AcDbEntity
  8
ADPDIM
100
AcDbText
 10
-3.379655609429841
 20
-21.67793585586762
 30
0.0
 40
0.25
  1
J U L I U S  B L U M  &  C O . ,  I N C .      ( 8 0 0 )  5 2 6 - 6 2 9 3        W W W . J U L I U S B L U M . C O M        P A R T  N o .  5 9 5
 41
1.25
  7
ARIAL_WIDE
 72
     1
 11
9.489759465604265
 21
-21.42793585586762
 31
0.0
100
AcDbText
 73
     3
  0
ENDSEC
  0
SECTION
  2
OBJECTS
  0
DICTIONARY
  5
C
330
0
100
AcDbDictionary
  3
ACAD_GROUP
350
D
  3
ACAD_LAYOUT
350
20D
  3
ACAD_MLINESTYLE
350
E
  3
ACAD_PLOTSETTINGS
350
20E
  3
ACAD_PLOTSTYLENAME
350
20B
  3
ACDBHEADERROUNDTRIPXREC
350
358
  3
ACDBVARIABLEDICTIONARY
350
26E
  0
DICTIONARY
  5
268
330
18
100
AcDbDictionary
280
     1
  3
ACAD_LAYOUTSELFREF
360
379
  0
DICTIONARY
  5
266
330
15
100
AcDbDictionary
280
     1
  3
ACAD_LAYOUTSELFREF
360
378
  0
DICTIONARY
  5
D
102
{ACAD_REACTORS
330
C
102
}
330
C
100
AcDbDictionary
  0
DICTIONARY
  5
20D
102
{ACAD_REACTORS
330
C
102
}
330
C
100
AcDbDictionary
  0
DICTIONARY
  5
E
102
{ACAD_REACTORS
330
C
102
}
330
C
100
AcDbDictionary
  3
STANDARD
350
1B
  0
DICTIONARY
  5
20E
102
{ACAD_REACTORS
330
C
102
}
330
C
100
AcDbDictionary
  0
ACDBDICTIONARYWDFLT
  5
20B
102
{ACAD_REACTORS
330
C
102
}
330
C
100
AcDbDictionary
281
     1
  3
Normal
350
20C
100
AcDbDictionaryWithDefault
340
20C
  0
DICTIONARY
  5
358
102
{ACAD_REACTORS
330
C
102
}
330
C
100
AcDbDictionary
  3
CEPSNTYPE
350
362
  3
FINGERPRINTGUID
350
363
  3
HYPERLINKBASE
350
35B
  3
INSUNITS
350
361
  3
LAYOUTDICT
350
35D
  3
LWETCUNION
350
360
  3
PLOTSETDICT
350
35E
  3
PLOTSTYLNAMDICT
350
35F
  3
PSVPSCALE
350
365
  3
PUCSBASE
350
368
  3
PUCSORGBACK
350
36E
  3
PUCSORGBOTTOM
350
36A
  3
PUCSORGFRONT
350
36D
  3
PUCSORGLEFT
350
36B
  3
PUCSORGRIGHT
350
36C
  3
PUCSORGTOP
350
369
  3
PUCSORTHOREF
350
366
  3
PUCSORTHOVIEW
350
367
  3
STYLESHEET
350
35C
  3
TSTACKALIGN
350
359
  3
TSTACKSIZE
350
35A
  3
UCSBASE
350
371
  3
UCSORGBACK
350
377
  3
UCSORGBOTTOM
350
373
  3
UCSORGFRONT
350
376
  3
UCSORGLEFT
350
374
  3
UCSORGRIGHT
350
375
  3
UCSORGTOP
350
372
  3
UCSORTHOREF
350
36F
  3
UCSORTHOVIEW
350
370
  3
VERSIONGUID
350
364
  0
DICTIONARY
  5
26E
102
{ACAD_REACTORS
330
C
102
}
330
C
100
AcDbDictionary
  3
DIMASSOC
350
26F
  0
XRECORD
  5
379
102
{ACAD_REACTORS
330
268
102
}
330
268
100
AcDbXrecord
340
18
  0
XRECORD
  5
378
102
{ACAD_REACTORS
330
266
102
}
330
266
100
AcDbXrecord
340
15
  0
MLINESTYLE
  5
1B
102
{ACAD_REACTORS
330
E
102
}
330
E
100
AcDbMlineStyle
  2
STANDARD
 70
     0
  3

 62
     0
 51
90.0
 52
90.0
 71
     2
 49
0.5
 62
   256
  6
BYLAYER
 49
-0.5
 62
   256
  6
BYLAYER
  0
ACDBPLACEHOLDER
  5
20C
102
{ACAD_REACTORS
330
20B
102
}
330
20B
100
AcDbPlaceHolder
280
     0
  0
XRECORD
  5
362
102
{ACAD_REACTORS
330
358
102
}
330
358
100
AcDbXrecord
 90
        0
  0
XRECORD
  5
363
102
{ACAD_REACTORS
330
358
102
}
330
358
100
AcDbXrecord
  1
{EE3A2EF8-5700-46BA-B537-F385A1FF58AA}
  0
XRECORD
  5
35B
102
{ACAD_REACTORS
330
358
102
}
330
358
100
AcDbXrecord
  1

  0
XRECORD
  5
361
102
{ACAD_REACTORS
330
358
102
}
330
358
100
AcDbXrecord
 90
        0
  0
XRECORD
  5
35D
102
{ACAD_REACTORS
330
358
102
}
330
358
100
AcDbXrecord
340
20D
  0
XRECORD
  5
360
102
{ACAD_REACTORS
330
358
102
}
330
358
100
AcDbXrecord
 90
    14877
  0
XRECORD
  5
35E
102
{ACAD_REACTORS
330
358
102
}
330
358
100
AcDbXrecord
340
20E
  0
XRECORD
  5
35F
102
{ACAD_REACTORS
330
358
102
}
330
358
100
AcDbXrecord
340
20B
  0
XRECORD
  5
365
102
{ACAD_REACTORS
330
358
102
}
330
358
100
AcDbXrecord
 40
0.0
  0
XRECORD
  5
368
102
{ACAD_REACTORS
330
358
102
}
330
358
100
AcDbXrecord
340
0
  0
XRECORD
  5
36E
102
{ACAD_REACTORS
330
358
102
}
330
358
100
AcDbXrecord
 10
0.0
 20
0.0
 30
0.0
  0
XRECORD
  5
36A
102
{ACAD_REACTORS
330
358
102
}
330
358
100
AcDbXrecord
 10
0.0
 20
0.0
 30
0.0
  0
XRECORD
  5
36D
102
{ACAD_REACTORS
330
358
102
}
330
358
100
AcDbXrecord
 10
0.0
 20
0.0
 30
0.0
  0
XRECORD
  5
36B
102
{ACAD_REACTORS
330
358
102
}
330
358
100
AcDbXrecord
 10
0.0
 20
0.0
 30
0.0
  0
XRECORD
  5
36C
102
{ACAD_REACTORS
330
358
102
}
330
358
100
AcDbXrecord
 10
0.0
 20
0.0
 30
0.0
  0
XRECORD
  5
369
102
{ACAD_REACTORS
330
358
102
}
330
358
100
AcDbXrecord
 10
0.0
 20
0.0
 30
0.0
  0
XRECORD
  5
366
102
{ACAD_REACTORS
330
358
102
}
330
358
100
AcDbXrecord
340
0
  0
XRECORD
  5
367
102
{ACAD_REACTORS
330
358
102
}
330
358
100
AcDbXrecord
 70
     0
  0
XRECORD
  5
35C
102
{ACAD_REACTORS
330
358
102
}
330
358
100
AcDbXrecord
  1

  0
XRECORD
  5
359
102
{ACAD_REACTORS
330
358
102
}
330
358
100
AcDbXrecord
 90
        1
  0
XRECORD
  5
35A
102
{ACAD_REACTORS
330
358
102
}
330
358
100
AcDbXrecord
 90
       70
  0
XRECORD
  5
371
102
{ACAD_REACTORS
330
358
102
}
330
358
100
AcDbXrecord
340
0
  0
XRECORD
  5
377
102
{ACAD_REACTORS
330
358
102
}
330
358
100
AcDbXrecord
 10
0.0
 20
0.0
 30
0.0
  0
XRECORD
  5
373
102
{ACAD_REACTORS
330
358
102
}
330
358
100
AcDbXrecord
 10
0.0
 20
0.0
 30
0.0
  0
XRECORD
  5
376
102
{ACAD_REACTORS
330
358
102
}
330
358
100
AcDbXrecord
 10
0.0
 20
0.0
 30
0.0
  0
XRECORD
  5
374
102
{ACAD_REACTORS
330
358
102
}
330
358
100
AcDbXrecord
 10
0.0
 20
0.0
 30
0.0
  0
XRECORD
  5
375
102
{ACAD_REACTORS
330
358
102
}
330
358
100
AcDbXrecord
 10
0.0
 20
0.0
 30
0.0
  0
XRECORD
  5
372
102
{ACAD_REACTORS
330
358
102
}
330
358
100
AcDbXrecord
 10
0.0
 20
0.0
 30
0.0
  0
XRECORD
  5
36F
102
{ACAD_REACTORS
330
358
102
}
330
358
100
AcDbXrecord
340
0
  0
XRECORD
  5
370
102
{ACAD_REACTORS
330
358
102
}
330
358
100
AcDbXrecord
 70
     0
  0
XRECORD
  5
364
102
{ACAD_REACTORS
330
358
102
}
330
358
100
AcDbXrecord
  1
{D1967BE6-956B-4CB6-9152-B7652A1D4B96}
  0
DICTIONARYVAR
  5
26F
102
{ACAD_REACTORS
330
26E
102
}
330
26E
100
DictionaryVariables
280
     0
  1
1
  0
ENDSEC
  0
EOF
