  0
SECTION
  2
HEADER
  9
$ACADVER
  1
AC1014
  9
$ACADMAINTVER
 70
     9
  9
$DWGCODEPAGE
  3
ANSI_1252
  9
$INSBASE
 10
-7.721242279235934
 20
-19.37670603227545
 30
0.0
  9
$EXTMIN
 10
-22.11359155614047
 20
-21.3479613490282
 30
0.0
  9
$EXTMAX
 10
3.625238593927743
 20
-8.455220718666144
 30
0.0
  9
$LIMMIN
 10
0.0
 20
0.0
  9
$LIMMAX
 10
36.0
 20
36.0
  9
$ORTHOMODE
 70
     1
  9
$REGENMODE
 70
     1
  9
$FILLMODE
 70
     1
  9
$QTEXTMODE
 70
     0
  9
$MIRRTEXT
 70
     1
  9
$DRAGMODE
 70
     0
  9
$LTSCALE
 40
1.0
  9
$OSMODE
 70
    37
  9
$ATTMODE
 70
     1
  9
$TEXTSIZE
 40
0.2
  9
$TRACEWID
 40
0.05
  9
$TEXTSTYLE
  7
STANDARD
  9
$CLAYER
  8
ADPDIM
  9
$CELTYPE
  6
BYLAYER
  9
$CECOLOR
 62
   256
  9
$CELTSCALE
 40
1.0
  9
$DELOBJ
 70
     1
  9
$DISPSILH
 70
     0
  9
$DIMSCALE
 40
1.0
  9
$DIMASZ
 40
0.125
  9
$DIMEXO
 40
0.0625
  9
$DIMDLI
 40
0.38
  9
$DIMRND
 40
0.0
  9
$DIMDLE
 40
0.0
  9
$DIMEXE
 40
0.18
  9
$DIMTP
 40
0.0
  9
$DIMTM
 40
0.0
  9
$DIMTXT
 40
0.125
  9
$DIMCEN
 40
0.1875
  9
$DIMTSZ
 40
0.125
  9
$DIMTOL
 70
     0
  9
$DIMLIM
 70
     0
  9
$DIMTIH
 70
     0
  9
$DIMTOH
 70
     0
  9
$DIMSE1
 70
     0
  9
$DIMSE2
 70
     0
  9
$DIMTAD
 70
     0
  9
$DIMZIN
 70
     3
  9
$DIMBLK
  1

  9
$DIMASO
 70
     1
  9
$DIMSHO
 70
     1
  9
$DIMPOST
  1

  9
$DIMAPOST
  1

  9
$DIMALT
 70
     0
  9
$DIMALTD
 70
     1
  9
$DIMALTF
 40
25.4
  9
$DIMLFAC
 40
1.0
  9
$DIMTOFL
 70
     0
  9
$DIMTVP
 40
0.0
  9
$DIMTIX
 70
     0
  9
$DIMSOXD
 70
     0
  9
$DIMSAH
 70
     0
  9
$DIMBLK1
  1

  9
$DIMBLK2
  1

  9
$DIMSTYLE
  2
STANDARD
  9
$DIMCLRD
 70
     0
  9
$DIMCLRE
 70
     0
  9
$DIMCLRT
 70
     0
  9
$DIMTFAC
 40
1.0
  9
$DIMGAP
 40
0.125
  9
$DIMJUST
 70
     0
  9
$DIMSD1
 70
     0
  9
$DIMSD2
 70
     0
  9
$DIMTOLJ
 70
     1
  9
$DIMTZIN
 70
     0
  9
$DIMALTZ
 70
     0
  9
$DIMALTTZ
 70
     0
  9
$DIMFIT
 70
     3
  9
$DIMUPT
 70
     0
  9
$DIMUNIT
 70
     2
  9
$DIMDEC
 70
     4
  9
$DIMTDEC
 70
     4
  9
$DIMALTU
 70
     2
  9
$DIMALTTD
 70
     2
  9
$DIMTXSTY
  7
STANDARD
  9
$DIMAUNIT
 70
     0
  9
$LUNITS
 70
     5
  9
$LUPREC
 70
     5
  9
$SKETCHINC
 40
0.1
  9
$FILLETRAD
 40
0.062
  9
$AUNITS
 70
     0
  9
$AUPREC
 70
     0
  9
$MENU
  1
acad
  9
$ELEVATION
 40
0.0
  9
$PELEVATION
 40
0.0
  9
$THICKNESS
 40
0.0
  9
$LIMCHECK
 70
     0
  9
$BLIPMODE
 70
     0
  9
$CHAMFERA
 40
0.0
  9
$CHAMFERB
 40
0.0
  9
$CHAMFERC
 40
0.0
  9
$CHAMFERD
 40
0.0
  9
$SKPOLY
 70
     0
  9
$TDCREATE
 40
2450409.622300532
  9
$TDUPDATE
 40
2452297.073825231
  9
$TDINDWG
 40
0.0037911458
  9
$TDUSRTIMER
 40
0.0037911458
  9
$USRTIMER
 70
     1
  9
$ANGBASE
 50
0.0
  9
$ANGDIR
 70
     0
  9
$PDMODE
 70
     0
  9
$PDSIZE
 40
0.0
  9
$PLINEWID
 40
0.0
  9
$COORDS
 70
     2
  9
$SPLFRAME
 70
     0
  9
$SPLINETYPE
 70
     6
  9
$SPLINESEGS
 70
     8
  9
$ATTDIA
 70
     0
  9
$ATTREQ
 70
     1
  9
$HANDLING
 70
 22529
  9
$HANDSEED
  5
2D7
  9
$SURFTAB1
 70
     6
  9
$SURFTAB2
 70
     6
  9
$SURFTYPE
 70
     6
  9
$SURFU
 70
     6
  9
$SURFV
 70
     6
  9
$UCSNAME
  2

  9
$UCSORG
 10
0.0
 20
0.0
 30
0.0
  9
$UCSXDIR
 10
1.0
 20
0.0
 30
0.0
  9
$UCSYDIR
 10
0.0
 20
1.0
 30
0.0
  9
$PUCSNAME
  2

  9
$PUCSORG
 10
0.0
 20
0.0
 30
0.0
  9
$PUCSXDIR
 10
1.0
 20
0.0
 30
0.0
  9
$PUCSYDIR
 10
0.0
 20
1.0
 30
0.0
  9
$USERI1
 70
     0
  9
$USERI2
 70
     0
  9
$USERI3
 70
     0
  9
$USERI4
 70
     0
  9
$USERI5
 70
     0
  9
$USERR1
 40
0.0
  9
$USERR2
 40
0.0
  9
$USERR3
 40
0.0
  9
$USERR4
 40
0.0
  9
$USERR5
 40
0.0
  9
$WORLDVIEW
 70
     1
  9
$SHADEDGE
 70
     3
  9
$SHADEDIF
 70
    70
  9
$TILEMODE
 70
     1
  9
$MAXACTVP
 70
    15
  9
$PINSBASE
 10
0.0009765857830644
 20
1.500170956078392
 30
0.0
  9
$PLIMCHECK
 70
     0
  9
$PEXTMIN
 10
1.000000000000000E+20
 20
1.000000000000000E+20
 30
1.000000000000000E+20
  9
$PEXTMAX
 10
-1.000000000000000E+20
 20
-1.000000000000000E+20
 30
-1.000000000000000E+20
  9
$PLIMMIN
 10
0.0
 20
0.0
  9
$PLIMMAX
 10
12.0
 20
9.0
  9
$UNITMODE
 70
     0
  9
$VISRETAIN
 70
     0
  9
$PLINEGEN
 70
     0
  9
$PSLTSCALE
 70
     1
  9
$TREEDEPTH
 70
  3020
  9
$PICKSTYLE
 70
     1
  9
$CMLSTYLE
  2
STANDARD
  9
$CMLJUST
 70
     0
  9
$CMLSCALE
 40
1.0
  9
$PROXYGRAPHICS
 70
     1
  9
$MEASUREMENT
 70
     0
  0
ENDSEC
  0
SECTION
  2
CLASSES
  0
CLASS
  1
ACDBDICTIONARYWDFLT
  2
AcDbDictionaryWithDefault
  3
AutoCAD 2000
 90
        0
280
     0
281
     0
  0
CLASS
  1
ACDBPLACEHOLDER
  2
AcDbPlaceHolder
  3
AutoCAD 2000
 90
        0
280
     0
281
     0
  0
CLASS
  1
LAYOUT
  2
AcDbLayout
  3
AutoCAD 2000
 90
        0
280
     0
281
     0
  0
CLASS
  1
DICTIONARYVAR
  2
AcDbDictionaryVar
  3
AutoCAD 2000
 90
        0
280
     0
281
     0
  0
CLASS
  1
LONG_TRANSACTION
  2
AcDbLongTransaction
  3
AutoCAD 2000
 90
        0
280
     0
281
     0
  0
CLASS
  1
LWPOLYLINE
  2
AcDbPolyline
  3
AutoCAD 2000
 90
        0
280
     0
281
     1
  0
CLASS
  1
HATCH
  2
AcDbHatch
  3
AutoCAD 2000
 90
        0
280
     0
281
     1
  0
CLASS
  1
XRECORD
  2
AcDbXrecord
  3
AutoCAD 2000
 90
        0
280
     0
281
     0
  0
CLASS
  1
LONG_TRANSACTION
  2
AcDbLongTransaction
  3
AutoCAD 2000
 90
        0
280
     0
281
     0
  0
CLASS
  1
LWPOLYLINE
  2
AcDbPolyline
  3
AutoCAD 2000
 90
        0
280
     0
281
     1
  0
CLASS
  1
HATCH
  2
AcDbHatch
  3
AutoCAD 2000
 90
        0
280
     0
281
     1
  0
CLASS
  1
XRECORD
  2
AcDbXrecord
  3
AutoCAD 2000
 90
        0
280
     0
281
     0
  0
CLASS
  1
LONG_TRANSACTION
  2
AcDbLongTransaction
  3
AutoCAD 2000
 90
        0
280
     0
281
     0
  0
CLASS
  1
LWPOLYLINE
  2
AcDbPolyline
  3
AutoCAD 2000
 90
        0
280
     0
281
     1
  0
CLASS
  1
HATCH
  2
AcDbHatch
  3
AutoCAD 2000
 90
        0
280
     0
281
     1
  0
CLASS
  1
XRECORD
  2
AcDbXrecord
  3
AutoCAD 2000
 90
        0
280
     0
281
     0
  0
CLASS
  1
LONG_TRANSACTION
  2
AcDbLongTransaction
  3
AutoCAD 2000
 90
        0
280
     0
281
     0
  0
CLASS
  1
LWPOLYLINE
  2
AcDbPolyline
  3
AutoCAD 2000
 90
        0
280
     0
281
     1
  0
CLASS
  1
HATCH
  2
AcDbHatch
  3
AutoCAD 2000
 90
        0
280
     0
281
     1
  0
CLASS
  1
XRECORD
  2
AcDbXrecord
  3
AutoCAD 2000
 90
        0
280
     0
281
     0
  0
CLASS
  1
LONG_TRANSACTION
  2
AcDbLongTransaction
  3
AutoCAD 2000
 90
        0
280
     0
281
     0
  0
CLASS
  1
LWPOLYLINE
  2
AcDbPolyline
  3
AutoCAD 2000
 90
        0
280
     0
281
     1
  0
CLASS
  1
HATCH
  2
AcDbHatch
  3
AutoCAD 2000
 90
        0
280
     0
281
     1
  0
CLASS
  1
XRECORD
  2
AcDbXrecord
  3
AutoCAD 2000
 90
        0
280
     0
281
     0
  0
ENDSEC
  0
SECTION
  2
TABLES
  0
TABLE
  2
VPORT
  5
8
330
0
100
AcDbSymbolTable
 70
     2
  0
VPORT
  5
2B4
330
8
100
AcDbSymbolTableRecord
100
AcDbViewportTableRecord
  2
*ACTIVE
 70
     0
 10
0.0
 20
0.0
 11
1.0
 21
1.0
 12
-9.224943701986616
 22
-14.9011273212389
 13
0.0
 23
0.0
 14
0.5740882589684922
 24
0.5740882589684922
 15
0.5
 25
0.5
 16
0.0
 26
0.0
 36
1.0
 17
0.0
 27
0.0
 37
0.0
 40
16.49662270574647
 41
1.570528967254408
 42
50.0
 43
0.0
 44
0.0
 50
0.0
 51
0.0
 71
     0
 72
   100
 73
     1
 74
     0
 75
     0
 76
     0
 77
     0
 78
     0
  0
ENDTAB
  0
TABLE
  2
LTYPE
  5
5
330
0
100
AcDbSymbolTable
 70
     1
  0
LTYPE
  5
12
330
5
100
AcDbSymbolTableRecord
100
AcDbLinetypeTableRecord
  2
BYBLOCK
 70
     0
  3

 72
    65
 73
     0
 40
0.0
  0
LTYPE
  5
13
330
5
100
AcDbSymbolTableRecord
100
AcDbLinetypeTableRecord
  2
BYLAYER
 70
     0
  3

 72
    65
 73
     0
 40
0.0
  0
LTYPE
  5
14
330
5
100
AcDbSymbolTableRecord
100
AcDbLinetypeTableRecord
  2
CONTINUOUS
 70
     0
  3
Solid line
 72
    65
 73
     0
 40
0.0
  0
ENDTAB
  0
TABLE
  2
LAYER
  5
2
330
0
100
AcDbSymbolTable
 70
     3
  0
LAYER
  5
F
330
2
100
AcDbSymbolTableRecord
100
AcDbLayerTableRecord
  2
0
 70
     0
 62
     7
  6
CONTINUOUS
  0
LAYER
  5
75
330
2
100
AcDbSymbolTableRecord
100
AcDbLayerTableRecord
  2
DEFPOINTS
 70
     0
 62
     7
  6
CONTINUOUS
  0
LAYER
  5
78
330
2
100
AcDbSymbolTableRecord
100
AcDbLayerTableRecord
  2
ADPDIM
 70
     0
 62
     3
  6
CONTINUOUS
  0
ENDTAB
  0
TABLE
  2
STYLE
  5
3
330
0
100
AcDbSymbolTable
 70
     2
  0
STYLE
  5
10
330
3
100
AcDbSymbolTableRecord
100
AcDbTextStyleTableRecord
  2
STANDARD
 70
     0
 40
0.0
 41
1.0
 50
0.0
 71
     0
 42
0.2
  3
txt
  4

  0
STYLE
  5
170
330
3
100
AcDbSymbolTableRecord
100
AcDbTextStyleTableRecord
  2
ARIAL_WIDE
 70
     0
 40
0.0
 41
1.25
 50
0.0
 71
     0
 42
0.2
  3
ARIAL.TTF
  4

1001
ACAD
1000
Arial
1071
       34
  0
ENDTAB
  0
TABLE
  2
VIEW
  5
6
330
0
100
AcDbSymbolTable
 70
     0
  0
ENDTAB
  0
TABLE
  2
UCS
  5
7
330
0
100
AcDbSymbolTable
 70
     0
  0
ENDTAB
  0
TABLE
  2
APPID
  5
9
330
0
100
AcDbSymbolTable
 70
     1
  0
APPID
  5
11
330
9
100
AcDbSymbolTableRecord
100
AcDbRegAppTableRecord
  2
ACAD
 70
     0
  0
ENDTAB
  0
TABLE
  2
DIMSTYLE
  5
A
330
0
100
AcDbSymbolTable
 70
     1
  0
DIMSTYLE
105
164
330
A
100
AcDbSymbolTableRecord
100
AcDbDimStyleTableRecord
  2
STANDARD
 70
     0
  3

  4

  5

  6

  7

 40
1.0
 41
0.18
 42
0.0625
 43
0.38
 44
0.18
 45
0.0
 46
0.0
 47
0.0
 48
0.0
140
0.18
141
0.09
142
0.0
143
25.4
144
1.0
145
0.0
146
1.0
147
0.09
 71
     0
 72
     0
 73
     1
 74
     1
 75
     0
 76
     0
 77
     0
 78
     0
170
     0
171
     2
172
     0
173
     0
174
     0
175
     0
176
     0
177
     0
178
     0
270
     2
271
     4
272
     4
273
     2
274
     2
340
10
275
     0
280
     0
281
     0
282
     0
283
     1
284
     0
285
     0
286
     0
287
     3
288
     0
  0
ENDTAB
  0
TABLE
  2
BLOCK_RECORD
  5
1
330
0
100
AcDbSymbolTable
 70
     3
  0
BLOCK_RECORD
  5
18
102
{ACAD_XDICTIONARY
360
1C5
102
}
330
1
100
AcDbSymbolTableRecord
100
AcDbBlockTableRecord
  2
*MODEL_SPACE
  0
BLOCK_RECORD
  5
15
102
{ACAD_XDICTIONARY
360
1C3
102
}
330
1
100
AcDbSymbolTableRecord
100
AcDbBlockTableRecord
  2
*PAPER_SPACE
  0
BLOCK_RECORD
  5
6E
330
1
100
AcDbSymbolTableRecord
100
AcDbBlockTableRecord
  2
*D0
  0
BLOCK_RECORD
  5
6F
330
1
100
AcDbSymbolTableRecord
100
AcDbBlockTableRecord
  2
*D1
  0
BLOCK_RECORD
  5
70
330
1
100
AcDbSymbolTableRecord
100
AcDbBlockTableRecord
  2
*D2
  0
ENDTAB
  0
ENDSEC
  0
SECTION
  2
BLOCKS
  0
BLOCK
  5
7B
330
18
100
AcDbEntity
  8
0
100
AcDbBlockBegin
  2
*MODEL_SPACE
 70
     0
 10
0.0
 20
0.0
 30
0.0
  3
*MODEL_SPACE
  1

  0
ENDBLK
  5
7C
330
18
100
AcDbEntity
  8
0
100
AcDbBlockEnd
  0
BLOCK
  5
79
330
15
100
AcDbEntity
 67
     1
  8
0
100
AcDbBlockBegin
  2
*PAPER_SPACE
 70
     0
 10
0.0
 20
0.0
 30
0.0
  3
*PAPER_SPACE
  1

  0
ENDBLK
  5
7A
330
15
100
AcDbEntity
 67
     1
  8
0
100
AcDbBlockEnd
  0
BLOCK
  5
7E
330
6E
100
AcDbEntity
  8
0
100
AcDbBlockBegin
  2
*D0
 70
     1
 10
0.0
 20
0.0
 30
0.0
  3
*D0
  1

  0
LINE
  5
7F
330
6E
100
AcDbEntity
  8
0
  6
BYBLOCK
 62
     0
100
AcDbLine
 10
5.873543752117337
 20
7.890999620248548
 30
0.0
 11
5.873543752117337
 21
12.27361431566457
 31
0.0
  0
LINE
  5
80
330
6E
100
AcDbEntity
  8
0
  6
BYBLOCK
 62
     0
100
AcDbLine
 10
15.87354375211733
 20
7.430946598977843
 30
0.0
 11
15.87354375211733
 21
12.27361431566457
 31
0.0
  0
LINE
  5
81
330
6E
100
AcDbEntity
  8
0
  6
BYBLOCK
 62
     0
100
AcDbLine
 10
5.873543752117337
 20
12.09361431566457
 30
0.0
 11
10.67562708545067
 21
12.09361431566457
 31
0.0
  0
LINE
  5
82
330
6E
100
AcDbEntity
  8
0
  6
BYBLOCK
 62
     0
100
AcDbLine
 10
15.87354375211733
 20
12.09361431566457
 30
0.0
 11
11.071460418784
 21
12.09361431566457
 31
0.0
  0
LINE
  5
83
330
6E
100
AcDbEntity
  8
0
  6
BYBLOCK
 62
     0
100
AcDbLine
 10
5.748543752117337
 20
11.96861431566457
 30
0.0
 11
5.998543752117337
 21
12.21861431566457
 31
0.0
  0
LINE
  5
84
330
6E
100
AcDbEntity
  8
0
  6
BYBLOCK
 62
     0
100
AcDbLine
 10
15.74854375211733
 20
11.96861431566457
 30
0.0
 11
15.99854375211733
 21
12.21861431566457
 31
0.0
  0
TEXT
  5
85
330
6E
100
AcDbEntity
  8
0
  6
BYBLOCK
 62
     0
100
AcDbText
 10
10.80062708545067
 20
12.03111431566457
 30
0.0
 40
0.125
  1
10
 72
     1
 11
10.87354375211733
 21
12.09361431566457
 31
0.0
100
AcDbText
 73
     2
  0
POINT
  5
86
330
6E
100
AcDbEntity
  8
DEFPOINTS
  6
BYBLOCK
 62
     0
100
AcDbPoint
 10
5.873543752117337
 20
7.828499620248548
 30
0.0
  0
POINT
  5
87
330
6E
100
AcDbEntity
  8
DEFPOINTS
  6
BYBLOCK
 62
     0
100
AcDbPoint
 10
15.87354375211733
 20
7.368446598977843
 30
0.0
  0
POINT
  5
88
330
6E
100
AcDbEntity
  8
DEFPOINTS
  6
BYBLOCK
 62
     0
100
AcDbPoint
 10
15.87354375211733
 20
12.09361431566457
 30
0.0
  0
ENDBLK
  5
89
330
6E
100
AcDbEntity
  8
0
100
AcDbBlockEnd
  0
BLOCK
  5
8A
330
6F
100
AcDbEntity
  8
0
100
AcDbBlockBegin
  2
*D1
 70
     1
 10
0.0
 20
0.0
 30
0.0
  3
*D1
  1

  0
LINE
  5
8B
330
6F
100
AcDbEntity
  8
0
  6
BYBLOCK
 62
     0
100
AcDbLine
 10
9.167620064603072
 20
1.357815864998237
 30
0.0
 11
4.979416441448166
 21
1.357815864998237
 31
0.0
  0
LINE
  5
8C
330
6F
100
AcDbEntity
  8
0
  6
BYBLOCK
 62
     0
100
AcDbLine
 10
9.167620064603072
 20
11.35781586499823
 30
0.0
 11
4.979416441448167
 21
11.35781586499823
 31
0.0
  0
LINE
  5
8D
330
6F
100
AcDbEntity
  8
0
  6
BYBLOCK
 62
     0
100
AcDbLine
 10
5.159416441448166
 20
1.357815864998237
 30
0.0
 11
5.159416441448166
 21
6.15989919833157
 31
0.0
  0
LINE
  5
8E
330
6F
100
AcDbEntity
  8
0
  6
BYBLOCK
 62
     0
100
AcDbLine
 10
5.159416441448167
 20
11.35781586499823
 30
0.0
 11
5.159416441448166
 21
6.555732531664903
 31
0.0
  0
LINE
  5
8F
330
6F
100
AcDbEntity
  8
0
  6
BYBLOCK
 62
     0
100
AcDbLine
 10
5.284416441448166
 20
1.232815864998237
 30
0.0
 11
5.034416441448166
 21
1.482815864998237
 31
0.0
  0
LINE
  5
90
330
6F
100
AcDbEntity
  8
0
  6
BYBLOCK
 62
     0
100
AcDbLine
 10
5.284416441448167
 20
11.23281586499823
 30
0.0
 11
5.034416441448167
 21
11.48281586499823
 31
0.0
  0
TEXT
  5
91
330
6F
100
AcDbEntity
  8
0
  6
BYBLOCK
 62
     0
100
AcDbText
 10
5.221916441448166
 20
6.28489919833157
 30
0.0
 40
0.125
  1
10
 50
90.0
 72
     1
 11
5.159416441448166
 21
6.357815864998237
 31
0.0
100
AcDbText
 73
     2
  0
POINT
  5
92
330
6F
100
AcDbEntity
  8
DEFPOINTS
  6
BYBLOCK
 62
     0
100
AcDbPoint
 10
9.230120064603072
 20
1.357815864998237
 30
0.0
  0
POINT
  5
93
330
6F
100
AcDbEntity
  8
DEFPOINTS
  6
BYBLOCK
 62
     0
100
AcDbPoint
 10
9.230120064603072
 20
11.35781586499823
 30
0.0
  0
POINT
  5
94
330
6F
100
AcDbEntity
  8
DEFPOINTS
  6
BYBLOCK
 62
     0
100
AcDbPoint
 10
5.159416441448167
 20
11.35781586499823
 30
0.0
  0
ENDBLK
  5
95
330
6F
100
AcDbEntity
  8
0
100
AcDbBlockEnd
  0
BLOCK
  5
96
330
70
100
AcDbEntity
  8
0
100
AcDbBlockBegin
  2
*D2
 70
     1
 10
0.0
 20
0.0
 30
0.0
  3
*D2
  1

  0
LINE
  5
97
330
70
100
AcDbEntity
  8
0
  6
BYBLOCK
 62
     0
100
AcDbLine
 10
9.230120064603072
 20
1.295315864998237
 30
0.0
 11
9.230120064603072
 21
0.6423150152787056
 31
0.0
  0
LINE
  5
98
330
70
100
AcDbEntity
  8
0
  6
BYBLOCK
 62
     0
100
AcDbLine
 10
9.743881783095881
 20
1.295315864998237
 30
0.0
 11
9.743881783095881
 21
0.6423150152787056
 31
0.0
  0
LINE
  5
99
330
70
100
AcDbEntity
  8
0
  6
BYBLOCK
 62
     0
100
AcDbLine
 10
9.230120064603072
 20
0.8223150152787056
 30
0.0
 11
8.980120064603072
 21
0.8223150152787056
 31
0.0
  0
LINE
  5
9A
330
70
100
AcDbEntity
  8
0
  6
BYBLOCK
 62
     0
100
AcDbLine
 10
9.743881783095881
 20
0.8223150152787056
 30
0.0
 11
9.993881783095881
 21
0.8223150152787056
 31
0.0
  0
LINE
  5
9B
330
70
100
AcDbEntity
  8
0
  6
BYBLOCK
 62
     0
100
AcDbLine
 10
9.105120064603072
 20
0.6973150152787056
 30
0.0
 11
9.355120064603072
 21
0.9473150152787056
 31
0.0
  0
LINE
  5
9C
330
70
100
AcDbEntity
  8
0
  6
BYBLOCK
 62
     0
100
AcDbLine
 10
9.618881783095881
 20
0.6973150152787056
 30
0.0
 11
9.868881783095881
 21
0.9473150152787056
 31
0.0
  0
TEXT
  5
9D
330
70
100
AcDbEntity
  8
0
  6
BYBLOCK
 62
     0
100
AcDbText
 10
10.11888178309588
 20
0.7598150152787056
 30
0.0
 40
0.125
  1
1/2
 72
     1
 11
10.26471511642921
 21
0.8223150152787056
 31
0.0
100
AcDbText
 73
     2
  0
POINT
  5
9E
330
70
100
AcDbEntity
  8
DEFPOINTS
  6
BYBLOCK
 62
     0
100
AcDbPoint
 10
9.230120064603072
 20
1.357815864998237
 30
0.0
  0
POINT
  5
9F
330
70
100
AcDbEntity
  8
DEFPOINTS
  6
BYBLOCK
 62
     0
100
AcDbPoint
 10
9.743881783095881
 20
1.357815864998237
 30
0.0
  0
POINT
  5
A0
330
70
100
AcDbEntity
  8
DEFPOINTS
  6
BYBLOCK
 62
     0
100
AcDbPoint
 10
9.743881783095881
 20
0.8223150152787056
 30
0.0
  0
ENDBLK
  5
A1
330
70
100
AcDbEntity
  8
0
100
AcDbBlockEnd
  0
ENDSEC
  0
SECTION
  2
ENTITIES
  0
LINE
  5
A2
330
18
100
AcDbEntity
  8
0
100
AcDbLine
 10
-13.29475880060186
 20
-12.90033541408216
 30
0.0
 11
-14.19581154451067
 21
-12.90033541408216
 31
0.0
  0
LWPOLYLINE
  5
A3
330
18
100
AcDbEntity
  8
0
100
AcDbPolyline
 90
        2
 70
     0
 43
0.0
 10
-14.19581154451067
 20
-13.41091448656732
 10
-13.25660858165341
 20
-13.41091448656732
  0
LWPOLYLINE
  5
A7
330
18
100
AcDbEntity
  8
0
100
AcDbPolyline
 90
        3
 70
     0
 43
0.0
 10
-13.25660858165341
 20
-15.43447696921103
 10
-14.19581154451067
 20
-15.43447696921103
 10
-14.19581154451067
 20
-15.94505604169618
  0
LINE
  5
AC
330
18
100
AcDbEntity
  8
0
100
AcDbLine
 10
-14.19581154451067
 20
-15.94505604169618
 30
0.0
 11
-13.25660858165341
 21
-15.94505604169618
 31
0.0
  0
DIMENSION
  5
AD
330
18
100
AcDbEntity
  8
ADPDIM
100
AcDbDimension
  2
*D1
 10
-14.90993885517984
 20
-9.371019169332479
 30
0.0
 11
-14.90993885517984
 21
-14.37101916933247
 31
0.0
 12
-20.06935529662801
 22
-20.72883503433071
 32
0.0
100
AcDbAlignedDimension
 13
-10.83923523202493
 23
-19.37101916933247
 33
0.0
 14
-10.83923523202493
 24
-9.371019169332479
 34
0.0
 50
90.0
100
AcDbRotatedDimension
  0
DIMENSION
  5
AE
330
18
100
AcDbEntity
  8
ADPDIM
100
AcDbDimension
  2
*D0
 10
-4.195811544510675
 20
-8.635220718666145
 30
0.0
 11
-9.195811544510675
 21
-8.635220718666145
 31
0.0
 12
-20.06935529662801
 22
-20.72883503433071
 32
0.0
100
AcDbAlignedDimension
 13
-14.19581154451067
 23
-12.90033541408216
 33
0.0
 14
-4.195811544510675
 24
-13.36038843535287
 34
0.0
100
AcDbRotatedDimension
  0
LINE
  5
AF
330
18
100
AcDbEntity
  8
0
100
AcDbLine
 10
-14.19581154451067
 20
-12.90033541408216
 30
0.0
 11
-14.19581154451067
 21
-13.41091448656732
 31
0.0
  0
LINE
  5
B0
330
18
100
AcDbEntity
  8
0
100
AcDbLine
 10
-4.252825703244745
 20
-13.41091448656732
 30
0.0
 11
-4.252825703244745
 21
-12.90033541408216
 31
0.0
  0
LWPOLYLINE
  5
B1
330
18
100
AcDbEntity
  8
0
100
AcDbPolyline
 90
        2
 70
     0
 43
0.0
 10
-7.931011853925816
 20
-14.38997603815296
 10
-9.157385480299446
 20
-12.68887713705406
  0
LWPOLYLINE
  5
B5
330
18
100
AcDbEntity
  8
0
100
AcDbPolyline
 90
        2
 70
     0
 43
0.0
 10
-10.62112174403571
 20
-14.38997603815296
 10
-9.394748117662082
 20
-12.68887713705406
  0
LWPOLYLINE
  5
B9
330
18
100
AcDbEntity
  8
0
100
AcDbPolyline
 90
        4
 70
     0
 43
0.0
 10
-8.168374491288453
 20
-14.38997603815296
 10
-9.276066798980764
 20
-12.84711889529582
 10
-8.722220645134612
 20
-12.17459142276834
 42
0.6498730890884531
 10
-9.276066798980764
 20
-11.06689911507604
 42
0.432782151096472
  0
LWPOLYLINE
  5
BF
330
18
100
AcDbEntity
  8
0
100
AcDbPolyline
 90
        4
 70
     0
 43
0.0
 10
-10.38375910667307
 20
-14.38997603815296
 10
-9.276066798980764
 20
-12.84711889529582
 10
-9.829912952826916
 20
-12.17459142276834
 42
-0.6498730890884531
 10
-9.276066798980764
 20
-11.06689911507604
 42
-0.432782151096472
  0
LWPOLYLINE
  5
C5
330
18
100
AcDbEntity
  8
0
100
AcDbPolyline
 90
        4
 70
     0
 43
0.0
 10
-7.931011853925816
 20
-14.38997603815296
 10
-6.902440425354392
 20
-12.96580021397714
 42
1.465048568883123
 10
-8.128814051728014
 20
-12.64931669749362
 10
-7.970572293486256
 20
-12.64931669749362
 42
0.2773262506394347
  0
LWPOLYLINE
  5
CB
330
18
100
AcDbEntity
  8
0
100
AcDbPolyline
 90
        3
 70
     0
 43
0.0
 10
-8.049693172607135
 20
-14.2317342799112
 10
-7.060682183596149
 20
-12.88667933485626
 42
1.474385846599649
 10
-7.970572293486256
 20
-12.64931669749362
 42
1.997247172818922
  0
LWPOLYLINE
  5
D0
330
18
100
AcDbEntity
  8
0
100
AcDbPolyline
 90
        3
 70
     0
 43
0.0
 10
-10.50244042535439
 20
-14.2317342799112
 10
-11.49145141436537
 20
-12.88667933485626
 42
-1.474385846599649
 10
-10.58156130447527
 20
-12.64931669749362
 42
-1.997247172818922
  0
LWPOLYLINE
  5
D5
330
18
100
AcDbEntity
  8
0
100
AcDbPolyline
 90
        4
 70
     0
 43
0.0
 10
-10.62112174403571
 20
-14.38997603815296
 10
-11.64969317260713
 20
-12.96580021397714
 42
-1.465048568883123
 10
-10.42331954623351
 20
-12.64931669749362
 10
-10.58156130447527
 20
-12.64931669749362
 42
-0.2773262506394347
  0
LWPOLYLINE
  5
DB
330
18
100
AcDbEntity
  8
0
100
AcDbPolyline
 90
        2
 70
     0
 43
0.0
 10
-12.75660858165341
 20
-13.06929197632026
 10
-12.7566085816534
 20
-15.77183153956321
  0
LINE
  5
DF
330
18
100
AcDbEntity
  8
0
100
AcDbLine
 10
-5.731744529436198
 20
-15.76377195054475
 30
0.0
 11
-5.731744529436198
 21
-13.09725884397648
 31
0.0
  0
LINE
  5
E0
330
18
100
AcDbEntity
  8
0
100
AcDbLine
 10
-10.25653161049163
 20
-18.43365318947508
 30
0.0
 11
-8.231821351721091
 21
-18.43365318947508
 31
0.0
  0
LINE
  5
E1
330
18
100
AcDbEntity
  8
0
100
AcDbLine
 10
-10.59478693174153
 20
-17.93365318947508
 30
0.0
 11
-7.901625768366532
 21
-17.93365318947508
 31
0.0
  0
LWPOLYLINE
  5
E2
330
18
100
AcDbEntity
  8
0
100
AcDbPolyline
 90
        4
 70
     0
 43
0.0
 10
-8.168374491288453
 20
-14.38997603815296
 10
-9.276066798980764
 20
-15.9328331810101
 10
-8.722220645134612
 20
-16.60536065353757
 42
-0.6498730890884531
 10
-9.276066798980764
 20
-17.71305296122988
 42
-0.432782151096472
  0
LWPOLYLINE
  5
E8
330
18
100
AcDbEntity
  8
0
100
AcDbPolyline
 90
        2
 70
     0
 43
0.0
 10
-7.931011853925816
 20
-14.38997603815296
 10
-9.157385480299446
 20
-16.09107493925186
  0
LINE
  5
EC
330
18
100
AcDbEntity
  8
0
100
AcDbLine
 10
-10.76711068297679
 20
-18.46843621942637
 30
0.0
 11
-10.76711068297679
 21
-19.37670603227545
 31
0.0
  0
LINE
  5
ED
330
18
100
AcDbEntity
  8
0
100
AcDbLine
 10
-10.25653161049163
 20
-19.37670603227545
 30
0.0
 11
-10.25653161049163
 21
-18.43365318947508
 31
0.0
  0
DIMENSION
  5
EE
330
18
100
AcDbEntity
  8
ADPDIM
100
AcDbDimension
  2
*D2
 10
-10.25334896448398
 20
-20.10154877983735
 30
0.0
 11
-9.732515631150652
 21
-20.10154877983735
 31
0.0
 12
-19.99723074757986
 22
-20.92386379511605
 32
0.0
100
AcDbAlignedDimension
 13
-10.76711068297679
 23
-19.56604793011782
 33
0.0
 14
-10.25334896448398
 24
-19.56604793011782
 34
0.0
100
AcDbRotatedDimension
  0
LINE
  5
EF
330
18
100
AcDbEntity
  8
0
100
AcDbLine
 10
-10.76711068297679
 20
-19.37670603227545
 30
0.0
 11
-10.25653161049163
 21
-19.37670603227545
 31
0.0
  0
LINE
  5
F0
330
18
100
AcDbEntity
  8
0
100
AcDbLine
 10
-13.25660858165341
 20
-15.97893832074975
 30
0.0
 11
-10.76711068297679
 21
-18.46843621942637
 31
0.0
  0
LINE
  5
F1
330
18
100
AcDbEntity
  8
0
100
AcDbLine
 10
-12.75660858165341
 20
-15.77183153956321
 30
0.0
 11
-10.59478693174153
 21
-17.93365318947508
 31
0.0
  0
LWPOLYLINE
  5
F2
330
18
100
AcDbEntity
  8
0
100
AcDbPolyline
 90
        4
 70
     0
 43
0.0
 10
-10.62112174403571
 20
-14.38997603815296
 10
-11.64969317260713
 20
-15.81415186232878
 42
1.465048568883123
 10
-10.42331954623351
 20
-16.1306353788123
 10
-10.58156130447527
 20
-16.1306353788123
 42
0.2773262506394347
  0
LWPOLYLINE
  5
F8
330
18
100
AcDbEntity
  8
0
100
AcDbPolyline
 90
        3
 70
     0
 43
0.0
 10
-10.50244042535439
 20
-14.54821779639472
 10
-11.49145141436537
 20
-15.89327274144966
 42
1.474385846599649
 10
-10.58156130447527
 20
-16.1306353788123
 42
1.997247172818922
  0
ARC
  5
FD
330
18
100
AcDbEntity
  8
0
100
AcDbCircle
 10
-11.55079207370603
 20
-16.82294307111999
 30
0.0
 40
0.0839203652397225
100
AcDbArc
 50
224.9999999999995
 51
45.00000000000047
  0
ARC
  5
FE
330
18
100
AcDbEntity
  8
0
100
AcDbCircle
 10
-11.71737280385289
 20
-16.66329020270481
 30
0.0
 40
0.0805454250303946
100
AcDbArc
 50
27.6515963597799
 51
242.3225186147714
  0
LINE
  5
FF
330
18
100
AcDbEntity
  8
0
100
AcDbLine
 10
-13.25660858165341
 20
-13.41091448656732
 30
0.0
 11
-13.25660858165341
 21
-15.43447696921103
 31
0.0
  0
LWPOLYLINE
  5
100
330
18
100
AcDbEntity
  8
0
100
AcDbPolyline
 90
        2
 70
     0
 43
0.0
 10
-13.25660858165341
 20
-15.94505604169618
 10
-13.25660858165341
 20
-15.97893832074975
  0
LWPOLYLINE
  5
104
330
18
100
AcDbEntity
  8
0
100
AcDbPolyline
 90
        4
 70
     0
 43
0.0
 10
-10.38375910667307
 20
-14.38997603815296
 10
-9.276066798980764
 20
-15.9328331810101
 10
-9.829912952826916
 20
-16.60536065353757
 42
0.6498730890884531
 10
-9.276066798980764
 20
-17.71305296122988
 42
0.432782151096472
  0
LWPOLYLINE
  5
10A
330
18
100
AcDbEntity
  8
0
100
AcDbPolyline
 90
        2
 70
     0
 43
0.0
 10
-10.62112174403571
 20
-14.38997603815296
 10
-9.394748117662082
 20
-16.09107493925186
  0
LWPOLYLINE
  5
10E
330
18
100
AcDbEntity
  8
0
100
AcDbPolyline
 90
        3
 70
     0
 43
0.0
 10
-9.276066798980764
 20
-16.24931669749362
 10
-9.671671194585158
 20
-16.72404197221889
 42
0.65401557478581
 10
-9.276066798980764
 20
-17.51525076342768
 42
0.0386733315465037
  0
LINE
  5
113
330
18
100
AcDbEntity
  8
0
100
AcDbLine
 10
-10.80189371292807
 20
-18.43365318947508
 30
0.0
 11
-10.76711068297679
 21
-18.43365318947508
 31
0.0
  0
LWPOLYLINE
  5
114
330
18
100
AcDbEntity
  8
0
100
AcDbPolyline
 90
        3
 70
     0
 43
0.0
 10
-9.276066798980764
 20
-16.24931669749362
 10
-8.88046240337637
 20
-16.72404197221889
 42
-0.65401557478581
 10
-9.276066798980764
 20
-17.51525076342768
 42
-0.0386733315465037
  0
LWPOLYLINE
  5
119
330
18
100
AcDbEntity
  8
0
100
AcDbPolyline
 90
        3
 70
     0
 43
0.0
 10
-9.305980262135687
 20
-17.70879270831886
 10
-9.205587370016868
 20
-17.7171550208464
 42
-1.034932783336545
 10
-9.180489258644826
 20
-17.93457442996226
 42
24.80108874791828
  0
LWPOLYLINE
  5
11E
330
18
100
AcDbEntity
  8
0
100
AcDbPolyline
 90
        3
 70
     0
 43
0.0
 10
-9.277238544913476
 20
-17.70879270831886
 10
-9.377631437032295
 20
-17.7171550208464
 42
1.034932783336545
 10
-9.402729548404337
 20
-17.93457442996226
 42
-24.80108874791828
  0
LINE
  5
123
330
18
100
AcDbEntity
  8
0
100
AcDbLine
 10
-7.721242279235934
 20
-19.37670603227545
 30
0.0
 11
-7.721242279235934
 21
-18.46037648153103
 31
0.0
  0
LINE
  5
124
330
18
100
AcDbEntity
  8
0
100
AcDbLine
 10
-8.231821351721094
 20
-18.43365318947508
 30
0.0
 11
-8.231821351721091
 21
-19.37670603227545
 31
0.0
  0
LINE
  5
125
330
18
100
AcDbEntity
  8
0
100
AcDbLine
 10
-8.231821351721091
 20
-19.37670603227545
 30
0.0
 11
-7.721242279235934
 21
-19.37670603227545
 31
0.0
  0
LINE
  5
126
330
18
100
AcDbEntity
  8
0
100
AcDbLine
 10
-7.721242279235934
 20
-18.46037648153103
 30
0.0
 11
-5.205921839401081
 21
-15.94505604169619
 31
0.0
  0
LINE
  5
127
330
18
100
AcDbEntity
  8
0
100
AcDbLine
 10
-7.901625768366532
 20
-17.93365318947508
 30
0.0
 11
-5.731744529436198
 21
-15.76377195054476
 31
0.0
  0
LWPOLYLINE
  5
128
330
18
100
AcDbEntity
  8
0
100
AcDbPolyline
 90
        3
 70
     0
 43
0.0
 10
-8.049693172607135
 20
-14.54821779639472
 10
-7.060682183596149
 20
-15.89327274144966
 42
-1.474385846599649
 10
-7.970572293486256
 20
-16.1306353788123
 42
-1.997247172818922
  0
LWPOLYLINE
  5
12D
330
18
100
AcDbEntity
  8
0
100
AcDbPolyline
 90
        4
 70
     0
 43
0.0
 10
-7.931011853925816
 20
-14.38997603815296
 10
-6.902440425354392
 20
-15.81415186232878
 42
-1.465048568883123
 10
-8.128814051728014
 20
-16.1306353788123
 10
-7.970572293486256
 20
-16.1306353788123
 42
-0.2773262506394347
  0
LINE
  5
133
330
18
100
AcDbEntity
  8
0
100
AcDbLine
 10
-7.721242279235934
 20
-18.43365318947508
 30
0.0
 11
-7.694518987179986
 21
-18.43365318947508
 31
0.0
  0
ARC
  5
134
330
18
100
AcDbEntity
  8
0
100
AcDbCircle
 10
-6.829307758567022
 20
-16.69900652151038
 30
0.0
 40
0.106024803257294
100
AcDbArc
 50
333.3273433383127
 51
136.4147865985303
  0
ARC
  5
135
330
18
100
AcDbEntity
  8
0
100
AcDbCircle
 10
-6.940052465459686
 20
-16.82294307111999
 30
0.0
 40
0.1344352734540565
100
AcDbArc
 50
153.8063176411633
 51
284.314693452131
  0
LINE
  5
136
330
18
100
AcDbEntity
  8
0
100
AcDbLine
 10
-5.205921839401081
 20
-15.94505604169619
 30
0.0
 11
-4.252825703244745
 21
-15.94505604169619
 31
0.0
  0
LINE
  5
137
330
18
100
AcDbEntity
  8
0
100
AcDbLine
 10
-4.252825703244745
 20
-15.43447696921103
 30
0.0
 11
-5.231744529436205
 21
-15.43447696921103
 31
0.0
  0
LINE
  5
138
330
18
100
AcDbEntity
  8
0
100
AcDbLine
 10
-5.231744529436205
 20
-13.41091448656732
 30
0.0
 11
-4.252825703244745
 21
-13.41091448656732
 31
0.0
  0
LINE
  5
139
330
18
100
AcDbEntity
  8
0
100
AcDbLine
 10
-5.231744529436209
 20
-15.43447696921103
 30
0.0
 11
-5.231744529436205
 21
-13.41091448656732
 31
0.0
  0
LINE
  5
13A
330
18
100
AcDbEntity
  8
0
100
AcDbLine
 10
-4.252825703244745
 20
-15.94505604169619
 30
0.0
 11
-4.252825703244745
 21
-15.43447696921103
 31
0.0
  0
LINE
  5
13B
330
18
100
AcDbEntity
  8
0
100
AcDbLine
 10
-7.934632179146344
 20
-10.89437119426633
 30
0.0
 11
-10.58168779959948
 21
-10.89437119426633
 31
0.0
  0
LINE
  5
13C
330
18
100
AcDbEntity
  8
0
100
AcDbLine
 10
-8.231821351721091
 20
-10.39437119426634
 30
0.0
 11
-10.25653161049163
 21
-10.39437119426634
 31
0.0
  0
LINE
  5
13D
330
18
100
AcDbEntity
  8
0
100
AcDbLine
 10
-10.76711068297679
 20
-10.37268729645709
 30
0.0
 11
-13.29475880060186
 21
-12.90033541408216
 31
0.0
  0
LINE
  5
13E
330
18
100
AcDbEntity
  8
0
100
AcDbLine
 10
-10.58168779959948
 20
-10.89437119426633
 30
0.0
 11
-12.7566085816534
 21
-13.06929197632026
 31
0.0
  0
LWPOLYLINE
  5
13F
330
18
100
AcDbEntity
  8
0
100
AcDbPolyline
 90
        2
 70
     0
 43
0.0
 10
-13.25660858165341
 20
-12.86218519513371
 10
-13.25660858165341
 20
-12.90033541408216
  0
ARC
  5
143
330
18
100
AcDbEntity
  8
0
100
AcDbCircle
 10
-11.55079207370603
 20
-11.95700900518593
 30
0.0
 40
0.0839203652397225
100
AcDbArc
 50
314.9999999999995
 51
135.0000000000004
  0
ARC
  5
144
330
18
100
AcDbEntity
  8
0
100
AcDbCircle
 10
-11.71737280385289
 20
-12.1166618736011
 30
0.0
 40
0.0805454250303946
100
AcDbArc
 50
117.6774813852285
 51
332.3484036402201
  0
LINE
  5
145
330
18
100
AcDbEntity
  8
0
100
AcDbLine
 10
-10.25653161049163
 20
-10.39437119426634
 30
0.0
 11
-10.25653161049163
 21
-9.433720191009523
 31
0.0
  0
LINE
  5
146
330
18
100
AcDbEntity
  8
0
100
AcDbLine
 10
-10.76711068297679
 20
-9.433720191009523
 30
0.0
 11
-10.76711068297679
 21
-10.37268729645709
 31
0.0
  0
LWPOLYLINE
  5
147
330
18
100
AcDbEntity
  8
0
100
AcDbPolyline
 90
        3
 70
     0
 43
0.0
 10
-9.276066798980764
 20
-12.5306353788123
 10
-9.671671194585158
 20
-12.05591010408703
 42
-0.65401557478581
 10
-9.276066798980764
 20
-11.26470131287823
 42
-0.0386733315465037
  0
LWPOLYLINE
  5
14C
330
18
100
AcDbEntity
  8
0
100
AcDbPolyline
 90
        3
 70
     0
 43
0.0
 10
-9.276066798980764
 20
-12.5306353788123
 10
-8.88046240337637
 20
-12.05591010408703
 42
0.65401557478581
 10
-9.276066798980764
 20
-11.26470131287823
 42
0.0386733315465037
  0
LWPOLYLINE
  5
151
330
18
100
AcDbEntity
  8
0
100
AcDbPolyline
 90
        3
 70
     0
 43
0.0
 10
-9.290437657591869
 20
-11.06694536582544
 10
-9.19004476547305
 20
-11.05858305329791
 42
0.632604256744735
 10
-9.079629977616086
 20
-10.89437119426633
 42
-24.80108874791828
  0
LWPOLYLINE
  5
156
330
18
100
AcDbEntity
  8
0
100
AcDbPolyline
 90
        3
 70
     0
 43
0.0
 10
-9.261695940369659
 20
-11.06694536582544
 10
-9.362088832488478
 20
-11.05858305329791
 42
-0.632604256744735
 10
-9.472503620345442
 20
-10.89437119426633
 42
24.80108874791828
  0
LINE
  5
15B
330
18
100
AcDbEntity
  8
0
100
AcDbLine
 10
-10.25653161049163
 20
-9.433720191009523
 30
0.0
 11
-10.76711068297679
 21
-9.433720191009523
 31
0.0
  0
LINE
  5
15C
330
18
100
AcDbEntity
  8
0
100
AcDbLine
 10
-5.221561178143979
 20
-12.90033541408216
 30
0.0
 11
-7.721242279235934
 21
-10.40065431299021
 31
0.0
  0
LINE
  5
15D
330
18
100
AcDbEntity
  8
0
100
AcDbLine
 10
-5.731744529436202
 20
-13.09725884397648
 30
0.0
 11
-7.934632179146351
 21
-10.89437119426633
 31
0.0
  0
LINE
  5
15E
330
18
100
AcDbEntity
  8
0
100
AcDbLine
 10
-7.721242279235934
 20
-10.40065431299021
 30
0.0
 11
-7.721242279235934
 21
-9.433720191009523
 31
0.0
  0
LINE
  5
15F
330
18
100
AcDbEntity
  8
0
100
AcDbLine
 10
-8.231821351721091
 20
-9.433720191009523
 30
0.0
 11
-8.231821351721091
 21
-10.39437119426634
 31
0.0
  0
ARC
  5
160
330
18
100
AcDbEntity
  8
0
100
AcDbCircle
 10
-6.834760794108639
 20
-12.1166618736011
 30
0.0
 40
0.0805454250303946
100
AcDbArc
 50
207.6515963597798
 51
62.3225186147714
  0
ARC
  5
161
330
18
100
AcDbEntity
  8
0
100
AcDbCircle
 10
-7.00134152425549
 20
-11.95700900518593
 30
0.0
 40
0.0839203652397225
100
AcDbArc
 50
44.99999999999952
 51
225.0000000000004
  0
LINE
  5
162
330
18
100
AcDbEntity
  8
0
100
AcDbLine
 10
-8.231821351721091
 20
-9.433720191009523
 30
0.0
 11
-7.721242279235934
 21
-9.433720191009523
 31
0.0
  0
LINE
  5
163
330
18
100
AcDbEntity
  8
0
100
AcDbLine
 10
-4.252825703244745
 20
-12.90033541408216
 30
0.0
 11
-5.221561178143979
 21
-12.90033541408216
 31
0.0
  0
TEXT
  5
171
330
18
100
AcDbEntity
  8
ADPDIM
100
AcDbText
 10
-22.11359155614047
 20
-21.27395043497636
 30
0.0
 40
0.25
  1
J U L I U S  B L U M  &  C O . ,  I N C .      ( 8 0 0 )  5 2 6 - 6 2 9 3        W W W . J U L I U S B L U M . C O M        P A R T  N o .  5 9 4
 41
1.25
  7
ARIAL_WIDE
 72
     1
 11
-9.244176481106364
 21
-21.02395043497636
 31
0.0
100
AcDbText
 73
     3
  0
ENDSEC
  0
SECTION
  2
OBJECTS
  0
DICTIONARY
  5
C
330
0
100
AcDbDictionary
  3
ACAD_GROUP
350
D
  3
ACAD_LAYOUT
350
16A
  3
ACAD_MLINESTYLE
350
E
  3
ACAD_PLOTSETTINGS
350
16B
  3
ACAD_PLOTSTYLENAME
350
168
  3
ACDBHEADERROUNDTRIPXREC
350
2B5
  3
ACDBVARIABLEDICTIONARY
350
1CB
  0
DICTIONARY
  5
1C5
330
18
100
AcDbDictionary
280
     1
  3
ACAD_LAYOUTSELFREF
360
2D6
  0
DICTIONARY
  5
1C3
330
15
100
AcDbDictionary
280
     1
  3
ACAD_LAYOUTSELFREF
360
2D5
  0
DICTIONARY
  5
D
102
{ACAD_REACTORS
330
C
102
}
330
C
100
AcDbDictionary
  0
DICTIONARY
  5
16A
102
{ACAD_REACTORS
330
C
102
}
330
C
100
AcDbDictionary
  0
DICTIONARY
  5
E
102
{ACAD_REACTORS
330
C
102
}
330
C
100
AcDbDictionary
  3
STANDARD
350
1B
  0
DICTIONARY
  5
16B
102
{ACAD_REACTORS
330
C
102
}
330
C
100
AcDbDictionary
  0
ACDBDICTIONARYWDFLT
  5
168
102
{ACAD_REACTORS
330
C
102
}
330
C
100
AcDbDictionary
281
     1
  3
Normal
350
169
100
AcDbDictionaryWithDefault
340
169
  0
DICTIONARY
  5
2B5
102
{ACAD_REACTORS
330
C
102
}
330
C
100
AcDbDictionary
  3
CEPSNTYPE
350
2BF
  3
FINGERPRINTGUID
350
2C0
  3
HYPERLINKBASE
350
2B8
  3
INSUNITS
350
2BE
  3
LAYOUTDICT
350
2BA
  3
LWETCUNION
350
2BD
  3
PLOTSETDICT
350
2BB
  3
PLOTSTYLNAMDICT
350
2BC
  3
PSVPSCALE
350
2C2
  3
PUCSBASE
350
2C5
  3
PUCSORGBACK
350
2CB
  3
PUCSORGBOTTOM
350
2C7
  3
PUCSORGFRONT
350
2CA
  3
PUCSORGLEFT
350
2C8
  3
PUCSORGRIGHT
350
2C9
  3
PUCSORGTOP
350
2C6
  3
PUCSORTHOREF
350
2C3
  3
PUCSORTHOVIEW
350
2C4
  3
STYLESHEET
350
2B9
  3
TSTACKALIGN
350
2B6
  3
TSTACKSIZE
350
2B7
  3
UCSBASE
350
2CE
  3
UCSORGBACK
350
2D4
  3
UCSORGBOTTOM
350
2D0
  3
UCSORGFRONT
350
2D3
  3
UCSORGLEFT
350
2D1
  3
UCSORGRIGHT
350
2D2
  3
UCSORGTOP
350
2CF
  3
UCSORTHOREF
350
2CC
  3
UCSORTHOVIEW
350
2CD
  3
VERSIONGUID
350
2C1
  0
DICTIONARY
  5
1CB
102
{ACAD_REACTORS
330
C
102
}
330
C
100
AcDbDictionary
  3
DIMASSOC
350
1CC
  0
XRECORD
  5
2D6
102
{ACAD_REACTORS
330
1C5
102
}
330
1C5
100
AcDbXrecord
340
18
  0
XRECORD
  5
2D5
102
{ACAD_REACTORS
330
1C3
102
}
330
1C3
100
AcDbXrecord
340
15
  0
MLINESTYLE
  5
1B
102
{ACAD_REACTORS
330
E
102
}
330
E
100
AcDbMlineStyle
  2
STANDARD
 70
     0
  3

 62
     0
 51
90.0
 52
90.0
 71
     2
 49
0.5
 62
   256
  6
BYLAYER
 49
-0.5
 62
   256
  6
BYLAYER
  0
ACDBPLACEHOLDER
  5
169
102
{ACAD_REACTORS
330
168
102
}
330
168
100
AcDbPlaceHolder
280
     0
  0
XRECORD
  5
2BF
102
{ACAD_REACTORS
330
2B5
102
}
330
2B5
100
AcDbXrecord
 90
        0
  0
XRECORD
  5
2C0
102
{ACAD_REACTORS
330
2B5
102
}
330
2B5
100
AcDbXrecord
  1
{BED509C3-88EB-4ECE-BBC2-2220DF35CF2A}
  0
XRECORD
  5
2B8
102
{ACAD_REACTORS
330
2B5
102
}
330
2B5
100
AcDbXrecord
  1

  0
XRECORD
  5
2BE
102
{ACAD_REACTORS
330
2B5
102
}
330
2B5
100
AcDbXrecord
 90
        0
  0
XRECORD
  5
2BA
102
{ACAD_REACTORS
330
2B5
102
}
330
2B5
100
AcDbXrecord
340
16A
  0
XRECORD
  5
2BD
102
{ACAD_REACTORS
330
2B5
102
}
330
2B5
100
AcDbXrecord
 90
    14877
  0
XRECORD
  5
2BB
102
{ACAD_REACTORS
330
2B5
102
}
330
2B5
100
AcDbXrecord
340
16B
  0
XRECORD
  5
2BC
102
{ACAD_REACTORS
330
2B5
102
}
330
2B5
100
AcDbXrecord
340
168
  0
XRECORD
  5
2C2
102
{ACAD_REACTORS
330
2B5
102
}
330
2B5
100
AcDbXrecord
 40
0.0
  0
XRECORD
  5
2C5
102
{ACAD_REACTORS
330
2B5
102
}
330
2B5
100
AcDbXrecord
340
0
  0
XRECORD
  5
2CB
102
{ACAD_REACTORS
330
2B5
102
}
330
2B5
100
AcDbXrecord
 10
0.0
 20
0.0
 30
0.0
  0
XRECORD
  5
2C7
102
{ACAD_REACTORS
330
2B5
102
}
330
2B5
100
AcDbXrecord
 10
0.0
 20
0.0
 30
0.0
  0
XRECORD
  5
2CA
102
{ACAD_REACTORS
330
2B5
102
}
330
2B5
100
AcDbXrecord
 10
0.0
 20
0.0
 30
0.0
  0
XRECORD
  5
2C8
102
{ACAD_REACTORS
330
2B5
102
}
330
2B5
100
AcDbXrecord
 10
0.0
 20
0.0
 30
0.0
  0
XRECORD
  5
2C9
102
{ACAD_REACTORS
330
2B5
102
}
330
2B5
100
AcDbXrecord
 10
0.0
 20
0.0
 30
0.0
  0
XRECORD
  5
2C6
102
{ACAD_REACTORS
330
2B5
102
}
330
2B5
100
AcDbXrecord
 10
0.0
 20
0.0
 30
0.0
  0
XRECORD
  5
2C3
102
{ACAD_REACTORS
330
2B5
102
}
330
2B5
100
AcDbXrecord
340
0
  0
XRECORD
  5
2C4
102
{ACAD_REACTORS
330
2B5
102
}
330
2B5
100
AcDbXrecord
 70
     0
  0
XRECORD
  5
2B9
102
{ACAD_REACTORS
330
2B5
102
}
330
2B5
100
AcDbXrecord
  1

  0
XRECORD
  5
2B6
102
{ACAD_REACTORS
330
2B5
102
}
330
2B5
100
AcDbXrecord
 90
        1
  0
XRECORD
  5
2B7
102
{ACAD_REACTORS
330
2B5
102
}
330
2B5
100
AcDbXrecord
 90
       70
  0
XRECORD
  5
2CE
102
{ACAD_REACTORS
330
2B5
102
}
330
2B5
100
AcDbXrecord
340
0
  0
XRECORD
  5
2D4
102
{ACAD_REACTORS
330
2B5
102
}
330
2B5
100
AcDbXrecord
 10
0.0
 20
0.0
 30
0.0
  0
XRECORD
  5
2D0
102
{ACAD_REACTORS
330
2B5
102
}
330
2B5
100
AcDbXrecord
 10
0.0
 20
0.0
 30
0.0
  0
XRECORD
  5
2D3
102
{ACAD_REACTORS
330
2B5
102
}
330
2B5
100
AcDbXrecord
 10
0.0
 20
0.0
 30
0.0
  0
XRECORD
  5
2D1
102
{ACAD_REACTORS
330
2B5
102
}
330
2B5
100
AcDbXrecord
 10
0.0
 20
0.0
 30
0.0
  0
XRECORD
  5
2D2
102
{ACAD_REACTORS
330
2B5
102
}
330
2B5
100
AcDbXrecord
 10
0.0
 20
0.0
 30
0.0
  0
XRECORD
  5
2CF
102
{ACAD_REACTORS
330
2B5
102
}
330
2B5
100
AcDbXrecord
 10
0.0
 20
0.0
 30
0.0
  0
XRECORD
  5
2CC
102
{ACAD_REACTORS
330
2B5
102
}
330
2B5
100
AcDbXrecord
340
0
  0
XRECORD
  5
2CD
102
{ACAD_REACTORS
330
2B5
102
}
330
2B5
100
AcDbXrecord
 70
     0
  0
XRECORD
  5
2C1
102
{ACAD_REACTORS
330
2B5
102
}
330
2B5
100
AcDbXrecord
  1
{A5420BAF-41AD-4EAD-9540-EC74744691CE}
  0
DICTIONARYVAR
  5
1CC
102
{ACAD_REACTORS
330
1CB
102
}
330
1CB
100
DictionaryVariables
280
     0
  1
1
  0
ENDSEC
  0
EOF
