  0
SECTION
  2
HEADER
  9
$ACADVER
  1
AC1014
  9
$ACADMAINTVER
 70
     9
  9
$DWGCODEPAGE
  3
ANSI_1252
  9
$INSBASE
 10
12.22706338980227
 20
1.357815864998237
 30
0.0
  9
$EXTMIN
 10
-2.123697911469276
 20
-0.2451808183714311
 30
0.0
  9
$EXTMAX
 10
23.61513223859894
 20
12.27361431566457
 30
0.0
  9
$LIMMIN
 10
0.0
 20
0.0
  9
$LIMMAX
 10
36.0
 20
36.0
  9
$ORTHOMODE
 70
     1
  9
$REGENMODE
 70
     1
  9
$FILLMODE
 70
     1
  9
$QTEXTMODE
 70
     0
  9
$MIRRTEXT
 70
     1
  9
$DRAGMODE
 70
     0
  9
$LTSCALE
 40
1.0
  9
$OSMODE
 70
    37
  9
$ATTMODE
 70
     1
  9
$TEXTSIZE
 40
0.2
  9
$TRACEWID
 40
0.05
  9
$TEXTSTYLE
  7
STANDARD
  9
$CLAYER
  8
ADPDIM
  9
$CELTYPE
  6
BYLAYER
  9
$CECOLOR
 62
   256
  9
$CELTSCALE
 40
1.0
  9
$DELOBJ
 70
     1
  9
$DISPSILH
 70
     0
  9
$DIMSCALE
 40
1.0
  9
$DIMASZ
 40
0.125
  9
$DIMEXO
 40
0.0625
  9
$DIMDLI
 40
0.38
  9
$DIMRND
 40
0.0
  9
$DIMDLE
 40
0.0
  9
$DIMEXE
 40
0.18
  9
$DIMTP
 40
0.0
  9
$DIMTM
 40
0.0
  9
$DIMTXT
 40
0.125
  9
$DIMCEN
 40
0.1875
  9
$DIMTSZ
 40
0.125
  9
$DIMTOL
 70
     0
  9
$DIMLIM
 70
     0
  9
$DIMTIH
 70
     0
  9
$DIMTOH
 70
     0
  9
$DIMSE1
 70
     0
  9
$DIMSE2
 70
     0
  9
$DIMTAD
 70
     0
  9
$DIMZIN
 70
     3
  9
$DIMBLK
  1

  9
$DIMASO
 70
     1
  9
$DIMSHO
 70
     1
  9
$DIMPOST
  1

  9
$DIMAPOST
  1

  9
$DIMALT
 70
     0
  9
$DIMALTD
 70
     1
  9
$DIMALTF
 40
25.4
  9
$DIMLFAC
 40
1.0
  9
$DIMTOFL
 70
     0
  9
$DIMTVP
 40
0.0
  9
$DIMTIX
 70
     0
  9
$DIMSOXD
 70
     0
  9
$DIMSAH
 70
     0
  9
$DIMBLK1
  1

  9
$DIMBLK2
  1

  9
$DIMSTYLE
  2
STANDARD
  9
$DIMCLRD
 70
     0
  9
$DIMCLRE
 70
     0
  9
$DIMCLRT
 70
     0
  9
$DIMTFAC
 40
1.0
  9
$DIMGAP
 40
0.125
  9
$DIMJUST
 70
     0
  9
$DIMSD1
 70
     0
  9
$DIMSD2
 70
     0
  9
$DIMTOLJ
 70
     1
  9
$DIMTZIN
 70
     0
  9
$DIMALTZ
 70
     0
  9
$DIMALTTZ
 70
     0
  9
$DIMFIT
 70
     3
  9
$DIMUPT
 70
     0
  9
$DIMUNIT
 70
     2
  9
$DIMDEC
 70
     4
  9
$DIMTDEC
 70
     4
  9
$DIMALTU
 70
     2
  9
$DIMALTTD
 70
     2
  9
$DIMTXSTY
  7
STANDARD
  9
$DIMAUNIT
 70
     0
  9
$LUNITS
 70
     5
  9
$LUPREC
 70
     5
  9
$SKETCHINC
 40
0.1
  9
$FILLETRAD
 40
0.062
  9
$AUNITS
 70
     0
  9
$AUPREC
 70
     0
  9
$MENU
  1
acad
  9
$ELEVATION
 40
0.0
  9
$PELEVATION
 40
0.0
  9
$THICKNESS
 40
0.0
  9
$LIMCHECK
 70
     0
  9
$BLIPMODE
 70
     0
  9
$CHAMFERA
 40
0.0
  9
$CHAMFERB
 40
0.0
  9
$CHAMFERC
 40
0.0
  9
$CHAMFERD
 40
0.0
  9
$SKPOLY
 70
     0
  9
$TDCREATE
 40
2450409.618238425
  9
$TDUPDATE
 40
2452297.073739687
  9
$TDINDWG
 40
0.0052934954
  9
$TDUSRTIMER
 40
0.0052934954
  9
$USRTIMER
 70
     1
  9
$ANGBASE
 50
0.0
  9
$ANGDIR
 70
     0
  9
$PDMODE
 70
     0
  9
$PDSIZE
 40
0.0
  9
$PLINEWID
 40
0.0
  9
$COORDS
 70
     2
  9
$SPLFRAME
 70
     0
  9
$SPLINETYPE
 70
     6
  9
$SPLINESEGS
 70
     8
  9
$ATTDIA
 70
     0
  9
$ATTREQ
 70
     1
  9
$HANDLING
 70
 22529
  9
$HANDSEED
  5
3AF
  9
$SURFTAB1
 70
     6
  9
$SURFTAB2
 70
     6
  9
$SURFTYPE
 70
     6
  9
$SURFU
 70
     6
  9
$SURFV
 70
     6
  9
$UCSNAME
  2

  9
$UCSORG
 10
0.0
 20
0.0
 30
0.0
  9
$UCSXDIR
 10
1.0
 20
0.0
 30
0.0
  9
$UCSYDIR
 10
0.0
 20
1.0
 30
0.0
  9
$PUCSNAME
  2

  9
$PUCSORG
 10
0.0
 20
0.0
 30
0.0
  9
$PUCSXDIR
 10
1.0
 20
0.0
 30
0.0
  9
$PUCSYDIR
 10
0.0
 20
1.0
 30
0.0
  9
$USERI1
 70
     0
  9
$USERI2
 70
     0
  9
$USERI3
 70
     0
  9
$USERI4
 70
     0
  9
$USERI5
 70
     0
  9
$USERR1
 40
0.0
  9
$USERR2
 40
0.0
  9
$USERR3
 40
0.0
  9
$USERR4
 40
0.0
  9
$USERR5
 40
0.0
  9
$WORLDVIEW
 70
     1
  9
$SHADEDGE
 70
     3
  9
$SHADEDIF
 70
    70
  9
$TILEMODE
 70
     1
  9
$MAXACTVP
 70
    15
  9
$PINSBASE
 10
0.0009765857830644
 20
1.500170956078392
 30
0.0
  9
$PLIMCHECK
 70
     0
  9
$PEXTMIN
 10
1.000000000000000E+20
 20
1.000000000000000E+20
 30
1.000000000000000E+20
  9
$PEXTMAX
 10
-1.000000000000000E+20
 20
-1.000000000000000E+20
 30
-1.000000000000000E+20
  9
$PLIMMIN
 10
0.0
 20
0.0
  9
$PLIMMAX
 10
12.0
 20
9.0
  9
$UNITMODE
 70
     0
  9
$VISRETAIN
 70
     0
  9
$PLINEGEN
 70
     0
  9
$PSLTSCALE
 70
     1
  9
$TREEDEPTH
 70
  3020
  9
$PICKSTYLE
 70
     1
  9
$CMLSTYLE
  2
STANDARD
  9
$CMLJUST
 70
     0
  9
$CMLSCALE
 40
1.0
  9
$PROXYGRAPHICS
 70
     1
  9
$MEASUREMENT
 70
     0
  0
ENDSEC
  0
SECTION
  2
CLASSES
  0
CLASS
  1
ACDBDICTIONARYWDFLT
  2
AcDbDictionaryWithDefault
  3
AutoCAD 2000
 90
        0
280
     0
281
     0
  0
CLASS
  1
ACDBPLACEHOLDER
  2
AcDbPlaceHolder
  3
AutoCAD 2000
 90
        0
280
     0
281
     0
  0
CLASS
  1
LAYOUT
  2
AcDbLayout
  3
AutoCAD 2000
 90
        0
280
     0
281
     0
  0
CLASS
  1
DICTIONARYVAR
  2
AcDbDictionaryVar
  3
AutoCAD 2000
 90
        0
280
     0
281
     0
  0
CLASS
  1
LONG_TRANSACTION
  2
AcDbLongTransaction
  3
AutoCAD 2000
 90
        0
280
     0
281
     0
  0
CLASS
  1
LWPOLYLINE
  2
AcDbPolyline
  3
AutoCAD 2000
 90
        0
280
     0
281
     1
  0
CLASS
  1
HATCH
  2
AcDbHatch
  3
AutoCAD 2000
 90
        0
280
     0
281
     1
  0
CLASS
  1
XRECORD
  2
AcDbXrecord
  3
AutoCAD 2000
 90
        0
280
     0
281
     0
  0
CLASS
  1
LONG_TRANSACTION
  2
AcDbLongTransaction
  3
AutoCAD 2000
 90
        0
280
     0
281
     0
  0
CLASS
  1
LWPOLYLINE
  2
AcDbPolyline
  3
AutoCAD 2000
 90
        0
280
     0
281
     1
  0
CLASS
  1
HATCH
  2
AcDbHatch
  3
AutoCAD 2000
 90
        0
280
     0
281
     1
  0
CLASS
  1
XRECORD
  2
AcDbXrecord
  3
AutoCAD 2000
 90
        0
280
     0
281
     0
  0
CLASS
  1
LONG_TRANSACTION
  2
AcDbLongTransaction
  3
AutoCAD 2000
 90
        0
280
     0
281
     0
  0
CLASS
  1
LWPOLYLINE
  2
AcDbPolyline
  3
AutoCAD 2000
 90
        0
280
     0
281
     1
  0
CLASS
  1
HATCH
  2
AcDbHatch
  3
AutoCAD 2000
 90
        0
280
     0
281
     1
  0
CLASS
  1
XRECORD
  2
AcDbXrecord
  3
AutoCAD 2000
 90
        0
280
     0
281
     0
  0
CLASS
  1
LONG_TRANSACTION
  2
AcDbLongTransaction
  3
AutoCAD 2000
 90
        0
280
     0
281
     0
  0
CLASS
  1
LWPOLYLINE
  2
AcDbPolyline
  3
AutoCAD 2000
 90
        0
280
     0
281
     1
  0
CLASS
  1
HATCH
  2
AcDbHatch
  3
AutoCAD 2000
 90
        0
280
     0
281
     1
  0
CLASS
  1
XRECORD
  2
AcDbXrecord
  3
AutoCAD 2000
 90
        0
280
     0
281
     0
  0
CLASS
  1
LONG_TRANSACTION
  2
AcDbLongTransaction
  3
AutoCAD 2000
 90
        0
280
     0
281
     0
  0
CLASS
  1
LWPOLYLINE
  2
AcDbPolyline
  3
AutoCAD 2000
 90
        0
280
     0
281
     1
  0
CLASS
  1
HATCH
  2
AcDbHatch
  3
AutoCAD 2000
 90
        0
280
     0
281
     1
  0
CLASS
  1
XRECORD
  2
AcDbXrecord
  3
AutoCAD 2000
 90
        0
280
     0
281
     0
  0
ENDSEC
  0
SECTION
  2
TABLES
  0
TABLE
  2
VPORT
  5
8
330
0
100
AcDbSymbolTable
 70
     2
  0
VPORT
  5
38C
330
8
100
AcDbSymbolTableRecord
100
AcDbViewportTableRecord
  2
*ACTIVE
 70
     0
 10
0.0
 20
0.0
 11
1.0
 21
1.0
 12
10.76538560854058
 22
6.014494672618433
 13
0.0
 23
0.0
 14
0.5740882589684922
 24
0.5740882589684922
 15
0.5
 25
0.5
 16
0.0
 26
0.0
 36
1.0
 17
0.0
 27
0.0
 37
0.0
 40
16.49620536428796
 41
1.570528967254408
 42
50.0
 43
0.0
 44
0.0
 50
0.0
 51
0.0
 71
     0
 72
   100
 73
     1
 74
     0
 75
     0
 76
     0
 77
     0
 78
     0
  0
ENDTAB
  0
TABLE
  2
LTYPE
  5
5
330
0
100
AcDbSymbolTable
 70
     1
  0
LTYPE
  5
12
330
5
100
AcDbSymbolTableRecord
100
AcDbLinetypeTableRecord
  2
BYBLOCK
 70
     0
  3

 72
    65
 73
     0
 40
0.0
  0
LTYPE
  5
13
330
5
100
AcDbSymbolTableRecord
100
AcDbLinetypeTableRecord
  2
BYLAYER
 70
     0
  3

 72
    65
 73
     0
 40
0.0
  0
LTYPE
  5
14
330
5
100
AcDbSymbolTableRecord
100
AcDbLinetypeTableRecord
  2
CONTINUOUS
 70
     0
  3
Solid line
 72
    65
 73
     0
 40
0.0
  0
ENDTAB
  0
TABLE
  2
LAYER
  5
2
330
0
100
AcDbSymbolTable
 70
     3
  0
LAYER
  5
F
330
2
100
AcDbSymbolTableRecord
100
AcDbLayerTableRecord
  2
0
 70
     0
 62
     7
  6
CONTINUOUS
  0
LAYER
  5
72
330
2
100
AcDbSymbolTableRecord
100
AcDbLayerTableRecord
  2
DEFPOINTS
 70
     0
 62
     7
  6
CONTINUOUS
  0
LAYER
  5
75
330
2
100
AcDbSymbolTableRecord
100
AcDbLayerTableRecord
  2
ADPDIM
 70
     0
 62
     3
  6
CONTINUOUS
  0
ENDTAB
  0
TABLE
  2
STYLE
  5
3
330
0
100
AcDbSymbolTable
 70
     2
  0
STYLE
  5
10
330
3
100
AcDbSymbolTableRecord
100
AcDbTextStyleTableRecord
  2
STANDARD
 70
     0
 40
0.0
 41
1.0
 50
0.0
 71
     0
 42
0.2
  3
txt
  4

  0
STYLE
  5
248
330
3
100
AcDbSymbolTableRecord
100
AcDbTextStyleTableRecord
  2
ARIAL_WIDE
 70
     0
 40
0.0
 41
1.25
 50
0.0
 71
     0
 42
0.2
  3
ARIAL.TTF
  4

1001
ACAD
1000
Arial
1071
       34
  0
ENDTAB
  0
TABLE
  2
VIEW
  5
6
330
0
100
AcDbSymbolTable
 70
     0
  0
ENDTAB
  0
TABLE
  2
UCS
  5
7
330
0
100
AcDbSymbolTable
 70
     0
  0
ENDTAB
  0
TABLE
  2
APPID
  5
9
330
0
100
AcDbSymbolTable
 70
     1
  0
APPID
  5
11
330
9
100
AcDbSymbolTableRecord
100
AcDbRegAppTableRecord
  2
ACAD
 70
     0
  0
ENDTAB
  0
TABLE
  2
DIMSTYLE
  5
A
330
0
100
AcDbSymbolTable
 70
     1
  0
DIMSTYLE
105
23C
330
A
100
AcDbSymbolTableRecord
100
AcDbDimStyleTableRecord
  2
STANDARD
 70
     0
  3

  4

  5

  6

  7

 40
1.0
 41
0.18
 42
0.0625
 43
0.38
 44
0.18
 45
0.0
 46
0.0
 47
0.0
 48
0.0
140
0.18
141
0.09
142
0.0
143
25.4
144
1.0
145
0.0
146
1.0
147
0.09
 71
     0
 72
     0
 73
     1
 74
     1
 75
     0
 76
     0
 77
     0
 78
     0
170
     0
171
     2
172
     0
173
     0
174
     0
175
     0
176
     0
177
     0
178
     0
270
     2
271
     4
272
     4
273
     2
274
     2
340
10
275
     0
280
     0
281
     0
282
     0
283
     1
284
     0
285
     0
286
     0
287
     3
288
     0
  0
ENDTAB
  0
TABLE
  2
BLOCK_RECORD
  5
1
330
0
100
AcDbSymbolTable
 70
     3
  0
BLOCK_RECORD
  5
18
102
{ACAD_XDICTIONARY
360
29D
102
}
330
1
100
AcDbSymbolTableRecord
100
AcDbBlockTableRecord
  2
*MODEL_SPACE
  0
BLOCK_RECORD
  5
15
102
{ACAD_XDICTIONARY
360
29B
102
}
330
1
100
AcDbSymbolTableRecord
100
AcDbBlockTableRecord
  2
*PAPER_SPACE
  0
BLOCK_RECORD
  5
6B
330
1
100
AcDbSymbolTableRecord
100
AcDbBlockTableRecord
  2
*D0
  0
BLOCK_RECORD
  5
6C
330
1
100
AcDbSymbolTableRecord
100
AcDbBlockTableRecord
  2
*D1
  0
BLOCK_RECORD
  5
6D
330
1
100
AcDbSymbolTableRecord
100
AcDbBlockTableRecord
  2
*D2
  0
ENDTAB
  0
ENDSEC
  0
SECTION
  2
BLOCKS
  0
BLOCK
  5
78
330
18
100
AcDbEntity
  8
0
100
AcDbBlockBegin
  2
*MODEL_SPACE
 70
     0
 10
0.0
 20
0.0
 30
0.0
  3
*MODEL_SPACE
  1

  0
ENDBLK
  5
79
330
18
100
AcDbEntity
  8
0
100
AcDbBlockEnd
  0
BLOCK
  5
76
330
15
100
AcDbEntity
 67
     1
  8
0
100
AcDbBlockBegin
  2
*PAPER_SPACE
 70
     0
 10
0.0
 20
0.0
 30
0.0
  3
*PAPER_SPACE
  1

  0
ENDBLK
  5
77
330
15
100
AcDbEntity
 67
     1
  8
0
100
AcDbBlockEnd
  0
BLOCK
  5
7B
330
6B
100
AcDbEntity
  8
0
100
AcDbBlockBegin
  2
*D0
 70
     1
 10
0.0
 20
0.0
 30
0.0
  3
*D0
  1

  0
LINE
  5
7C
330
6B
100
AcDbEntity
  8
0
  6
BYBLOCK
 62
     0
100
AcDbLine
 10
9.158395918565753
 20
1.319439956959366
 30
0.0
 11
4.970192295410847
 21
1.319439956959366
 31
0.0
  0
LINE
  5
7D
330
6B
100
AcDbEntity
  8
0
  6
BYBLOCK
 62
     0
100
AcDbLine
 10
9.158395918565753
 20
11.31943995695936
 30
0.0
 11
4.970192295410848
 21
11.31943995695936
 31
0.0
  0
LINE
  5
7E
330
6B
100
AcDbEntity
  8
0
  6
BYBLOCK
 62
     0
100
AcDbLine
 10
5.150192295410847
 20
1.319439956959366
 30
0.0
 11
5.150192295410847
 21
6.121523290292699
 31
0.0
  0
LINE
  5
7F
330
6B
100
AcDbEntity
  8
0
  6
BYBLOCK
 62
     0
100
AcDbLine
 10
5.150192295410848
 20
11.31943995695936
 30
0.0
 11
5.150192295410847
 21
6.517356623626032
 31
0.0
  0
LINE
  5
80
330
6B
100
AcDbEntity
  8
0
  6
BYBLOCK
 62
     0
100
AcDbLine
 10
5.275192295410847
 20
1.194439956959366
 30
0.0
 11
5.025192295410847
 21
1.444439956959366
 31
0.0
  0
LINE
  5
81
330
6B
100
AcDbEntity
  8
0
  6
BYBLOCK
 62
     0
100
AcDbLine
 10
5.275192295410848
 20
11.19443995695936
 30
0.0
 11
5.025192295410848
 21
11.44443995695936
 31
0.0
  0
TEXT
  5
82
330
6B
100
AcDbEntity
  8
0
  6
BYBLOCK
 62
     0
100
AcDbText
 10
5.212692295410847
 20
6.246523290292699
 30
0.0
 40
0.125
  1
10
 50
90.0
 72
     1
 11
5.150192295410847
 21
6.319439956959366
 31
0.0
100
AcDbText
 73
     2
  0
POINT
  5
83
330
6B
100
AcDbEntity
  8
DEFPOINTS
  6
BYBLOCK
 62
     0
100
AcDbPoint
 10
9.220895918565753
 20
1.319439956959366
 30
0.0
  0
POINT
  5
84
330
6B
100
AcDbEntity
  8
DEFPOINTS
  6
BYBLOCK
 62
     0
100
AcDbPoint
 10
9.220895918565753
 20
11.31943995695936
 30
0.0
  0
POINT
  5
85
330
6B
100
AcDbEntity
  8
DEFPOINTS
  6
BYBLOCK
 62
     0
100
AcDbPoint
 10
5.150192295410848
 20
11.31943995695936
 30
0.0
  0
ENDBLK
  5
86
330
6B
100
AcDbEntity
  8
0
100
AcDbBlockEnd
  0
BLOCK
  5
87
330
6C
100
AcDbEntity
  8
0
100
AcDbBlockBegin
  2
*D1
 70
     1
 10
0.0
 20
0.0
 30
0.0
  3
*D1
  1

  0
LINE
  5
88
330
6C
100
AcDbEntity
  8
0
  6
BYBLOCK
 62
     0
100
AcDbLine
 10
5.873543752117337
 20
7.890999620248548
 30
0.0
 11
5.873543752117337
 21
12.27361431566457
 31
0.0
  0
LINE
  5
89
330
6C
100
AcDbEntity
  8
0
  6
BYBLOCK
 62
     0
100
AcDbLine
 10
15.87354375211733
 20
7.430946598977843
 30
0.0
 11
15.87354375211733
 21
12.27361431566457
 31
0.0
  0
LINE
  5
8A
330
6C
100
AcDbEntity
  8
0
  6
BYBLOCK
 62
     0
100
AcDbLine
 10
5.873543752117337
 20
12.09361431566457
 30
0.0
 11
10.67562708545067
 21
12.09361431566457
 31
0.0
  0
LINE
  5
8B
330
6C
100
AcDbEntity
  8
0
  6
BYBLOCK
 62
     0
100
AcDbLine
 10
15.87354375211733
 20
12.09361431566457
 30
0.0
 11
11.071460418784
 21
12.09361431566457
 31
0.0
  0
LINE
  5
8C
330
6C
100
AcDbEntity
  8
0
  6
BYBLOCK
 62
     0
100
AcDbLine
 10
5.748543752117337
 20
11.96861431566457
 30
0.0
 11
5.998543752117337
 21
12.21861431566457
 31
0.0
  0
LINE
  5
8D
330
6C
100
AcDbEntity
  8
0
  6
BYBLOCK
 62
     0
100
AcDbLine
 10
15.74854375211733
 20
11.96861431566457
 30
0.0
 11
15.99854375211733
 21
12.21861431566457
 31
0.0
  0
TEXT
  5
8E
330
6C
100
AcDbEntity
  8
0
  6
BYBLOCK
 62
     0
100
AcDbText
 10
10.80062708545067
 20
12.03111431566457
 30
0.0
 40
0.125
  1
10
 72
     1
 11
10.87354375211733
 21
12.09361431566457
 31
0.0
100
AcDbText
 73
     2
  0
POINT
  5
8F
330
6C
100
AcDbEntity
  8
DEFPOINTS
  6
BYBLOCK
 62
     0
100
AcDbPoint
 10
5.873543752117337
 20
7.828499620248548
 30
0.0
  0
POINT
  5
90
330
6C
100
AcDbEntity
  8
DEFPOINTS
  6
BYBLOCK
 62
     0
100
AcDbPoint
 10
15.87354375211733
 20
7.368446598977843
 30
0.0
  0
POINT
  5
91
330
6C
100
AcDbEntity
  8
DEFPOINTS
  6
BYBLOCK
 62
     0
100
AcDbPoint
 10
15.87354375211733
 20
12.09361431566457
 30
0.0
  0
ENDBLK
  5
92
330
6C
100
AcDbEntity
  8
0
100
AcDbBlockEnd
  0
BLOCK
  5
93
330
6D
100
AcDbEntity
  8
0
100
AcDbBlockBegin
  2
*D2
 70
     1
 10
0.0
 20
0.0
 30
0.0
  3
*D2
  1

  0
LINE
  5
94
330
6D
100
AcDbEntity
  8
0
  6
BYBLOCK
 62
     0
100
AcDbLine
 10
9.230120064603072
 20
1.295315864998237
 30
0.0
 11
9.230120064603072
 21
0.6423150152787056
 31
0.0
  0
LINE
  5
95
330
6D
100
AcDbEntity
  8
0
  6
BYBLOCK
 62
     0
100
AcDbLine
 10
9.743881783095881
 20
1.295315864998237
 30
0.0
 11
9.743881783095881
 21
0.6423150152787056
 31
0.0
  0
LINE
  5
96
330
6D
100
AcDbEntity
  8
0
  6
BYBLOCK
 62
     0
100
AcDbLine
 10
9.230120064603072
 20
0.8223150152787056
 30
0.0
 11
8.980120064603072
 21
0.8223150152787056
 31
0.0
  0
LINE
  5
97
330
6D
100
AcDbEntity
  8
0
  6
BYBLOCK
 62
     0
100
AcDbLine
 10
9.743881783095881
 20
0.8223150152787056
 30
0.0
 11
9.993881783095881
 21
0.8223150152787056
 31
0.0
  0
LINE
  5
98
330
6D
100
AcDbEntity
  8
0
  6
BYBLOCK
 62
     0
100
AcDbLine
 10
9.105120064603072
 20
0.6973150152787056
 30
0.0
 11
9.355120064603072
 21
0.9473150152787056
 31
0.0
  0
LINE
  5
99
330
6D
100
AcDbEntity
  8
0
  6
BYBLOCK
 62
     0
100
AcDbLine
 10
9.618881783095881
 20
0.6973150152787056
 30
0.0
 11
9.868881783095881
 21
0.9473150152787056
 31
0.0
  0
TEXT
  5
9A
330
6D
100
AcDbEntity
  8
0
  6
BYBLOCK
 62
     0
100
AcDbText
 10
10.11888178309588
 20
0.7598150152787056
 30
0.0
 40
0.125
  1
1/2
 72
     1
 11
10.26471511642921
 21
0.8223150152787056
 31
0.0
100
AcDbText
 73
     2
  0
POINT
  5
9B
330
6D
100
AcDbEntity
  8
DEFPOINTS
  6
BYBLOCK
 62
     0
100
AcDbPoint
 10
9.230120064603072
 20
1.357815864998237
 30
0.0
  0
POINT
  5
9C
330
6D
100
AcDbEntity
  8
DEFPOINTS
  6
BYBLOCK
 62
     0
100
AcDbPoint
 10
9.743881783095881
 20
1.357815864998237
 30
0.0
  0
POINT
  5
9D
330
6D
100
AcDbEntity
  8
DEFPOINTS
  6
BYBLOCK
 62
     0
100
AcDbPoint
 10
9.743881783095881
 20
0.8223150152787056
 30
0.0
  0
ENDBLK
  5
9E
330
6D
100
AcDbEntity
  8
0
100
AcDbBlockEnd
  0
ENDSEC
  0
SECTION
  2
ENTITIES
  0
LWPOLYLINE
  5
9F
330
18
100
AcDbEntity
  8
0
100
AcDbPolyline
 90
        4
 70
     0
 43
0.0
 10
14.86437353166182
 20
7.348988774480051
 10
15.87024381884699
 20
7.348988774480051
 10
15.87024381884699
 20
7.828499620248548
 10
14.86437353166182
 20
7.828499620248548
  0
LWPOLYLINE
  5
A5
330
18
100
AcDbEntity
  8
0
100
AcDbPolyline
 90
        4
 70
     0
 43
0.0
 10
14.86437353166182
 20
4.831556295049344
 10
15.87024381884699
 20
4.831556295049344
 10
15.87024381884699
 20
5.345318013542154
 10
14.86437353166182
 20
5.345318013542154
  0
DIMENSION
  5
AB
330
18
100
AcDbEntity
  8
ADPDIM
100
AcDbDimension
  2
*D1
 10
15.87354375211733
 20
12.09361431566457
 30
0.0
 11
10.87354375211733
 21
12.09361431566457
 31
0.0
100
AcDbAlignedDimension
 13
5.873543752117337
 23
7.828499620248548
 33
0.0
 14
15.87354375211733
 24
7.368446598977843
 34
0.0
100
AcDbRotatedDimension
  0
DIMENSION
  5
AC
330
18
100
AcDbEntity
  8
ADPDIM
100
AcDbDimension
  2
*D0
 10
5.159416441448167
 20
11.35781586499823
 30
0.0
 11
5.159416441448166
 21
6.357815864998237
 31
0.0
 12
0.0092241460373188
 22
0.038375908038871
 32
0.0
100
AcDbAlignedDimension
 13
9.230120064603072
 23
1.357815864998237
 33
0.0
 14
9.230120064603072
 24
11.35781586499823
 34
0.0
 50
90.0
100
AcDbRotatedDimension
  0
LWPOLYLINE
  5
AD
330
18
100
AcDbEntity
  8
0
100
AcDbPolyline
 90
        2
 70
     0
 43
0.0
 10
6.866816316378645
 20
10.34457529662644
 10
6.866816316378645
 20
7.82849962024855
  0
LWPOLYLINE
  5
B1
330
18
100
AcDbEntity
  8
0
100
AcDbPolyline
 90
        3
 70
     0
 43
0.0
 10
14.86437353166182
 20
7.828499620248548
 10
14.86437353166182
 20
10.34457529662644
 10
12.22706338980227
 20
10.34457529662644
  0
LWPOLYLINE
  5
B6
330
18
100
AcDbEntity
  8
0
100
AcDbPolyline
 90
        8
 70
     0
 43
0.0
 10
7.389924244675103
 20
7.397562144769514
 42
-0.0334614372008033
 10
7.784711986867036
 20
7.980897426535427
 42
0.0185067930198165
 10
8.213829185692263
 20
8.186780496843221
 42
0.2000004889446446
 10
8.505628924926474
 20
8.495604976145656
 42
-0.170240985867903
 10
9.569839695434522
 20
8.975998722757672
 42
-0.1415152109679715
 10
10.53106227951377
 20
8.855900286104668
 42
0.1278315714953177
 10
9.535510238801229
 20
9.21619559606368
 42
0.223303746036666
 10
7.407088881256211
 20
8.426977243989975
 42
2.383535711751423
  0
LWPOLYLINE
  5
C0
330
18
100
AcDbEntity
  8
0
100
AcDbPolyline
 90
        5
 70
     0
 43
0.0
 10
7.389924244675103
 20
8.890214089102883
 42
-0.3895210439374683
 10
10.59972100930927
 20
9.078940131752316
 42
0.2872622218601165
 10
10.30792127007506
 20
9.559333878364332
 42
0.1617514673934732
 10
9.638498425230029
 20
9.679432315017336
 42
0.0880078729483598
 10
9.861639434668735
 20
9.833844554668555
 42
-0.4115787002385371
  0
LWPOLYLINE
  5
C7
330
18
100
AcDbEntity
  8
0
100
AcDbPolyline
 90
        5
 70
     0
 43
0.0
 10
10.10194508068854
 20
9.833844554668555
 42
-0.0280589215396823
 10
10.70270919573807
 20
9.576490779863441
 42
-0.3347983310913546
 10
10.8056971986958
 20
9.370607835714899
 42
0.1832008007109021
 10
10.99450893497228
 20
9.370607835714899
 42
-0.1192390813152477
 10
11.56094359338853
 20
9.833844554668555
 42
-0.2279021739731189
  0
LWPOLYLINE
  5
CE
330
18
100
AcDbEntity
  8
0
100
AcDbPolyline
 90
        3
 70
     0
 43
0.0
 10
10.13627435385076
 20
3.691667888503256
 42
0.0616299390983194
 10
10.47956818629937
 20
3.21127414189124
 42
-0.0885955372172851
 10
10.58255637272817
 20
4.669612157067142
 42
-0.7789638265329752
  0
LWPOLYLINE
  5
D3
330
18
100
AcDbEntity
  8
0
100
AcDbPolyline
 90
        4
 70
     0
 43
0.0
 10
9.782062135689477
 20
2.84697485613432
 42
-0.437831231765699
 10
9.262908770606726
 20
3.925216460536956
 42
-0.2774559965847988
 10
9.941801632638018
 20
4.44436982561971
 42
-0.2841368423914388
 10
10.74049911738071
 20
4.803783693753922
 42
-0.1228327479243681
  0
LWPOLYLINE
  5
D9
330
18
100
AcDbEntity
  8
0
100
AcDbPolyline
 90
        2
 70
     0
 43
0.0
 10
9.743881783095881
 20
2.367756365288708
 10
11.74755254403377
 20
2.367756365288708
  0
LWPOLYLINE
  5
DD
330
18
100
AcDbEntity
  8
0
100
AcDbPolyline
 90
        3
 70
     0
 43
0.0
 10
10.74049911738071
 20
4.803783693753922
 10
10.26128062653509
 20
4.44436982561971
 42
0.3105898035406888
 10
10.14147600382369
 20
3.685607215114149
 42
0.5668866134969802
  0
LWPOLYLINE
  5
E2
330
18
100
AcDbEntity
  8
0
100
AcDbPolyline
 90
       26
 70
     0
 43
0.0
 10
10.58255637272817
 20
5.270104340332162
 42
-0.0437544841473928
 10
10.56539155267598
 20
6.505402383701165
 42
-0.0054794159952846
 10
10.61688564589038
 20
7.757857454728526
 42
0.1082444180047594
 10
10.59972100930927
 20
8.426977243989975
 42
0.3786632562183475
 10
10.23926254027956
 20
8.409820342490869
 42
0.2129386240943917
 10
9.998956894259746
 20
8.066682060190217
 42
0.2050222210736311
 10
10.05045098747414
 20
7.569131412079093
 42
-0.0641353184468416
 10
10.11910971726965
 20
6.642657848012529
 42
0.0751790994866504
 10
10.22209790369845
 20
5.767654988443286
 42
-0.0106391047519689
 10
10.58255637272817
 20
5.218633509675587
 42
0.0420406034953493
 10
10.78853256211469
 20
4.944122833371364
 42
-0.0190562113259194
 10
10.32508590665617
 20
5.201476608176479
 42
-0.078455804276253
 10
9.775815884821042
 20
5.699027256287603
 42
-0.0579947147869365
 10
9.587004332015629
 20
6.368147045549054
 42
-0.0293995663191243
 10
9.604168968596738
 20
6.814226989162854
 42
0.2339450691923979
 10
9.552675058853413
 20
7.15736539762276
 42
-0.1935033191591352
 10
9.655663061811136
 20
8.238251201340542
 42
-0.2417009363208592
 10
10.42807409308497
 20
8.684331018795091
 42
0.1354148149135448
 10
9.535510238801229
 20
8.70148804645345
 42
0.2667569130282532
 10
8.917581487170592
 20
8.238251201340542
 42
0.2770915329086851
 10
8.866087393956192
 20
8.049525032531857
 42
-0.2052945860331559
 10
8.660111204569671
 20
7.792171257726741
 42
0.0645127643674551
 10
8.076511726101248
 20
7.363248341771299
 42
0.2353295609088001
 10
7.733217893652637
 20
6.625500820354169
 42
0.1658416180695449
 10
7.990688359724634
 20
5.441673481482487
 42
-0.2638895993892354
 10
7.389924244675103
 20
5.973537932591826
 42
-1.399765854970585
  0
LWPOLYLINE
  5
FE
330
18
100
AcDbEntity
  8
0
100
AcDbPolyline
 90
        4
 70
     1
 43
0.0
 10
7.397703471233611
 20
9.831046166988983
 10
7.397703471233611
 20
2.847050246579203
 10
14.3848624898402
 20
2.847050246579203
 10
14.3848624898402
 20
9.831046166988983
  0
LINE
  5
104
330
18
100
AcDbEntity
  8
0
100
AcDbLine
 10
10.06761562405525
 20
4.206375438113486
 30
0.0
 11
10.05045098747414
 21
4.498043015916817
 31
0.0
  0
LWPOLYLINE
  5
105
330
18
100
AcDbEntity
  8
0
100
AcDbPolyline
 90
        6
 70
     0
 43
0.0
 10
9.810145341454335
 20
4.137747705957804
 42
0.1440274288707877
 10
9.518345602220122
 20
3.760295494499685
 42
0.2704549842054905
 10
9.638498425230029
 20
3.314215677045137
 42
0.2911138523808737
 10
10.35941536328946
 20
3.039705000740914
 42
-0.2324472279089465
 10
9.775815884821042
 20
3.72598169150147
 42
-0.2047448026046505
 10
9.964627437626456
 20
4.429415283761134
 42
-0.4859293934297717
  0
LWPOLYLINE
  5
10D
330
18
100
AcDbEntity
  8
0
100
AcDbPolyline
 90
        3
 70
     0
 43
0.0
 10
6.866816316378645
 20
4.831556295049344
 10
6.866816316378645
 20
2.367756365288706
 10
9.23012006460307
 20
2.367756365288706
  0
LWPOLYLINE
  5
112
330
18
100
AcDbEntity
  8
0
100
AcDbPolyline
 90
        4
 70
     0
 43
0.0
 10
9.23012006460307
 20
2.367756365288706
 10
9.23012006460307
 20
1.357815864998237
 10
9.743881783095881
 20
1.357815864998237
 10
9.743881783095881
 20
2.367756365288706
  0
DIMENSION
  5
118
330
18
100
AcDbEntity
  8
ADPDIM
100
AcDbDimension
  2
*D2
 10
9.743881783095881
 20
0.8223150152787056
 30
0.0
 11
10.26471511642921
 21
0.8223150152787056
 31
0.0
100
AcDbAlignedDimension
 13
9.230120064603072
 23
1.357815864998237
 33
0.0
 14
9.743881783095881
 24
1.357815864998237
 34
0.0
100
AcDbRotatedDimension
  0
LINE
  5
119
330
18
100
AcDbEntity
  8
0
100
AcDbLine
 10
9.415357415791323
 20
3.468627916696355
 30
0.0
 11
9.226545862985911
 21
3.537255522692784
 31
0.0
  0
LINE
  5
11A
330
18
100
AcDbEntity
  8
0
100
AcDbLine
 10
9.484016145586831
 20
3.674510860844895
 30
0.0
 11
9.243710499567018
 21
3.914707734150903
 31
0.0
  0
LINE
  5
11B
330
18
100
AcDbEntity
  8
0
100
AcDbLine
 10
9.998956894259746
 20
4.0176492693048
 30
0.0
 11
9.861639434668735
 21
4.223532339612594
 31
0.0
  0
LINE
  5
11C
330
18
100
AcDbEntity
  8
0
100
AcDbLine
 10
10.11910971726965
 20
3.520098621193676
 30
0.0
 11
9.844474614616549
 21
3.571569451850251
 31
0.0
  0
LINE
  5
11D
330
18
100
AcDbEntity
  8
0
100
AcDbLine
 10
9.998956894259746
 20
3.708824790002362
 30
0.0
 11
9.810145341454335
 21
3.846080128154474
 31
0.0
  0
LINE
  5
11E
330
18
100
AcDbEntity
  8
0
100
AcDbLine
 10
9.466851509005723
 20
3.93186463565001
 30
0.0
 11
9.432522235843507
 21
4.154904607456911
 31
0.0
  0
LINE
  5
11F
330
18
100
AcDbEntity
  8
0
100
AcDbLine
 10
9.569839695434522
 20
4.189218410455126
 30
0.0
 11
9.621333788648922
 21
4.292159945609022
 31
0.0
  0
LINE
  5
120
330
18
100
AcDbEntity
  8
0
100
AcDbLine
 10
9.587004332015629
 20
3.279901747887669
 30
0.0
 11
9.312369412833602
 21
3.297058775546029
 31
0.0
  0
LINE
  5
121
330
18
100
AcDbEntity
  8
0
100
AcDbLine
 10
9.758651248239935
 20
3.091175705238236
 30
0.0
 11
9.484016145586831
 21
3.022547973082553
 31
0.0
  0
LINE
  5
122
330
18
100
AcDbEntity
  8
0
100
AcDbLine
 10
10.25642717686066
 20
3.331372578544244
 30
0.0
 11
10.01612153084085
 21
3.331372578544244
 31
0.0
  0
LINE
  5
123
330
18
100
AcDbEntity
  8
0
100
AcDbLine
 10
7.904864809876943
 20
9.250509399061895
 30
0.0
 11
8.128005819315648
 21
9.181881666906214
 31
0.0
  0
LINE
  5
124
330
18
100
AcDbEntity
  8
0
100
AcDbLine
 10
7.990688359724634
 20
8.066682060190217
 30
0.0
 11
8.368311465335461
 21
7.929426722038105
 31
0.0
  0
LINE
  5
125
330
18
100
AcDbEntity
  8
0
100
AcDbLine
 10
7.681723800438238
 20
7.809328285385101
 30
0.0
 11
8.110841182734541
 21
7.723543651730311
 31
0.0
  0
LINE
  5
126
330
18
100
AcDbEntity
  8
0
100
AcDbLine
 10
7.389924244675103
 20
7.174522299121866
 30
0.0
 11
7.904864809876943
 21
7.363248341771299
 31
0.0
  0
LWPOLYLINE
  5
127
330
18
100
AcDbEntity
  8
0
100
AcDbPolyline
 90
        2
 70
     0
 43
0.0
 10
6.866816316378645
 20
7.348988774480051
 10
6.866816316378645
 20
5.345318013542154
  0
LWPOLYLINE
  5
12B
330
18
100
AcDbEntity
  8
0
100
AcDbPolyline
 90
        2
 70
     0
 43
0.0
 10
5.873543752117337
 20
4.831556295049344
 10
6.866816316378645
 20
4.831556295049343
  0
LWPOLYLINE
  5
12F
330
18
100
AcDbEntity
  8
0
100
AcDbPolyline
 90
        3
 70
     0
 43
0.0
 10
6.866816316378645
 20
5.345318013542154
 10
5.873543752117337
 20
5.345318013542154
 10
5.873543752117337
 20
4.831556295049344
  0
LINE
  5
134
330
18
100
AcDbEntity
  8
0
100
AcDbLine
 10
7.613065070642731
 20
5.647556551790282
 30
0.0
 11
7.647394527276023
 21
5.819125692940609
 31
0.0
  0
LINE
  5
135
330
18
100
AcDbEntity
  8
0
100
AcDbLine
 10
7.407088881256211
 20
6.900011622817643
 30
0.0
 11
7.750382713704822
 21
7.037266960969756
 31
0.0
  0
LINE
  5
136
330
18
100
AcDbEntity
  8
0
100
AcDbLine
 10
7.389924244675103
 20
6.265205636554409
 30
0.0
 11
7.578735797480516
 21
6.402460974706521
 31
0.0
  0
LINE
  5
137
330
18
100
AcDbEntity
  8
0
100
AcDbLine
 10
7.389924244675103
 20
6.574030115856846
 30
0.0
 11
7.630229890694915
 21
6.711285454008958
 31
0.0
  0
LINE
  5
138
330
18
100
AcDbEntity
  8
0
100
AcDbLine
 10
7.441418154418426
 20
5.922067228094505
 30
0.0
 11
7.510077067685009
 21
6.059322566246617
 31
0.0
  0
LWPOLYLINE
  5
139
330
18
100
AcDbEntity
  8
0
100
AcDbPolyline
 90
        3
 70
     0
 43
0.0
 10
6.866816316378645
 20
7.82849962024855
 10
5.873543752117337
 20
7.82849962024855
 10
5.873543752117337
 20
7.348988774480051
  0
LWPOLYLINE
  5
13E
330
18
100
AcDbEntity
  8
0
100
AcDbPolyline
 90
        2
 70
     0
 43
0.0
 10
5.873543752117337
 20
7.348988774480051
 10
6.866816316378645
 20
7.348988774480051
  0
LINE
  5
142
330
18
100
AcDbEntity
  8
0
100
AcDbLine
 10
7.510077067685009
 20
7.517660581422518
 30
0.0
 11
7.973523539672449
 21
7.534817482921626
 31
0.0
  0
LINE
  5
143
330
18
100
AcDbEntity
  8
0
100
AcDbLine
 10
7.389924244675103
 20
8.804429455448094
 30
0.0
 11
7.561570977428332
 21
8.804429455448094
 31
0.0
  0
LINE
  5
144
330
18
100
AcDbEntity
  8
0
100
AcDbLine
 10
7.561570977428332
 20
9.027469427254995
 30
0.0
 11
7.750382713704822
 21
8.993155624256781
 31
0.0
  0
LINE
  5
145
330
18
100
AcDbEntity
  8
0
100
AcDbLine
 10
9.587004332015629
 20
7.07158076396797
 30
0.0
 11
9.861639434668735
 21
7.449032975426089
 31
0.0
  0
LINE
  5
146
330
18
100
AcDbEntity
  8
0
100
AcDbLine
 10
9.792980704873226
 20
5.71618415778671
 30
0.0
 11
9.964627437626456
 21
6.042165664747509
 31
0.0
  0
LINE
  5
147
330
18
100
AcDbEntity
  8
0
100
AcDbLine
 10
10.29075663349396
 20
5.235790537333948
 30
0.0
 11
10.30792127007506
 21
5.407359678484274
 31
0.0
  0
LINE
  5
148
330
18
100
AcDbEntity
  8
0
100
AcDbLine
 10
10.01612153084085
 20
5.475987284480702
 30
0.0
 11
10.11910971726965
 21
5.699027256287603
 31
0.0
  0
LINE
  5
149
330
18
100
AcDbEntity
  8
0
100
AcDbLine
 10
10.27359199691285
 20
4.480886114417709
 30
0.0
 11
10.27359199691285
 21
4.686769058566249
 31
0.0
  0
LINE
  5
14A
330
18
100
AcDbEntity
  8
0
100
AcDbLine
 10
9.621333788648922
 20
6.711285454008958
 30
0.0
 11
9.981792257678639
 21
7.105894566966185
 31
0.0
  0
LINE
  5
14B
330
18
100
AcDbEntity
  8
0
100
AcDbLine
 10
9.621333788648922
 20
6.385304073207413
 30
0.0
 11
9.947462801045348
 21
6.642657848012529
 31
0.0
  0
LINE
  5
14C
330
18
100
AcDbEntity
  8
0
100
AcDbLine
 10
9.672827881863319
 20
6.059322566246617
 30
0.0
 11
9.947462801045348
 21
6.33383324255084
 31
0.0
  0
LINE
  5
14D
330
18
100
AcDbEntity
  8
0
100
AcDbLine
 10
9.209381226404804
 20
9.593647681362547
 30
0.0
 11
9.432522235843507
 21
9.387764737214007
 31
0.0
  0
LINE
  5
14E
330
18
100
AcDbEntity
  8
0
100
AcDbLine
 10
9.398192779210216
 20
8.787272553948987
 30
0.0
 11
9.192216589823697
 21
8.838743384605562
 31
0.0
  0
LINE
  5
14F
330
18
100
AcDbEntity
  8
0
100
AcDbLine
 10
8.642946384517488
 20
8.581389609800446
 30
0.0
 11
8.797428664160685
 21
8.547075680642979
 31
0.0
  0
LINE
  5
150
330
18
100
AcDbEntity
  8
0
100
AcDbLine
 10
8.454134831712075
 20
8.375506539492654
 30
0.0
 11
8.780264027579578
 21
8.324035834995331
 31
0.0
  0
LINE
  5
151
330
18
100
AcDbEntity
  8
0
100
AcDbLine
 10
8.265323278906661
 20
8.186780496843221
 30
0.0
 11
8.642946384517488
 21
8.152466567685753
 31
0.0
  0
LINE
  5
152
330
18
100
AcDbEntity
  8
0
100
AcDbLine
 10
9.106393039976005
 20
8.667174117295983
 30
0.0
 11
8.883252030537299
 21
8.735801849451664
 31
0.0
  0
LINE
  5
153
330
18
100
AcDbEntity
  8
0
100
AcDbLine
 10
8.557123018140872
 20
9.50786317386701
 30
0.0
 11
8.780264027579578
 21
9.353450934215793
 31
0.0
  0
LINE
  5
154
330
18
100
AcDbEntity
  8
0
100
AcDbLine
 10
8.213829185692263
 20
9.422078540212222
 30
0.0
 11
8.454134831712075
 21
9.28482320206011
 31
0.0
  0
LINE
  5
155
330
18
100
AcDbEntity
  8
0
100
AcDbLine
 10
8.848922757375085
 20
9.559333878364332
 30
0.0
 11
9.106393039976005
 21
9.404921638713114
 31
0.0
  0
LINE
  5
156
330
18
100
AcDbEntity
  8
0
100
AcDbLine
 10
9.655663061811136
 20
8.238251201340542
 30
0.0
 11
10.03328635089304
 21
8.324035834995331
 31
0.0
  0
LINE
  5
157
330
18
100
AcDbEntity
  8
0
100
AcDbLine
 10
9.552675058853413
 20
7.431876073926982
 30
0.0
 11
9.827309978035442
 21
7.740700553229419
 31
0.0
  0
LINE
  5
158
330
18
100
AcDbEntity
  8
0
100
AcDbLine
 10
9.535510238801229
 20
7.843642088383315
 30
0.0
 11
9.792980704873226
 21
8.015211229533642
 31
0.0
  0
LINE
  5
159
330
18
100
AcDbEntity
  8
0
100
AcDbLine
 10
10.05045098747414
 20
8.547075680642979
 30
0.0
 11
10.22209790369845
 21
8.512761877644765
 31
0.0
  0
LINE
  5
15A
330
18
100
AcDbEntity
  8
0
100
AcDbLine
 10
9.87880407124984
 20
9.816687653169447
 30
0.0
 11
10.06761562405525
 21
9.748060047173018
 31
0.0
  0
LINE
  5
15B
330
18
100
AcDbEntity
  8
0
100
AcDbLine
 10
9.844474614616549
 20
9.473549370868795
 30
0.0
 11
9.998956894259746
 21
9.250509399061895
 31
0.0
  0
LINE
  5
15C
330
18
100
AcDbEntity
  8
0
100
AcDbLine
 10
9.484016145586831
 20
9.542176976865226
 30
0.0
 11
9.724321791606643
 21
9.353450934215793
 31
0.0
  0
LINE
  5
15D
330
18
100
AcDbEntity
  8
0
100
AcDbLine
 10
9.638498425230029
 20
8.838743384605562
 30
0.0
 11
9.484016145586831
 21
8.941684793600206
 31
0.0
  0
LINE
  5
15E
330
18
100
AcDbEntity
  8
0
100
AcDbLine
 10
10.27359199691285
 20
9.662275413518228
 30
0.0
 11
10.23926254027956
 21
9.748060047173018
 31
0.0
  0
LINE
  5
15F
330
18
100
AcDbEntity
  8
0
100
AcDbLine
 10
10.10194508068854
 20
9.370607835714899
 30
0.0
 11
10.17060381048405
 21
9.19903856840532
 31
0.0
  0
LINE
  5
160
330
18
100
AcDbEntity
  8
0
100
AcDbLine
 10
10.01612153084085
 20
8.821586356947202
 30
0.0
 11
9.895968707830949
 21
8.975998722757672
 31
0.0
  0
LINE
  5
161
330
18
100
AcDbEntity
  8
0
100
AcDbLine
 10
10.41090945650386
 20
9.559333878364332
 30
0.0
 11
10.39374481992275
 21
9.696589216516445
 31
0.0
  0
LINE
  5
162
330
18
100
AcDbEntity
  8
0
100
AcDbLine
 10
11.95573151905153
 20
4.206375438113486
 30
0.0
 11
12.04155488542815
 21
4.480886114417709
 31
0.0
  0
LINE
  5
163
330
18
100
AcDbEntity
  8
0
100
AcDbLine
 10
11.44079077037862
 20
4.395101480762919
 30
0.0
 11
11.44079077037862
 21
4.583827649571604
 31
0.0
  0
LWPOLYLINE
  5
164
330
18
100
AcDbEntity
  8
0
100
AcDbPolyline
 90
        4
 70
     0
 43
0.0
 10
11.01167357155339
 20
4.721082987723717
 42
0.0576286587056588
 10
11.0288382081345
 20
3.228431043390347
 42
0.1907780495616827
 10
11.354967404002
 20
3.880393931152688
 42
0.302889765144437
 10
11.01167357155339
 20
4.755396790721931
 42
-3.18358732776634
  0
LWPOLYLINE
  5
16A
330
18
100
AcDbEntity
  8
0
100
AcDbPolyline
 90
        5
 70
     0
 43
0.0
 10
11.61243768660292
 20
2.850978831932227
 42
0.0754580019468134
 10
12.24753125828574
 20
3.41715708603978
 42
0.0592321453296232
 10
12.23036643823356
 20
4.292159945609022
 42
0.2060520779731735
 10
11.71542587303172
 20
4.772553692221038
 42
-0.2234451763392724
 10
11.06316766476779
 20
4.90980903037315
 42
-2.982235530182252
  0
LWPOLYLINE
  5
171
330
18
100
AcDbEntity
  8
0
100
AcDbPolyline
 90
        6
 70
     0
 43
0.0
 10
11.16615566772551
 20
3.142646409735557
 42
0.1293915756981479
 10
11.66393177981732
 20
3.72598169150147
 42
0.2354253431148277
 10
11.47512022701191
 20
4.635298354068927
 42
-0.3685574577226085
 10
11.95573151905153
 20
4.000492367805692
 42
-0.2092652610147375
 10
11.83557869604163
 20
3.365686381542459
 42
-0.4140715202912371
 10
11.1318263945633
 20
3.159803311234664
 42
-3.911851899315517
  0
LWPOLYLINE
  5
179
330
18
100
AcDbEntity
  8
0
100
AcDbPolyline
 90
        3
 70
     0
 43
0.0
 10
12.22706338980227
 20
2.367756365288708
 10
14.86437353166182
 20
2.367756365288706
 10
14.86437353166182
 20
4.831556295049344
  0
LWPOLYLINE
  5
17E
330
18
100
AcDbEntity
  8
0
100
AcDbPolyline
 90
        4
 70
     0
 43
0.0
 10
11.74755254403377
 20
2.367756365288706
 10
11.74755254403377
 20
1.357815864998237
 10
12.22706338980227
 20
1.357815864998237
 10
12.22706338980227
 20
2.367756365288706
  0
ARC
  5
184
330
18
100
AcDbEntity
  8
0
100
AcDbCircle
 10
11.14914598527752
 20
4.549794109064945
 30
0.0
 40
0.68351059820214
100
AcDbArc
 50
298.4838976212717
 51
321.1017341960667
  0
ARC
  5
185
330
18
100
AcDbEntity
  8
0
100
AcDbCircle
 10
11.44942020544299
 20
3.992053145125957
 30
0.0
 40
0.293559541111265
100
AcDbArc
 50
285.245672594514
 51
322.1105018865678
  0
LINE
  5
186
330
18
100
AcDbEntity
  8
0
100
AcDbLine
 10
10.8056971986958
 20
4.360787677764704
 30
0.0
 11
10.96017947833899
 21
4.360787677764704
 31
0.0
  0
LINE
  5
187
330
18
100
AcDbEntity
  8
0
100
AcDbLine
 10
10.66837973910478
 20
3.93186463565001
 30
0.0
 11
10.75420328895247
 21
3.966178564807478
 31
0.0
  0
LINE
  5
188
330
18
100
AcDbEntity
  8
0
100
AcDbLine
 10
10.75420328895247
 20
3.966178564807478
 30
0.0
 11
10.9773441149201
 21
3.949021663308371
 31
0.0
  0
LINE
  5
189
330
18
100
AcDbEntity
  8
0
100
AcDbLine
 10
10.71987383231918
 20
3.400000184540672
 30
0.0
 11
10.90868538512459
 21
3.331372578544244
 31
0.0
  0
LINE
  5
18A
330
18
100
AcDbEntity
  8
0
100
AcDbLine
 10
10.68554437568589
 20
3.554412550351144
 30
0.0
 11
10.9258500217057
 21
3.571569451850251
 31
0.0
  0
LINE
  5
18B
330
18
100
AcDbEntity
  8
0
100
AcDbLine
 10
10.59972100930927
 20
3.691667888503256
 30
0.0
 11
10.94301484175788
 21
3.743138593000577
 31
0.0
  0
ARC
  5
18C
330
18
100
AcDbEntity
  8
0
100
AcDbCircle
 10
10.63405037420703
 20
4.060471604784382
 30
0.0
 40
0.1115899041716739
100
AcDbArc
 50
22.64384322308813
 51
157.3561567769117
  0
LINE
  5
18D
330
18
100
AcDbEntity
  8
0
100
AcDbLine
 10
10.47956818629937
 20
3.50294171969457
 30
0.0
 11
10.68554437568589
 21
3.554412550351144
 31
0.0
  0
LINE
  5
18E
330
18
100
AcDbEntity
  8
0
100
AcDbLine
 10
10.47956818629937
 20
3.365686381542459
 30
0.0
 11
10.71987383231918
 21
3.400000184540672
 31
0.0
  0
LINE
  5
18F
330
18
100
AcDbEntity
  8
0
100
AcDbLine
 10
10.54822691609488
 20
3.142646409735557
 30
0.0
 11
10.90868538512459
 21
3.245587944889455
 31
0.0
  0
LINE
  5
190
330
18
100
AcDbEntity
  8
0
100
AcDbLine
 10
11.47512022701191
 20
4.172061508956018
 30
0.0
 11
11.57810822996963
 21
4.377944579263813
 31
0.0
  0
LINE
  5
191
330
18
100
AcDbEntity
  8
0
100
AcDbLine
 10
11.28630849073542
 20
3.43431411369814
 30
0.0
 11
11.47512022701191
 21
3.485784818195462
 31
0.0
  0
LINE
  5
192
330
18
100
AcDbEntity
  8
0
100
AcDbLine
 10
12.09304897864255
 20
4.051963072303014
 30
0.0
 11
12.21320180165245
 21
4.223532339612594
 31
0.0
  0
LINE
  5
193
330
18
100
AcDbEntity
  8
0
100
AcDbLine
 10
12.05871952200926
 20
3.72598169150147
 30
0.0
 11
12.24753125828574
 21
3.863237029653581
 31
0.0
  0
LINE
  5
194
330
18
100
AcDbEntity
  8
0
100
AcDbLine
 10
11.95573151905153
 20
3.314215677045137
 30
0.0
 11
12.09304897864255
 21
3.314215677045137
 31
0.0
  0
LINE
  5
195
330
18
100
AcDbEntity
  8
0
100
AcDbLine
 10
12.02439024884704
 20
3.571569451850251
 30
0.0
 11
12.24753125828574
 21
3.605883254848466
 31
0.0
  0
LINE
  5
196
330
18
100
AcDbEntity
  8
0
100
AcDbLine
 10
11.76691978277504
 20
3.159803311234664
 30
0.0
 11
11.92140206241824
 21
3.074018803739129
 31
0.0
  0
LINE
  5
197
330
18
100
AcDbEntity
  8
0
100
AcDbLine
 10
12.77963646006869
 20
9.233352497562789
 30
0.0
 11
13.01994210608851
 21
9.525020075366118
 31
0.0
  0
LWPOLYLINE
  5
198
330
18
100
AcDbEntity
  8
0
100
AcDbPolyline
 90
       27
 70
     0
 43
0.0
 10
14.35878797924966
 20
6.385304073207413
 42
-0.2484730376194538
 10
13.80951795741453
 20
5.681870354788497
 42
-0.6885030408587447
 10
13.74085904414794
 20
5.75049808694418
 42
0.1623474881439789
 10
13.94683541700554
 20
6.779913186164639
 42
0.1921655961362105
 10
13.38040057511823
 20
8.100995863188432
 42
0.1926137421903415
 10
12.29902516802907
 20
8.787272553948987
 42
0.1041504656022162
 10
11.32063794736871
 20
8.70148804645345
 42
-0.336221698327956
 10
12.12737843527584
 20
8.25540810283965
 42
-0.2515416642292787
 10
12.17887234501916
 20
7.380405243270407
 42
0.2053425560818311
 10
12.12737843527584
 20
7.054423862468862
 42
-0.1521213333140757
 10
12.07588434206144
 20
6.093636369244832
 42
-0.0694511697997399
 10
11.93856669899935
 20
5.801968791441501
 42
-0.2287474664088087
 10
11.45795540695973
 20
5.390202776985168
 42
-0.1867108803245068
 10
10.90868538512459
 20
5.42451657998338
 42
-0.1546997212554298
 10
11.30347331078761
 20
5.630399650291176
 42
0.2360198457178268
 10
11.54377895680742
 20
5.801968791441501
 42
-0.1231191468780907
 10
11.68109641639843
 20
5.973537932591826
 42
0.133053570733777
 10
11.78408460282723
 20
6.69412855250985
 42
0.0505222749355951
 10
11.64676695976514
 20
7.105894566966185
 42
-0.1623496333608099
 10
11.62960232318403
 20
7.466189876925197
 42
0.2080810753422011
 10
11.62960232318403
 20
8.152466567685753
 42
0.328808236642311
 10
11.16615566772551
 20
8.47844807464655
 42
0.5314004577170345
 10
11.01167357155339
 20
8.238251201340542
 42
0.0525100597845717
 10
11.04600284471561
 20
7.603445215077307
 42
-0.151611967528873
 10
10.99450893497228
 20
6.814226989162854
 42
0.0293995599717947
 10
11.0288382081345
 20
5.819125692940609
 42
-0.0604110360918995
 10
11.0803323013489
 20
5.544615016636386
 42
0.9372549155558671
  0
LWPOLYLINE
  5
1B5
330
18
100
AcDbEntity
  8
0
100
AcDbPolyline
 90
       10
 70
     0
 43
0.0
 10
12.09304897864255
 20
9.851001456167663
 42
0.038405461392714
 10
12.26469589486685
 20
9.662275413518228
 42
-0.0312053964359562
 10
11.80124923940834
 20
9.679432315017336
 42
-0.0344348292311684
 10
11.40646131374532
 20
9.439235441711328
 42
0.172632995400937
 10
11.16615566772551
 20
9.181881666906214
 42
-0.0433849584662658
 10
11.62960232318403
 20
9.422078540212222
 42
-0.1287227241435261
 10
12.09304897864255
 20
9.439235441711328
 42
0.1099570452057503
 10
12.48783690430556
 20
9.439235441711328
 42
-0.1575210909759634
 10
13.48338876154702
 20
9.576490779863441
 42
-0.2569411342207426
 10
14.39311725241187
 20
8.804429455448094
 42
0.6890839381105626
  0
LWPOLYLINE
  5
1C1
330
18
100
AcDbEntity
  8
0
100
AcDbPolyline
 90
        3
 70
     0
 43
0.0
 10
14.39311725241187
 20
8.272565004338757
 42
0.1732285447397859
 10
13.87817668721003
 20
8.958841821258566
 42
0.2686720851944238
 10
12.67664845711097
 20
9.06178323025321
 42
4.4773410671266
  0
LWPOLYLINE
  5
1C6
330
18
100
AcDbEntity
  8
0
100
AcDbPolyline
 90
        7
 70
     0
 43
0.0
 10
12.21320180165245
 20
9.06178323025321
 42
0.3104964772186336
 10
11.92140206241824
 20
9.21619559606368
 42
-0.0515648606340357
 10
11.66393177981732
 20
9.267666300561003
 42
0.2121679281789248
 10
11.11466175798219
 20
8.855900286104668
 42
-0.1138004235053647
 10
12.23036643823356
 20
9.078940131752316
 42
-0.1368349764643003
 10
13.38040057511823
 20
8.718644947952558
 42
-0.1301686725446302
 10
14.39311725241187
 20
7.483346778424303
 42
0.6430661447660399
  0
ARC
  5
1CF
330
18
100
AcDbEntity
  8
0
100
AcDbCircle
 10
11.27525982237053
 20
7.222916849480094
 30
0.0
 40
0.4216119732032845
100
AcDbArc
 50
128.6959012095329
 51
172.5664115842588
  0
LINE
  5
1D0
330
18
100
AcDbEntity
  8
0
100
AcDbLine
 10
12.12737843527584
 20
7.260306806617403
 30
0.0
 11
11.80124923940834
 21
7.517660581422518
 31
0.0
  0
LINE
  5
1D1
330
18
100
AcDbEntity
  8
0
100
AcDbLine
 10
10.75420328895247
 20
5.733341059285818
 30
0.0
 11
10.99450893497228
 21
5.904910326595398
 31
0.0
  0
LWPOLYLINE
  5
1D2
330
18
100
AcDbEntity
  8
0
100
AcDbPolyline
 90
        2
 70
     0
 43
0.0
 10
11.01167357155339
 20
5.390202776985168
 42
-0.1380112866098407
 10
11.04600284471561
 20
4.90980903037315
 42
1.226737445118915
  0
LINE
  5
1D6
330
18
100
AcDbEntity
  8
0
100
AcDbLine
 10
10.82286201874798
 20
5.064221270024368
 30
0.0
 11
11.0288382081345
 21
5.064221270024368
 31
0.0
  0
LWPOLYLINE
  5
1D7
330
18
100
AcDbEntity
  8
0
100
AcDbPolyline
 90
        2
 70
     0
 43
0.0
 10
10.59972100930927
 20
4.806867495219253
 10
10.59972100930927
 20
5.029907467026154
  0
LINE
  5
1DB
330
18
100
AcDbEntity
  8
0
100
AcDbLine
 10
10.56539155267598
 20
4.566670621913245
 30
0.0
 11
10.71987383231918
 21
4.686769058566249
 31
0.0
  0
LINE
  5
1DC
330
18
100
AcDbEntity
  8
0
100
AcDbLine
 10
10.58255637272817
 20
5.527458115137278
 30
0.0
 11
10.84002665532909
 21
5.355888973986952
 31
0.0
  0
LINE
  5
1DD
330
18
100
AcDbEntity
  8
0
100
AcDbLine
 10
11.45795540695973
 20
5.390202776985168
 30
0.0
 11
11.49228486359302
 21
5.647556551790282
 31
0.0
  0
LINE
  5
1DE
330
18
100
AcDbEntity
  8
0
100
AcDbLine
 10
11.21764976093991
 20
5.373045875486059
 30
0.0
 11
11.354967404002
 21
5.544615016636386
 31
0.0
  0
LWPOLYLINE
  5
1DF
330
18
100
AcDbEntity
  8
0
100
AcDbPolyline
 90
        3
 70
     0
 43
0.0
 10
11.354967404002
 20
4.789710593720146
 42
1.387840614021704
 10
11.37213204058311
 20
4.652455255568034
 42
-0.4888694864563761
 10
11.47512022701191
 20
4.635298354068927
 42
0.5956856243235221
  0
ARC
  5
1E4
330
18
100
AcDbEntity
  8
0
100
AcDbCircle
 10
11.04082817485221
 20
6.354105550637822
 30
0.0
 40
0.4795206834321674
100
AcDbArc
 50
95.54312156768041
 51
134.8391307653591
  0
LINE
  5
1E5
330
18
100
AcDbEntity
  8
0
100
AcDbLine
 10
10.8056971986958
 20
6.282362538053517
 30
0.0
 11
10.99450893497228
 21
6.402460974706521
 31
0.0
  0
ARC
  5
1E6
330
18
100
AcDbEntity
  8
0
100
AcDbCircle
 10
10.31665809006872
 20
6.496668053972586
 30
0.0
 40
0.4975163738822167
100
AcDbArc
 50
32.3325770185016
 51
57.69329107465176
  0
LINE
  5
1E7
330
18
100
AcDbEntity
  8
0
100
AcDbLine
 10
10.54822691609488
 20
6.076479467745723
 30
0.0
 11
10.8056971986958
 21
5.990694834090932
 31
0.0
  0
LINE
  5
1E8
330
18
100
AcDbEntity
  8
0
100
AcDbLine
 10
11.97289615563264
 20
5.819125692940609
 30
0.0
 11
11.76691978277504
 21
6.110793270743936
 31
0.0
  0
LINE
  5
1E9
330
18
100
AcDbEntity
  8
0
100
AcDbLine
 10
11.71542587303172
 20
5.544615016636386
 30
0.0
 11
11.69826105297954
 21
5.819125692940609
 31
0.0
  0
LINE
  5
1EA
330
18
100
AcDbEntity
  8
0
100
AcDbLine
 10
11.85274333262274
 20
4.515199917415923
 30
0.0
 11
11.85274333262274
 21
4.686769058566249
 31
0.0
  0
LINE
  5
1EB
330
18
100
AcDbEntity
  8
0
100
AcDbLine
 10
12.12737843527584
 20
6.900011622817643
 30
0.0
 11
11.81841387598944
 21
7.243149905118295
 31
0.0
  0
LINE
  5
1EC
330
18
100
AcDbEntity
  8
0
100
AcDbLine
 10
12.16170770843806
 20
6.69412855250985
 30
0.0
 11
11.83557869604163
 21
6.865697693660177
 31
0.0
  0
LINE
  5
1ED
330
18
100
AcDbEntity
  8
0
100
AcDbLine
 10
12.16170770843806
 20
6.436774777704735
 30
0.0
 11
12.04155488542815
 21
6.522559411359525
 31
0.0
  0
LINE
  5
1EE
330
18
100
AcDbEntity
  8
0
100
AcDbLine
 10
12.04155488542815
 20
6.522559411359525
 30
0.0
 11
11.92140206241824
 21
6.642657848012529
 31
0.0
  0
LINE
  5
1EF
330
18
100
AcDbEntity
  8
0
100
AcDbLine
 10
12.07588434206144
 20
6.093636369244832
 30
0.0
 11
11.83557869604163
 21
6.385304073207413
 31
0.0
  0
LINE
  5
1F0
330
18
100
AcDbEntity
  8
0
100
AcDbLine
 10
11.66393177981732
 20
9.696589216516445
 30
0.0
 11
11.81841387598944
 21
9.833844554668555
 31
0.0
  0
LINE
  5
1F1
330
18
100
AcDbEntity
  8
0
100
AcDbLine
 10
11.64676695976514
 20
9.267666300561003
 30
0.0
 11
11.78408460282723
 21
9.404921638713114
 31
0.0
  0
LINE
  5
1F2
330
18
100
AcDbEntity
  8
0
100
AcDbLine
 10
11.86990796920384
 20
8.547075680642979
 30
0.0
 11
11.61243768660292
 21
8.512761877644765
 31
0.0
  0
LINE
  5
1F3
330
18
100
AcDbEntity
  8
0
100
AcDbLine
 10
11.59527305002182
 20
8.907370990601991
 30
0.0
 11
11.68109641639843
 21
8.993155624256781
 31
0.0
  0
LINE
  5
1F4
330
18
100
AcDbEntity
  8
0
100
AcDbLine
 10
10.84002665532909
 20
8.890214089102883
 30
0.0
 11
10.90868538512459
 21
8.735801849451664
 31
0.0
  0
LINE
  5
1F5
330
18
100
AcDbEntity
  8
0
100
AcDbLine
 10
10.87435611196238
 20
8.564232582142087
 30
0.0
 11
11.04600284471561
 21
8.632860314297769
 31
0.0
  0
ARC
  5
1F6
330
18
100
AcDbEntity
  8
0
100
AcDbCircle
 10
10.12152216509047
 20
7.623134739388669
 30
0.0
 40
0.9442180629038553
100
AcDbArc
 50
35.36434838301381
 51
58.35677862961915
  0
ARC
  5
1F7
330
18
100
AcDbEntity
  8
0
100
AcDbCircle
 10
11.91226849587933
 20
7.096918705521948
 30
0.0
 40
1.48432591195173
100
AcDbArc
 50
130.767603647555
 51
143.4487059439386
  0
ARC
  5
1F8
330
18
100
AcDbEntity
  8
0
100
AcDbCircle
 10
11.60516011919285
 20
8.218145064878246
 30
0.0
 40
1.097702387373858
100
AcDbArc
 50
207.7884699064632
 51
227.047256813975
  0
LINE
  5
1F9
330
18
100
AcDbEntity
  8
0
100
AcDbLine
 10
11.04600284471561
 20
8.632860314297769
 30
0.0
 11
11.0288382081345
 21
8.461291173147442
 31
0.0
  0
LINE
  5
1FA
330
18
100
AcDbEntity
  8
0
100
AcDbLine
 10
10.90868538512459
 20
9.027469427254995
 30
0.0
 11
11.1318263945633
 21
9.164724765407106
 31
0.0
  0
LINE
  5
1FB
330
18
100
AcDbEntity
  8
0
100
AcDbLine
 10
11.0288382081345
 20
9.21619559606368
 30
0.0
 11
11.06316766476779
 21
9.439235441711328
 31
0.0
  0
LINE
  5
1FC
330
18
100
AcDbEntity
  8
0
100
AcDbLine
 10
10.82286201874798
 20
9.21619559606368
 30
0.0
 11
10.94301484175788
 21
9.096097159410676
 31
0.0
  0
LINE
  5
1FD
330
18
100
AcDbEntity
  8
0
100
AcDbLine
 10
10.63405046594257
 20
9.559333878364332
 30
0.0
 11
10.61688564589038
 21
9.353450934215793
 31
0.0
  0
LINE
  5
1FE
330
18
100
AcDbEntity
  8
0
100
AcDbLine
 10
10.61688564589038
 20
9.353450934215793
 30
0.0
 11
10.82286201874798
 21
9.21619559606368
 31
0.0
  0
LINE
  5
1FF
330
18
100
AcDbEntity
  8
0
100
AcDbLine
 10
10.65121510252367
 20
8.975998722757672
 30
0.0
 11
10.84002665532909
 21
8.890214089102883
 31
0.0
  0
LINE
  5
200
330
18
100
AcDbEntity
  8
0
100
AcDbLine
 10
11.45795540695973
 20
9.19903856840532
 30
0.0
 11
11.49228486359302
 21
9.353450934215793
 31
0.0
  0
LINE
  5
201
330
18
100
AcDbEntity
  8
0
100
AcDbLine
 10
11.21764976093991
 20
9.336293906557433
 30
0.0
 11
11.28630849073542
 21
9.627961610520014
 31
0.0
  0
LINE
  5
202
330
18
100
AcDbEntity
  8
0
100
AcDbLine
 10
11.354967404002
 20
8.804429455448094
 30
0.0
 11
11.40646131374532
 21
8.907370990601991
 31
0.0
  0
LINE
  5
203
330
18
100
AcDbEntity
  8
0
100
AcDbLine
 10
11.45795540695973
 20
9.593647681362547
 30
0.0
 11
11.47512022701191
 21
9.765216948672126
 31
0.0
  0
LINE
  5
204
330
18
100
AcDbEntity
  8
0
100
AcDbLine
 10
12.04155488542815
 20
8.015211229533642
 30
0.0
 11
11.83557869604163
 21
8.083838961689323
 31
0.0
  0
LINE
  5
205
330
18
100
AcDbEntity
  8
0
100
AcDbLine
 10
12.12737843527584
 20
8.25540810283965
 30
0.0
 11
11.80124923940834
 21
8.306878807336971
 31
0.0
  0
LINE
  5
206
330
18
100
AcDbEntity
  8
0
100
AcDbLine
 10
12.17887234501916
 20
7.500503679923411
 30
0.0
 11
11.83557869604163
 21
7.792171257726741
 31
0.0
  0
LINE
  5
207
330
18
100
AcDbEntity
  8
0
100
AcDbLine
 10
12.21320180165245
 20
7.843642088383315
 30
0.0
 11
12.04155488542815
 21
8.015211229533642
 31
0.0
  0
LINE
  5
208
330
18
100
AcDbEntity
  8
0
100
AcDbLine
 10
12.17887234501916
 20
9.233352497562789
 30
0.0
 11
12.33335462466236
 21
9.353450934215793
 31
0.0
  0
LINE
  5
209
330
18
100
AcDbEntity
  8
0
100
AcDbLine
 10
12.19603716507135
 20
8.907370990601991
 30
0.0
 11
12.41917799103898
 21
9.044626328754102
 31
0.0
  0
LINE
  5
20A
330
18
100
AcDbEntity
  8
0
100
AcDbLine
 10
11.93856669899935
 20
9.730903145673911
 30
0.0
 11
12.07588434206144
 21
9.816687653169447
 31
0.0
  0
LINE
  5
20B
330
18
100
AcDbEntity
  8
0
100
AcDbLine
 10
11.99006079221375
 20
9.301980103559218
 30
0.0
 11
12.16170770843806
 21
9.387764737214007
 31
0.0
  0
LINE
  5
20C
330
18
100
AcDbEntity
  8
0
100
AcDbLine
 10
11.97289615563264
 20
8.907370990601991
 30
0.0
 11
12.05871952200926
 21
9.044626328754102
 31
0.0
  0
LINE
  5
20D
330
18
100
AcDbEntity
  8
0
100
AcDbLine
 10
12.52216617746777
 20
9.21619559606368
 30
0.0
 11
12.65948363705879
 21
9.456392343210437
 31
0.0
  0
LINE
  5
20E
330
18
100
AcDbEntity
  8
0
100
AcDbLine
 10
12.53933081404888
 20
8.890214089102883
 30
0.0
 11
12.77963646006869
 21
8.958841821258566
 31
0.0
  0
LWPOLYLINE
  5
20F
330
18
100
AcDbEntity
  8
0
100
AcDbPolyline
 90
        2
 70
     0
 43
0.0
 10
14.86437353166182
 20
5.345318013542154
 10
14.86437353166182
 20
7.348988774480051
  0
LINE
  5
213
330
18
100
AcDbEntity
  8
0
100
AcDbLine
 10
13.82668259399563
 20
7.551974510579986
 30
0.0
 11
14.37595261583076
 21
7.29462073577487
 31
0.0
  0
LINE
  5
214
330
18
100
AcDbEntity
  8
0
100
AcDbLine
 10
14.04982360343434
 20
6.488245482202058
 30
0.0
 11
14.25579979282086
 21
6.196577904398727
 31
0.0
  0
LINE
  5
215
330
18
100
AcDbEntity
  8
0
100
AcDbLine
 10
14.04982360343434
 20
6.831383890661962
 30
0.0
 11
14.41028207246406
 21
6.522559411359525
 31
0.0
  0
LINE
  5
216
330
18
100
AcDbEntity
  8
0
100
AcDbLine
 10
13.96400005358665
 20
7.15736539762276
 30
0.0
 11
14.39311725241187
 21
6.882854595159283
 31
0.0
  0
LINE
  5
217
330
18
100
AcDbEntity
  8
0
100
AcDbLine
 10
13.92967078042443
 20
6.127950298402298
 30
0.0
 11
14.08415287659655
 21
5.956381031092719
 31
0.0
  0
LINE
  5
218
330
18
100
AcDbEntity
  8
0
100
AcDbLine
 10
13.89534132379114
 20
9.096097159410676
 30
0.0
 11
14.18714106302535
 21
9.113254060909785
 31
0.0
  0
LINE
  5
219
330
18
100
AcDbEntity
  8
0
100
AcDbLine
 10
13.77518850078123
 20
7.792171257726741
 30
0.0
 11
14.20430569960646
 21
7.775014356227634
 31
0.0
  0
LINE
  5
21A
330
18
100
AcDbEntity
  8
0
100
AcDbLine
 10
12.91695410313078
 20
8.752958750950773
 30
0.0
 11
13.12293029251731
 21
8.804429455448094
 31
0.0
  0
LINE
  5
21B
330
18
100
AcDbEntity
  8
0
100
AcDbLine
 10
13.39756539517041
 20
8.324035834995331
 30
0.0
 11
13.74085904414794
 21
8.375506539492654
 31
0.0
  0
LINE
  5
21C
330
18
100
AcDbEntity
  8
0
100
AcDbLine
 10
13.14009492909841
 20
8.581389609800446
 30
0.0
 11
13.41473003175152
 21
8.61570341279866
 31
0.0
  0
LINE
  5
21D
330
18
100
AcDbEntity
  8
0
100
AcDbLine
 10
13.63787104119022
 20
8.100995863188432
 30
0.0
 11
13.98116469016775
 21
8.135309666186646
 31
0.0
  0
LINE
  5
21E
330
18
100
AcDbEntity
  8
0
100
AcDbLine
 10
13.31174184532272
 20
9.267666300561003
 30
0.0
 11
13.63787104119022
 21
9.473549370868795
 31
0.0
  0
LINE
  5
21F
330
18
100
AcDbEntity
  8
0
100
AcDbLine
 10
13.03710692614069
 20
9.28482320206011
 30
0.0
 11
13.36323593853712
 21
9.542176976865226
 31
0.0
  0
LINE
  5
220
330
18
100
AcDbEntity
  8
0
100
AcDbLine
 10
13.67220031435244
 20
9.250509399061895
 30
0.0
 11
13.96400005358665
 21
9.301980103559218
 31
0.0
  0
LINE
  5
221
330
18
100
AcDbEntity
  8
0
100
AcDbLine
 10
14.10131751317766
 20
8.941684793600206
 30
0.0
 11
14.29012924945415
 21
8.958841821258566
 31
0.0
  0
LWPOLYLINE
  5
222
330
18
100
AcDbEntity
  8
0
100
AcDbPolyline
 90
        2
 70
     0
 43
0.0
 10
11.74755254403377
 20
10.34457529662644
 10
9.743881783095881
 20
10.34457529662644
  0
LWPOLYLINE
  5
226
330
18
100
AcDbEntity
  8
0
100
AcDbPolyline
 90
        2
 70
     0
 43
0.0
 10
9.23012006460307
 20
10.34457529662644
 10
6.866816316378645
 20
10.34457529662644
  0
LWPOLYLINE
  5
22A
330
18
100
AcDbEntity
  8
0
100
AcDbPolyline
 90
        3
 70
     0
 43
0.0
 10
9.743881783095881
 20
10.34457529662644
 10
9.743881783095881
 20
11.35451593172789
 10
9.23012006460307
 20
11.35451593172789
  0
LWPOLYLINE
  5
22F
330
18
100
AcDbEntity
  8
0
100
AcDbPolyline
 90
        2
 70
     0
 43
0.0
 10
9.23012006460307
 20
11.35451593172789
 10
9.23012006460307
 20
10.34457529662644
  0
LWPOLYLINE
  5
233
330
18
100
AcDbEntity
  8
0
100
AcDbPolyline
 90
        2
 70
     0
 43
0.0
 10
11.74755254403377
 20
11.35451593172789
 10
11.74755254403377
 20
10.34457529662644
  0
LWPOLYLINE
  5
237
330
18
100
AcDbEntity
  8
0
100
AcDbPolyline
 90
        3
 70
     0
 43
0.0
 10
12.22706338980227
 20
10.34457529662644
 10
12.22706338980227
 20
11.35451593172789
 10
11.74755254403377
 20
11.35451593172789
  0
TEXT
  5
249
330
18
100
AcDbEntity
  8
ADPDIM
100
AcDbText
 10
-2.123697911469276
 20
-0.1711699043195893
 30
0.0
 40
0.25
  1
J U L I U S  B L U M  &  C O . ,  I N C .      ( 8 0 0 )  5 2 6 - 6 2 9 3        W W W . J U L I U S B L U M . C O M        P A R T  N o .  5 9 1
 41
1.25
  7
ARIAL_WIDE
 72
     1
 11
10.74571716356482
 21
0.0788300956804107
 31
0.0
100
AcDbText
 73
     3
  0
ENDSEC
  0
SECTION
  2
OBJECTS
  0
DICTIONARY
  5
C
330
0
100
AcDbDictionary
  3
ACAD_GROUP
350
D
  3
ACAD_LAYOUT
350
242
  3
ACAD_MLINESTYLE
350
E
  3
ACAD_PLOTSETTINGS
350
243
  3
ACAD_PLOTSTYLENAME
350
240
  3
ACDBHEADERROUNDTRIPXREC
350
38D
  3
ACDBVARIABLEDICTIONARY
350
2A3
  0
DICTIONARY
  5
29D
330
18
100
AcDbDictionary
280
     1
  3
ACAD_LAYOUTSELFREF
360
3AE
  0
DICTIONARY
  5
29B
330
15
100
AcDbDictionary
280
     1
  3
ACAD_LAYOUTSELFREF
360
3AD
  0
DICTIONARY
  5
D
102
{ACAD_REACTORS
330
C
102
}
330
C
100
AcDbDictionary
  0
DICTIONARY
  5
242
102
{ACAD_REACTORS
330
C
102
}
330
C
100
AcDbDictionary
  0
DICTIONARY
  5
E
102
{ACAD_REACTORS
330
C
102
}
330
C
100
AcDbDictionary
  3
STANDARD
350
1B
  0
DICTIONARY
  5
243
102
{ACAD_REACTORS
330
C
102
}
330
C
100
AcDbDictionary
  0
ACDBDICTIONARYWDFLT
  5
240
102
{ACAD_REACTORS
330
C
102
}
330
C
100
AcDbDictionary
281
     1
  3
Normal
350
241
100
AcDbDictionaryWithDefault
340
241
  0
DICTIONARY
  5
38D
102
{ACAD_REACTORS
330
C
102
}
330
C
100
AcDbDictionary
  3
CEPSNTYPE
350
397
  3
FINGERPRINTGUID
350
398
  3
HYPERLINKBASE
350
390
  3
INSUNITS
350
396
  3
LAYOUTDICT
350
392
  3
LWETCUNION
350
395
  3
PLOTSETDICT
350
393
  3
PLOTSTYLNAMDICT
350
394
  3
PSVPSCALE
350
39A
  3
PUCSBASE
350
39D
  3
PUCSORGBACK
350
3A3
  3
PUCSORGBOTTOM
350
39F
  3
PUCSORGFRONT
350
3A2
  3
PUCSORGLEFT
350
3A0
  3
PUCSORGRIGHT
350
3A1
  3
PUCSORGTOP
350
39E
  3
PUCSORTHOREF
350
39B
  3
PUCSORTHOVIEW
350
39C
  3
STYLESHEET
350
391
  3
TSTACKALIGN
350
38E
  3
TSTACKSIZE
350
38F
  3
UCSBASE
350
3A6
  3
UCSORGBACK
350
3AC
  3
UCSORGBOTTOM
350
3A8
  3
UCSORGFRONT
350
3AB
  3
UCSORGLEFT
350
3A9
  3
UCSORGRIGHT
350
3AA
  3
UCSORGTOP
350
3A7
  3
UCSORTHOREF
350
3A4
  3
UCSORTHOVIEW
350
3A5
  3
VERSIONGUID
350
399
  0
DICTIONARY
  5
2A3
102
{ACAD_REACTORS
330
C
102
}
330
C
100
AcDbDictionary
  3
DIMASSOC
350
2A4
  0
XRECORD
  5
3AE
102
{ACAD_REACTORS
330
29D
102
}
330
29D
100
AcDbXrecord
340
18
  0
XRECORD
  5
3AD
102
{ACAD_REACTORS
330
29B
102
}
330
29B
100
AcDbXrecord
340
15
  0
MLINESTYLE
  5
1B
102
{ACAD_REACTORS
330
E
102
}
330
E
100
AcDbMlineStyle
  2
STANDARD
 70
     0
  3

 62
     0
 51
90.0
 52
90.0
 71
     2
 49
0.5
 62
   256
  6
BYLAYER
 49
-0.5
 62
   256
  6
BYLAYER
  0
ACDBPLACEHOLDER
  5
241
102
{ACAD_REACTORS
330
240
102
}
330
240
100
AcDbPlaceHolder
280
     0
  0
XRECORD
  5
397
102
{ACAD_REACTORS
330
38D
102
}
330
38D
100
AcDbXrecord
 90
        0
  0
XRECORD
  5
398
102
{ACAD_REACTORS
330
38D
102
}
330
38D
100
AcDbXrecord
  1
{4331C825-2441-4219-9DEB-7EB6447B26C8}
  0
XRECORD
  5
390
102
{ACAD_REACTORS
330
38D
102
}
330
38D
100
AcDbXrecord
  1

  0
XRECORD
  5
396
102
{ACAD_REACTORS
330
38D
102
}
330
38D
100
AcDbXrecord
 90
        0
  0
XRECORD
  5
392
102
{ACAD_REACTORS
330
38D
102
}
330
38D
100
AcDbXrecord
340
242
  0
XRECORD
  5
395
102
{ACAD_REACTORS
330
38D
102
}
330
38D
100
AcDbXrecord
 90
    14877
  0
XRECORD
  5
393
102
{ACAD_REACTORS
330
38D
102
}
330
38D
100
AcDbXrecord
340
243
  0
XRECORD
  5
394
102
{ACAD_REACTORS
330
38D
102
}
330
38D
100
AcDbXrecord
340
240
  0
XRECORD
  5
39A
102
{ACAD_REACTORS
330
38D
102
}
330
38D
100
AcDbXrecord
 40
0.0
  0
XRECORD
  5
39D
102
{ACAD_REACTORS
330
38D
102
}
330
38D
100
AcDbXrecord
340
0
  0
XRECORD
  5
3A3
102
{ACAD_REACTORS
330
38D
102
}
330
38D
100
AcDbXrecord
 10
0.0
 20
0.0
 30
0.0
  0
XRECORD
  5
39F
102
{ACAD_REACTORS
330
38D
102
}
330
38D
100
AcDbXrecord
 10
0.0
 20
0.0
 30
0.0
  0
XRECORD
  5
3A2
102
{ACAD_REACTORS
330
38D
102
}
330
38D
100
AcDbXrecord
 10
0.0
 20
0.0
 30
0.0
  0
XRECORD
  5
3A0
102
{ACAD_REACTORS
330
38D
102
}
330
38D
100
AcDbXrecord
 10
0.0
 20
0.0
 30
0.0
  0
XRECORD
  5
3A1
102
{ACAD_REACTORS
330
38D
102
}
330
38D
100
AcDbXrecord
 10
0.0
 20
0.0
 30
0.0
  0
XRECORD
  5
39E
102
{ACAD_REACTORS
330
38D
102
}
330
38D
100
AcDbXrecord
 10
0.0
 20
0.0
 30
0.0
  0
XRECORD
  5
39B
102
{ACAD_REACTORS
330
38D
102
}
330
38D
100
AcDbXrecord
340
0
  0
XRECORD
  5
39C
102
{ACAD_REACTORS
330
38D
102
}
330
38D
100
AcDbXrecord
 70
     0
  0
XRECORD
  5
391
102
{ACAD_REACTORS
330
38D
102
}
330
38D
100
AcDbXrecord
  1

  0
XRECORD
  5
38E
102
{ACAD_REACTORS
330
38D
102
}
330
38D
100
AcDbXrecord
 90
        1
  0
XRECORD
  5
38F
102
{ACAD_REACTORS
330
38D
102
}
330
38D
100
AcDbXrecord
 90
       70
  0
XRECORD
  5
3A6
102
{ACAD_REACTORS
330
38D
102
}
330
38D
100
AcDbXrecord
340
0
  0
XRECORD
  5
3AC
102
{ACAD_REACTORS
330
38D
102
}
330
38D
100
AcDbXrecord
 10
0.0
 20
0.0
 30
0.0
  0
XRECORD
  5
3A8
102
{ACAD_REACTORS
330
38D
102
}
330
38D
100
AcDbXrecord
 10
0.0
 20
0.0
 30
0.0
  0
XRECORD
  5
3AB
102
{ACAD_REACTORS
330
38D
102
}
330
38D
100
AcDbXrecord
 10
0.0
 20
0.0
 30
0.0
  0
XRECORD
  5
3A9
102
{ACAD_REACTORS
330
38D
102
}
330
38D
100
AcDbXrecord
 10
0.0
 20
0.0
 30
0.0
  0
XRECORD
  5
3AA
102
{ACAD_REACTORS
330
38D
102
}
330
38D
100
AcDbXrecord
 10
0.0
 20
0.0
 30
0.0
  0
XRECORD
  5
3A7
102
{ACAD_REACTORS
330
38D
102
}
330
38D
100
AcDbXrecord
 10
0.0
 20
0.0
 30
0.0
  0
XRECORD
  5
3A4
102
{ACAD_REACTORS
330
38D
102
}
330
38D
100
AcDbXrecord
340
0
  0
XRECORD
  5
3A5
102
{ACAD_REACTORS
330
38D
102
}
330
38D
100
AcDbXrecord
 70
     0
  0
XRECORD
  5
399
102
{ACAD_REACTORS
330
38D
102
}
330
38D
100
AcDbXrecord
  1
{B30BA6C6-E0C5-4D51-BC6A-6A89AAB18805}
  0
DICTIONARYVAR
  5
2A4
102
{ACAD_REACTORS
330
2A3
102
}
330
2A3
100
DictionaryVariables
280
     0
  1
1
  0
ENDSEC
  0
EOF
