  0
SECTION
  2
HEADER
  9
$ACADVER
  1
AC1014
  9
$ACADMAINTVER
 70
     9
  9
$DWGCODEPAGE
  3
ANSI_1252
  9
$INSBASE
 10
-81.40325476353295
 20
-6.684156973112345
 30
0.0
  9
$EXTMIN
 10
-111.6420849136011
 20
-8.389743348377635
 30
0.0
  9
$EXTMAX
 10
-60.16442461346474
 20
21.22747161918927
 30
0.0
  9
$LIMMIN
 10
0.0
 20
0.0
  9
$LIMMAX
 10
36.0
 20
36.0
  9
$ORTHOMODE
 70
     1
  9
$REGENMODE
 70
     1
  9
$FILLMODE
 70
     1
  9
$QTEXTMODE
 70
     0
  9
$MIRRTEXT
 70
     1
  9
$DRAGMODE
 70
     0
  9
$LTSCALE
 40
1.0
  9
$OSMODE
 70
    37
  9
$ATTMODE
 70
     1
  9
$TEXTSIZE
 40
0.2
  9
$TRACEWID
 40
0.05
  9
$TEXTSTYLE
  7
STANDARD
  9
$CLAYER
  8
ADPDIM
  9
$CELTYPE
  6
BYLAYER
  9
$CECOLOR
 62
   256
  9
$CELTSCALE
 40
1.0
  9
$DELOBJ
 70
     1
  9
$DISPSILH
 70
     0
  9
$DIMSCALE
 40
1.0
  9
$DIMASZ
 40
0.125
  9
$DIMEXO
 40
0.0625
  9
$DIMDLI
 40
0.38
  9
$DIMRND
 40
0.0
  9
$DIMDLE
 40
0.0
  9
$DIMEXE
 40
0.18
  9
$DIMTP
 40
0.0
  9
$DIMTM
 40
0.0
  9
$DIMTXT
 40
0.125
  9
$DIMCEN
 40
0.1875
  9
$DIMTSZ
 40
0.125
  9
$DIMTOL
 70
     0
  9
$DIMLIM
 70
     0
  9
$DIMTIH
 70
     0
  9
$DIMTOH
 70
     0
  9
$DIMSE1
 70
     0
  9
$DIMSE2
 70
     0
  9
$DIMTAD
 70
     0
  9
$DIMZIN
 70
     3
  9
$DIMBLK
  1

  9
$DIMASO
 70
     1
  9
$DIMSHO
 70
     1
  9
$DIMPOST
  1

  9
$DIMAPOST
  1

  9
$DIMALT
 70
     0
  9
$DIMALTD
 70
     1
  9
$DIMALTF
 40
25.4
  9
$DIMLFAC
 40
1.0
  9
$DIMTOFL
 70
     0
  9
$DIMTVP
 40
0.0
  9
$DIMTIX
 70
     0
  9
$DIMSOXD
 70
     0
  9
$DIMSAH
 70
     0
  9
$DIMBLK1
  1

  9
$DIMBLK2
  1

  9
$DIMSTYLE
  2
STANDARD
  9
$DIMCLRD
 70
     0
  9
$DIMCLRE
 70
     0
  9
$DIMCLRT
 70
     0
  9
$DIMTFAC
 40
1.0
  9
$DIMGAP
 40
0.125
  9
$DIMJUST
 70
     0
  9
$DIMSD1
 70
     0
  9
$DIMSD2
 70
     0
  9
$DIMTOLJ
 70
     1
  9
$DIMTZIN
 70
     0
  9
$DIMALTZ
 70
     0
  9
$DIMALTTZ
 70
     0
  9
$DIMFIT
 70
     3
  9
$DIMUPT
 70
     0
  9
$DIMUNIT
 70
     2
  9
$DIMDEC
 70
     4
  9
$DIMTDEC
 70
     4
  9
$DIMALTU
 70
     2
  9
$DIMALTTD
 70
     2
  9
$DIMTXSTY
  7
STANDARD
  9
$DIMAUNIT
 70
     0
  9
$LUNITS
 70
     5
  9
$LUPREC
 70
     5
  9
$SKETCHINC
 40
0.1
  9
$FILLETRAD
 40
0.062
  9
$AUNITS
 70
     0
  9
$AUPREC
 70
     0
  9
$MENU
  1
acad
  9
$ELEVATION
 40
0.0
  9
$PELEVATION
 40
0.0
  9
$THICKNESS
 40
0.0
  9
$LIMCHECK
 70
     0
  9
$BLIPMODE
 70
     0
  9
$CHAMFERA
 40
0.0
  9
$CHAMFERB
 40
0.0
  9
$CHAMFERC
 40
0.0
  9
$CHAMFERD
 40
0.0
  9
$SKPOLY
 70
     0
  9
$TDCREATE
 40
2450409.508919560
  9
$TDUPDATE
 40
2452297.073683449
  9
$TDINDWG
 40
0.0058486921
  9
$TDUSRTIMER
 40
0.0058486921
  9
$USRTIMER
 70
     1
  9
$ANGBASE
 50
0.0
  9
$ANGDIR
 70
     0
  9
$PDMODE
 70
     0
  9
$PDSIZE
 40
0.0
  9
$PLINEWID
 40
0.0
  9
$COORDS
 70
     2
  9
$SPLFRAME
 70
     0
  9
$SPLINETYPE
 70
     6
  9
$SPLINESEGS
 70
     8
  9
$ATTDIA
 70
     0
  9
$ATTREQ
 70
     1
  9
$HANDLING
 70
 22529
  9
$HANDSEED
  5
42D
  9
$SURFTAB1
 70
     6
  9
$SURFTAB2
 70
     6
  9
$SURFTYPE
 70
     6
  9
$SURFU
 70
     6
  9
$SURFV
 70
     6
  9
$UCSNAME
  2

  9
$UCSORG
 10
0.0
 20
0.0
 30
0.0
  9
$UCSXDIR
 10
1.0
 20
0.0
 30
0.0
  9
$UCSYDIR
 10
0.0
 20
1.0
 30
0.0
  9
$PUCSNAME
  2

  9
$PUCSORG
 10
0.0
 20
0.0
 30
0.0
  9
$PUCSXDIR
 10
1.0
 20
0.0
 30
0.0
  9
$PUCSYDIR
 10
0.0
 20
1.0
 30
0.0
  9
$USERI1
 70
     0
  9
$USERI2
 70
     0
  9
$USERI3
 70
     0
  9
$USERI4
 70
     0
  9
$USERI5
 70
     0
  9
$USERR1
 40
0.0
  9
$USERR2
 40
0.0
  9
$USERR3
 40
0.0
  9
$USERR4
 40
0.0
  9
$USERR5
 40
0.0
  9
$WORLDVIEW
 70
     1
  9
$SHADEDGE
 70
     3
  9
$SHADEDIF
 70
    70
  9
$TILEMODE
 70
     1
  9
$MAXACTVP
 70
    15
  9
$PINSBASE
 10
0.0058594681322575
 20
8.002266177471257
 30
0.0
  9
$PLIMCHECK
 70
     0
  9
$PEXTMIN
 10
1.000000000000000E+20
 20
1.000000000000000E+20
 30
1.000000000000000E+20
  9
$PEXTMAX
 10
-1.000000000000000E+20
 20
-1.000000000000000E+20
 30
-1.000000000000000E+20
  9
$PLIMMIN
 10
0.0
 20
0.0
  9
$PLIMMAX
 10
12.0
 20
9.0
  9
$UNITMODE
 70
     0
  9
$VISRETAIN
 70
     0
  9
$PLINEGEN
 70
     0
  9
$PSLTSCALE
 70
     1
  9
$TREEDEPTH
 70
  3020
  9
$PICKSTYLE
 70
     1
  9
$CMLSTYLE
  2
STANDARD
  9
$CMLJUST
 70
     0
  9
$CMLSCALE
 40
1.0
  9
$PROXYGRAPHICS
 70
     1
  9
$MEASUREMENT
 70
     0
  0
ENDSEC
  0
SECTION
  2
CLASSES
  0
CLASS
  1
ACDBDICTIONARYWDFLT
  2
AcDbDictionaryWithDefault
  3
AutoCAD 2000
 90
        0
280
     0
281
     0
  0
CLASS
  1
ACDBPLACEHOLDER
  2
AcDbPlaceHolder
  3
AutoCAD 2000
 90
        0
280
     0
281
     0
  0
CLASS
  1
LAYOUT
  2
AcDbLayout
  3
AutoCAD 2000
 90
        0
280
     0
281
     0
  0
CLASS
  1
DICTIONARYVAR
  2
AcDbDictionaryVar
  3
AutoCAD 2000
 90
        0
280
     0
281
     0
  0
CLASS
  1
LONG_TRANSACTION
  2
AcDbLongTransaction
  3
AutoCAD 2000
 90
        0
280
     0
281
     0
  0
CLASS
  1
LWPOLYLINE
  2
AcDbPolyline
  3
AutoCAD 2000
 90
        0
280
     0
281
     1
  0
CLASS
  1
HATCH
  2
AcDbHatch
  3
AutoCAD 2000
 90
        0
280
     0
281
     1
  0
CLASS
  1
XRECORD
  2
AcDbXrecord
  3
AutoCAD 2000
 90
        0
280
     0
281
     0
  0
CLASS
  1
LONG_TRANSACTION
  2
AcDbLongTransaction
  3
AutoCAD 2000
 90
        0
280
     0
281
     0
  0
CLASS
  1
LWPOLYLINE
  2
AcDbPolyline
  3
AutoCAD 2000
 90
        0
280
     0
281
     1
  0
CLASS
  1
HATCH
  2
AcDbHatch
  3
AutoCAD 2000
 90
        0
280
     0
281
     1
  0
CLASS
  1
XRECORD
  2
AcDbXrecord
  3
AutoCAD 2000
 90
        0
280
     0
281
     0
  0
CLASS
  1
LONG_TRANSACTION
  2
AcDbLongTransaction
  3
AutoCAD 2000
 90
        0
280
     0
281
     0
  0
CLASS
  1
LWPOLYLINE
  2
AcDbPolyline
  3
AutoCAD 2000
 90
        0
280
     0
281
     1
  0
CLASS
  1
HATCH
  2
AcDbHatch
  3
AutoCAD 2000
 90
        0
280
     0
281
     1
  0
CLASS
  1
XRECORD
  2
AcDbXrecord
  3
AutoCAD 2000
 90
        0
280
     0
281
     0
  0
CLASS
  1
LONG_TRANSACTION
  2
AcDbLongTransaction
  3
AutoCAD 2000
 90
        0
280
     0
281
     0
  0
CLASS
  1
LWPOLYLINE
  2
AcDbPolyline
  3
AutoCAD 2000
 90
        0
280
     0
281
     1
  0
CLASS
  1
HATCH
  2
AcDbHatch
  3
AutoCAD 2000
 90
        0
280
     0
281
     1
  0
CLASS
  1
XRECORD
  2
AcDbXrecord
  3
AutoCAD 2000
 90
        0
280
     0
281
     0
  0
CLASS
  1
LONG_TRANSACTION
  2
AcDbLongTransaction
  3
AutoCAD 2000
 90
        0
280
     0
281
     0
  0
CLASS
  1
LWPOLYLINE
  2
AcDbPolyline
  3
AutoCAD 2000
 90
        0
280
     0
281
     1
  0
CLASS
  1
HATCH
  2
AcDbHatch
  3
AutoCAD 2000
 90
        0
280
     0
281
     1
  0
CLASS
  1
XRECORD
  2
AcDbXrecord
  3
AutoCAD 2000
 90
        0
280
     0
281
     0
  0
ENDSEC
  0
SECTION
  2
TABLES
  0
TABLE
  2
VPORT
  5
8
330
0
100
AcDbSymbolTable
 70
     2
  0
VPORT
  5
40A
330
8
100
AcDbSymbolTableRecord
100
AcDbViewportTableRecord
  2
*ACTIVE
 70
     0
 10
0.0
 20
0.0
 11
1.0
 21
1.0
 12
-85.86447709320143
 22
6.418782582324572
 13
0.0
 23
0.0
 14
0.5740882589684922
 24
0.5740882589684922
 15
0.5
 25
0.5
 16
0.0
 26
0.0
 36
1.0
 17
0.0
 27
0.0
 37
0.0
 40
32.99600567274655
 41
1.570528967254408
 42
50.0
 43
0.0
 44
0.0
 50
0.0
 51
0.0
 71
     0
 72
   100
 73
     1
 74
     0
 75
     0
 76
     0
 77
     0
 78
     0
  0
ENDTAB
  0
TABLE
  2
LTYPE
  5
5
330
0
100
AcDbSymbolTable
 70
     1
  0
LTYPE
  5
12
330
5
100
AcDbSymbolTableRecord
100
AcDbLinetypeTableRecord
  2
BYBLOCK
 70
     0
  3

 72
    65
 73
     0
 40
0.0
  0
LTYPE
  5
13
330
5
100
AcDbSymbolTableRecord
100
AcDbLinetypeTableRecord
  2
BYLAYER
 70
     0
  3

 72
    65
 73
     0
 40
0.0
  0
LTYPE
  5
14
330
5
100
AcDbSymbolTableRecord
100
AcDbLinetypeTableRecord
  2
CONTINUOUS
 70
     0
  3
Solid line
 72
    65
 73
     0
 40
0.0
  0
ENDTAB
  0
TABLE
  2
LAYER
  5
2
330
0
100
AcDbSymbolTable
 70
     3
  0
LAYER
  5
F
330
2
100
AcDbSymbolTableRecord
100
AcDbLayerTableRecord
  2
0
 70
     0
 62
     7
  6
CONTINUOUS
  0
LAYER
  5
C9
330
2
100
AcDbSymbolTableRecord
100
AcDbLayerTableRecord
  2
DEFPOINTS
 70
     0
 62
     7
  6
CONTINUOUS
  0
LAYER
  5
CF
330
2
100
AcDbSymbolTableRecord
100
AcDbLayerTableRecord
  2
ADPDIM
 70
     0
 62
     3
  6
CONTINUOUS
  0
ENDTAB
  0
TABLE
  2
STYLE
  5
3
330
0
100
AcDbSymbolTable
 70
     2
  0
STYLE
  5
10
330
3
100
AcDbSymbolTableRecord
100
AcDbTextStyleTableRecord
  2
STANDARD
 70
     0
 40
0.0
 41
1.0
 50
0.0
 71
     0
 42
0.2
  3
txt
  4

  0
STYLE
  5
2C6
330
3
100
AcDbSymbolTableRecord
100
AcDbTextStyleTableRecord
  2
ARIAL_WIDE
 70
     0
 40
0.0
 41
1.25
 50
0.0
 71
     0
 42
0.2
  3
ARIAL.TTF
  4

1001
ACAD
1000
Arial
1071
       34
  0
ENDTAB
  0
TABLE
  2
VIEW
  5
6
330
0
100
AcDbSymbolTable
 70
     0
  0
ENDTAB
  0
TABLE
  2
UCS
  5
7
330
0
100
AcDbSymbolTable
 70
     0
  0
ENDTAB
  0
TABLE
  2
APPID
  5
9
330
0
100
AcDbSymbolTable
 70
     1
  0
APPID
  5
11
330
9
100
AcDbSymbolTableRecord
100
AcDbRegAppTableRecord
  2
ACAD
 70
     0
  0
ENDTAB
  0
TABLE
  2
DIMSTYLE
  5
A
330
0
100
AcDbSymbolTable
 70
     1
  0
DIMSTYLE
105
2BA
330
A
100
AcDbSymbolTableRecord
100
AcDbDimStyleTableRecord
  2
STANDARD
 70
     0
  3

  4

  5

  6

  7

 40
1.0
 41
0.18
 42
0.0625
 43
0.38
 44
0.18
 45
0.0
 46
0.0
 47
0.0
 48
0.0
140
0.18
141
0.09
142
0.0
143
25.4
144
1.0
145
0.0
146
1.0
147
0.09
 71
     0
 72
     0
 73
     1
 74
     1
 75
     0
 76
     0
 77
     0
 78
     0
170
     0
171
     2
172
     0
173
     0
174
     0
175
     0
176
     0
177
     0
178
     0
270
     2
271
     4
272
     4
273
     2
274
     2
340
10
275
     0
280
     0
281
     0
282
     0
283
     1
284
     0
285
     0
286
     0
287
     3
288
     0
  0
ENDTAB
  0
TABLE
  2
BLOCK_RECORD
  5
1
330
0
100
AcDbSymbolTable
 70
     2
  0
BLOCK_RECORD
  5
18
102
{ACAD_XDICTIONARY
360
31B
102
}
330
1
100
AcDbSymbolTableRecord
100
AcDbBlockTableRecord
  2
*MODEL_SPACE
  0
BLOCK_RECORD
  5
15
102
{ACAD_XDICTIONARY
360
319
102
}
330
1
100
AcDbSymbolTableRecord
100
AcDbBlockTableRecord
  2
*PAPER_SPACE
  0
BLOCK_RECORD
  5
C0
330
1
100
AcDbSymbolTableRecord
100
AcDbBlockTableRecord
  2
*D0
  0
BLOCK_RECORD
  5
C3
330
1
100
AcDbSymbolTableRecord
100
AcDbBlockTableRecord
  2
*D1
  0
ENDTAB
  0
ENDSEC
  0
SECTION
  2
BLOCKS
  0
BLOCK
  5
D2
330
18
100
AcDbEntity
  8
0
100
AcDbBlockBegin
  2
*MODEL_SPACE
 70
     0
 10
0.0
 20
0.0
 30
0.0
  3
*MODEL_SPACE
  1

  0
ENDBLK
  5
D3
330
18
100
AcDbEntity
  8
0
100
AcDbBlockEnd
  0
BLOCK
  5
D0
330
15
100
AcDbEntity
 67
     1
  8
0
100
AcDbBlockBegin
  2
*PAPER_SPACE
 70
     0
 10
0.0
 20
0.0
 30
0.0
  3
*PAPER_SPACE
  1

  0
ENDBLK
  5
D1
330
15
100
AcDbEntity
 67
     1
  8
0
100
AcDbBlockEnd
  0
BLOCK
  5
D5
330
C0
100
AcDbEntity
  8
0
100
AcDbBlockBegin
  2
*D0
 70
     1
 10
0.0
 20
0.0
 30
0.0
  3
*D0
  1

  0
LINE
  5
D6
330
C0
100
AcDbEntity
  8
0
  6
BYBLOCK
 62
     0
100
AcDbLine
 10
-90.40700820722067
 20
20.9749212191639
 30
0.0
 11
-90.40700820722067
 21
21.787928045128
 31
0.0
  0
LINE
  5
D7
330
C0
100
AcDbEntity
  8
0
  6
BYBLOCK
 62
     0
100
AcDbLine
 10
-81.40700820722067
 20
20.9749212191639
 30
0.0
 11
-81.40700820722067
 21
21.787928045128
 31
0.0
  0
LINE
  5
D8
330
C0
100
AcDbEntity
  8
0
  6
BYBLOCK
 62
     0
100
AcDbLine
 10
-90.40700820722067
 20
21.607928045128
 30
0.0
 11
-86.07367487388733
 21
21.607928045128
 31
0.0
  0
LINE
  5
D9
330
C0
100
AcDbEntity
  8
0
  6
BYBLOCK
 62
     0
100
AcDbLine
 10
-81.40700820722067
 20
21.607928045128
 30
0.0
 11
-85.740341540554
 21
21.607928045128
 31
0.0
  0
LINE
  5
DA
330
C0
100
AcDbEntity
  8
0
  6
BYBLOCK
 62
     0
100
AcDbLine
 10
-90.53200820722066
 20
21.482928045128
 30
0.0
 11
-90.28200820722068
 21
21.732928045128
 31
0.0
  0
LINE
  5
DB
330
C0
100
AcDbEntity
  8
0
  6
BYBLOCK
 62
     0
100
AcDbLine
 10
-81.53200820722068
 20
21.482928045128
 30
0.0
 11
-81.28200820722067
 21
21.732928045128
 31
0.0
  0
TEXT
  5
DC
330
C0
100
AcDbEntity
  8
0
  6
BYBLOCK
 62
     0
100
AcDbText
 10
-85.94867487388734
 20
21.545428045128
 30
0.0
 40
0.125
  1
9
 72
     1
 11
-85.90700820722068
 21
21.607928045128
 31
0.0
100
AcDbText
 73
     2
  0
POINT
  5
DD
330
C0
100
AcDbEntity
  8
DEFPOINTS
  6
BYBLOCK
 62
     0
100
AcDbPoint
 10
-90.40700820722067
 20
20.9124212191639
 30
0.0
  0
POINT
  5
DE
330
C0
100
AcDbEntity
  8
DEFPOINTS
  6
BYBLOCK
 62
     0
100
AcDbPoint
 10
-81.40700820722067
 20
20.9124212191639
 30
0.0
  0
POINT
  5
DF
330
C0
100
AcDbEntity
  8
DEFPOINTS
  6
BYBLOCK
 62
     0
100
AcDbPoint
 10
-81.40700820722067
 20
21.607928045128
 30
0.0
  0
ENDBLK
  5
E0
330
C0
100
AcDbEntity
  8
0
100
AcDbBlockEnd
  0
BLOCK
  5
E1
330
C3
100
AcDbEntity
  8
0
100
AcDbBlockBegin
  2
*D1
 70
     1
 10
0.0
 20
0.0
 30
0.0
  3
*D1
  1

  0
LINE
  5
E2
330
C3
100
AcDbEntity
  8
0
  6
BYBLOCK
 62
     0
100
AcDbLine
 10
-90.46575476353295
 20
20.35196479322517
 30
0.0
 11
-91.53114576030715
 21
20.35196479322517
 31
0.0
  0
LINE
  5
E3
330
C3
100
AcDbEntity
  8
0
  6
BYBLOCK
 62
     0
100
AcDbLine
 10
-90.46575476353295
 20
-6.648035206774824
 30
0.0
 11
-91.53114576030715
 21
-6.648035206774824
 31
0.0
  0
LINE
  5
E4
330
C3
100
AcDbEntity
  8
0
  6
BYBLOCK
 62
     0
100
AcDbLine
 10
-91.35114576030714
 20
20.35196479322517
 30
0.0
 11
-91.35114576030714
 21
7.081131459891841
 31
0.0
  0
LINE
  5
E5
330
C3
100
AcDbEntity
  8
0
  6
BYBLOCK
 62
     0
100
AcDbLine
 10
-91.35114576030714
 20
-6.648035206774824
 30
0.0
 11
-91.35114576030714
 21
6.622798126558507
 31
0.0
  0
LINE
  5
E6
330
C3
100
AcDbEntity
  8
0
  6
BYBLOCK
 62
     0
100
AcDbLine
 10
-91.22614576030715
 20
20.22696479322517
 30
0.0
 11
-91.47614576030715
 21
20.47696479322517
 31
0.0
  0
LINE
  5
E7
330
C3
100
AcDbEntity
  8
0
  6
BYBLOCK
 62
     0
100
AcDbLine
 10
-91.22614576030715
 20
-6.773035206774824
 30
0.0
 11
-91.47614576030715
 21
-6.523035206774824
 31
0.0
  0
TEXT
  5
E8
330
C3
100
AcDbEntity
  8
0
  6
BYBLOCK
 62
     0
100
AcDbText
 10
-91.28864576030714
 20
6.747798126558507
 30
0.0
 40
0.125
  1
27
 50
90.0
 72
     1
 11
-91.35114576030714
 21
6.851964793225174
 31
0.0
100
AcDbText
 73
     2
  0
POINT
  5
E9
330
C3
100
AcDbEntity
  8
DEFPOINTS
  6
BYBLOCK
 62
     0
100
AcDbPoint
 10
-90.40325476353295
 20
20.35196479322517
 30
0.0
  0
POINT
  5
EA
330
C3
100
AcDbEntity
  8
DEFPOINTS
  6
BYBLOCK
 62
     0
100
AcDbPoint
 10
-90.40325476353295
 20
-6.648035206774824
 30
0.0
  0
POINT
  5
EB
330
C3
100
AcDbEntity
  8
DEFPOINTS
  6
BYBLOCK
 62
     0
100
AcDbPoint
 10
-91.35114576030714
 20
-6.648035206774824
 30
0.0
  0
ENDBLK
  5
EC
330
C3
100
AcDbEntity
  8
0
100
AcDbBlockEnd
  0
ENDSEC
  0
SECTION
  2
ENTITIES
  0
LWPOLYLINE
  5
ED
330
18
100
AcDbEntity
  8
0
100
AcDbPolyline
 90
        3
 70
     0
 43
0.0
 10
-90.40325476353295
 20
10.38434431129746
 42
-0.2040114418721105
 10
-88.47855596835222
 20
6.941573226960129
 10
-88.47855596835222
 20
6.081519299020945
  0
LWPOLYLINE
  5
F2
330
18
100
AcDbEntity
  8
0
100
AcDbPolyline
 90
        3
 70
     0
 43
0.0
 10
-88.15325476353295
 20
14.80301901009263
 42
0.2040114418721105
 10
-90.07795355871369
 20
11.36024792575529
 10
-90.07795355871369
 20
10.84518768479145
  0
LWPOLYLINE
  5
F7
330
18
100
AcDbEntity
  8
0
100
AcDbPolyline
 90
        3
 70
     0
 43
0.0
 10
-90.07795355871367
 20
11.44157322696012
 10
-90.07795355871367
 20
10.84518768479144
 42
-0.1696956324163431
 10
-88.15325476353295
 20
7.836151540213132
 42
8.779458302422275
  0
LWPOLYLINE
  5
FC
330
18
100
AcDbEntity
  8
0
100
AcDbPolyline
 90
        3
 70
     0
 43
0.0
 10
-86.22855596835224
 20
11.44157322696012
 10
-86.22855596835224
 20
10.84518768479144
 42
0.1696956324163431
 10
-88.15325476353295
 20
7.836151540213132
 42
-8.779458302422275
  0
LWPOLYLINE
  5
101
330
18
100
AcDbEntity
  8
0
100
AcDbPolyline
 90
        4
 70
     0
 43
0.0
 10
-88.15325476353295
 20
11.00783828720109
 42
-0.1856776554368181
 10
-88.69542343823175
 20
11.14338045587578
 10
-88.83096560690644
 20
10.89940455226132
 42
-0.0756514995039179
 10
-88.15325476353295
 20
10.46566961250229
 42
2.295968109499118
  0
LWPOLYLINE
  5
107
330
18
100
AcDbEntity
  8
0
100
AcDbPolyline
 90
        4
 70
     0
 43
0.0
 10
-85.90325476353296
 20
20.41446479322517
 10
-86.22855596835224
 20
20.41446479322517
 10
-86.22855596835224
 20
19.8180792510565
 42
0.1696956324163431
 10
-88.15325476353295
 20
16.80904310647818
 42
-8.779458302422275
  0
LWPOLYLINE
  5
10D
330
18
100
AcDbEntity
  8
0
100
AcDbPolyline
 90
        4
 70
     0
 43
0.0
 10
-88.15325476353295
 20
19.98072985346614
 42
-0.1856776554368181
 10
-88.69542343823175
 20
20.11627202214083
 10
-88.83096560690644
 20
19.87229611852637
 42
-0.0756514995039179
 10
-88.15325476353295
 20
19.43856117876734
 42
2.295968109499118
  0
LWPOLYLINE
  5
113
330
18
100
AcDbEntity
  8
0
100
AcDbPolyline
 90
        3
 70
     0
 43
0.0
 10
-90.40325476353295
 20
19.35723587756252
 42
-0.2040114418721105
 10
-88.47855596835222
 20
15.91446479322518
 10
-88.47855596835222
 20
15.29097081732156
  0
LWPOLYLINE
  5
118
330
18
100
AcDbEntity
  8
0
100
AcDbPolyline
 90
        4
 70
     0
 43
0.0
 10
-90.40325476353295
 20
20.41446479322517
 10
-90.07795355871367
 20
20.41446479322517
 10
-90.07795355871367
 20
19.8180792510565
 42
-0.1696956324163431
 10
-88.15325476353295
 20
16.80904310647818
 42
8.779458302422275
  0
ARC
  5
11E
330
18
100
AcDbEntity
  8
0
100
AcDbCircle
 10
-84.2268038823146
 20
6.258351958029796
 30
0.0
 40
5.792077043802637
100
AcDbArc
 50
133.1034816967904
 51
144.52466797179
  0
ARC
  5
11F
330
18
100
AcDbEntity
  8
0
100
AcDbCircle
 10
-84.2268038823146
 20
15.23124352429484
 30
0.0
 40
5.792077043802637
100
AcDbArc
 50
133.1034816967904
 51
144.52466797179
  0
ARC
  5
120
330
18
100
AcDbEntity
  8
0
100
AcDbCircle
 10
-84.2268038823146
 20
-2.788448957861188
 30
0.0
 40
5.792077043802637
100
AcDbArc
 50
133.1034816967904
 51
144.52466797179
  0
LWPOLYLINE
  5
121
330
18
100
AcDbEntity
  8
0
100
AcDbPolyline
 90
        3
 70
     0
 43
0.0
 10
-88.15325476353295
 20
5.593567491792019
 42
0.2040114418721105
 10
-90.07795355871369
 20
2.150796407454678
 10
-90.07795355871369
 20
1.527302431551057
  0
LWPOLYLINE
  5
126
330
18
100
AcDbEntity
  8
0
100
AcDbPolyline
 90
        4
 70
     0
 43
0.0
 10
-88.15325476353295
 20
1.961037371310108
 42
-0.1856776554368181
 10
-88.69542343823175
 20
2.096579539984802
 10
-88.83096560690644
 20
1.852603636370338
 42
-0.0756514995039179
 10
-88.15325476353295
 20
1.418868696611307
 42
2.295968109499118
  0
LWPOLYLINE
  5
12C
330
18
100
AcDbEntity
  8
0
100
AcDbPolyline
 90
        3
 70
     0
 43
0.0
 10
-90.40325476353295
 20
1.337543395406486
 42
-0.2040114418721105
 10
-88.47855596835222
 20
-2.105227688930853
 10
-88.47855596835222
 20
-2.728721664834475
  0
LWPOLYLINE
  5
131
330
18
100
AcDbEntity
  8
0
100
AcDbPolyline
 90
        3
 70
     0
 43
0.0
 10
-88.15325476353295
 20
-3.216673472063401
 42
0.2040114418721105
 10
-90.07795355871369
 20
-6.659444556400742
 10
-90.07795355871369
 20
-6.684156973112345
  0
LWPOLYLINE
  5
136
330
18
100
AcDbEntity
  8
0
100
AcDbPolyline
 90
        3
 70
     0
 43
0.0
 10
-86.22855596835224
 20
2.150796407454659
 10
-86.22855596835224
 20
1.798386768900464
 42
0.1696956324163431
 10
-88.15325476353295
 20
-1.21064937567785
 42
-8.779458302422275
  0
LWPOLYLINE
  5
13B
330
18
100
AcDbEntity
  8
0
100
AcDbPolyline
 90
        3
 70
     0
 43
0.0
 10
-90.07795355871367
 20
2.150796407454728
 10
-90.07795355871367
 20
1.798386768900464
 42
-0.1696956324163431
 10
-88.15325476353295
 20
-1.21064937567785
 42
8.779458302422275
  0
DIMENSION
  5
140
330
18
100
AcDbEntity
  8
ADPDIM
100
AcDbDimension
  2
*D0
 10
-81.40325476353295
 20
21.04747161918927
 30
0.0
 11
-85.90325476353296
 21
21.04747161918927
 31
0.0
 12
0.0037534436877138
 22
-0.5604564259387246
 32
0.0
100
AcDbAlignedDimension
 13
-90.40325476353295
 23
20.35196479322517
 33
0.0
 14
-81.40325476353295
 24
20.35196479322517
 34
0.0
100
AcDbRotatedDimension
  0
LINE
  5
141
330
18
100
AcDbEntity
  8
0
100
AcDbLine
 10
-90.40325476353295
 20
12.2548262390083
 30
0.0
 11
-90.40325476353295
 21
10.38434431129746
 31
0.0
  0
DIMENSION
  5
142
330
18
100
AcDbEntity
  8
ADPDIM
100
AcDbDimension
  2
*D1
 10
-91.35114576030714
 20
-6.648035206774824
 30
0.0
 11
-91.35114576030714
 21
6.851964793225174
 31
0.0
100
AcDbAlignedDimension
 13
-90.40325476353295
 23
20.35196479322517
 33
0.0
 14
-90.40325476353295
 24
-6.648035206774824
 34
0.0
 50
90.0
100
AcDbRotatedDimension
  0
ARC
  5
143
330
18
100
AcDbEntity
  8
0
100
AcDbCircle
 10
-94.29126544292541
 20
-7.315818452529287
 30
0.0
 40
6.034061022508631
100
AcDbArc
 50
36.43853563600871
 51
46.56905495018991
  0
ARC
  5
144
330
18
100
AcDbEntity
  8
0
100
AcDbCircle
 10
-94.3297056447513
 20
-7.342665825331076
 30
0.0
 40
5.792077043802637
100
AcDbArc
 50
35.47533202820996
 51
46.89651830320952
  0
LWPOLYLINE
  5
145
330
18
100
AcDbEntity
  8
0
100
AcDbPolyline
 90
        3
 70
     0
 43
0.0
 10
-88.47855596835223
 20
-2.159444556400749
 10
-88.47855596835223
 20
-2.755830098569422
 42
0.1696956324163431
 10
-90.40325476353295
 20
-5.764866243147738
 42
-8.779458302422275
  0
LINE
  5
14A
330
18
100
AcDbEntity
  8
0
100
AcDbLine
 10
-90.07795355871369
 20
-6.659444556400742
 30
0.0
 11
-90.40325476353295
 21
-6.659444556400742
 31
0.0
  0
LINE
  5
14B
330
18
100
AcDbEntity
  8
0
100
AcDbLine
 10
-90.40325476353295
 20
-5.764866243147738
 30
0.0
 11
-90.40325476353295
 21
-6.659444556400742
 31
0.0
  0
LWPOLYLINE
  5
14C
330
18
100
AcDbEntity
  8
0
100
AcDbPolyline
 90
        3
 70
     0
 43
0.0
 10
-88.47855596835223
 20
6.650796407454671
 10
-88.47855596835223
 20
6.054410865285999
 42
0.1696956324163431
 10
-90.40325476353295
 20
3.045374720707683
 42
-8.779458302422275
  0
LINE
  5
151
330
18
100
AcDbEntity
  8
0
100
AcDbLine
 10
-90.40325476353295
 20
-2.59317949615978
 30
0.0
 11
-90.40325476353295
 21
-3.133643475983614
 31
0.0
  0
LWPOLYLINE
  5
152
330
18
100
AcDbEntity
  8
0
100
AcDbPolyline
 90
        4
 70
     0
 43
0.0
 10
-90.40325476353295
 20
-2.59317949615978
 42
0.1856776554368181
 10
-89.86108608883418
 20
-2.457637327485086
 10
-89.72554392015947
 20
-2.701613231099548
 42
0.0756514995039179
 10
-90.40325476353295
 20
-3.13534817085858
 42
-2.295968109499118
  0
LINE
  5
158
330
18
100
AcDbEntity
  8
0
100
AcDbLine
 10
-90.40325476353295
 20
3.045374720707683
 30
0.0
 11
-90.40325476353295
 21
1.337543395406486
 31
0.0
  0
ARC
  5
159
330
18
100
AcDbEntity
  8
0
100
AcDbCircle
 10
-84.26524408414051
 20
-2.7616015850594
 30
0.0
 40
6.034061022508631
100
AcDbArc
 50
133.4309450498101
 51
143.5614643639912
  0
ARC
  5
15A
330
18
100
AcDbEntity
  8
0
100
AcDbCircle
 10
-94.29126544292541
 20
1.494422511326132
 30
0.0
 40
6.034061022508631
100
AcDbArc
 50
36.43853563600871
 51
46.56905495018992
  0
ARC
  5
15B
330
18
100
AcDbEntity
  8
0
100
AcDbCircle
 10
-94.3297056447513
 20
1.467575138524344
 30
0.0
 40
5.792077043802637
100
AcDbArc
 50
35.47533202820996
 51
46.89651830320952
  0
LINE
  5
15C
330
18
100
AcDbEntity
  8
0
100
AcDbLine
 10
-90.40325476353295
 20
6.21706146769564
 30
0.0
 11
-90.40325476353295
 21
5.67489279299684
 31
0.0
  0
LWPOLYLINE
  5
15D
330
18
100
AcDbEntity
  8
0
100
AcDbPolyline
 90
        4
 70
     0
 43
0.0
 10
-90.40325476353295
 20
6.21706146769564
 42
0.1856776554368181
 10
-89.86108608883418
 20
6.352603636370335
 10
-89.72554392015947
 20
6.108627732755873
 42
0.0756514995039179
 10
-90.40325476353295
 20
5.67489279299684
 42
-2.295968109499118
  0
ARC
  5
163
330
18
100
AcDbEntity
  8
0
100
AcDbCircle
 10
-84.26524408414051
 20
6.285199330831583
 30
0.0
 40
6.034061022508631
100
AcDbArc
 50
133.4309450498101
 51
143.5614643639912
  0
ARC
  5
164
330
18
100
AcDbEntity
  8
0
100
AcDbCircle
 10
-94.29126544292541
 20
10.70387402962674
 30
0.0
 40
6.034061022508631
100
AcDbArc
 50
36.43853563600871
 51
46.56905495018991
  0
LWPOLYLINE
  5
165
330
18
100
AcDbEntity
  8
0
100
AcDbPolyline
 90
        3
 70
     0
 43
0.0
 10
-88.47855596835223
 20
15.86024792575528
 10
-88.47855596835223
 20
15.26386238358661
 42
0.1696956324163431
 10
-90.40325476353295
 20
12.2548262390083
 42
-8.779458302422275
  0
LINE
  5
16A
330
18
100
AcDbEntity
  8
0
100
AcDbLine
 10
-90.40325476353295
 20
15.42651298599625
 30
0.0
 11
-90.40325476353295
 21
14.88434431129745
 31
0.0
  0
LWPOLYLINE
  5
16B
330
18
100
AcDbEntity
  8
0
100
AcDbPolyline
 90
        4
 70
     0
 43
0.0
 10
-90.40325476353295
 20
15.42651298599625
 42
0.1856776554368181
 10
-89.86108608883418
 20
15.56205515467095
 10
-89.72554392015947
 20
15.31807925105648
 42
0.0756514995039179
 10
-90.40325476353295
 20
14.88434431129745
 42
-2.295968109499118
  0
ARC
  5
171
330
18
100
AcDbEntity
  8
0
100
AcDbCircle
 10
-94.3297056447513
 20
10.67702665682496
 30
0.0
 40
5.792077043802637
100
AcDbArc
 50
35.47533202820996
 51
46.89651830320952
  0
LINE
  5
172
330
18
100
AcDbEntity
  8
0
100
AcDbLine
 10
-90.40325476353295
 20
20.41446479322517
 30
0.0
 11
-90.40325476353295
 21
19.35723587756252
 31
0.0
  0
ARC
  5
173
330
18
100
AcDbEntity
  8
0
100
AcDbCircle
 10
-84.26524408414051
 20
15.25809089709663
 30
0.0
 40
6.034061022508631
100
AcDbArc
 50
133.218076914364
 51
143.5614643639912
  0
LWPOLYLINE
  5
174
330
18
100
AcDbEntity
  8
0
100
AcDbPolyline
 90
        3
 70
     0
 43
0.0
 10
-85.57795355871368
 20
11.44157322696012
 10
-85.57795355871368
 20
10.84518768479144
 42
-0.1696956324163431
 10
-83.65325476353296
 20
7.836151540213132
 42
8.779458302422275
  0
LWPOLYLINE
  5
179
330
18
100
AcDbEntity
  8
0
100
AcDbPolyline
 90
        3
 70
     0
 43
0.0
 10
-81.72855596835225
 20
11.44157322696012
 10
-81.72855596835225
 20
10.84518768479144
 42
0.1696956324163431
 10
-83.65325476353296
 20
7.836151540213132
 42
-8.779458302422275
  0
LWPOLYLINE
  5
17E
330
18
100
AcDbEntity
  8
0
100
AcDbPolyline
 90
        3
 70
     0
 43
0.0
 10
-83.65325476353296
 20
14.80301901009263
 42
0.2040114418721105
 10
-85.57795355871368
 20
11.36024792575529
 10
-85.57795355871368
 20
10.73675394985167
  0
LWPOLYLINE
  5
183
330
18
100
AcDbEntity
  8
0
100
AcDbPolyline
 90
        3
 70
     0
 43
0.0
 10
-88.15325476353295
 20
14.80301901009263
 42
-0.2040114418721105
 10
-86.22855596835224
 20
11.36024792575529
 10
-86.22855596835224
 20
10.84518768479144
  0
LWPOLYLINE
  5
188
330
18
100
AcDbEntity
  8
0
100
AcDbPolyline
 90
        3
 70
     0
 43
0.0
 10
-83.65325476353296
 20
14.80301901009263
 42
-0.2040114418721105
 10
-81.72855596835225
 20
11.36024792575529
 10
-81.72855596835225
 20
10.84518768479144
  0
LINE
  5
18D
330
18
100
AcDbEntity
  8
0
100
AcDbLine
 10
-81.40325476353295
 20
12.2548262390083
 30
0.0
 11
-81.40325476353295
 21
10.38434431129746
 31
0.0
  0
ARC
  5
18E
330
18
100
AcDbEntity
  8
0
100
AcDbCircle
 10
-77.5152440841405
 20
-7.315818452529287
 30
0.0
 40
6.034061022508631
100
AcDbArc
 50
133.43094504981
 51
143.5614643639912
  0
ARC
  5
18F
330
18
100
AcDbEntity
  8
0
100
AcDbCircle
 10
-77.47680388231461
 20
-7.342665825331076
 30
0.0
 40
5.792077043802637
100
AcDbArc
 50
133.1034816967904
 51
144.52466797179
  0
LWPOLYLINE
  5
190
330
18
100
AcDbEntity
  8
0
100
AcDbPolyline
 90
        3
 70
     0
 43
0.0
 10
-83.65325476353296
 20
-3.216673472063401
 42
-0.2040114418721105
 10
-81.72855596835225
 20
-6.659444556400742
 10
-81.72855596835225
 20
-6.684156973112345
  0
LWPOLYLINE
  5
195
330
18
100
AcDbEntity
  8
0
100
AcDbPolyline
 90
        3
 70
     0
 43
0.0
 10
-83.32795355871368
 20
-2.159444556400749
 10
-83.32795355871368
 20
-2.755830098569422
 42
-0.1696956324163431
 10
-81.40325476353295
 20
-5.764866243147738
 42
8.779458302422275
  0
ARC
  5
19A
330
18
100
AcDbEntity
  8
0
100
AcDbCircle
 10
-89.82970564475129
 20
-7.342665825331076
 30
0.0
 40
5.792077043802637
100
AcDbArc
 50
35.47533202820996
 51
46.89651830320952
  0
ARC
  5
19B
330
18
100
AcDbEntity
  8
0
100
AcDbCircle
 10
-89.79126544292542
 20
-7.315818452529287
 30
0.0
 40
6.034061022508631
100
AcDbArc
 50
36.43853563600871
 51
46.56905495018989
  0
ARC
  5
19C
330
18
100
AcDbEntity
  8
0
100
AcDbCircle
 10
-82.0152440841405
 20
-7.315818452529287
 30
0.0
 40
6.034061022508631
100
AcDbArc
 50
133.4309450498101
 51
143.5614643639912
  0
ARC
  5
19D
330
18
100
AcDbEntity
  8
0
100
AcDbCircle
 10
-81.97680388231461
 20
-7.342665825331076
 30
0.0
 40
5.792077043802637
100
AcDbArc
 50
133.1034816967904
 51
144.52466797179
  0
LWPOLYLINE
  5
19E
330
18
100
AcDbEntity
  8
0
100
AcDbPolyline
 90
        3
 70
     0
 43
0.0
 10
-88.15325476353295
 20
-3.216673472063401
 42
-0.2040114418721105
 10
-86.22855596835224
 20
-6.659444556400742
 10
-86.22855596835224
 20
-6.684156973112345
  0
LWPOLYLINE
  5
1A3
330
18
100
AcDbEntity
  8
0
100
AcDbPolyline
 90
        3
 70
     0
 43
0.0
 10
-87.82795355871369
 20
-2.159444556400749
 10
-87.82795355871369
 20
-2.755830098569422
 42
-0.1696956324163431
 10
-85.90325476353296
 20
-5.764866243147738
 42
8.779458302422275
  0
LWPOLYLINE
  5
1A8
330
18
100
AcDbEntity
  8
0
100
AcDbPolyline
 90
        3
 70
     0
 43
0.0
 10
-83.65325476353296
 20
-3.216673472063401
 42
0.2040114418721105
 10
-85.57795355871368
 20
-6.659444556400742
 10
-85.57795355871368
 20
-6.684156973112345
  0
LWPOLYLINE
  5
1AD
330
18
100
AcDbEntity
  8
0
100
AcDbPolyline
 90
        3
 70
     0
 43
0.0
 10
-83.97855596835224
 20
-2.159444556400749
 10
-83.97855596835224
 20
-2.755830098569422
 42
0.1696956324163431
 10
-85.90325476353296
 20
-5.764866243147738
 42
-8.779458302422275
  0
LWPOLYLINE
  5
1B2
330
18
100
AcDbEntity
  8
0
100
AcDbPolyline
 90
        2
 70
     0
 43
0.0
 10
-85.57795355871368
 20
-6.684156973112345
 10
-86.22855596835224
 20
-6.684156973112345
  0
LWPOLYLINE
  5
1B6
330
18
100
AcDbEntity
  8
0
100
AcDbPolyline
 90
        2
 70
     0
 43
0.0
 10
-81.40325476353295
 20
-6.684156973112345
 10
-81.72855596835225
 20
-6.684156973112345
  0
LINE
  5
1BA
330
18
100
AcDbEntity
  8
0
100
AcDbLine
 10
-81.40325476353295
 20
-5.764866243147738
 30
0.0
 11
-81.40325476353295
 21
-6.684156973112345
 31
0.0
  0
LWPOLYLINE
  5
1BB
330
18
100
AcDbEntity
  8
0
100
AcDbPolyline
 90
        3
 70
     0
 43
0.0
 10
-83.65325476353296
 20
5.593567491792019
 42
-0.2040114418721105
 10
-81.72855596835225
 20
2.150796407454678
 10
-81.72855596835225
 20
1.798386768900464
  0
LWPOLYLINE
  5
1C0
330
18
100
AcDbEntity
  8
0
100
AcDbPolyline
 90
        3
 70
     0
 43
0.0
 10
-83.32795355871368
 20
6.650796407454671
 10
-83.32795355871368
 20
6.054410865285999
 42
-0.1696956324163431
 10
-81.40325476353295
 20
3.045374720707683
 42
8.779458302422275
  0
LWPOLYLINE
  5
1C5
330
18
100
AcDbEntity
  8
0
100
AcDbPolyline
 90
        3
 70
     0
 43
0.0
 10
-88.15325476353295
 20
5.593567491792019
 42
-0.2040114418721105
 10
-86.22855596835224
 20
2.150796407454678
 10
-86.22855596835224
 20
1.798386768900464
  0
LWPOLYLINE
  5
1CA
330
18
100
AcDbEntity
  8
0
100
AcDbPolyline
 90
        3
 70
     0
 43
0.0
 10
-87.82795355871369
 20
6.650796407454671
 10
-87.82795355871369
 20
6.054410865285999
 42
-0.1696956324163431
 10
-85.90325476353296
 20
3.045374720707683
 42
8.779458302422275
  0
LWPOLYLINE
  5
1CF
330
18
100
AcDbEntity
  8
0
100
AcDbPolyline
 90
        3
 70
     0
 43
0.0
 10
-83.65325476353296
 20
5.593567491792019
 42
0.2040114418721105
 10
-85.57795355871368
 20
2.150796407454678
 10
-85.57795355871368
 20
1.798386768900464
  0
LWPOLYLINE
  5
1D4
330
18
100
AcDbEntity
  8
0
100
AcDbPolyline
 90
        3
 70
     0
 43
0.0
 10
-83.97855596835224
 20
6.650796407454671
 10
-83.97855596835224
 20
6.054410865285999
 42
0.1696956324163431
 10
-85.90325476353296
 20
3.045374720707683
 42
-8.779458302422275
  0
LWPOLYLINE
  5
1D9
330
18
100
AcDbEntity
  8
0
100
AcDbPolyline
 90
        3
 70
     0
 43
0.0
 10
-81.72855596835225
 20
2.150796407454696
 10
-81.72855596835225
 20
1.798386768900464
 42
0.1696956324163431
 10
-83.65325476353296
 20
-1.21064937567785
 42
-8.779458302422275
  0
LWPOLYLINE
  5
1DE
330
18
100
AcDbEntity
  8
0
100
AcDbPolyline
 90
        3
 70
     0
 43
0.0
 10
-81.40325476353295
 20
1.337543395406486
 42
0.2040114418721105
 10
-83.32795355871368
 20
-2.105227688930853
 10
-83.32795355871368
 20
-2.728721664834475
  0
LWPOLYLINE
  5
1E3
330
18
100
AcDbEntity
  8
0
100
AcDbPolyline
 90
        3
 70
     0
 43
0.0
 10
-85.90325476353296
 20
1.337543395406486
 42
0.2040114418721105
 10
-87.82795355871369
 20
-2.105227688930853
 10
-87.82795355871369
 20
-2.728721664834475
  0
LWPOLYLINE
  5
1E8
330
18
100
AcDbEntity
  8
0
100
AcDbPolyline
 90
        3
 70
     0
 43
0.0
 10
-85.90325476353296
 20
1.337543395406486
 42
-0.2040114418721105
 10
-83.97855596835224
 20
-2.105227688930853
 10
-83.97855596835224
 20
-2.728721664834475
  0
LWPOLYLINE
  5
1ED
330
18
100
AcDbEntity
  8
0
100
AcDbPolyline
 90
        3
 70
     0
 43
0.0
 10
-85.57795355871368
 20
2.150796407454689
 10
-85.57795355871368
 20
1.798386768900464
 42
-0.1696956324163431
 10
-83.65325476353296
 20
-1.21064937567785
 42
8.779458302422275
  0
LWPOLYLINE
  5
1F2
330
18
100
AcDbEntity
  8
0
100
AcDbPolyline
 90
        4
 70
     0
 43
0.0
 10
-85.90325476353296
 20
-2.59317949615978
 42
0.1856776554368181
 10
-85.36108608883415
 20
-2.457637327485086
 10
-85.22554392015946
 20
-2.701613231099548
 42
0.0756514995039179
 10
-85.90325476353296
 20
-3.13534817085858
 42
-2.295968109499118
  0
LWPOLYLINE
  5
1F8
330
18
100
AcDbEntity
  8
0
100
AcDbPolyline
 90
        4
 70
     0
 43
0.0
 10
-85.90325476353296
 20
-2.59317949615978
 42
-0.1856776554368181
 10
-86.44542343823175
 20
-2.457637327485086
 10
-86.58096560690646
 20
-2.701613231099548
 42
-0.0756514995039179
 10
-85.90325476353296
 20
-3.13534817085858
 42
2.295968109499118
  0
LWPOLYLINE
  5
1FE
330
18
100
AcDbEntity
  8
0
100
AcDbPolyline
 90
        4
 70
     0
 43
0.0
 10
-88.15325476353295
 20
1.961037371310108
 42
0.1856776554368181
 10
-87.61108608883416
 20
2.096579539984802
 10
-87.47554392015947
 20
1.852603636370338
 42
0.0756514995039179
 10
-88.15325476353295
 20
1.418868696611307
 42
-2.295968109499118
  0
ARC
  5
204
330
18
100
AcDbEntity
  8
0
100
AcDbCircle
 10
-92.07970564475131
 20
-2.788448957861188
 30
0.0
 40
5.792077043802637
100
AcDbArc
 50
35.47533202820996
 51
46.89651830320952
  0
ARC
  5
205
330
18
100
AcDbEntity
  8
0
100
AcDbCircle
 10
-92.0412654429254
 20
-2.7616015850594
 30
0.0
 40
6.034061022508631
100
AcDbArc
 50
36.43853563600871
 51
46.56905495018989
  0
LWPOLYLINE
  5
206
330
18
100
AcDbEntity
  8
0
100
AcDbPolyline
 90
        4
 70
     0
 43
0.0
 10
-83.65325476353296
 20
1.961037371310108
 42
-0.1856776554368181
 10
-84.19542343823176
 20
2.096579539984802
 10
-84.33096560690646
 20
1.852603636370338
 42
-0.0756514995039179
 10
-83.65325476353296
 20
1.418868696611307
 42
2.295968109499118
  0
LWPOLYLINE
  5
20C
330
18
100
AcDbEntity
  8
0
100
AcDbPolyline
 90
        4
 70
     0
 43
0.0
 10
-83.65325476353296
 20
1.961037371310108
 42
0.1856776554368181
 10
-83.11108608883415
 20
2.096579539984802
 10
-82.97554392015946
 20
1.852603636370338
 42
0.0756514995039179
 10
-83.65325476353296
 20
1.418868696611307
 42
-2.295968109499118
  0
ARC
  5
212
330
18
100
AcDbEntity
  8
0
100
AcDbCircle
 10
-79.72680388231461
 20
-2.788448957861188
 30
0.0
 40
5.792077043802637
100
AcDbArc
 50
133.1034816967904
 51
144.52466797179
  0
ARC
  5
213
330
18
100
AcDbEntity
  8
0
100
AcDbCircle
 10
-79.7652440841405
 20
-2.7616015850594
 30
0.0
 40
6.034061022508631
100
AcDbArc
 50
133.4309450498101
 51
143.5614643639912
  0
ARC
  5
214
330
18
100
AcDbEntity
  8
0
100
AcDbCircle
 10
-87.54126544292542
 20
-2.7616015850594
 30
0.0
 40
6.034061022508631
100
AcDbArc
 50
36.43853563600871
 51
46.56905495018989
  0
ARC
  5
215
330
18
100
AcDbEntity
  8
0
100
AcDbCircle
 10
-87.5797056447513
 20
-2.788448957861188
 30
0.0
 40
5.792077043802637
100
AcDbArc
 50
35.47533202820996
 51
46.89651830320952
  0
LINE
  5
216
330
18
100
AcDbEntity
  8
0
100
AcDbLine
 10
-81.40325476353295
 20
-2.59317949615978
 30
0.0
 11
-81.40325476353295
 21
-3.118353171102298
 31
0.0
  0
LWPOLYLINE
  5
217
330
18
100
AcDbEntity
  8
0
100
AcDbPolyline
 90
        4
 70
     0
 43
0.0
 10
-81.40325476353295
 20
-2.59317949615978
 42
-0.1856776554368181
 10
-81.94542343823176
 20
-2.457637327485086
 10
-82.08096560690647
 20
-2.701613231099548
 42
-0.0756514995039179
 10
-81.40325476353295
 20
-3.13534817085858
 42
2.295968109499118
  0
LINE
  5
21D
330
18
100
AcDbEntity
  8
0
100
AcDbLine
 10
-81.40325476353295
 20
3.045374720707683
 30
0.0
 11
-81.40325476353295
 21
1.337543395406486
 31
0.0
  0
LWPOLYLINE
  5
21E
330
18
100
AcDbEntity
  8
0
100
AcDbPolyline
 90
        3
 70
     0
 43
0.0
 10
-81.40325476353295
 20
10.38434431129746
 42
0.2040114418721105
 10
-83.32795355871368
 20
6.941573226960129
 10
-83.32795355871368
 20
6.081519299020945
  0
ARC
  5
223
330
18
100
AcDbEntity
  8
0
100
AcDbCircle
 10
-77.5152440841405
 20
1.494422511326132
 30
0.0
 40
6.034061022508631
100
AcDbArc
 50
133.43094504981
 51
143.5614643639912
  0
LWPOLYLINE
  5
224
330
18
100
AcDbEntity
  8
0
100
AcDbPolyline
 90
        3
 70
     0
 43
0.0
 10
-85.90325476353296
 20
10.38434431129746
 42
-0.2040114418721105
 10
-83.97855596835224
 20
6.941573226960129
 10
-83.97855596835224
 20
6.081519299020945
  0
LWPOLYLINE
  5
229
330
18
100
AcDbEntity
  8
0
100
AcDbPolyline
 90
        3
 70
     0
 43
0.0
 10
-85.90325476353296
 20
10.38434431129746
 42
0.2040114418721105
 10
-87.82795355871369
 20
6.941573226960129
 10
-87.82795355871369
 20
6.081519299020945
  0
LWPOLYLINE
  5
22E
330
18
100
AcDbEntity
  8
0
100
AcDbPolyline
 90
        4
 70
     0
 43
0.0
 10
-85.90325476353296
 20
6.21706146769564
 42
0.1856776554368181
 10
-85.36108608883415
 20
6.352603636370335
 10
-85.22554392015946
 20
6.108627732755873
 42
0.0756514995039179
 10
-85.90325476353296
 20
5.67489279299684
 42
-2.295968109499118
  0
ARC
  5
234
330
18
100
AcDbEntity
  8
0
100
AcDbCircle
 10
-89.82970564475129
 20
1.467575138524344
 30
0.0
 40
5.792077043802637
100
AcDbArc
 50
35.47533202820996
 51
46.89651830320952
  0
ARC
  5
235
330
18
100
AcDbEntity
  8
0
100
AcDbCircle
 10
-89.79126544292542
 20
1.494422511326132
 30
0.0
 40
6.034061022508631
100
AcDbArc
 50
36.43853563600871
 51
46.56905495018989
  0
ARC
  5
236
330
18
100
AcDbEntity
  8
0
100
AcDbCircle
 10
-82.0152440841405
 20
1.494422511326132
 30
0.0
 40
6.034061022508631
100
AcDbArc
 50
133.4309450498101
 51
143.5614643639912
  0
ARC
  5
237
330
18
100
AcDbEntity
  8
0
100
AcDbCircle
 10
-81.97680388231461
 20
1.467575138524344
 30
0.0
 40
5.792077043802637
100
AcDbArc
 50
133.1034816967904
 51
144.52466797179
  0
LWPOLYLINE
  5
238
330
18
100
AcDbEntity
  8
0
100
AcDbPolyline
 90
        4
 70
     0
 43
0.0
 10
-85.90325476353296
 20
6.21706146769564
 42
-0.1856776554368181
 10
-86.44542343823175
 20
6.352603636370335
 10
-86.58096560690646
 20
6.108627732755873
 42
-0.0756514995039179
 10
-85.90325476353296
 20
5.67489279299684
 42
2.295968109499118
  0
LWPOLYLINE
  5
23E
330
18
100
AcDbEntity
  8
0
100
AcDbPolyline
 90
        4
 70
     0
 43
0.0
 10
-88.15325476353295
 20
11.00783828720109
 42
0.1856776554368181
 10
-87.61108608883416
 20
11.14338045587578
 10
-87.47554392015947
 20
10.89940455226132
 42
0.0756514995039179
 10
-88.15325476353295
 20
10.46566961250229
 42
-2.295968109499118
  0
ARC
  5
244
330
18
100
AcDbEntity
  8
0
100
AcDbCircle
 10
-92.0412654429254
 20
6.285199330831583
 30
0.0
 40
6.034061022508631
100
AcDbArc
 50
36.43853563600871
 51
46.56905495018989
  0
ARC
  5
245
330
18
100
AcDbEntity
  8
0
100
AcDbCircle
 10
-92.07970564475131
 20
6.258351958029796
 30
0.0
 40
5.792077043802637
100
AcDbArc
 50
35.47533202820996
 51
46.89651830320952
  0
ARC
  5
246
330
18
100
AcDbEntity
  8
0
100
AcDbCircle
 10
-79.72680388231461
 20
6.258351958029796
 30
0.0
 40
5.792077043802637
100
AcDbArc
 50
133.1034816967904
 51
144.52466797179
  0
LWPOLYLINE
  5
247
330
18
100
AcDbEntity
  8
0
100
AcDbPolyline
 90
        4
 70
     0
 43
0.0
 10
-83.65325476353296
 20
11.00783828720109
 42
-0.1856776554368181
 10
-84.19542343823176
 20
11.14338045587578
 10
-84.33096560690646
 20
10.89940455226132
 42
-0.0756514995039179
 10
-83.65325476353296
 20
10.46566961250229
 42
2.295968109499118
  0
ARC
  5
24D
330
18
100
AcDbEntity
  8
0
100
AcDbCircle
 10
-79.7652440841405
 20
6.285199330831583
 30
0.0
 40
6.034061022508631
100
AcDbArc
 50
133.4309450498101
 51
143.5614643639912
  0
ARC
  5
24E
330
18
100
AcDbEntity
  8
0
100
AcDbCircle
 10
-87.5797056447513
 20
6.258351958029796
 30
0.0
 40
5.792077043802637
100
AcDbArc
 50
35.47533202820996
 51
46.89651830320952
  0
LWPOLYLINE
  5
24F
330
18
100
AcDbEntity
  8
0
100
AcDbPolyline
 90
        4
 70
     0
 43
0.0
 10
-83.65325476353296
 20
11.00783828720109
 42
0.1856776554368181
 10
-83.11108608883415
 20
11.14338045587578
 10
-82.97554392015946
 20
10.89940455226132
 42
0.0756514995039179
 10
-83.65325476353296
 20
10.46566961250229
 42
-2.295968109499118
  0
ARC
  5
255
330
18
100
AcDbEntity
  8
0
100
AcDbCircle
 10
-87.54126544292542
 20
6.285199330831583
 30
0.0
 40
6.034061022508631
100
AcDbArc
 50
36.43853563600871
 51
46.78192308563597
  0
ARC
  5
256
330
18
100
AcDbEntity
  8
0
100
AcDbCircle
 10
-77.47680388231461
 20
1.467575138524344
 30
0.0
 40
5.792077043802637
100
AcDbArc
 50
133.1034816967904
 51
144.52466797179
  0
LINE
  5
257
330
18
100
AcDbEntity
  8
0
100
AcDbLine
 10
-81.40325476353295
 20
6.21706146769564
 30
0.0
 11
-81.40325476353295
 21
5.67489279299684
 31
0.0
  0
LWPOLYLINE
  5
258
330
18
100
AcDbEntity
  8
0
100
AcDbPolyline
 90
        4
 70
     0
 43
0.0
 10
-81.40325476353295
 20
6.21706146769564
 42
-0.1856776554368181
 10
-81.94542343823176
 20
6.352603636370335
 10
-82.08096560690647
 20
6.108627732755873
 42
-0.0756514995039179
 10
-81.40325476353295
 20
5.67489279299684
 42
2.295968109499118
  0
ARC
  5
25E
330
18
100
AcDbEntity
  8
0
100
AcDbCircle
 10
-79.72680388231461
 20
15.23124352429484
 30
0.0
 40
5.792077043802637
100
AcDbArc
 50
133.1034816967904
 51
144.52466797179
  0
LWPOLYLINE
  5
25F
330
18
100
AcDbEntity
  8
0
100
AcDbPolyline
 90
        3
 70
     0
 43
0.0
 10
-85.90325476353296
 20
19.35723587756252
 42
-0.2040114418721105
 10
-83.97855596835224
 20
15.91446479322518
 10
-83.97855596835224
 20
15.29097081732156
  0
LWPOLYLINE
  5
264
330
18
100
AcDbEntity
  8
0
100
AcDbPolyline
 90
        4
 70
     0
 43
0.0
 10
-85.90325476353296
 20
20.41446479322517
 10
-85.57795355871368
 20
20.41446479322517
 10
-85.57795355871368
 20
19.8180792510565
 42
-0.1696956324163431
 10
-83.65325476353296
 20
16.80904310647818
 42
8.779458302422275
  0
LWPOLYLINE
  5
26A
330
18
100
AcDbEntity
  8
0
100
AcDbPolyline
 90
        3
 70
     0
 43
0.0
 10
-85.90325476353296
 20
19.35723587756252
 42
0.2040114418721105
 10
-87.82795355871369
 20
15.91446479322518
 10
-87.82795355871369
 20
15.29097081732156
  0
ARC
  5
26F
330
18
100
AcDbEntity
  8
0
100
AcDbCircle
 10
-92.07970564475131
 20
15.23124352429484
 30
0.0
 40
5.792077043802637
100
AcDbArc
 50
35.47533202820996
 51
46.89651830320952
  0
LWPOLYLINE
  5
270
330
18
100
AcDbEntity
  8
0
100
AcDbPolyline
 90
        3
 70
     0
 43
0.0
 10
-81.40325476353295
 20
19.35723587756252
 42
0.2040114418721105
 10
-83.32795355871368
 20
15.91446479322518
 10
-83.32795355871368
 20
15.29097081732156
  0
LWPOLYLINE
  5
275
330
18
100
AcDbEntity
  8
0
100
AcDbPolyline
 90
        4
 70
     0
 43
0.0
 10
-81.40325476353295
 20
20.41446479322517
 10
-81.72855596835225
 20
20.41446479322517
 10
-81.72855596835225
 20
19.8180792510565
 42
0.1696956324163431
 10
-83.65325476353296
 20
16.80904310647818
 42
-8.779458302422275
  0
ARC
  5
27B
330
18
100
AcDbEntity
  8
0
100
AcDbCircle
 10
-87.5797056447513
 20
15.23124352429484
 30
0.0
 40
5.792077043802637
100
AcDbArc
 50
35.47533202820996
 51
46.89651830320952
  0
LWPOLYLINE
  5
27C
330
18
100
AcDbEntity
  8
0
100
AcDbPolyline
 90
        3
 70
     0
 43
0.0
 10
-83.32795355871368
 20
15.86024792575528
 10
-83.32795355871368
 20
15.26386238358661
 42
-0.1696956324163431
 10
-81.40325476353295
 20
12.2548262390083
 42
8.779458302422275
  0
ARC
  5
281
330
18
100
AcDbEntity
  8
0
100
AcDbCircle
 10
-77.5152440841405
 20
10.70387402962674
 30
0.0
 40
6.034061022508631
100
AcDbArc
 50
133.43094504981
 51
143.5614643639912
  0
ARC
  5
282
330
18
100
AcDbEntity
  8
0
100
AcDbCircle
 10
-82.0152440841405
 20
10.70387402962674
 30
0.0
 40
6.034061022508631
100
AcDbArc
 50
133.4309450498101
 51
143.5614643639912
  0
ARC
  5
283
330
18
100
AcDbEntity
  8
0
100
AcDbCircle
 10
-89.79126544292542
 20
10.70387402962674
 30
0.0
 40
6.034061022508631
100
AcDbArc
 50
36.43853563600871
 51
46.56905495018989
  0
LWPOLYLINE
  5
284
330
18
100
AcDbEntity
  8
0
100
AcDbPolyline
 90
        3
 70
     0
 43
0.0
 10
-83.97855596835224
 20
15.86024792575528
 10
-83.97855596835224
 20
15.26386238358661
 42
0.1696956324163431
 10
-85.90325476353296
 20
12.2548262390083
 42
-8.779458302422275
  0
LWPOLYLINE
  5
289
330
18
100
AcDbEntity
  8
0
100
AcDbPolyline
 90
        3
 70
     0
 43
0.0
 10
-87.82795355871369
 20
15.86024792575528
 10
-87.82795355871369
 20
15.26386238358661
 42
-0.1696956324163431
 10
-85.90325476353296
 20
12.2548262390083
 42
8.779458302422275
  0
LWPOLYLINE
  5
28E
330
18
100
AcDbEntity
  8
0
100
AcDbPolyline
 90
        4
 70
     0
 43
0.0
 10
-85.90325476353296
 20
15.42651298599625
 42
0.1856776554368181
 10
-85.36108608883415
 20
15.56205515467095
 10
-85.22554392015946
 20
15.31807925105648
 42
0.0756514995039179
 10
-85.90325476353296
 20
14.88434431129745
 42
-2.295968109499118
  0
LWPOLYLINE
  5
294
330
18
100
AcDbEntity
  8
0
100
AcDbPolyline
 90
        4
 70
     0
 43
0.0
 10
-85.90325476353296
 20
15.42651298599625
 42
-0.1856776554368181
 10
-86.44542343823175
 20
15.56205515467095
 10
-86.58096560690646
 20
15.31807925105648
 42
-0.0756514995039179
 10
-85.90325476353296
 20
14.88434431129745
 42
2.295968109499118
  0
ARC
  5
29A
330
18
100
AcDbEntity
  8
0
100
AcDbCircle
 10
-89.82970564475129
 20
10.67702665682496
 30
0.0
 40
5.792077043802637
100
AcDbArc
 50
35.47533202820996
 51
46.89651830320952
  0
ARC
  5
29B
330
18
100
AcDbEntity
  8
0
100
AcDbCircle
 10
-81.97680388231461
 20
10.67702665682496
 30
0.0
 40
5.792077043802637
100
AcDbArc
 50
133.1034816967904
 51
144.52466797179
  0
LINE
  5
29C
330
18
100
AcDbEntity
  8
0
100
AcDbLine
 10
-81.40325476353295
 20
15.42651298599625
 30
0.0
 11
-81.40325476353295
 21
14.88434431129745
 31
0.0
  0
LWPOLYLINE
  5
29D
330
18
100
AcDbEntity
  8
0
100
AcDbPolyline
 90
        4
 70
     0
 43
0.0
 10
-81.40325476353295
 20
15.42651298599625
 42
-0.1856776554368181
 10
-81.94542343823176
 20
15.56205515467095
 10
-82.08096560690647
 20
15.31807925105648
 42
-0.0756514995039179
 10
-81.40325476353295
 20
14.88434431129745
 42
2.295968109499118
  0
ARC
  5
2A3
330
18
100
AcDbEntity
  8
0
100
AcDbCircle
 10
-77.47680388231461
 20
10.67702665682496
 30
0.0
 40
5.792077043802637
100
AcDbArc
 50
133.1034816967904
 51
144.52466797179
  0
LWPOLYLINE
  5
2A4
330
18
100
AcDbEntity
  8
0
100
AcDbPolyline
 90
        4
 70
     0
 43
0.0
 10
-88.15325476353295
 20
19.98072985346614
 42
0.1856776554368181
 10
-87.61108608883416
 20
20.11627202214083
 10
-87.47554392015947
 20
19.87229611852637
 42
0.0756514995039179
 10
-88.15325476353295
 20
19.43856117876734
 42
-2.295968109499118
  0
ARC
  5
2AA
330
18
100
AcDbEntity
  8
0
100
AcDbCircle
 10
-92.0412654429254
 20
15.25809089709663
 30
0.0
 40
6.034061022508631
100
AcDbArc
 50
36.43853563600871
 51
46.56905495018989
  0
LWPOLYLINE
  5
2AB
330
18
100
AcDbEntity
  8
0
100
AcDbPolyline
 90
        4
 70
     0
 43
0.0
 10
-83.65325476353296
 20
19.98072985346614
 42
-0.1856776554368181
 10
-84.19542343823176
 20
20.11627202214083
 10
-84.33096560690646
 20
19.87229611852637
 42
-0.0756514995039179
 10
-83.65325476353296
 20
19.43856117876734
 42
2.295968109499118
  0
ARC
  5
2B1
330
18
100
AcDbEntity
  8
0
100
AcDbCircle
 10
-79.7652440841405
 20
15.25809089709663
 30
0.0
 40
6.034061022508631
100
AcDbArc
 50
133.218076914364
 51
143.5614643639912
  0
LWPOLYLINE
  5
2B2
330
18
100
AcDbEntity
  8
0
100
AcDbPolyline
 90
        4
 70
     0
 43
0.0
 10
-83.65325476353296
 20
19.98072985346614
 42
0.1856776554368181
 10
-83.11108608883415
 20
20.11627202214083
 10
-82.97554392015946
 20
19.87229611852637
 42
0.0756514995039179
 10
-83.65325476353296
 20
19.43856117876734
 42
-2.295968109499118
  0
ARC
  5
2B8
330
18
100
AcDbEntity
  8
0
100
AcDbCircle
 10
-87.54126544292542
 20
15.25809089709663
 30
0.0
 40
6.034061022508631
100
AcDbArc
 50
36.43853563600871
 51
46.78192308563597
  0
LINE
  5
2B9
330
18
100
AcDbEntity
  8
0
100
AcDbLine
 10
-81.40325476353295
 20
20.41446479322517
 30
0.0
 11
-81.40325476353295
 21
19.35723587756252
 31
0.0
  0
TEXT
  5
2C7
330
18
100
AcDbEntity
  8
ADPDIM
100
AcDbText
 10
-111.6420849136011
 20
-8.241721520273951
 30
0.0
 40
0.5
  1
J U L I U S  B L U M  &  C O . ,  I N C .      ( 8 0 0 )  5 2 6 - 6 2 9 3        W W W . J U L I U S B L U M . C O M        P A R T  N o .  5 8 9
 41
1.25
  7
ARIAL_WIDE
 72
     1
 11
-85.90325476353296
 21
-7.741721520273952
 31
0.0
100
AcDbText
 73
     3
  0
ENDSEC
  0
SECTION
  2
OBJECTS
  0
DICTIONARY
  5
C
330
0
100
AcDbDictionary
  3
ACAD_GROUP
350
D
  3
ACAD_LAYOUT
350
2C0
  3
ACAD_MLINESTYLE
350
E
  3
ACAD_PLOTSETTINGS
350
2C1
  3
ACAD_PLOTSTYLENAME
350
2BE
  3
ACDBHEADERROUNDTRIPXREC
350
40B
  3
ACDBVARIABLEDICTIONARY
350
321
  0
DICTIONARY
  5
31B
330
18
100
AcDbDictionary
280
     1
  3
ACAD_LAYOUTSELFREF
360
42C
  0
DICTIONARY
  5
319
330
15
100
AcDbDictionary
280
     1
  3
ACAD_LAYOUTSELFREF
360
42B
  0
DICTIONARY
  5
D
102
{ACAD_REACTORS
330
C
102
}
330
C
100
AcDbDictionary
  0
DICTIONARY
  5
2C0
102
{ACAD_REACTORS
330
C
102
}
330
C
100
AcDbDictionary
  0
DICTIONARY
  5
E
102
{ACAD_REACTORS
330
C
102
}
330
C
100
AcDbDictionary
  3
STANDARD
350
1B
  0
DICTIONARY
  5
2C1
102
{ACAD_REACTORS
330
C
102
}
330
C
100
AcDbDictionary
  0
ACDBDICTIONARYWDFLT
  5
2BE
102
{ACAD_REACTORS
330
C
102
}
330
C
100
AcDbDictionary
281
     1
  3
Normal
350
2BF
100
AcDbDictionaryWithDefault
340
2BF
  0
DICTIONARY
  5
40B
102
{ACAD_REACTORS
330
C
102
}
330
C
100
AcDbDictionary
  3
CEPSNTYPE
350
415
  3
FINGERPRINTGUID
350
416
  3
HYPERLINKBASE
350
40E
  3
INSUNITS
350
414
  3
LAYOUTDICT
350
410
  3
LWETCUNION
350
413
  3
PLOTSETDICT
350
411
  3
PLOTSTYLNAMDICT
350
412
  3
PSVPSCALE
350
418
  3
PUCSBASE
350
41B
  3
PUCSORGBACK
350
421
  3
PUCSORGBOTTOM
350
41D
  3
PUCSORGFRONT
350
420
  3
PUCSORGLEFT
350
41E
  3
PUCSORGRIGHT
350
41F
  3
PUCSORGTOP
350
41C
  3
PUCSORTHOREF
350
419
  3
PUCSORTHOVIEW
350
41A
  3
STYLESHEET
350
40F
  3
TSTACKALIGN
350
40C
  3
TSTACKSIZE
350
40D
  3
UCSBASE
350
424
  3
UCSORGBACK
350
42A
  3
UCSORGBOTTOM
350
426
  3
UCSORGFRONT
350
429
  3
UCSORGLEFT
350
427
  3
UCSORGRIGHT
350
428
  3
UCSORGTOP
350
425
  3
UCSORTHOREF
350
422
  3
UCSORTHOVIEW
350
423
  3
VERSIONGUID
350
417
  0
DICTIONARY
  5
321
102
{ACAD_REACTORS
330
C
102
}
330
C
100
AcDbDictionary
  3
DIMASSOC
350
322
  0
XRECORD
  5
42C
102
{ACAD_REACTORS
330
31B
102
}
330
31B
100
AcDbXrecord
340
18
  0
XRECORD
  5
42B
102
{ACAD_REACTORS
330
319
102
}
330
319
100
AcDbXrecord
340
15
  0
MLINESTYLE
  5
1B
102
{ACAD_REACTORS
330
E
102
}
330
E
100
AcDbMlineStyle
  2
STANDARD
 70
     0
  3

 62
     0
 51
90.0
 52
90.0
 71
     2
 49
0.5
 62
   256
  6
BYLAYER
 49
-0.5
 62
   256
  6
BYLAYER
  0
ACDBPLACEHOLDER
  5
2BF
102
{ACAD_REACTORS
330
2BE
102
}
330
2BE
100
AcDbPlaceHolder
280
     0
  0
XRECORD
  5
415
102
{ACAD_REACTORS
330
40B
102
}
330
40B
100
AcDbXrecord
 90
        0
  0
XRECORD
  5
416
102
{ACAD_REACTORS
330
40B
102
}
330
40B
100
AcDbXrecord
  1
{9BFE0278-58C7-4F11-989C-57132A228D73}
  0
XRECORD
  5
40E
102
{ACAD_REACTORS
330
40B
102
}
330
40B
100
AcDbXrecord
  1

  0
XRECORD
  5
414
102
{ACAD_REACTORS
330
40B
102
}
330
40B
100
AcDbXrecord
 90
        0
  0
XRECORD
  5
410
102
{ACAD_REACTORS
330
40B
102
}
330
40B
100
AcDbXrecord
340
2C0
  0
XRECORD
  5
413
102
{ACAD_REACTORS
330
40B
102
}
330
40B
100
AcDbXrecord
 90
    14877
  0
XRECORD
  5
411
102
{ACAD_REACTORS
330
40B
102
}
330
40B
100
AcDbXrecord
340
2C1
  0
XRECORD
  5
412
102
{ACAD_REACTORS
330
40B
102
}
330
40B
100
AcDbXrecord
340
2BE
  0
XRECORD
  5
418
102
{ACAD_REACTORS
330
40B
102
}
330
40B
100
AcDbXrecord
 40
0.0
  0
XRECORD
  5
41B
102
{ACAD_REACTORS
330
40B
102
}
330
40B
100
AcDbXrecord
340
0
  0
XRECORD
  5
421
102
{ACAD_REACTORS
330
40B
102
}
330
40B
100
AcDbXrecord
 10
0.0
 20
0.0
 30
0.0
  0
XRECORD
  5
41D
102
{ACAD_REACTORS
330
40B
102
}
330
40B
100
AcDbXrecord
 10
0.0
 20
0.0
 30
0.0
  0
XRECORD
  5
420
102
{ACAD_REACTORS
330
40B
102
}
330
40B
100
AcDbXrecord
 10
0.0
 20
0.0
 30
0.0
  0
XRECORD
  5
41E
102
{ACAD_REACTORS
330
40B
102
}
330
40B
100
AcDbXrecord
 10
0.0
 20
0.0
 30
0.0
  0
XRECORD
  5
41F
102
{ACAD_REACTORS
330
40B
102
}
330
40B
100
AcDbXrecord
 10
0.0
 20
0.0
 30
0.0
  0
XRECORD
  5
41C
102
{ACAD_REACTORS
330
40B
102
}
330
40B
100
AcDbXrecord
 10
0.0
 20
0.0
 30
0.0
  0
XRECORD
  5
419
102
{ACAD_REACTORS
330
40B
102
}
330
40B
100
AcDbXrecord
340
0
  0
XRECORD
  5
41A
102
{ACAD_REACTORS
330
40B
102
}
330
40B
100
AcDbXrecord
 70
     0
  0
XRECORD
  5
40F
102
{ACAD_REACTORS
330
40B
102
}
330
40B
100
AcDbXrecord
  1

  0
XRECORD
  5
40C
102
{ACAD_REACTORS
330
40B
102
}
330
40B
100
AcDbXrecord
 90
        1
  0
XRECORD
  5
40D
102
{ACAD_REACTORS
330
40B
102
}
330
40B
100
AcDbXrecord
 90
       70
  0
XRECORD
  5
424
102
{ACAD_REACTORS
330
40B
102
}
330
40B
100
AcDbXrecord
340
0
  0
XRECORD
  5
42A
102
{ACAD_REACTORS
330
40B
102
}
330
40B
100
AcDbXrecord
 10
0.0
 20
0.0
 30
0.0
  0
XRECORD
  5
426
102
{ACAD_REACTORS
330
40B
102
}
330
40B
100
AcDbXrecord
 10
0.0
 20
0.0
 30
0.0
  0
XRECORD
  5
429
102
{ACAD_REACTORS
330
40B
102
}
330
40B
100
AcDbXrecord
 10
0.0
 20
0.0
 30
0.0
  0
XRECORD
  5
427
102
{ACAD_REACTORS
330
40B
102
}
330
40B
100
AcDbXrecord
 10
0.0
 20
0.0
 30
0.0
  0
XRECORD
  5
428
102
{ACAD_REACTORS
330
40B
102
}
330
40B
100
AcDbXrecord
 10
0.0
 20
0.0
 30
0.0
  0
XRECORD
  5
425
102
{ACAD_REACTORS
330
40B
102
}
330
40B
100
AcDbXrecord
 10
0.0
 20
0.0
 30
0.0
  0
XRECORD
  5
422
102
{ACAD_REACTORS
330
40B
102
}
330
40B
100
AcDbXrecord
340
0
  0
XRECORD
  5
423
102
{ACAD_REACTORS
330
40B
102
}
330
40B
100
AcDbXrecord
 70
     0
  0
XRECORD
  5
417
102
{ACAD_REACTORS
330
40B
102
}
330
40B
100
AcDbXrecord
  1
{BFEFE190-3BC9-4611-9C29-41B7ACA0A6F8}
  0
DICTIONARYVAR
  5
322
102
{ACAD_REACTORS
330
321
102
}
330
321
100
DictionaryVariables
280
     0
  1
1
  0
ENDSEC
  0
EOF
