  0
SECTION
  2
HEADER
  9
$ACADVER
  1
AC1014
  9
$ACADMAINTVER
 70
     9
  9
$DWGCODEPAGE
  3
ANSI_1252
  9
$INSBASE
 10
-115.273878987686
 20
1.090485615302811
 30
0.0
  9
$EXTMIN
 10
-125.5225161599158
 20
-0.22785041296412
 30
0.0
  9
$EXTMAX
 10
-86.91427093481349
 20
18.85686476108051
 30
0.0
  9
$LIMMIN
 10
0.0
 20
0.0
  9
$LIMMAX
 10
36.0
 20
36.0
  9
$ORTHOMODE
 70
     1
  9
$REGENMODE
 70
     1
  9
$FILLMODE
 70
     1
  9
$QTEXTMODE
 70
     0
  9
$MIRRTEXT
 70
     1
  9
$DRAGMODE
 70
     0
  9
$LTSCALE
 40
1.0
  9
$OSMODE
 70
    37
  9
$ATTMODE
 70
     1
  9
$TEXTSIZE
 40
0.2
  9
$TRACEWID
 40
0.05
  9
$TEXTSTYLE
  7
STANDARD
  9
$CLAYER
  8
ADPDIM
  9
$CELTYPE
  6
BYLAYER
  9
$CECOLOR
 62
   256
  9
$CELTSCALE
 40
1.0
  9
$DELOBJ
 70
     1
  9
$DISPSILH
 70
     0
  9
$DIMSCALE
 40
1.0
  9
$DIMASZ
 40
0.125
  9
$DIMEXO
 40
0.0625
  9
$DIMDLI
 40
0.38
  9
$DIMRND
 40
0.0
  9
$DIMDLE
 40
0.0
  9
$DIMEXE
 40
0.18
  9
$DIMTP
 40
0.0
  9
$DIMTM
 40
0.0
  9
$DIMTXT
 40
0.125
  9
$DIMCEN
 40
0.1875
  9
$DIMTSZ
 40
0.125
  9
$DIMTOL
 70
     0
  9
$DIMLIM
 70
     0
  9
$DIMTIH
 70
     0
  9
$DIMTOH
 70
     0
  9
$DIMSE1
 70
     0
  9
$DIMSE2
 70
     0
  9
$DIMTAD
 70
     0
  9
$DIMZIN
 70
     3
  9
$DIMBLK
  1

  9
$DIMASO
 70
     1
  9
$DIMSHO
 70
     1
  9
$DIMPOST
  1

  9
$DIMAPOST
  1

  9
$DIMALT
 70
     0
  9
$DIMALTD
 70
     1
  9
$DIMALTF
 40
25.4
  9
$DIMLFAC
 40
1.0
  9
$DIMTOFL
 70
     0
  9
$DIMTVP
 40
0.0
  9
$DIMTIX
 70
     0
  9
$DIMSOXD
 70
     0
  9
$DIMSAH
 70
     0
  9
$DIMBLK1
  1

  9
$DIMBLK2
  1

  9
$DIMSTYLE
  2
STANDARD
  9
$DIMCLRD
 70
     0
  9
$DIMCLRE
 70
     0
  9
$DIMCLRT
 70
     0
  9
$DIMTFAC
 40
1.0
  9
$DIMGAP
 40
0.125
  9
$DIMJUST
 70
     0
  9
$DIMSD1
 70
     0
  9
$DIMSD2
 70
     0
  9
$DIMTOLJ
 70
     1
  9
$DIMTZIN
 70
     0
  9
$DIMALTZ
 70
     0
  9
$DIMALTTZ
 70
     0
  9
$DIMFIT
 70
     3
  9
$DIMUPT
 70
     0
  9
$DIMUNIT
 70
     2
  9
$DIMDEC
 70
     4
  9
$DIMTDEC
 70
     4
  9
$DIMALTU
 70
     2
  9
$DIMALTTD
 70
     2
  9
$DIMTXSTY
  7
STANDARD
  9
$DIMAUNIT
 70
     0
  9
$LUNITS
 70
     5
  9
$LUPREC
 70
     5
  9
$SKETCHINC
 40
0.1
  9
$FILLETRAD
 40
0.062
  9
$AUNITS
 70
     0
  9
$AUPREC
 70
     0
  9
$MENU
  1
acad
  9
$ELEVATION
 40
0.0
  9
$PELEVATION
 40
0.0
  9
$THICKNESS
 40
0.0
  9
$LIMCHECK
 70
     0
  9
$BLIPMODE
 70
     0
  9
$CHAMFERA
 40
0.0
  9
$CHAMFERB
 40
0.0
  9
$CHAMFERC
 40
0.0
  9
$CHAMFERD
 40
0.0
  9
$SKPOLY
 70
     0
  9
$TDCREATE
 40
2450409.507100300
  9
$TDUPDATE
 40
2452297.073654143
  9
$TDINDWG
 40
0.0067471065
  9
$TDUSRTIMER
 40
0.0067471065
  9
$USRTIMER
 70
     1
  9
$ANGBASE
 50
0.0
  9
$ANGDIR
 70
     0
  9
$PDMODE
 70
     0
  9
$PDSIZE
 40
0.0
  9
$PLINEWID
 40
0.0
  9
$COORDS
 70
     2
  9
$SPLFRAME
 70
     0
  9
$SPLINETYPE
 70
     6
  9
$SPLINESEGS
 70
     8
  9
$ATTDIA
 70
     0
  9
$ATTREQ
 70
     1
  9
$HANDLING
 70
 22529
  9
$HANDSEED
  5
695
  9
$SURFTAB1
 70
     6
  9
$SURFTAB2
 70
     6
  9
$SURFTYPE
 70
     6
  9
$SURFU
 70
     6
  9
$SURFV
 70
     6
  9
$UCSNAME
  2

  9
$UCSORG
 10
0.0
 20
0.0
 30
0.0
  9
$UCSXDIR
 10
1.0
 20
0.0
 30
0.0
  9
$UCSYDIR
 10
0.0
 20
1.0
 30
0.0
  9
$PUCSNAME
  2

  9
$PUCSORG
 10
0.0
 20
0.0
 30
0.0
  9
$PUCSXDIR
 10
1.0
 20
0.0
 30
0.0
  9
$PUCSYDIR
 10
0.0
 20
1.0
 30
0.0
  9
$USERI1
 70
     0
  9
$USERI2
 70
     0
  9
$USERI3
 70
     0
  9
$USERI4
 70
     0
  9
$USERI5
 70
     0
  9
$USERR1
 40
0.0
  9
$USERR2
 40
0.0
  9
$USERR3
 40
0.0
  9
$USERR4
 40
0.0
  9
$USERR5
 40
0.0
  9
$WORLDVIEW
 70
     1
  9
$SHADEDGE
 70
     3
  9
$SHADEDIF
 70
    70
  9
$TILEMODE
 70
     1
  9
$MAXACTVP
 70
    15
  9
$PINSBASE
 10
0.0058594681322575
 20
8.002266177471257
 30
0.0
  9
$PLIMCHECK
 70
     0
  9
$PEXTMIN
 10
1.000000000000000E+20
 20
1.000000000000000E+20
 30
1.000000000000000E+20
  9
$PEXTMAX
 10
-1.000000000000000E+20
 20
-1.000000000000000E+20
 30
-1.000000000000000E+20
  9
$PLIMMIN
 10
0.0
 20
0.0
  9
$PLIMMAX
 10
12.0
 20
9.0
  9
$UNITMODE
 70
     0
  9
$VISRETAIN
 70
     0
  9
$PLINEGEN
 70
     0
  9
$PSLTSCALE
 70
     1
  9
$TREEDEPTH
 70
  3020
  9
$PICKSTYLE
 70
     1
  9
$CMLSTYLE
  2
STANDARD
  9
$CMLJUST
 70
     0
  9
$CMLSCALE
 40
1.0
  9
$PROXYGRAPHICS
 70
     1
  9
$MEASUREMENT
 70
     0
  0
ENDSEC
  0
SECTION
  2
CLASSES
  0
CLASS
  1
ACDBDICTIONARYWDFLT
  2
AcDbDictionaryWithDefault
  3
AutoCAD 2000
 90
        0
280
     0
281
     0
  0
CLASS
  1
ACDBPLACEHOLDER
  2
AcDbPlaceHolder
  3
AutoCAD 2000
 90
        0
280
     0
281
     0
  0
CLASS
  1
LAYOUT
  2
AcDbLayout
  3
AutoCAD 2000
 90
        0
280
     0
281
     0
  0
CLASS
  1
DICTIONARYVAR
  2
AcDbDictionaryVar
  3
AutoCAD 2000
 90
        0
280
     0
281
     0
  0
CLASS
  1
LONG_TRANSACTION
  2
AcDbLongTransaction
  3
AutoCAD 2000
 90
        0
280
     0
281
     0
  0
CLASS
  1
LWPOLYLINE
  2
AcDbPolyline
  3
AutoCAD 2000
 90
        0
280
     0
281
     1
  0
CLASS
  1
HATCH
  2
AcDbHatch
  3
AutoCAD 2000
 90
        0
280
     0
281
     1
  0
CLASS
  1
XRECORD
  2
AcDbXrecord
  3
AutoCAD 2000
 90
        0
280
     0
281
     0
  0
CLASS
  1
LONG_TRANSACTION
  2
AcDbLongTransaction
  3
AutoCAD 2000
 90
        0
280
     0
281
     0
  0
CLASS
  1
LWPOLYLINE
  2
AcDbPolyline
  3
AutoCAD 2000
 90
        0
280
     0
281
     1
  0
CLASS
  1
HATCH
  2
AcDbHatch
  3
AutoCAD 2000
 90
        0
280
     0
281
     1
  0
CLASS
  1
XRECORD
  2
AcDbXrecord
  3
AutoCAD 2000
 90
        0
280
     0
281
     0
  0
CLASS
  1
LONG_TRANSACTION
  2
AcDbLongTransaction
  3
AutoCAD 2000
 90
        0
280
     0
281
     0
  0
CLASS
  1
LWPOLYLINE
  2
AcDbPolyline
  3
AutoCAD 2000
 90
        0
280
     0
281
     1
  0
CLASS
  1
HATCH
  2
AcDbHatch
  3
AutoCAD 2000
 90
        0
280
     0
281
     1
  0
CLASS
  1
XRECORD
  2
AcDbXrecord
  3
AutoCAD 2000
 90
        0
280
     0
281
     0
  0
CLASS
  1
LONG_TRANSACTION
  2
AcDbLongTransaction
  3
AutoCAD 2000
 90
        0
280
     0
281
     0
  0
CLASS
  1
LWPOLYLINE
  2
AcDbPolyline
  3
AutoCAD 2000
 90
        0
280
     0
281
     1
  0
CLASS
  1
HATCH
  2
AcDbHatch
  3
AutoCAD 2000
 90
        0
280
     0
281
     1
  0
CLASS
  1
XRECORD
  2
AcDbXrecord
  3
AutoCAD 2000
 90
        0
280
     0
281
     0
  0
CLASS
  1
LONG_TRANSACTION
  2
AcDbLongTransaction
  3
AutoCAD 2000
 90
        0
280
     0
281
     0
  0
CLASS
  1
LWPOLYLINE
  2
AcDbPolyline
  3
AutoCAD 2000
 90
        0
280
     0
281
     1
  0
CLASS
  1
HATCH
  2
AcDbHatch
  3
AutoCAD 2000
 90
        0
280
     0
281
     1
  0
CLASS
  1
XRECORD
  2
AcDbXrecord
  3
AutoCAD 2000
 90
        0
280
     0
281
     0
  0
ENDSEC
  0
SECTION
  2
TABLES
  0
TABLE
  2
VPORT
  5
8
330
0
100
AcDbSymbolTable
 70
     2
  0
VPORT
  5
672
330
8
100
AcDbSymbolTableRecord
100
AcDbViewportTableRecord
  2
*ACTIVE
 70
     0
 10
0.0
 20
0.0
 11
1.0
 21
1.0
 12
-106.1881715863656
 22
9.315589316588692
 13
0.0
 23
0.0
 14
0.5740882589684922
 24
0.5740882589684922
 15
0.5
 25
0.5
 16
0.0
 26
0.0
 36
1.0
 17
0.0
 27
0.0
 37
0.0
 40
24.74263511334556
 41
1.570528967254408
 42
50.0
 43
0.0
 44
0.0
 50
0.0
 51
0.0
 71
     0
 72
   100
 73
     1
 74
     0
 75
     0
 76
     0
 77
     0
 78
     0
  0
ENDTAB
  0
TABLE
  2
LTYPE
  5
5
330
0
100
AcDbSymbolTable
 70
     1
  0
LTYPE
  5
12
330
5
100
AcDbSymbolTableRecord
100
AcDbLinetypeTableRecord
  2
BYBLOCK
 70
     0
  3

 72
    65
 73
     0
 40
0.0
  0
LTYPE
  5
13
330
5
100
AcDbSymbolTableRecord
100
AcDbLinetypeTableRecord
  2
BYLAYER
 70
     0
  3

 72
    65
 73
     0
 40
0.0
  0
LTYPE
  5
14
330
5
100
AcDbSymbolTableRecord
100
AcDbLinetypeTableRecord
  2
CONTINUOUS
 70
     0
  3
Solid line
 72
    65
 73
     0
 40
0.0
  0
ENDTAB
  0
TABLE
  2
LAYER
  5
2
330
0
100
AcDbSymbolTable
 70
     4
  0
LAYER
  5
F
330
2
100
AcDbSymbolTableRecord
100
AcDbLayerTableRecord
  2
0
 70
     0
 62
     7
  6
CONTINUOUS
  0
LAYER
  5
CA
330
2
100
AcDbSymbolTableRecord
100
AcDbLayerTableRecord
  2
DEFPOINTS
 70
     0
 62
     7
  6
CONTINUOUS
  0
LAYER
  5
CD
330
2
100
AcDbSymbolTableRecord
100
AcDbLayerTableRecord
  2
ADP1DETAIL
 70
     0
 62
     7
  6
CONTINUOUS
  0
LAYER
  5
D0
330
2
100
AcDbSymbolTableRecord
100
AcDbLayerTableRecord
  2
ADPDIM
 70
     0
 62
     3
  6
CONTINUOUS
  0
ENDTAB
  0
TABLE
  2
STYLE
  5
3
330
0
100
AcDbSymbolTable
 70
     2
  0
STYLE
  5
10
330
3
100
AcDbSymbolTableRecord
100
AcDbTextStyleTableRecord
  2
STANDARD
 70
     0
 40
0.0
 41
1.0
 50
0.0
 71
     0
 42
0.2
  3
txt
  4

  0
STYLE
  5
52E
330
3
100
AcDbSymbolTableRecord
100
AcDbTextStyleTableRecord
  2
ARIAL_WIDE
 70
     0
 40
0.0
 41
1.25
 50
0.0
 71
     0
 42
0.2
  3
ARIAL.TTF
  4

1001
ACAD
1000
Arial
1071
       34
  0
ENDTAB
  0
TABLE
  2
VIEW
  5
6
330
0
100
AcDbSymbolTable
 70
     0
  0
ENDTAB
  0
TABLE
  2
UCS
  5
7
330
0
100
AcDbSymbolTable
 70
     0
  0
ENDTAB
  0
TABLE
  2
APPID
  5
9
330
0
100
AcDbSymbolTable
 70
     1
  0
APPID
  5
11
330
9
100
AcDbSymbolTableRecord
100
AcDbRegAppTableRecord
  2
ACAD
 70
     0
  0
ENDTAB
  0
TABLE
  2
DIMSTYLE
  5
A
330
0
100
AcDbSymbolTable
 70
     1
  0
DIMSTYLE
105
522
330
A
100
AcDbSymbolTableRecord
100
AcDbDimStyleTableRecord
  2
STANDARD
 70
     0
  3

  4

  5

  6

  7

 40
1.0
 41
0.18
 42
0.0625
 43
0.38
 44
0.18
 45
0.0
 46
0.0
 47
0.0
 48
0.0
140
0.18
141
0.09
142
0.0
143
25.4
144
1.0
145
0.0
146
1.0
147
0.09
 71
     0
 72
     0
 73
     1
 74
     1
 75
     0
 76
     0
 77
     0
 78
     0
170
     0
171
     2
172
     0
173
     0
174
     0
175
     0
176
     0
177
     0
178
     0
270
     2
271
     4
272
     4
273
     2
274
     2
340
10
275
     0
280
     0
281
     0
282
     0
283
     1
284
     0
285
     0
286
     0
287
     3
288
     0
  0
ENDTAB
  0
TABLE
  2
BLOCK_RECORD
  5
1
330
0
100
AcDbSymbolTable
 70
     2
  0
BLOCK_RECORD
  5
18
102
{ACAD_XDICTIONARY
360
583
102
}
330
1
100
AcDbSymbolTableRecord
100
AcDbBlockTableRecord
  2
*MODEL_SPACE
  0
BLOCK_RECORD
  5
15
102
{ACAD_XDICTIONARY
360
581
102
}
330
1
100
AcDbSymbolTableRecord
100
AcDbBlockTableRecord
  2
*PAPER_SPACE
  0
BLOCK_RECORD
  5
BF
330
1
100
AcDbSymbolTableRecord
100
AcDbBlockTableRecord
  2
*D0
  0
BLOCK_RECORD
  5
C4
330
1
100
AcDbSymbolTableRecord
100
AcDbBlockTableRecord
  2
*D1
  0
ENDTAB
  0
ENDSEC
  0
SECTION
  2
BLOCKS
  0
BLOCK
  5
D3
330
18
100
AcDbEntity
  8
0
100
AcDbBlockBegin
  2
*MODEL_SPACE
 70
     0
 10
0.0
 20
0.0
 30
0.0
  3
*MODEL_SPACE
  1

  0
ENDBLK
  5
D4
330
18
100
AcDbEntity
  8
0
100
AcDbBlockEnd
  0
BLOCK
  5
D1
330
15
100
AcDbEntity
 67
     1
  8
0
100
AcDbBlockBegin
  2
*PAPER_SPACE
 70
     0
 10
0.0
 20
0.0
 30
0.0
  3
*PAPER_SPACE
  1

  0
ENDBLK
  5
D2
330
15
100
AcDbEntity
 67
     1
  8
0
100
AcDbBlockEnd
  0
BLOCK
  5
D6
330
BF
100
AcDbEntity
  8
0
100
AcDbBlockBegin
  2
*D0
 70
     1
 10
0.0
 20
0.0
 30
0.0
  3
*D0
  1

  0
LINE
  5
D7
330
BF
100
AcDbEntity
  8
0
  6
BYBLOCK
 62
     0
100
AcDbLine
 10
-116.0974828845484
 20
19.23615527126812
 30
0.0
 11
-116.0974828845484
 21
21.0427425591002
 31
0.0
  0
LINE
  5
D8
330
BF
100
AcDbEntity
  8
0
  6
BYBLOCK
 62
     0
100
AcDbLine
 10
-96.34748288454845
 20
19.23615527126812
 30
0.0
 11
-96.34748288454845
 21
21.0427425591002
 31
0.0
  0
LINE
  5
D9
330
BF
100
AcDbEntity
  8
0
  6
BYBLOCK
 62
     0
100
AcDbLine
 10
-116.0974828845484
 20
20.8627425591002
 30
0.0
 11
-106.6808162178817
 21
20.8627425591002
 31
0.0
  0
LINE
  5
DA
330
BF
100
AcDbEntity
  8
0
  6
BYBLOCK
 62
     0
100
AcDbLine
 10
-96.34748288454845
 20
20.8627425591002
 30
0.0
 11
-105.7641495512151
 21
20.8627425591002
 31
0.0
  0
LINE
  5
DB
330
BF
100
AcDbEntity
  8
0
  6
BYBLOCK
 62
     0
100
AcDbLine
 10
-116.2224828845484
 20
20.7377425591002
 30
0.0
 11
-115.9724828845484
 21
20.9877425591002
 31
0.0
  0
LINE
  5
DC
330
BF
100
AcDbEntity
  8
0
  6
BYBLOCK
 62
     0
100
AcDbLine
 10
-96.47248288454846
 20
20.7377425591002
 30
0.0
 11
-96.22248288454846
 21
20.9877425591002
 31
0.0
  0
TEXT
  5
DD
330
BF
100
AcDbEntity
  8
0
  6
BYBLOCK
 62
     0
100
AcDbText
 10
-106.5558162178817
 20
20.8002425591002
 30
0.0
 40
0.125
  1
19 3/4
 72
     1
 11
-106.2224828845484
 21
20.8627425591002
 31
0.0
100
AcDbText
 73
     2
  0
POINT
  5
DE
330
BF
100
AcDbEntity
  8
DEFPOINTS
  6
BYBLOCK
 62
     0
100
AcDbPoint
 10
-116.0974828845484
 20
19.17365527126812
 30
0.0
  0
POINT
  5
DF
330
BF
100
AcDbEntity
  8
DEFPOINTS
  6
BYBLOCK
 62
     0
100
AcDbPoint
 10
-96.34748288454845
 20
19.17365527126812
 30
0.0
  0
POINT
  5
E0
330
BF
100
AcDbEntity
  8
DEFPOINTS
  6
BYBLOCK
 62
     0
100
AcDbPoint
 10
-96.34748288454845
 20
20.8627425591002
 30
0.0
  0
ENDBLK
  5
E1
330
BF
100
AcDbEntity
  8
0
100
AcDbBlockEnd
  0
BLOCK
  5
E2
330
C4
100
AcDbEntity
  8
0
100
AcDbBlockBegin
  2
*D1
 70
     1
 10
0.0
 20
0.0
 30
0.0
  3
*D1
  1

  0
LINE
  5
E3
330
C4
100
AcDbEntity
  8
0
  6
BYBLOCK
 62
     0
100
AcDbLine
 10
-115.9115257398199
 20
17.58392586207066
 30
0.0
 11
-117.1719287399438
 21
17.58392586207066
 31
0.0
  0
LINE
  5
E4
330
C4
100
AcDbEntity
  8
0
  6
BYBLOCK
 62
     0
100
AcDbLine
 10
-115.9115257398199
 20
1.083925862070664
 30
0.0
 11
-117.1719287399438
 21
1.083925862070664
 31
0.0
  0
LINE
  5
E5
330
C4
100
AcDbEntity
  8
0
  6
BYBLOCK
 62
     0
100
AcDbLine
 10
-116.9919287399438
 20
17.58392586207066
 30
0.0
 11
-116.9919287399438
 21
9.771425862070664
 31
0.0
  0
LINE
  5
E6
330
C4
100
AcDbEntity
  8
0
  6
BYBLOCK
 62
     0
100
AcDbLine
 10
-116.9919287399438
 20
1.083925862070664
 30
0.0
 11
-116.9919287399438
 21
8.896425862070664
 31
0.0
  0
LINE
  5
E7
330
C4
100
AcDbEntity
  8
0
  6
BYBLOCK
 62
     0
100
AcDbLine
 10
-116.8669287399438
 20
17.45892586207066
 30
0.0
 11
-117.1169287399438
 21
17.70892586207066
 31
0.0
  0
LINE
  5
E8
330
C4
100
AcDbEntity
  8
0
  6
BYBLOCK
 62
     0
100
AcDbLine
 10
-116.8669287399438
 20
0.9589258620706644
 30
0.0
 11
-117.1169287399438
 21
1.208925862070664
 31
0.0
  0
TEXT
  5
E9
330
C4
100
AcDbEntity
  8
0
  6
BYBLOCK
 62
     0
100
AcDbText
 10
-116.9294287399438
 20
9.021425862070664
 30
0.0
 40
0.125
  1
16 1/2
 50
90.0
 72
     1
 11
-116.9919287399438
 21
9.333925862070664
 31
0.0
100
AcDbText
 73
     2
  0
POINT
  5
EA
330
C4
100
AcDbEntity
  8
DEFPOINTS
  6
BYBLOCK
 62
     0
100
AcDbPoint
 10
-115.8490257398199
 20
17.58392586207066
 30
0.0
  0
POINT
  5
EB
330
C4
100
AcDbEntity
  8
DEFPOINTS
  6
BYBLOCK
 62
     0
100
AcDbPoint
 10
-115.8490257398199
 20
1.083925862070664
 30
0.0
  0
POINT
  5
EC
330
C4
100
AcDbEntity
  8
DEFPOINTS
  6
BYBLOCK
 62
     0
100
AcDbPoint
 10
-116.9919287399438
 20
1.083925862070664
 30
0.0
  0
ENDBLK
  5
ED
330
C4
100
AcDbEntity
  8
0
100
AcDbBlockEnd
  0
ENDSEC
  0
SECTION
  2
ENTITIES
  0
DIMENSION
  5
EE
330
18
100
AcDbEntity
  8
ADPDIM
100
AcDbDimension
  2
*D1
 10
-116.9919287399438
 20
1.083925862070664
 30
0.0
 11
-116.9919287399438
 21
9.333925862070664
 31
0.0
100
AcDbAlignedDimension
 13
-115.8490257398199
 23
17.58392586207066
 33
0.0
 14
-115.8490257398199
 24
1.083925862070664
 34
0.0
 50
90.0
100
AcDbRotatedDimension
  0
LWPOLYLINE
  5
EF
330
18
100
AcDbEntity
  8
ADP1DETAIL
100
AcDbPolyline
 90
        2
 70
     0
 43
0.0
 10
-114.9223006390104
 20
16.40112266583429
 42
0.3576692693847056
 10
-114.9837653377717
 20
10.40487825968179
 42
0.479400380710611
  0
ARC
  5
F3
330
18
100
AcDbEntity
  8
ADP1DETAIL
100
AcDbCircle
 10
-111.310012190421
 20
13.10030163147306
 30
0.0
 40
2.80541471888869
100
AcDbArc
 50
317.4603038599721
 51
7.71105322054133
  0
LWPOLYLINE
  5
F4
330
18
100
AcDbEntity
  8
ADP1DETAIL
100
AcDbPolyline
 90
        2
 70
     0
 43
0.0
 10
-110.4107874470485
 20
10.04854405714633
 42
0.1471018773505865
 10
-108.0751267103254
 20
12.19883662413312
 42
-0.5700473587122529
  0
LWPOLYLINE
  5
F8
330
18
100
AcDbEntity
  8
ADP1DETAIL
100
AcDbPolyline
 90
        6
 70
     0
 43
0.0
 10
-108.2103491770102
 20
13.08352839896874
 42
-0.1224608618879408
 10
-109.2429571191276
 20
11.17898359047095
 42
0.2148311370628416
 10
-108.8618756147537
 20
13.04666623241459
 42
0.3621864045802965
 10
-109.5994526469393
 20
13.61188602688489
 42
0.7303827706845615
 10
-109.771553997586
 20
12.98522930669634
 42
0.7706710652527271
 10
-109.3781795858124
 20
13.34156350923179
 42
-1.645110085449917
  0
LWPOLYLINE
  5
100
330
18
100
AcDbEntity
  8
ADP1DETAIL
100
AcDbPolyline
 90
        2
 70
     0
 43
0.0
 10
-107.7678028929938
 20
11.86707718076177
 42
-0.1810088888335269
 10
-110.3862015513677
 20
9.692209854610879
 42
5.914413655750085
  0
LWPOLYLINE
  5
104
330
18
100
AcDbEntity
  8
ADP1DETAIL
100
AcDbPolyline
 90
        7
 70
     0
 43
0.0
 10
-104.764166274454
 20
14.42819157276308
 42
-0.7616630757662938
 10
-104.4442112749212
 20
14.08313325200896
 42
0.0154614092404337
 10
-105.3114577167488
 20
13.65391439654432
 42
0.0310299943536365
 10
-106.3723610892341
 20
12.93854960020731
 42
0.0756826313454064
 10
-106.9617518607496
 20
12.2231848038703
 42
-0.0950771027558502
 10
-108.4436486066548
 20
10.43056480583762
 42
-0.2412447174495543
 10
-112.0574560242536
 20
9.311229364708669
 42
-3.035159668847847
  0
LWPOLYLINE
  5
10D
330
18
100
AcDbEntity
  8
ADP1DETAIL
100
AcDbPolyline
 90
        4
 70
     0
 43
0.0
 10
-115.2910891551032
 20
14.45971563516637
 42
0.2265790464026031
 10
-114.479754354994
 20
11.01924757248029
 42
-0.7103094950399171
 10
-114.5903909259981
 20
10.85951155448964
 42
-0.0773242946576731
 10
-114.8608358593678
 20
11.25270786796326
 42
-1.590358111111206
  0
LWPOLYLINE
  5
113
330
18
100
AcDbEntity
  8
ADP1DETAIL
100
AcDbPolyline
 90
       26
 70
     0
 43
0.0
 10
-112.2055583170322
 20
10.26971700085524
 10
-111.7875980095778
 20
11.00696016509025
 42
-0.2359981157648561
 10
-111.0746067921917
 20
11.27728268274335
 42
0.0101182035409995
 10
-110.2263931890021
 20
11.0438223316444
 42
0.0186776066039625
 10
-110.0542918383554
 20
11.00696016509025
 42
0.1828933021889753
 10
-109.5379879481781
 20
11.10525925736265
 42
0.4220974154983057
 10
-109.6977963105437
 20
11.1421214239168
 42
-0.4085659760632378
 10
-110.0297059426747
 20
11.35100696023566
 42
-0.0694560517738382
 10
-110.1403425136788
 20
11.65819164444291
 42
0.1163743673388295
 10
-110.5705958094141
 20
12.03910060614247
 42
0.4007322466948894
 10
-112.254730189275
 20
11.12983401652675
 42
0.1306269093842965
 10
-112.6481046010485
 20
12.83778069609573
 42
0.0198794800334996
 10
-113.2627521548303
 20
13.52587434200254
 42
-0.2740621213173199
 10
-113.5700759721618
 20
14.81604983770182
 42
0.2182718173307746
 10
-114.1970165142246
 20
14.2262553396834
 42
0.2609557298041421
 10
-114.135551734582
 20
13.7347598783214
 42
-0.0018208404474639
 10
-113.9019856042928
 20
13.41528784234009
 42
0.1145637319854088
 10
-114.7133204044019
 20
13.21868965779529
 42
0.1622514433314621
 10
-113.9511574765356
 20
12.71490684465923
 42
0.0603379529161493
 10
-113.6069547752423
 20
12.66575727071503
 42
-0.4673415918357958
 10
-112.7218622880908
 20
11.78106549587941
 42
0.3287062766988599
 10
-113.9265715808548
 20
12.39543480867792
 42
0.0168725418009575
 10
-114.8485428710868
 20
12.21112397590718
 42
0.2859611309085948
 10
-114.0617940475397
 20
11.5353177930064
 42
0.0518030358566845
 10
-113.3119239461918
 20
11.49845562645225
 42
-0.544362889383042
 10
-112.8079129634142
 20
10.39259085229174
 42
1.82739953101614
  0
LWPOLYLINE
  5
12F
330
18
100
AcDbEntity
  8
ADP1DETAIL
100
AcDbPolyline
 90
        4
 70
     0
 43
0.0
 10
-109.3781795858124
 20
13.07124104719468
 42
-0.3091160972918867
 10
-109.0831486758806
 20
12.16197445757897
 42
-0.3262212754086788
 10
-111.5663248675696
 20
10.25742959346519
 42
-0.5122910948395322
 10
-115.1927455723801
 20
14.4228535242282
 42
-0.7924699257357398
  0
LWPOLYLINE
  5
135
330
18
100
AcDbEntity
  8
ADP1DETAIL
100
AcDbPolyline
 90
        5
 70
     0
 43
0.0
 10
-112.4391244473214
 20
10.31886651918344
 42
-0.0970903640414656
 10
-111.7753050212968
 20
11.54760514478046
 42
-0.4621231517812018
 10
-110.2509790846829
 20
11.57217990394456
 42
0.1721869672185644
 10
-109.9928271395942
 20
11.17898359047095
 42
0.3362811086261563
 10
-109.8944834759898
 20
11.17898359047095
 42
-0.3362811086261594
  0
LWPOLYLINE
  5
13C
330
18
100
AcDbEntity
  8
ADP1DETAIL
100
AcDbPolyline
 90
        5
 70
     0
 43
0.0
 10
-112.5374680300444
 20
10.47860253717409
 42
0.199043891963153
 10
-112.8324988590949
 20
12.72719419643328
 42
0.0770041797807486
 10
-113.5331970882
 20
13.32927615745774
 42
0.0876477397917127
 10
-114.0617940475397
 20
13.30470134267764
 42
-0.0738481241014906
 10
-114.7133204044019
 20
13.21868965779529
 42
-123.6680199287176
  0
LWPOLYLINE
  5
143
330
18
100
AcDbEntity
  8
ADP1DETAIL
100
AcDbPolyline
 90
        5
 70
     0
 43
0.0
 10
-114.8731287667676
 20
12.21112397590718
 42
0.0655615938871983
 10
-114.123258746301
 20
12.21112397590718
 42
-0.1283148817866671
 10
-113.1398226764264
 20
12.08825012447067
 42
-0.2899137777537306
 10
-112.5251751226447
 20
10.46631518540004
 42
0.2421717457208675
 10
-112.7464481837716
 20
11.79335284765347
 42
-1.992313295397481
  0
LWPOLYLINE
  5
14A
330
18
100
AcDbEntity
  8
ADP1DETAIL
100
AcDbPolyline
 90
       14
 70
     0
 43
0.0
 10
-103.9726986739514
 20
14.4786878824206
 42
0.7684161435268404
 10
-104.3768523319255
 20
15.01731548326844
 42
0.0525466135885316
 10
-105.1851596478739
 20
14.56284847297504
 42
0.0146820499393009
 10
-106.3302617600134
 20
13.48559327127937
 42
-0.0471540870963135
 10
-104.8988841604454
 20
14.82374620317473
 42
-0.0004354519868506
 10
-104.3852722302548
 20
15.10147607382287
 42
-0.9490237707869059
 10
-103.9726986739514
 20
14.4786878824206
 42
-0.1219763255428395
 10
-104.0737370478385
 20
14.43660764298731
 42
0.2389665861994908
 10
-104.4863106041419
 20
14.53760031814628
 42
0.1088572077991012
 10
-105.0672814773282
 20
14.25987044749813
 42
0.0382054673968337
 10
-106.4986590768963
 20
13.12370281007679
 42
0.0125588423814821
 10
-106.9364922469747
 20
12.51774681496691
 42
-0.0184946765784514
 10
-108.1068538916764
 20
10.91028002680371
 42
-0.0652448389128582
 10
-108.4941678342048
 20
10.5315574809966
 42
2.998115330417904
  0
LWPOLYLINE
  5
15A
330
18
100
AcDbEntity
  8
ADP1DETAIL
100
AcDbPolyline
 90
        2
 70
     0
 43
0.0
 10
-112.1268834508537
 20
6.173102562599682
 42
0.4334632729571823
 10
-112.0900045668919
 20
6.750609708844041
 42
-2.311751707173714
  0
LWPOLYLINE
  5
15E
330
18
100
AcDbEntity
  8
ADP1DETAIL
100
AcDbPolyline
 90
        9
 70
     0
 43
0.0
 10
-112.1890449241274
 20
4.986351868102894
 42
0.3593423491170713
 10
-112.2134398776029
 20
5.933323357613396
 42
0.4170542204642582
 10
-112.3499855588654
 20
5.942191037667976
 10
-112.692283093323
 20
5.604409154332804
 42
0.1047839324951864
 10
-112.7162187746163
 20
5.568131850503149
 42
0.1386401405529391
 10
-112.6776134266295
 20
5.280869615904473
 42
0.0402717326476188
 10
-112.5956603121514
 20
5.196222608435931
 10
-112.2554314517939
 20
5.004087478304803
 42
0.5802913888782868
 10
-112.1858217640056
 20
4.979633914609753
 42
4.182353062036018
  0
LWPOLYLINE
  5
169
330
18
100
AcDbEntity
  8
ADP1DETAIL
100
AcDbPolyline
 90
        9
 70
     0
 43
0.0
 10
-112.0777566346108
 20
6.713019803736001
 42
0.3593423491170713
 10
-112.1057761250047
 20
7.800689783521915
 42
0.4170542204642582
 10
-112.2626093982592
 20
7.810874999753398
 10
-112.6557645845644
 20
7.42290638793265
 42
0.1047839324951864
 10
-112.6832565653441
 20
7.381239099360442
 42
0.1386401405529391
 10
-112.6389153380425
 20
7.051296210519401
 42
0.0402717326476188
 10
-112.544785849082
 20
6.954072577155489
 10
-112.1540066949399
 20
6.733390523449827
 42
0.5802913888782868
 10
-112.0740545859817
 20
6.705303714686833
 42
4.182353062036018
  0
LWPOLYLINE
  5
174
330
18
100
AcDbEntity
  8
ADP1DETAIL
100
AcDbPolyline
 90
        7
 70
     0
 43
0.0
 10
-112.1531025936664
 20
6.887978488287165
 10
-112.0846052213533
 20
6.956444943531808
 10
-112.0846052213533
 20
7.521292767046423
 42
0.3105618510339543
 10
-112.2044758163223
 20
7.606875802851941
 10
-112.4699033274566
 20
7.469943025363791
 10
-112.2130379878615
 20
7.564084284949183
 10
-112.0846052213533
 20
7.504176186485546
  0
LWPOLYLINE
  5
17D
330
18
100
AcDbEntity
  8
ADP1DETAIL
100
AcDbPolyline
 90
        2
 70
     0
 43
0.0
 10
-114.2216024099053
 20
10.76121246221724
 42
0.2292310203930252
 10
-110.7795759631412
 20
9.950244964873935
 42
-0.1100855891770143
  0
LWPOLYLINE
  5
181
330
18
100
AcDbEntity
  8
ADP1DETAIL
100
AcDbPolyline
 90
        6
 70
     0
 43
0.0
 10
-112.0336677901656
 20
7.704950279729507
 42
-0.7157724904791774
 10
-111.4311024008848
 20
7.647588835453719
 42
0.3597826205097792
 10
-111.4433953891658
 20
8.089934778487519
 42
0.0628289776266249
 10
-113.8405209055315
 20
9.7487318841123
 42
-0.0440004626828688
 10
-111.8121839052586
 20
8.163659055979827
 42
-0.3393402689696638
 10
-111.7630121138971
 20
7.868761779162625
 42
1.664995553629885
  0
LWPOLYLINE
  5
189
330
18
100
AcDbEntity
  8
ADP1DETAIL
100
AcDbPolyline
 90
        6
 70
     0
 43
0.0
 10
-109.8944834759898
 20
9.490696773849247
 42
0.0909441730045675
 10
-109.0708557684809
 20
9.281811181914399
 42
-0.3768266412588418
 10
-109.2921289104891
 20
8.90090222021484
 42
-0.1053382190238632
 10
-109.869897580309
 20
8.692016683895982
 42
-0.0458916095028634
 10
-111.8859415923009
 20
8.962339145933093
 42
-0.1059029369501164
 10
-114.5535120420363
 20
10.58427414061971
 42
-2.513467707601029
  0
LWPOLYLINE
  5
191
330
18
100
AcDbEntity
  8
ADP1DETAIL
100
AcDbPolyline
 90
        2
 70
     0
 43
0.0
 10
-110.6689394730185
 20
9.630772928892628
 42
-0.253423114373969
 10
-114.3814107722709
 20
10.60147644422659
 42
-2.532520852082882
  0
LINE
  5
195
330
18
100
AcDbEntity
  8
ADP1DETAIL
100
AcDbLine
 10
-116.0483349038333
 20
7.659876242843765
 30
0.0
 11
-116.0483349038333
 21
1.84001618692787
 31
0.0
  0
LWPOLYLINE
  5
196
330
18
100
AcDbEntity
  8
ADP1DETAIL
100
AcDbPolyline
 90
       10
 70
     0
 43
0.0
 10
-114.8313327845509
 20
2.929232628842425
 42
0.228244296467558
 10
-114.4379582918961
 20
3.076681239443032
 42
0.1297995051146836
 10
-114.5485948629002
 20
3.469877608532636
 42
0.6694783866867003
 10
-115.028019949997
 20
3.273279423987834
 42
0.3297188997469603
 10
-114.8559186802317
 20
3.039819072888883
 42
-0.2605746489428901
 10
-114.8682115876314
 20
2.70805968513352
 42
-0.3538699015959701
 10
-115.1509495092822
 20
2.732634444297623
 42
-0.3719512901514335
 10
-115.2984648833667
 20
3.59275145996914
 42
-0.4475814941365839
 10
-114.2412710455686
 20
3.764774885349839
 42
-0.2361260802965475
 10
-113.9585332047992
 20
3.260992016597788
 42
0.9534347959145549
  0
LWPOLYLINE
  5
1A2
330
18
100
AcDbEntity
  8
ADP1DETAIL
100
AcDbPolyline
 90
        7
 70
     0
 43
0.0
 10
-115.2124142080434
 20
4.600317141857254
 42
-0.6057417433255682
 10
-115.1140706253204
 20
4.403718957312451
 42
-0.1190380523170542
 10
-115.2001213006437
 20
4.329994624204154
 42
-0.5241782570134382
 10
-115.273878987686
 20
4.0719595139411
 42
-0.4098608620437552
 10
-115.3230507790475
 20
3.850786570232194
 42
-0.4868628587719143
 10
-115.3968085469711
 20
3.715625311405644
 42
-0.1842837983661046
 10
-116.0483349038333
 20
3.666475793077438
 42
-6.867760090157703
  0
LWPOLYLINE
  5
1AB
330
18
100
AcDbEntity
  8
ADP1DETAIL
100
AcDbPolyline
 90
        2
 70
     0
 43
0.0
 10
-116.0483349038333
 20
3.801636996287999
 42
0.1375534458593626
 10
-115.3107578716478
 20
3.850786570232194
 42
-0.171620478532046
  0
LWPOLYLINE
  5
1AF
330
18
100
AcDbEntity
  8
ADP1DETAIL
100
AcDbPolyline
 90
        8
 70
     0
 43
0.0
 10
-115.1632424166819
 20
4.3422820315942
 10
-115.028019949997
 20
4.329994624204154
 42
-0.3385334841630436
 10
-113.4668151294213
 20
4.661754067575506
 42
-0.5699842800523033
 10
-113.2332490800133
 20
2.634335352025222
 42
-0.2602121300347415
 10
-113.9339473091184
 20
2.597473185471073
 42
-0.9706586274318729
 10
-113.6266234917869
 20
3.273279423987834
 42
0.4293011912766052
 10
-113.7987248424336
 20
4.268557698485901
 42
0.3538551707199544
 10
-114.8682115876314
 20
4.170258606213501
 42
2.461186223279767
  0
ARC
  5
1B9
330
18
100
AcDbEntity
  8
ADP1DETAIL
100
AcDbCircle
 10
-115.1703135288717
 20
1.454848965334587
 30
0.0
 40
0.3787960600452462
100
AcDbArc
 50
254.1329013579811
 51
100.1396949504431
  0
LWPOLYLINE
  5
1BA
330
18
100
AcDbEntity
  8
ADP1DETAIL
100
AcDbPolyline
 90
        4
 70
     0
 43
0.0
 10
-115.5812028050175
 20
3.641900978297346
 42
0.0236655953124733
 10
-115.7041322834213
 20
2.818646129179978
 42
0.466841845275605
 10
-115.2370001037242
 20
2.339438075208019
 42
0.4536040145012069
 10
-114.9788481586355
 20
2.683484870353428
 42
-1.233050567872063
  0
LWPOLYLINE
  5
1C0
330
18
100
AcDbEntity
  8
ADP1DETAIL
100
AcDbPolyline
 90
        2
 70
     0
 43
0.0
 10
-115.3599296630093
 20
2.351725482598065
 42
0.4084881197617457
 10
-114.9665552512358
 20
2.339438075208019
 42
-0.3903840279937325
  0
LWPOLYLINE
  5
1C4
330
18
100
AcDbEntity
  8
ADP1DETAIL
100
AcDbPolyline
 90
        2
 70
     0
 43
0.0
 10
-115.4459803383326
 20
2.400875000926271
 42
0.0529726401911449
 10
-115.2370001037242
 20
1.827728779537824
 42
0.4368101965076438
  0
LWPOLYLINE
  5
1C8
330
18
100
AcDbEntity
  8
ADP1DETAIL
100
AcDbPolyline
 90
        2
 70
     0
 43
0.0
 10
-115.6795463877406
 20
3.629613626523289
 42
0.0923019316421685
 10
-115.4951521296942
 20
1.581981076664816
 42
0.6962433733589034
  0
ARC
  5
1CC
330
18
100
AcDbEntity
  8
ADP1DETAIL
100
AcDbCircle
 10
-113.6208648286483
 20
2.711687898044143
 30
0.0
 40
2.152950868513438
100
AcDbArc
 50
185.0079345684167
 51
212.0346540546988
  0
ARC
  5
1CD
330
18
100
AcDbEntity
  8
ADP1DETAIL
100
AcDbCircle
 10
-115.2016128746449
 20
1.94002526693998
 30
0.0
 40
0.8526077707820054
100
AcDbArc
 50
186.7361808009892
 51
265.1378380785366
  0
ARC
  5
1CE
330
18
100
AcDbEntity
  8
ADP1DETAIL
100
AcDbCircle
 10
-115.1923201877346
 20
1.577899802571022
 30
0.0
 40
0.2537928537707833
100
AcDbArc
 50
100.1396949504424
 51
181.8529236060615
  0
ARC
  5
1CF
330
18
100
AcDbEntity
  8
ADP1DETAIL
100
AcDbCircle
 10
-107.6953314509358
 20
3.349605930593065
 30
0.0
 40
8.112411907932241
100
AcDbArc
 50
177.9351519033786
 51
185.8429280949622
  0
LWPOLYLINE
  5
1D0
330
18
100
AcDbEntity
  8
ADP1DETAIL
100
AcDbPolyline
 90
        5
 70
     0
 43
0.0
 10
-114.1183415671648
 20
2.806358721789932
 42
-0.3987358146780742
 10
-114.7944539005891
 20
2.683484870353428
 42
0.5959423991648422
 10
-114.9665552512358
 20
2.499174093198672
 42
0.389113480877398
 10
-114.8313327845509
 20
2.204276816381469
 42
0.4519124365860062
 10
-113.8724825294759
 20
2.548323667142867
 42
-0.2107635240849601
  0
ARC
  5
1D7
330
18
100
AcDbEntity
  8
ADP1DETAIL
100
AcDbCircle
 10
-115.3400243154824
 20
7.649414582623462
 30
0.0
 40
0.6346391343856551
100
AcDbArc
 50
179.0554693289153
 51
214.3573083326129
  0
LWPOLYLINE
  5
1D8
330
18
100
AcDbEntity
  8
ADP1DETAIL
100
AcDbPolyline
 90
        3
 70
     0
 43
0.0
 10
-113.9775320937626
 20
7.656989831760126
 42
0.0072523803424882
 10
-114.8927974833122
 20
6.443425024636793
 42
0.0800749843027801
 10
-115.6057887006983
 20
4.526592808748956
 42
1.218437891197043
  0
LWPOLYLINE
  5
1DD
330
18
100
AcDbEntity
  8
ADP1DETAIL
100
AcDbPolyline
 90
        3
 70
     0
 43
0.0
 10
-115.8024758661444
 20
4.502017993968863
 42
-0.0811256377262368
 10
-115.0894847296396
 20
6.566298876073297
 42
-0.0857324389299322
 10
-113.2086631843326
 20
8.962339145933093
 42
-1.142303918567779
  0
LWPOLYLINE
  5
1E2
330
18
100
AcDbEntity
  8
ADP1DETAIL
100
AcDbPolyline
 90
       17
 70
     0
 43
0.0
 10
-115.3476366747283
 20
9.662720199229946
 42
-0.4381234903313192
 10
-114.9911411469165
 20
9.871605735548804
 42
-0.2469598023763298
 10
-114.4748371758579
 20
9.490696773849247
 42
-0.1737988837442934
 10
-114.4379582918961
 20
9.146649978703838
 42
-0.1112152927558746
 10
-114.6469384456232
 20
8.028497797153278
 42
0.3396645534918689
 10
-114.9542622629547
 20
9.122075163923746
 42
0.5800434520859389
 10
-115.6057887006983
 20
8.839465294496589
 42
0.7607867624746674
 10
-115.1140706253204
 20
8.642867109951787
 42
0.5197165602890215
 10
-115.2001213006437
 20
8.913189627604888
 42
-0.3923691500111728
 10
-114.7452821092276
 20
8.483131091961134
 42
-0.1553231300690846
 10
-114.8313327845509
 20
7.709025761171972
 42
-0.0726379395630674
 10
-115.1263636136014
 20
7.045506930045256
 42
0.0622948274706256
 10
-115.9868702050721
 20
5.202398991649728
 42
-0.0878462432881173
 10
-115.4336873500516
 20
6.812046578946304
 42
-0.0050519557607355
 10
-115.040312938278
 20
7.782750094280268
 42
0.1709996593547815
 10
-114.9911411469165
 20
8.470843740187076
 42
0.394758790407271
 10
-115.1509495092822
 20
8.569142832459478
 42
9.941275322407973
  0
LWPOLYLINE
  5
1F5
330
18
100
AcDbEntity
  8
ADP1DETAIL
100
AcDbPolyline
 90
        9
 70
     0
 43
0.0
 10
-113.6086729158459
 20
8.009116044537655
 42
0.3593423491170713
 10
-114.0539062227231
 20
7.016353041995444
 42
0.4170542204642582
 10
-113.9169112846758
 20
6.939328362970929
 10
-113.3946184339464
 20
7.119052658361841
 42
0.1047839324951864
 10
-113.3518075762508
 20
7.144727595703724
 42
0.1386401405529391
 10
-113.2490615177812
 20
7.461384668582786
 42
0.0402717326476188
 10
-113.2918723754768
 20
7.589759222291064
 10
-113.548737715072
 20
7.957766169853892
 42
0.5802913888782868
 10
-113.6086729158459
 20
8.017674268317529
 42
4.182353062036018
  0
LWPOLYLINE
  5
200
330
18
100
AcDbEntity
  8
ADP1DETAIL
100
AcDbPolyline
 90
        3
 70
     0
 43
0.0
 10
-113.6257972589242
 20
7.8636249102685
 42
0.3923959917721333
 10
-113.8312895692845
 20
7.58120086551006
 42
-0.0967142941356448
 10
-113.8484139123628
 20
7.350126828436517
 42
1.309995952484641
  0
LWPOLYLINE
  5
205
330
18
100
AcDbEntity
  8
ADP1DETAIL
100
AcDbPolyline
 90
        3
 70
     0
 43
0.0
 10
-113.7799165400497
 20
7.076261140459081
 10
-113.8912247700584
 20
7.178960756825478
 42
0.1834083440810655
 10
-113.737105682354
 20
7.803716811804862
 42
-1.128876102125944
  0
LWPOLYLINE
  5
20A
330
18
100
AcDbEntity
  8
ADP1DETAIL
100
AcDbPolyline
 90
        9
 70
     0
 43
0.0
 10
-112.3035038928766
 20
7.944098128200842
 42
0.3593423491170713
 10
-113.3711663686282
 20
8.153640283008734
 42
0.4170542204642582
 10
-113.4152645784692
 20
8.002790151692213
 10
-113.122236540451
 20
7.534575229661747
 42
0.1047839324951864
 10
-113.0875571083705
 20
7.498668281382567
 42
0.1386401405529391
 10
-112.7558773518728
 20
7.470085183842414
 42
0.0402717326476188
 10
-112.6404866886059
 20
7.540780236054493
 10
-112.3399924820812
 20
7.874115124694917
 42
0.5802913888782868
 10
-112.2951667445362
 20
7.946030782286912
 42
4.182353062036018
  0
LWPOLYLINE
  5
215
330
18
100
AcDbEntity
  8
ADP1DETAIL
100
AcDbPolyline
 90
        3
 70
     0
 43
0.0
 10
-113.9093614134377
 20
5.251548565593923
 42
0.1740865042924656
 10
-114.7944539005891
 20
5.128674714157419
 42
0.1197747291558902
 10
-115.2001213006437
 20
4.612604493631311
 42
1.554964392930829
  0
LWPOLYLINE
  5
21A
330
18
100
AcDbEntity
  8
ADP1DETAIL
100
AcDbPolyline
 90
        6
 70
     0
 43
0.0
 10
-115.4459803383326
 20
5.09181254760327
 42
-0.0599054678011158
 10
-114.5977666542617
 20
5.755331434345976
 42
0.1859046117572545
 10
-114.3027358252112
 20
6.136240396045533
 42
0.1627478361642815
 10
-114.3150288134922
 20
6.529436765135137
 42
-0.1991636284126388
 10
-113.8724825294759
 20
6.14852774781959
 42
0.1165772572985629
 10
-113.8284124400485
 20
5.833499339606266
  0
ARC
  5
222
330
18
100
AcDbEntity
  8
ADP1DETAIL
100
AcDbCircle
 10
-115.8270618022658
 20
7.951944195485975
 30
0.0
 40
3.690026811794161
100
AcDbArc
 50
266.5621861876552
 51
279.9758314220706
  0
ARC
  5
223
330
18
100
AcDbEntity
  8
ADP1DETAIL
100
AcDbCircle
 10
-115.7184327112289
 20
6.079416594533965
 30
0.0
 40
2.070767162416135
100
AcDbArc
 50
260.8329196166248
 51
282.7452803898807
  0
ARC
  5
224
330
18
100
AcDbEntity
  8
ADP1DETAIL
100
AcDbCircle
 10
-115.8553078493397
 20
6.329725482073902
 30
0.0
 40
1.837872112673298
100
AcDbArc
 50
263.9712508893703
 51
290.8849081298425
  0
ARC
  5
225
330
18
100
AcDbEntity
  8
ADP1DETAIL
100
AcDbCircle
 10
-114.5688750110601
 20
8.176587982693506
 30
0.0
 40
1.568760670082364
100
AcDbArc
 50
214.3573083326139
 51
222.9876097736359
  0
ARC
  5
226
330
18
100
AcDbEntity
  8
ADP1DETAIL
100
AcDbCircle
 10
-115.9512899667794
 20
6.888023976221719
 30
0.0
 40
0.3210722083941583
100
AcDbArc
 50
332.2084955186962
 51
42.9876097736355
  0
LWPOLYLINE
  5
227
330
18
100
AcDbEntity
  8
ADP1DETAIL
100
AcDbPolyline
 90
        4
 70
     0
 43
0.0
 10
-115.5689098167365
 20
6.529436765135137
 42
0.2750637613411882
 10
-115.6672533994595
 20
6.738322301453996
 42
0.5841685873001968
 10
-115.8147688544254
 20
6.664597968345697
 42
-0.0822949188856289
 10
-115.876233634068
 20
6.38198809891854
 42
1.473646978958793
  0
LWPOLYLINE
  5
22D
330
18
100
AcDbEntity
  8
ADP1DETAIL
100
AcDbPolyline
 90
        7
 70
     0
 43
0.0
 10
-112.2546443029845
 20
5.13867829908964
 10
-112.1950075934197
 20
5.198288090946986
 10
-112.1950075934197
 20
5.690068497431759
 42
0.3105618510339543
 10
-112.2993720035587
 20
5.764580708304338
 10
-112.530464421523
 20
5.645361240386057
 10
-112.3068265922543
 20
5.727324602868048
 10
-112.1950075934197
 20
5.675166078416523
  0
LWPOLYLINE
  5
236
330
18
100
AcDbEntity
  8
ADP1DETAIL
100
AcDbPolyline
 90
        4
 70
     0
 43
0.0
 10
-113.2908329736763
 20
5.630458821370822
 10
-113.5219253916406
 20
5.630458821370822
 42
-0.1999993456678748
 10
-113.3579242719367
 20
5.459080713204606
 42
-0.3570884580045607
 10
-113.2908329736763
 20
5.637909972980235
 42
-0.2691965252226629
  0
LWPOLYLINE
  5
23C
330
18
100
AcDbEntity
  8
ADP1DETAIL
100
AcDbPolyline
 90
        9
 70
     0
 43
0.0
 10
-113.5219253916406
 20
6.114788076246183
 42
0.3593423491170713
 10
-113.9095643406131
 20
5.25044661539851
 42
0.4170542204642582
 10
-113.7902907530829
 20
5.183385671931752
 10
-113.3355605058499
 20
5.339861245286325
 42
0.1047839324951864
 10
-113.2982875623719
 20
5.362214931707381
 42
0.1386401405529391
 10
-113.2088324980246
 20
5.637909972980235
 42
0.0402717326476188
 10
-113.2461054415027
 20
5.749678289289105
 10
-113.4697432707713
 20
6.070080703404071
 42
0.5802913888782868
 10
-113.5219253916406
 20
6.122239227855594
 42
4.182353062036018
  0
LWPOLYLINE
  5
247
330
18
100
AcDbEntity
  8
ADP1DETAIL
100
AcDbPolyline
 90
        3
 70
     0
 43
0.0
 10
-113.6710173339532
 20
5.302605139850035
 10
-113.767926986996
 20
5.392019769737848
 42
0.1834083440810655
 10
-113.6337443904752
 20
5.935958816470554
 42
-1.128876102125944
  0
LWPOLYLINE
  5
24C
330
18
100
AcDbEntity
  8
ADP1DETAIL
100
AcDbPolyline
 90
        3
 70
     0
 43
0.0
 10
-113.5368345690318
 20
5.988117340922078
 42
0.3923959917721333
 10
-113.7157448661268
 20
5.742227021883282
 42
-0.0967142941356448
 10
-113.730654043518
 20
5.541044191483008
 42
1.309995952484641
  0
LWPOLYLINE
  5
251
330
18
100
AcDbEntity
  8
ADP1DETAIL
100
AcDbPolyline
 90
        9
 70
     0
 43
0.0
 10
-112.3855900355912
 20
6.058180728224625
 42
0.3593423491170713
 10
-113.3151421458333
 20
6.24061699119175
 42
0.4170542204642582
 10
-113.3535359125401
 20
6.109280486369048
 10
-113.0984133084529
 20
5.701632771192148
 42
0.1047839324951864
 10
-113.0682199280499
 20
5.670370663266353
 42
0.1386401405529391
 10
-112.7794455030051
 20
5.645485009570414
 42
0.0402717326476188
 10
-112.6789815108933
 20
5.707035112210437
 10
-112.4173585447083
 20
5.997250565305659
 42
0.5802913888782868
 10
-112.3783313616102
 20
6.059863378617308
 42
4.182353062036018
  0
LWPOLYLINE
  5
25C
330
18
100
AcDbEntity
  8
ADP1DETAIL
100
AcDbPolyline
 90
        9
 70
     0
 43
0.0
 10
-113.3653788606323
 20
5.287702720834801
 10
-113.7381086322136
 20
5.116324612668584
 42
0.4594747345640723
 10
-113.7828361643872
 20
4.959849039314011
 42
0.2027160067918971
 10
-113.1790141432422
 20
4.557483146920644
 42
0.6233746071128698
 10
-113.1119226765812
 20
4.646897776808457
 10
-113.0373767896252
 20
5.041812401796003
 42
0.1733253892364621
 10
-113.059740555712
 20
5.183385671931752
 42
0.2772243301049327
 10
-113.2759237962851
 20
5.310056407255856
 42
0.0846651200718946
 10
-113.3579242719367
 20
5.295153872444211
 42
5.677313688947208
  0
LWPOLYLINE
  5
267
330
18
100
AcDbEntity
  8
ADP1DETAIL
100
AcDbPolyline
 90
        4
 70
     0
 43
0.0
 10
-113.5815621012054
 20
5.13867829908964
 42
0.7741418870789503
 10
-113.5293799803362
 20
4.885336828441431
 42
-0.1048844608046083
 10
-113.2759237962851
 20
4.684153882244747
 42
0.6562853408334514
 10
-113.1790141432422
 20
4.788471046944206
 42
-1.529931614391604
  0
LINE
  5
26D
330
18
100
AcDbEntity
  8
ADP1DETAIL
100
AcDbLine
 10
-113.7977453417785
 20
5.06416608821706
 30
0.0
 11
-113.8350182852565
 21
5.17593440452593
 31
0.0
  0
LWPOLYLINE
  5
26E
330
18
100
AcDbEntity
  8
ADP1DETAIL
100
AcDbPolyline
 90
        3
 70
     1
 43
0.0
 10
-112.5751919536966
 20
5.347312396895736
 10
-112.4410091887752
 20
5.421824607768316
 10
-112.5751919536966
 20
5.533592924077186
  0
LWPOLYLINE
  5
273
330
18
100
AcDbEntity
  8
ADP1DETAIL
100
AcDbPolyline
 90
        5
 70
     0
 43
0.0
 10
-112.8659210812257
 20
4.721409987681037
 42
0.9038222081332738
 10
-112.6944653728263
 20
4.706507568665804
 42
-0.3380395461526349
 10
-112.5602827763054
 20
4.788471046944206
 42
0.4140807691134363
 10
-112.4111908339928
 20
4.848080723005142
 42
0.382792213844436
 10
-112.4410091887752
 20
4.967300306719834
 42
-3.799226512676344
  0
LWPOLYLINE
  5
27A
330
18
100
AcDbEntity
  8
ADP1DETAIL
100
AcDbPolyline
 90
        5
 70
     1
 43
0.0
 10
-112.7168291389131
 20
5.123775880074406
 10
-112.7690114281829
 20
5.071617355622882
 10
-112.8882848473125
 20
5.079068507232294
 10
-112.7541022507917
 20
4.997105144750301
 10
-112.7168291389131
 20
4.930044201283544
  0
LINE
  5
281
330
18
100
AcDbEntity
  8
ADP1DETAIL
100
AcDbLine
 10
-112.2620988916801
 20
4.922592933877721
 30
0.0
 11
-112.2248259482021
 21
4.967300306719834
 31
0.0
  0
LINE
  5
282
330
18
100
AcDbEntity
  8
ADP1DETAIL
100
AcDbLine
 10
-113.1119226765812
 20
4.587288100747522
 30
0.0
 11
-112.9628309026692
 21
4.564934414326465
 31
0.0
  0
LWPOLYLINE
  5
283
330
18
100
AcDbEntity
  8
ADP1DETAIL
100
AcDbPolyline
 90
        3
 70
     1
 43
0.0
 10
-113.3131967397631
 20
4.997105144750301
 10
-113.1119226765812
 20
5.093971042043937
 10
-113.2759237962851
 20
5.242995347992689
  0
CIRCLE
  5
288
330
18
100
AcDbEntity
  8
ADP1DETAIL
100
AcDbCircle
 10
-112.9907872098976
 20
5.408291192056559
 30
0.0
 40
0.1678758449381891
  0
LWPOLYLINE
  5
289
330
18
100
AcDbEntity
  8
ADP1DETAIL
100
AcDbPolyline
 90
        9
 70
     0
 43
0.0
 10
-112.7317384847049
 20
5.242995347992689
 42
0.112242513023801
 10
-112.9777400800604
 20
5.093971042043937
 42
0.3760634684278842
 10
-112.985194668756
 20
5.004556296359713
 10
-112.9702854913648
 20
4.594739252356933
 42
0.3931999876994474
 10
-112.8957394360081
 20
4.520227041484353
 42
0.2963065118513518
 10
-112.2620988916801
 20
4.900239247456665
 42
0.49437631048581
 10
-112.2993720035587
 20
4.974751458329246
 10
-112.6497378406527
 20
5.198288090946986
 42
0.120420711620902
 10
-112.7391930734005
 20
5.25044661539851
  0
LWPOLYLINE
  5
294
330
18
100
AcDbEntity
  8
ADP1DETAIL
100
AcDbPolyline
 90
        4
 70
     0
 43
0.0
 10
-113.677170288159
 20
6.887978488287165
 42
0.7741418870789503
 10
-113.617235087385
 20
6.596996219748854
 42
-0.1048844608046083
 10
-113.3261210616334
 20
6.365922049674178
 42
0.6562853408334514
 10
-113.2148128316246
 20
6.485738379602583
 42
-1.529931614391604
  0
LWPOLYLINE
  5
29A
330
18
100
AcDbEntity
  8
ADP1DETAIL
100
AcDbPolyline
 90
        4
 70
     0
 43
0.0
 10
-113.428867120103
 20
7.059144559898204
 10
-113.8569760839019
 20
6.862303550945284
 42
0.4594747345640723
 10
-113.9083491131367
 20
6.682579255554372
 42
0.1710902825625606
 10
-113.3414891750738
 20
6.252627569162442
 42
0.6233746071128698
  0
LWPOLYLINE
  5
2A0
330
18
100
AcDbEntity
  8
ADP1DETAIL
100
AcDbPolyline
 90
        4
 70
     0
 43
0.0
 10
-113.3432454047116
 20
7.452826444802912
 10
-113.6086729158459
 20
7.452826444802912
 42
-0.1999993456678748
 10
-113.4203049485638
 20
7.255985435849993
 42
-0.3570884580045607
 10
-113.3432454047116
 20
7.461384668582786
 42
-0.2691965252226629
  0
LINE
  5
2A6
330
18
100
AcDbEntity
  8
ADP1DETAIL
100
AcDbLine
 10
-113.9585332047992
 20
6.246826840091991
 30
0.0
 11
-113.749553051072
 21
6.480287191190942
 31
0.0
  0
LINE
  5
2A7
330
18
100
AcDbEntity
  8
ADP1DETAIL
100
AcDbLine
 10
-113.925473456215
 20
6.802395452481647
 30
0.0
 11
-113.9682843139107
 21
6.930770006189925
 31
0.0
  0
LWPOLYLINE
  5
2A8
330
18
100
AcDbEntity
  8
ADP1DETAIL
100
AcDbPolyline
 90
        5
 70
     0
 43
0.0
 10
-112.6007326914746
 20
6.231291692236695
 42
0.2118678286839536
 10
-112.1616647652056
 20
6.614112800309731
 42
0.49437631048581
 10
-112.2044758163223
 20
6.69969583611525
 10
-112.6068980720828
 20
6.956444943531808
 42
0.120420711620902
 10
-112.7096443239735
 20
7.016353041995444
  0
LWPOLYLINE
  5
2AF
330
18
100
AcDbEntity
  8
ADP1DETAIL
100
AcDbPolyline
 90
        5
 70
     0
 43
0.0
 10
-112.8552012401388
 20
6.408713567576938
 42
0.9038222081332738
 10
-112.6582711013176
 20
6.391596987016061
 42
-0.3380395461526349
 10
-112.5041520136131
 20
6.485738379602583
 42
0.4140807691134363
 10
-112.3329083894094
 20
6.554204701846094
 42
0.382792213844436
 10
-112.3671570755659
 20
6.691137612335378
 42
-3.799226512676344
  0
LINE
  5
2B6
330
18
100
AcDbEntity
  8
ADP1DETAIL
100
AcDbLine
 10
-112.3664633018192
 20
6.032824597967781
 30
0.0
 11
-112.3068265922543
 21
5.973214921906846
 31
0.0
  0
LWPOLYLINE
  5
2B7
330
18
100
AcDbEntity
  8
ADP1DETAIL
100
AcDbPolyline
 90
        5
 70
     1
 43
0.0
 10
-112.683957615935
 20
6.870861907726288
 10
-112.74389301013
 20
6.810953809262651
 10
-112.8808877547562
 20
6.819512033042524
 10
-112.7267686670517
 20
6.725370773457132
 10
-112.683957615935
 20
6.648346094432618
  0
LINE
  5
2BE
330
18
100
AcDbEntity
  8
ADP1DETAIL
100
AcDbLine
 10
-112.1616647652056
 20
6.639787737651612
 30
0.0
 11
-112.1188539075099
 21
6.691137612335378
 31
0.0
  0
LWPOLYLINE
  5
2BF
330
18
100
AcDbEntity
  8
ADP1DETAIL
100
AcDbPolyline
 90
        3
 70
     1
 43
0.0
 10
-112.5212763566914
 20
7.127610882141715
 10
-112.3671570755659
 20
7.213193917947233
 10
-112.5212763566914
 20
7.341568471655511
  0
LWPOLYLINE
  5
2C4
330
18
100
AcDbEntity
  8
ADP1DETAIL
100
AcDbPolyline
 90
        6
 70
     0
 43
0.0
 10
-113.1323122504836
 20
6.308853199899493
 42
0.053574770938404
 10
-113.1377530943513
 20
6.323130531771418
 10
-113.0521313789599
 20
6.776720515139764
 42
0.1733253892364621
 10
-113.0778178935774
 20
6.939328362970929
 42
0.2772243301049327
 10
-113.3261210616334
 20
7.084819497240086
 42
0.0846651200718946
 10
-113.4203049485638
 20
7.067702783678077
 42
5.677313688947208
  0
LINE
  5
2CC
330
18
100
AcDbEntity
  8
ADP1DETAIL
100
AcDbLine
 10
-113.5546354422746
 20
6.098344918033989
 30
0.0
 11
-113.3485507403318
 21
6.204910077329982
 31
0.0
  0
LINE
  5
2CD
330
18
100
AcDbEntity
  8
ADP1DETAIL
100
AcDbLine
 10
-113.1297233814235
 20
6.1430522908761
 30
0.0
 11
-112.9806316075114
 21
6.120698604455045
 31
0.0
  0
LWPOLYLINE
  5
2CE
330
18
100
AcDbEntity
  8
ADP1DETAIL
100
AcDbPolyline
 90
        3
 70
     1
 43
0.0
 10
-113.368931919329
 20
6.725370773457132
 10
-113.1377530943513
 20
6.836628746604533
 10
-113.3261210616334
 20
7.00779468521444
  0
LWPOLYLINE
  5
2D3
330
18
100
AcDbEntity
  8
ADP1DETAIL
100
AcDbPolyline
 90
        4
 70
     0
 43
0.0
 10
-112.7010821524343
 20
7.00779468521444
 42
0.112242513023801
 10
-112.9836340066469
 20
6.836628746604533
 42
0.3760634684278842
 10
-112.992196178186
 20
6.733928997237006
 10
-112.9767988802089
 20
6.310694704892888
 42
0.3931999876994474
  0
LWPOLYLINE
  5
2D9
330
18
100
AcDbEntity
  8
ADP1DETAIL
100
AcDbPolyline
 90
        8
 70
     0
 43
0.0
 10
-112.5751919536966
 20
5.995568492531491
 42
0.3846159071750414
 10
-112.6721016067395
 20
6.092434389825127
 42
0.2169667968752666
 10
-113.1641047974504
 20
6.062629551794659
 10
-113.1417410313636
 20
5.950861235485788
 10
-113.2461054415027
 20
6.084983122419306
 42
-0.7210845864212746
 10
-113.2162870867203
 20
6.129690495261417
 42
-0.0870806901060226
 10
-112.6124648971746
 20
6.122239227855594
 42
-0.2361637272292843
 10
-112.5826465423922
 20
5.995568492531491
 42
1.264611261077188
  0
LWPOLYLINE
  5
2E3
330
18
100
AcDbEntity
  8
ADP1DETAIL
100
AcDbPolyline
 90
        3
 70
     1
 43
0.0
 10
-113.022467612234
 20
5.779483127319572
 42
0.1310586878555471
 10
-112.8882848473125
 20
5.973214921906846
 10
-112.8286481377477
 20
5.772031975710161
  0
CIRCLE
  5
2E8
330
18
100
AcDbEntity
  8
ADP1DETAIL
100
AcDbCircle
 10
-112.9685508517518
 20
7.186393602212069
 30
0.0
 40
0.2171784350961905
  0
LWPOLYLINE
  5
2E9
330
18
100
AcDbEntity
  8
ADP1DETAIL
100
AcDbPolyline
 90
       12
 70
     0
 43
0.0
 10
-113.5036940133831
 20
9.134362571313792
 42
0.0370394871511772
 10
-114.5363019555004
 20
7.831899668224465
 42
0.04987018927841
 10
-114.1920992542071
 20
8.937764386768989
 42
0.4176728411159603
 10
-114.7452821092276
 20
10.16650301236601
 42
0.3364270603166006
 10
-115.6426675037788
 20
9.896180494712908
 42
0.3796376700742834
 10
-115.6057887006983
 20
9.515271533013349
 42
-0.9932526530661563
 10
-115.1878283123626
 20
9.380110274186799
 42
-0.3672050048483513
 10
-115.618081608098
 20
9.109787812149688
 42
-0.6579280892079558
 10
-115.4828591414131
 20
10.35081378952076
 42
-0.2656776821645972
 10
-114.3887865005345
 20
10.10506608664775
 42
-0.2353860314444135
 10
-113.995412088761
 20
9.085213052985587
 42
-0.0596906312435392
 10
-114.1552204511266
 20
8.347969888750572
 42
1.403565097054188
  0
LINE
  5
2F7
330
18
100
AcDbEntity
  8
ADP1DETAIL
100
AcDbLine
 10
-115.974577216791
 20
7.659876242843765
 30
0.0
 11
-116.0483349038333
 21
7.659876242843765
 31
0.0
  0
LWPOLYLINE
  5
2F8
330
18
100
AcDbEntity
  8
ADP1DETAIL
100
AcDbPolyline
 90
        5
 70
     0
 43
0.0
 10
-112.6192094344787
 20
8.183937846886916
 42
-0.1534364914525599
 10
-112.6603975893296
 20
8.36025724052463
 42
0.2447534429258848
 10
-112.7341552763719
 20
8.532280665905329
 42
-0.0198774006477764
 10
-113.0783578967839
 20
8.839465294496589
 42
-0.015808987318892
 10
-113.9757433722164
 20
9.502984181239293
 42
-2.880483114354989
  0
LWPOLYLINE
  5
2FF
330
18
100
AcDbEntity
  8
ADP1DETAIL
100
AcDbPolyline
 90
        3
 70
     0
 43
0.0
 10
-112.5128821343637
 20
8.237383389088126
 42
0.467179590541924
 10
-112.4760032504019
 20
8.618292350787683
 42
0.0462421213941341
 10
-113.8159350098507
 20
9.7487318841123
 42
1.929063658793103
  0
LWPOLYLINE
  5
304
330
18
100
AcDbEntity
  8
ADP1DETAIL
100
AcDbPolyline
 90
        2
 70
     0
 43
0.0
 10
-113.0611477293667
 20
8.80260312794244
 42
0.0057197069264994
 10
-113.8123788290855
 20
7.868367669493975
 42
0.0800749843027801
  0
LWPOLYLINE
  5
308
330
18
100
AcDbEntity
  8
ADP1DETAIL
100
AcDbPolyline
 90
        3
 70
     0
 43
0.0
 10
-112.2301442935942
 20
8.519993258515283
 42
-0.3827355947425349
 10
-112.3039019806365
 20
8.040785204543324
 42
-0.0740448750244888
 10
-112.3927901431434
 20
8.037528057872975
 42
0.2447534429258848
  0
LINE
  5
30D
330
18
100
AcDbEntity
  8
ADP1DETAIL
100
AcDbLine
 10
-112.2815353601746
 20
7.914974651951132
 30
0.0
 11
-112.2130379878615
 21
7.846508329707623
 31
0.0
  0
LINE
  5
30E
330
18
100
AcDbEntity
  8
ADP1DETAIL
100
AcDbLine
 10
-113.548737715072
 20
8.009116044537655
 30
0.0
 11
-113.4203049485638
 21
8.08614072356217
 31
0.0
  0
LWPOLYLINE
  5
30F
330
18
100
AcDbEntity
  8
ADP1DETAIL
100
AcDbPolyline
 90
        3
 70
     1
 43
0.0
 10
-113.0350070358817
 20
7.62399238341282
 42
0.1310586878555471
 10
-112.8808877547562
 20
7.846508329707623
 10
-112.8123903824431
 20
7.615434159632947
  0
LWPOLYLINE
  5
314
330
18
100
AcDbEntity
  8
ADP1DETAIL
100
AcDbPolyline
 90
        8
 70
     0
 43
0.0
 10
-112.5212763566914
 20
7.872183134048373
 42
0.3846159071750414
 10
-112.6325845867002
 20
7.983441107195773
 42
0.2169667968752666
 10
-113.1976882951252
 20
7.949207946074018
 10
-113.1720017805078
 20
7.82083339236574
 10
-113.2918723754768
 20
7.974882750414769
 42
-0.7210845864212746
 10
-113.2576236893203
 20
8.026232625098533
 42
-0.0870806901060226
 10
-112.5640872143871
 20
8.017674268317529
 42
-0.2361637272292843
 10
-112.5298385282305
 20
7.872183134048373
 42
1.264611261077188
  0
CIRCLE
  5
31E
330
18
100
AcDbEntity
  8
ADP1DETAIL
100
AcDbCircle
 10
-114.3716732316777
 20
10.76068997192807
 30
0.0
 40
0.1412980226131093
  0
CIRCLE
  5
31F
330
18
100
AcDbEntity
  8
ADP1DETAIL
100
AcDbCircle
 10
-112.7036643674926
 20
9.835179804380944
 30
0.0
 40
0.1615701855416541
  0
CIRCLE
  5
320
330
18
100
AcDbEntity
  8
ADP1DETAIL
100
AcDbCircle
 10
-112.3652257863831
 20
9.786348958595368
 30
0.0
 40
0.1681533037340688
  0
CIRCLE
  5
321
330
18
100
AcDbEntity
  8
ADP1DETAIL
100
AcDbCircle
 10
-113.0161323696541
 20
9.912783920862803
 30
0.0
 40
0.1582869505675043
  0
LWPOLYLINE
  5
322
330
18
100
AcDbEntity
  8
ADP1DETAIL
100
AcDbPolyline
 90
       14
 70
     0
 43
0.0
 10
-110.128049606279
 20
7.979348278825071
 42
0.1408698903640557
 10
-111.6277896472122
 20
8.888614868440784
 42
-0.0442386763538076
 10
-110.4845451340908
 20
7.954773519660969
 42
-0.2641761065846506
 10
-110.45995923841
 20
6.185389914373738
 42
-0.0173388640022142
 10
-110.9639703020689
 20
5.767618786120031
 42
0.210909992658371
 10
-111.2835870268002
 20
5.435859342748679
 42
0.2509448960996961
 10
-111.3327588181617
 20
5.177824232485624
 42
-0.5323562324978251
 10
-111.4311024008848
 20
5.05495038104912
 42
-0.4421020264645718
 10
-111.6277896472122
 20
5.718469212175836
 42
-0.1097830100054582
 10
-111.2098292588766
 20
6.234539432701945
 42
0.2961225992622791
 10
-110.8410407427838
 20
6.984070004327003
 42
0.2513191646763259
 10
-111.0868997804728
 20
7.844187019998521
 42
-0.2629590143279474
 10
-111.3819306095233
 20
7.266679873754162
 42
-0.2957762027293574
 10
-111.9026162919208
 20
7.345540225711827
 42
-0.8224433711987433
  0
LWPOLYLINE
  5
332
330
18
100
AcDbEntity
  8
ADP1DETAIL
100
AcDbPolyline
 90
        6
 70
     0
 43
0.0
 10
-111.0868997804728
 20
7.831899668224465
 42
0.1450389217046284
 10
-112.0703359312286
 20
8.814890535332486
 42
-0.1284987732042377
 10
-110.8041619397033
 20
7.795037501670316
 42
-0.3177120131493811
 10
-110.8287478353841
 20
6.554011468683251
 42
0.0114731289863311
 10
-111.3204658298807
 20
5.853630471002386
 42
0.3680254739102795
 10
-111.4188094934851
 20
5.05495038104912
 42
0.5385554130567927
  0
LWPOLYLINE
  5
33A
330
18
100
AcDbEntity
  8
ADP1DETAIL
100
AcDbPolyline
 90
       11
 70
     0
 43
0.0
 10
-109.8330187772285
 20
9.527558940403396
 42
0.0720455366012859
 10
-108.9110474061153
 20
9.392397681576845
 42
-0.3949047734689564
 10
-109.6486244383008
 20
8.667441924731878
 42
-0.3150862593372035
 10
-108.8987544178342
 20
7.328116799472413
 42
-0.7639293553936027
 10
-110.2018072933213
 20
6.82433398633635
 42
-0.1959693779139809
 10
-110.0665848266364
 20
7.414128539970757
 42
-0.9477041532427362
 10
-109.6363315309011
 20
6.959495245162901
 42
0.2956360232064392
 10
-109.3904724932122
 20
7.070081689209359
 42
0.5200459179394363
 10
-110.0665848266364
 20
8.249670796478172
 42
-0.2869064499283016
 10
-110.0051200469939
 20
7.930198760496866
 42
-0.2643865852356562
 10
-110.4968381223718
 20
7.954773519660969
 42
-3.433088849256541
  0
LWPOLYLINE
  5
347
330
18
100
AcDbEntity
  8
ADP1DETAIL
100
AcDbPolyline
 90
        3
 70
     0
 43
0.0
 10
-112.0552654438233
 20
5.299140862657473
 42
0.6745504674945044
 10
-111.7580949347609
 20
5.657032342073573
 42
0.1622074069499967
 10
-111.6720442594376
 20
5.669319693847631
 42
0.6181726781553391
  0
LWPOLYLINE
  5
34C
330
18
100
AcDbEntity
  8
ADP1DETAIL
100
AcDbPolyline
 90
        2
 70
     0
 43
0.0
 10
-112.0904569378771
 20
5.167232674330341
 42
0.320819290065076
 10
-111.6597512711566
 20
5.337560306092267
 42
-0.0658408108682186
  0
LWPOLYLINE
  5
350
330
18
100
AcDbEntity
  8
ADP1DETAIL
100
AcDbPolyline
 90
        4
 70
     0
 43
0.0
 10
-112.0285398681307
 20
5.816768360064227
 42
0.5018496861393331
 10
-111.7212160507991
 20
5.878205285782479
 42
0.4449079999276482
 10
-111.7089231433994
 20
6.14852774781959
 42
0.0185122069434773
 10
-111.9670750884881
 20
6.394275506308588
 42
0.244130974573991
  0
LWPOLYLINE
  5
356
330
18
100
AcDbEntity
  8
ADP1DETAIL
100
AcDbPolyline
 90
        3
 70
     0
 43
0.0
 10
-111.2049120797405
 20
6.234539488317935
 42
0.4426476184021709
 10
-111.5245288044717
 20
6.713747542289894
 42
0.4257254487969643
 10
-111.6228724680761
 20
7.205243003651899
 42
-1.784610212534172
  0
LWPOLYLINE
  5
35B
330
18
100
AcDbEntity
  8
ADP1DETAIL
100
AcDbPolyline
 90
        4
 70
     0
 43
0.0
 10
-111.6351653754758
 20
6.136240396045533
 42
0.4890799223111589
 10
-111.3770134303871
 20
6.406562858082644
 42
0.3713013188471114
 10
-111.7703878421607
 20
6.676885375735745
 42
0.5471738421170248
 10
-111.6720442594376
 20
7.094656503989451
 42
0.5471738421170248
  0
CIRCLE
  5
361
330
18
100
AcDbEntity
  8
ADP1DETAIL
100
AcDbCircle
 10
-108.9889691810515
 20
10.75726445063997
 30
0.0
 40
0.238767328569979
  0
LWPOLYLINE
  5
362
330
18
100
AcDbEntity
  8
ADP1DETAIL
100
AcDbPolyline
 90
        2
 70
     0
 43
0.0
 10
-109.8944834759898
 20
8.692016683895982
 42
-0.2140972704513983
 10
-108.935633301796
 20
7.721313168562017
 42
0.6939940214945461
  0
LWPOLYLINE
  5
366
330
18
100
AcDbEntity
  8
ADP1DETAIL
100
AcDbPolyline
 90
        2
 70
     0
 43
0.0
 10
-112.0211640589858
 20
9.171224737867941
 42
0.1226891242710161
 10
-109.0831486758806
 20
9.269523830140341
 42
-0.1396999167784235
  0
LWPOLYLINE
  5
36A
330
18
100
AcDbEntity
  8
ADP1DETAIL
100
AcDbPolyline
 90
        4
 70
     0
 43
0.0
 10
-111.6277896472122
 20
8.913189627604888
 42
-0.0044378186580597
 10
-110.3984945396488
 20
8.519993258515283
 42
-0.2056153087759585
 10
-110.0788777340362
 20
8.237383389088126
 42
-0.7630382474886349
 10
-110.4230804353295
 20
7.942486112270922
 42
-3.2605142643923
  0
CIRCLE
  5
370
330
18
100
AcDbEntity
  8
ADP1DETAIL
100
AcDbCircle
 10
-110.5625906976422
 20
9.857163558115095
 30
0.0
 40
0.2269355473792433
  0
DIMENSION
  5
371
330
18
100
AcDbEntity
  8
ADPDIM
100
AcDbDimension
  2
*D0
 10
-96.34748288454845
 20
18.67686476108051
 30
0.0
 11
-106.2224828845484
 21
18.67686476108051
 31
0.0
 12
0.0
 22
-2.185877798019692
 32
0.0
100
AcDbAlignedDimension
 13
-116.0974828845484
 23
16.98777747324842
 33
0.0
 14
-96.34748288454845
 24
16.98777747324842
 34
0.0
100
AcDbRotatedDimension
  0
LWPOLYLINE
  5
372
330
18
100
AcDbEntity
  8
ADP1DETAIL
100
AcDbPolyline
 90
        2
 70
     0
 43
0.0
 10
-112.4514173547211
 20
14.16481841396515
 42
0.6654567696491056
 10
-111.8244768935396
 20
14.54572737566471
 42
0.6654567696491056
  0
LWPOLYLINE
  5
376
330
18
100
AcDbEntity
  8
ADP1DETAIL
100
AcDbPolyline
 90
        2
 70
     0
 43
0.0
 10
-111.8613556966201
 20
11.73191592193522
 42
0.4892345169297014
 10
-112.254730189275
 20
12.21112397590718
 42
0.4892345169297014
  0
LWPOLYLINE
  5
37A
330
18
100
AcDbEntity
  8
ADP1DETAIL
100
AcDbPolyline
 90
        4
 70
     0
 43
0.0
 10
-111.5540319601699
 20
12.01452584697836
 42
0.5934642394798516
 10
-111.9228204762627
 20
12.30942306817958
 42
0.5151359060947616
 10
-112.4268314590403
 20
12.57974558583268
 42
-0.2246174784022983
 10
-112.2670230966747
 20
12.18654921674307
 42
1.057480454046898
  0
LWPOLYLINE
  5
380
330
18
100
AcDbEntity
  8
ADP1DETAIL
100
AcDbPolyline
 90
        3
 70
     0
 43
0.0
 10
-112.6481046010485
 20
14.27540485801161
 42
0.3327525564433445
 10
-112.5743469140062
 20
13.40300043495004
 42
0.2524787936848987
 10
-111.2590011311194
 20
12.92379238097809
 42
-0.0727504600272279
  0
LWPOLYLINE
  5
385
330
18
100
AcDbEntity
  8
ADP1DETAIL
100
AcDbPolyline
 90
        4
 70
     0
 43
0.0
 10
-112.1318006299899
 20
13.882208488922
 42
0.3907735351342842
 10
-111.5417389718889
 20
13.30470134267764
 42
0.5163137155375753
 10
-110.2018072933213
 20
14.70546339365536
 42
0.3642964799825323
 10
-110.8041619397033
 20
15.41813179872627
 42
-11.70993701988988
  0
LWPOLYLINE
  5
38B
330
18
100
AcDbEntity
  8
ADP1DETAIL
100
AcDbPolyline
 90
        6
 70
     0
 43
0.0
 10
-114.6518557056407
 20
15.77446600126173
 42
0.3677355884912008
 10
-114.7747851840445
 20
15.13552187368313
 42
0.2937118805462226
 10
-114.2461883055861
 20
15.07408494796488
 42
-0.4235887003281658
 10
-114.9345935464101
 20
14.93892374475431
 42
-0.2908968808568362
 10
-114.8608358593678
 20
15.86047768614408
 42
-0.3857235943437597
 10
-110.5091310297715
 20
16.78203162753385
 42
0.2700905012081758
  0
LWPOLYLINE
  5
393
330
18
100
AcDbEntity
  8
ADP1DETAIL
100
AcDbPolyline
 90
        7
 70
     0
 43
0.0
 10
-110.4968381223718
 20
16.76974427575979
 42
0.2983137215435578
 10
-113.7298843345274
 20
16.47484699894259
 42
0.1605825341233233
 10
-114.5043402506748
 20
15.67616690898933
 42
0.6005739060478438
 10
-114.2461883055861
 20
15.07408494796488
 42
-0.4328582205215744
 10
-114.8731287667676
 20
14.74232556020951
 42
-0.3500121016169854
 10
-114.9100076507294
 20
14.50886520911056
 42
-0.4483212975389087
 10
-115.3894327378262
 20
14.55801472743877
 42
-1.95632640186193
  0
LWPOLYLINE
  5
39C
330
18
100
AcDbEntity
  8
ADP1DETAIL
100
AcDbPolyline
 90
       18
 70
     0
 43
0.0
 10
-110.45995923841
 20
16.00792629674469
 42
-0.4411694936415057
 10
-109.9559482556324
 20
13.882208488922
 42
0.3942936726694494
 10
-110.472252226691
 20
15.68845426076338
 42
0.0459815056932317
 10
-110.8902125341453
 20
15.65159209420923
 42
-0.7749844281780671
 10
-111.1237786644346
 20
15.19695885501737
 42
-0.7361667566174765
 10
-111.1360715718343
 20
15.98335153758059
 42
-0.1417207094964012
 10
-110.4476663310103
 20
16.00792629674469
 42
0.1526746209592233
 10
-111.6154966589312
 20
16.56085868382495
 42
0.3737553375276763
 10
-112.844791847376
 20
15.76217859387168
 42
0.261462652405859
 10
-112.6849834850103
 20
15.08637235535492
 42
-0.3899817308905461
 10
-112.6849834850103
 20
14.88977417081012
 42
-0.5771949594664305
 10
-113.4348535054769
 20
15.36898222478208
 42
-0.7316596822071784
 10
-113.6684195548848
 20
15.41813179872627
 42
-0.0958414490249294
 10
-113.4717323085574
 20
15.99563894497063
 42
-0.4392440741124767
 10
-110.5337170063336
 20
16.40112266583429
 42
0.4426086906980198
 10
-113.1644085721072
 20
15.97106413019054
 42
0.2572022969184128
 10
-113.2381662591495
 20
15.13552187368313
 42
0.408136499773751
 10
-112.7464481837716
 20
14.93892374475431
 42
-0.199927433878317
  0
LWPOLYLINE
  5
3B0
330
18
100
AcDbEntity
  8
ADP1DETAIL
100
AcDbPolyline
 90
        5
 70
     0
 43
0.0
 10
-112.6358116127675
 20
14.28769226540166
 42
1.402207473974129
 10
-111.7998909978589
 20
14.80376248592776
 42
0.4711621053406263
 10
-113.1275296881454
 20
14.37370395028401
 42
0.4895382728793955
 10
-111.664668531174
 20
12.60432034499678
 42
0.1779421598627842
 10
-109.9131794271043
 20
13.17657257210909
 42
0.3618911962506107
  0
LWPOLYLINE
  5
3B7
330
18
100
AcDbEntity
  8
ADP1DETAIL
100
AcDbPolyline
 90
        4
 70
     0
 43
0.0
 10
-110.1673017413737
 20
16.86264957246873
 42
0.077449549988927
 10
-110.8410407427838
 20
17.22437751495166
 42
0.1969793430301865
 10
-114.2216024099053
 20
17.05235414518695
 42
-0.2126489549475935
 10
-115.2173314680609
 20
16.95405505291455
 42
-6.183719763901806
  0
LWPOLYLINE
  5
3BD
330
18
100
AcDbEntity
  8
ADP1DETAIL
100
AcDbPolyline
 90
        4
 70
     0
 43
0.0
 10
-114.8854217550486
 20
14.74232556020951
 42
0.3026618065887894
 10
-114.9468865346912
 20
14.71775074542942
 42
-0.5915649587145153
 10
-115.2419173637416
 20
14.93892374475431
 42
-0.3375528039592772
 10
-114.1724305376625
 20
16.7205947018156
 42
-0.1918482999276477
  0
LWPOLYLINE
  5
3C3
330
18
100
AcDbEntity
  8
ADP1DETAIL
100
AcDbPolyline
 90
        3
 70
     0
 43
0.0
 10
-116.0901309669313
 20
14.37370395028401
 10
-116.0901309669313
 20
12.72719419643328
 10
-115.982323686792
 20
12.72719419643328
  0
LWPOLYLINE
  5
3C8
330
18
100
AcDbEntity
  8
ADP1DETAIL
100
AcDbPolyline
 90
        2
 70
     0
 43
0.0
 10
-115.8934437206039
 20
14.37370395028401
 10
-116.0901309669313
 20
14.37370395028401
  0
LWPOLYLINE
  5
3CC
330
18
100
AcDbEntity
  8
ADP1DETAIL
100
AcDbPolyline
 90
        3
 70
     0
 43
0.0
 10
-112.8324988590949
 20
12.71490684465923
 42
0.0291870931360379
 10
-113.3979746215151
 20
13.40300043495004
 42
-0.3295958437739416
 10
-113.5823688795615
 20
14.81604983770182
 42
-0.5884659632244949
  0
LWPOLYLINE
  5
3D1
330
18
100
AcDbEntity
  8
ADP1DETAIL
100
AcDbPolyline
 90
        2
 70
     0
 43
0.0
 10
-112.5620539257252
 20
12.71490684465923
 42
-0.0998207025007722
 10
-112.4091776913062
 20
12.78339154026929
 42
-0.5373847037200349
  0
LWPOLYLINE
  5
3D5
330
18
100
AcDbEntity
  8
ADP1DETAIL
100
AcDbPolyline
 90
        6
 70
     0
 43
0.0
 10
-114.3076530043473
 20
16.7205947018156
 42
-0.0098418716167266
 10
-114.8977146624483
 20
16.40112266583429
 42
-0.1901122849130868
 10
-115.7582213348003
 20
16.53628392466084
 42
-0.4694815141715479
 10
-115.918029697166
 20
17.42097569949646
 42
-0.9161416188626015
 10
-115.2173314680609
 20
16.92948029375045
 42
-0.4743821084319894
 10
-115.672170659477
 20
16.85575596064215
 42
-2.63593269244761
  0
LWPOLYLINE
  5
3DD
330
18
100
AcDbEntity
  8
ADP1DETAIL
100
AcDbPolyline
 90
        2
 70
     0
 43
0.0
 10
-113.8282279172505
 20
15.98335153758059
 42
-0.0754140043032285
 10
-112.7710340794524
 20
16.76974427575979
 42
-0.2494967297412263
  0
LWPOLYLINE
  5
3E1
330
18
100
AcDbEntity
  8
ADP1DETAIL
100
AcDbPolyline
 90
        3
 70
     0
 43
0.0
 10
-113.4717323085574
 20
15.98335153758059
 42
-0.055360308432044
 10
-113.8282279172505
 20
15.97106413019054
 42
-0.2139014004790952
 10
-113.7175913462464
 20
16.48713435071665
 42
-0.5068080832647086
  0
LWPOLYLINE
  5
3E6
330
18
100
AcDbEntity
  8
ADP1DETAIL
100
AcDbPolyline
 90
        7
 70
     0
 43
0.0
 10
-98.29939161283554
 20
15.64010367467071
 10
-98.37517037294771
 20
15.63168760444648
 42
-0.0622818117525842
 10
-98.40042998672268
 20
15.53911099951174
 42
-0.2095134707123486
 10
-99.12453864422957
 20
15.85892110959318
 42
-0.325534414151568
 10
-99.47817315586654
 20
15.36237380402256
 42
-0.1614192050696099
 10
-100.0591440290527
 20
15.44653433873307
 42
-0.3050750461617253
 10
-100.1686023012691
 20
15.64010367467071
 42
-0.36563167455956
  0
LWPOLYLINE
  5
3EF
330
18
100
AcDbEntity
  8
ADP1DETAIL
100
AcDbPolyline
 90
        5
 70
     0
 43
0.0
 10
-97.58370277244512
 20
16.03565830508235
 10
-97.58370277244512
 20
15.82525688454019
 42
-0.1788076994550759
 10
-98.38359027127696
 20
15.83367295476441
 42
0.0198494379318742
 10
-99.48659297298302
 20
16.75102310141936
 42
0.0529125580815626
 10
-100.614855288464
 20
17.15499380205524
 42
-8.360151242235529
  0
LWPOLYLINE
  5
3F6
330
18
100
AcDbEntity
  8
ADP1DETAIL
100
AcDbPolyline
 90
       20
 70
     0
 43
0.0
 10
-96.81749478571752
 20
17.03716898644781
 42
-0.9362348295613301
 10
-97.48266439855797
 20
17.12974564722648
 42
-0.4890358414744739
 10
-97.0195716147046
 20
17.54213236224265
 42
-0.4751349498356224
 10
-96.37966161563912
 20
16.70894280614214
 42
-0.516747104820837
 10
-97.71000084132005
 20
16.17031520529431
 42
-0.1869704446488221
 10
-97.44898488645374
 20
15.74951236420998
 42
-0.2516186971571592
 10
-98.38359027127696
 20
15.84208902498864
 42
-0.2540979568908652
 10
-98.28255181617704
 20
15.54752701389204
 42
-0.116463032877486
 10
-98.78774392925111
 20
15.53911099951174
 42
-0.2769196439417898
 10
-99.06559959956314
 20
15.69059998432823
 42
-0.2789657578673073
 10
-99.21715720100024
 20
15.32870957896957
 42
-0.1802511223810135
 10
-99.94968575683639
 20
15.26138112886359
 42
-0.2294196523356029
 10
-100.2864804718148
 20
15.51386278883905
 42
-0.2708916093794356
 10
-100.2780605734855
 20
15.6737678997237
 42
-0.1204030063937826
 10
-100.1686023012691
 20
15.64010367467071
 42
0.3026405528260465
 10
-99.8823268138407
 20
15.65693575927524
 42
0.3371901971996104
 10
-99.73918902952007
 20
16.2039794303473
 42
0.2397890066702094
 10
-100.4464579715812
 20
16.75102310141936
 42
0.0492886232452644
 10
-101.2379255720837
 20
16.88568000163132
 42
0.0877091916949069
 10
-102.8377004885346
 20
16.63319828581194
 42
5.977780077131643
  0
LWPOLYLINE
  5
40C
330
18
100
AcDbEntity
  8
ADP1DETAIL
100
AcDbPolyline
 90
        4
 70
     0
 43
0.0
 10
-103.5786488614872
 20
16.34705240078349
 42
-0.1388954477975069
 10
-101.0358487430967
 20
17.02033690184328
 42
-0.0969497188049963
 10
-99.93284596017787
 20
16.78468732647235
 42
-0.1172469844757284
 10
-98.37517037294771
 20
15.63168760444648
 42
0.4650704538873696
  0
LWPOLYLINE
  5
412
330
18
100
AcDbEntity
  8
ADP1DETAIL
100
AcDbPolyline
 90
        4
 70
     0
 43
0.0
 10
-103.6123283735915
 20
16.44804507594246
 42
-0.2000496652401467
 10
-100.1601824029399
 20
17.07924928172503
 42
-0.0810598689361848
 10
-99.20031748555452
 20
16.70052673591792
 42
0.0184733819082008
 10
-97.60054248789085
 20
15.82525688454019
 42
1.618105769777963
  0
LWPOLYLINE
  5
418
330
18
100
AcDbEntity
  8
ADP1DETAIL
100
AcDbPolyline
 90
        3
 70
     0
 43
0.0
 10
-103.5449694305958
 20
16.60795013098318
 42
-0.2092176837077637
 10
-100.0338844152778
 20
17.27281856181874
 42
-0.0149216199958505
 10
-97.70158094299077
 20
16.16189913507008
 42
0.24173233066194
  0
LWPOLYLINE
  5
41D
330
18
100
AcDbEntity
  8
ADP1DETAIL
100
AcDbPolyline
 90
        4
 70
     0
 43
0.0
 10
-104.1932992467777
 20
16.26289181022905
 42
-0.2681725539301834
 10
-99.36871480243736
 20
17.24757040698998
 42
0.0106156808975799
 10
-97.76893988598647
 20
16.55745382132565
 42
0.4060411075616138
 10
-97.33110671590807
 20
16.81835155152534
 42
-0.8654869283894882
  0
LINE
  5
423
330
18
100
AcDbEntity
  8
ADP1DETAIL
100
AcDbLine
 10
-106.0480156280419
 20
15.6563034359048
 30
0.0
 11
-106.2300272845093
 21
15.52635395144659
 31
0.0
  0
LINE
  5
424
330
18
100
AcDbEntity
  8
ADP1DETAIL
100
AcDbLine
 10
-106.1020094488911
 20
15.38138432928561
 30
0.0
 11
-106.1496596483445
 21
15.3099412883239
 31
0.0
  0
LINE
  5
425
330
18
100
AcDbEntity
  8
ADP1DETAIL
100
AcDbLine
 10
-106.0480156280419
 20
16.0288252283202
 30
0.0
 11
-106.2126928025213
 21
16.05481513633504
 31
0.0
  0
LINE
  5
426
330
18
100
AcDbEntity
  8
ADP1DETAIL
100
AcDbLine
 10
-106.0653501100299
 20
15.91620234920522
 30
0.0
 11
-106.25602892661
 21
15.90753904653361
 31
0.0
  0
LINE
  5
427
330
18
100
AcDbEntity
  8
ADP1DETAIL
100
AcDbLine
 10
-105.9960122629592
 20
16.11545819942034
 30
0.0
 11
-106.1693567593139
 21
16.2107544731921
 31
0.0
  0
LWPOLYLINE
  5
428
330
18
100
AcDbEntity
  8
ADP1DETAIL
100
AcDbPolyline
 90
       10
 70
     0
 43
0.0
 10
-105.129290185592
 20
16.53129644957782
 42
-0.1522977475142107
 10
-104.3145713924262
 20
16.99911451576498
 42
-0.0826422258628924
 10
-103.8292069482193
 20
16.81718527089309
 42
0.4389744612632841
 10
-103.5085197593731
 20
16.81718527089309
 42
0.3381361960114397
 10
-103.5258542413611
 20
17.10307409220835
 42
0.2935223760540214
 10
-104.6785946244798
 20
17.48425918729537
 42
0.22431282489718
 10
-105.9353417377638
 20
16.73055229979294
 42
0.1294979004011858
 10
-106.2993650506987
 20
15.67363004124802
 42
0.7064023006540208
 10
-105.7879989643911
 20
15.44838428301806
 42
0.0365895713339658
 10
-105.129290185592
 20
16.53129644957782
 42
-0.6113596823166756
  0
LWPOLYLINE
  5
434
330
18
100
AcDbEntity
  8
ADP1DETAIL
100
AcDbPolyline
 90
        6
 70
     0
 43
0.0
 10
-103.6211936496512
 20
16.96446136069452
 42
0.2545623504639258
 10
-104.4185780417103
 20
17.31099324509508
 42
0.3476347256272577
 10
-106.0393483870479
 20
15.7775895620754
 42
1.155412481227704
 10
-105.8400023294738
 20
15.7775895620754
 42
-0.233006730390611
 10
-104.7826013546452
 20
17.12906400022319
 42
-0.1835178855012978
 10
-103.6211936496512
 20
16.96446136069452
 42
0.2573592244109455
  0
LWPOLYLINE
  5
43C
330
18
100
AcDbEntity
  8
ADP1DETAIL
100
AcDbPolyline
 90
        6
 70
     0
 43
0.0
 10
-106.6586365766626
 20
13.29202393534174
 42
-0.0606534403790215
 10
-105.7408709884979
 20
14.41135943231462
 42
0.0159607681516171
 10
-104.8736245466704
 20
15.29504535391658
 42
0.0876030093291769
 10
-104.435791376592
 20
15.95991378475215
 42
0.2324582076070097
 10
-104.4021119457005
 20
16.39754871044101
 42
0.4757026852152184
 10
-104.6715477176833
 20
16.48170930099544
 42
3.319017996078029
  0
LWPOLYLINE
  5
444
330
18
100
AcDbEntity
  8
ADP1DETAIL
100
AcDbPolyline
 90
        8
 70
     0
 43
0.0
 10
-104.461050990367
 20
15.58119129478896
 42
0.126995427215636
 10
-104.1916152183842
 20
16.25447579584875
 42
0.6894329365201779
 10
-104.6715477176833
 20
16.46487716054699
 42
0.3246365290186955
 10
-104.6968073314583
 20
16.29655603528204
 42
-0.1054438308032814
 10
-104.7978457053454
 20
15.9010014048704
 42
-0.0603420910094995
 10
-105.3788166597445
 20
15.21088481920607
 42
-0.0156221465875744
 10
-106.3976207030091
 20
14.0578850971802
 42
-0.7200433930918916
 10
-106.5070789752255
 20
14.10838140683772
 42
-0.8960473581905837
  0
LWPOLYLINE
  5
44E
330
18
100
AcDbEntity
  8
ADP1DETAIL
100
AcDbPolyline
 90
       10
 70
     0
 43
0.0
 10
-106.7847294140243
 20
15.45704758568968
 42
-0.2556052973819921
 10
-106.1520222773259
 20
15.31843479855986
 42
-0.1443228200501567
 10
-106.2213600435153
 20
14.71200400085887
 42
-0.0286196441079362
 10
-107.3394316244206
 20
12.72810885699525
 42
-0.0131584056397935
 10
-107.5907810470774
 20
12.32093385389339
 42
-0.6535526840952476
 10
-107.8421304697342
 20
12.40756688060952
 42
-0.314051427004652
 10
-107.7901271046515
 20
12.71078225165202
 42
0.0681469029223337
 10
-107.2874282593379
 20
14.07958329514304
 42
-0.0003277871444155
 10
-106.932072187397
 20
15.19714867238925
 42
-0.1039844826845613
 10
-106.7847294140243
 20
15.45704758568968
 42
-0.4512758281907804
  0
LWPOLYLINE
  5
45A
330
18
100
AcDbEntity
  8
ADP1DETAIL
100
AcDbPolyline
 90
        8
 70
     0
 43
0.0
 10
-106.2993650506987
 20
15.73427310433332
 42
-0.6167116685243551
 10
-106.932072187397
 20
15.76026301234817
 42
-0.1463502371315715
 10
-106.9927427934737
 20
16.2107544731921
 42
0.3282273993938132
 10
-107.3827677485093
 20
16.96446136069452
 42
0.0911642204713251
 10
-107.9721387611189
 20
16.93847145267968
 42
-0.6963030862639323
 10
-108.1368159355984
 20
17.18970706330849
 42
-0.2789279484353444
 10
-106.7067244877222
 20
17.30232994242347
 42
-0.2360934873004748
 10
-106.2040256424086
 20
16.2107544731921
 42
1.032650399079872
  0
LWPOLYLINE
  5
464
330
18
100
AcDbEntity
  8
ADP1DETAIL
100
AcDbPolyline
 90
        2
 70
     0
 43
0.0
 10
-109.5311153986576
 20
13.6114762639472
 42
0.3284510082063852
 10
-109.818348887532
 20
16.5421901999526
 42
0.1969793430301865
  0
LWPOLYLINE
  5
468
330
18
100
AcDbEntity
  8
ADP1DETAIL
100
AcDbPolyline
 90
       11
 70
     0
 43
0.0
 10
-107.8334632287402
 20
12.64147588589511
 42
0.2219424639073655
 10
-107.7901271046515
 20
16.46199008382091
 42
0.2974579147371145
 10
-109.7402518798292
 20
17.47559588462375
 42
0.6196649323909435
 10
-110.0522719085627
 20
16.65258263136442
 42
0.8430566842420205
 10
-109.4802352970598
 20
17.02510442377982
 42
-0.2829297356922064
 10
-108.1454831765924
 20
16.22808107853532
 42
-0.2165375946475287
 10
-107.7554582215568
 20
14.04493008445659
 42
0.1727806980870071
 10
-108.3188275920658
 20
15.70828319631849
 42
0.1532288251690228
 10
-108.9688692107521
 20
15.90753904653361
 42
1.147288236635514
 10
-108.75218867119
 20
15.20581197506087
 42
0.5780845078021624
 10
-108.7088525471014
 20
15.70828319631849
 42
-3.184550749370111
  0
LWPOLYLINE
  5
475
330
18
100
AcDbEntity
  8
ADP1DETAIL
100
AcDbPolyline
 90
        4
 70
     0
 43
0.0
 10
-108.6135131388113
 20
15.32709810123147
 42
-0.2813526151510425
 10
-108.197486541675
 20
13.08330404406743
 42
0.2494924836844968
 10
-108.5355081316279
 20
13.51646895518412
 42
0.3405301093909339
 10
-108.7868575542847
 20
13.08330404406743
 42
-0.1901079369191146
  0
LWPOLYLINE
  5
47B
330
18
100
AcDbEntity
  8
ADP1DETAIL
100
AcDbPolyline
 90
        8
 70
     0
 43
0.0
 10
-107.7121220974681
 20
12.57216952013819
 42
0.0439579909869023
 10
-106.7153916478349
 20
15.14516885635957
 42
-0.9993905076485447
 10
-106.3253666927994
 20
15.03254597724459
 42
-0.0172869813504233
 10
-107.521443280888
 20
12.52885300678013
 42
-1.150380905114124
 10
-107.7121220974681
 20
12.58083282280981
 42
0.0200682685695639
 10
-107.0014099535864
 20
14.01894017644175
 42
0.0540687673798745
 10
-106.6980572467282
 20
14.96323961148768
 42
-0.5206180629365655
 10
-106.377370057882
 20
15.1018523986175
 42
0.2832431786900913
  0
LWPOLYLINE
  5
485
330
18
100
AcDbEntity
  8
ADP1DETAIL
100
AcDbPolyline
 90
        3
 70
     0
 43
0.0
 10
-111.9805692052672
 20
12.62923079853739
 42
-0.0907351396993737
 10
-111.9105274879817
 20
12.49373390095032
 42
-0.5373847037200349
 10
-111.4556882965656
 20
11.98995103219827
 42
1.28985636649538
  0
LINE
  5
48A
330
18
100
AcDbEntity
  8
ADP1DETAIL
100
AcDbLine
 10
-108.8741685221535
 20
13.04666623241459
 30
0.0
 11
-108.8127038233922
 21
13.07124104719468
 31
0.0
  0
ARC
  5
48B
330
18
100
AcDbEntity
  8
ADP1DETAIL
100
AcDbCircle
 10
-109.6048733812535
 20
12.94222346425516
 30
0.0
 40
0.8046736561963813
100
AcDbArc
 50
349.8861169994495
 51
10.11388300055058
  0
LWPOLYLINE
  5
48C
330
18
100
AcDbEntity
  8
ADP1DETAIL
100
AcDbPolyline
 90
        3
 70
     0
 43
0.0
 10
-106.4033716999827
 20
14.04493008445659
 42
0.0055550311309478
 10
-107.5474449229887
 20
12.2083110303944
 42
-0.642279611437817
 10
-107.6947876963614
 20
12.22563758012164
 42
-1.373092806265127
  0
CIRCLE
  5
491
330
18
100
AcDbEntity
  8
ADP1DETAIL
100
AcDbCircle
 10
-107.8618860463112
 20
12.09241948485288
 30
0.0
 40
0.2268232722024498
  0
ARC
  5
492
330
18
100
AcDbEntity
  8
ADP1DETAIL
100
AcDbCircle
 10
-107.3143754726145
 20
14.32158370017032
 30
0.0
 40
0.1046785910878192
100
AcDbArc
 50
215.0200394248739
 51
318.9571037339181
  0
LINE
  5
493
330
18
100
AcDbEntity
  8
ADP1DETAIL
100
AcDbLine
 10
-106.4987111082728
 20
16.70456244739409
 30
0.0
 11
-106.377370057882
 21
16.87782838959438
 31
0.0
  0
LWPOLYLINE
  5
494
330
18
100
AcDbEntity
  8
ADP1DETAIL
100
AcDbPolyline
 90
        9
 70
     0
 43
0.0
 10
-108.0241421262016
 20
17.08574748686512
 42
-0.1031437941428639
 10
-107.2700938582312
 20
17.09441078953674
 42
-0.339625896400941
 10
-106.7413933708169
 20
16.23674438120693
 42
0.1920247857090105
 10
-106.6980572467282
 20
15.87288583584716
 42
0.1957988564303348
 10
-106.4727094661721
 20
15.86422258879153
 42
0.0710996183403507
 10
-106.4467078240714
 20
16.1501113544908
 42
0.2639222428021694
 10
-106.9927427934737
 20
17.15505390823803
 42
0.1793436352743894
 10
-108.0588110092963
 20
17.15505390823803
 42
1.051442673700639
 10
-108.0328092863143
 20
17.09441078953674
 42
-0.2316124356733463
  0
LINE
  5
49F
330
18
100
AcDbEntity
  8
ADP1DETAIL
100
AcDbLine
 10
-106.7452884160498
 20
15.57189920256181
 30
0.0
 11
-106.7452884160498
 21
15.45282746762562
 31
0.0
  0
LINE
  5
4A0
330
18
100
AcDbEntity
  8
ADP1DETAIL
100
AcDbLine
 10
-106.4813767071661
 20
16.51396989985059
 30
0.0
 11
-106.2993650506987
 21
16.6439193286928
 31
0.0
  0
LINE
  5
4A1
330
18
100
AcDbEntity
  8
ADP1DETAIL
100
AcDbLine
 10
-106.4033716999827
 20
15.69961989364687
 30
0.0
 11
-106.4900439481601
 21
15.85555928611992
 31
0.0
  0
LINE
  5
4A2
330
18
100
AcDbEntity
  8
ADP1DETAIL
100
AcDbLine
 10
-106.7760622539116
 20
16.08080498873389
 30
0.0
 11
-106.932072187397
 21
16.20209117052048
 31
0.0
  0
LINE
  5
4A3
330
18
100
AcDbEntity
  8
ADP1DETAIL
100
AcDbLine
 10
-106.8974033043023
 20
15.91620234920522
 30
0.0
 11
-106.7760622539116
 21
15.93352895454845
 31
0.0
  0
LINE
  5
4A4
330
18
100
AcDbEntity
  8
ADP1DETAIL
100
AcDbLine
 10
-106.8974033043023
 20
15.76026301234817
 30
0.0
 11
-106.7413933708169
 21
15.87288583584716
 31
0.0
  0
LINE
  5
4A5
330
18
100
AcDbEntity
  8
ADP1DETAIL
100
AcDbLine
 10
-106.7933966550183
 20
15.98550871496214
 30
0.0
 11
-106.949406669385
 21
16.08080498873389
 31
0.0
  0
LINE
  5
4A6
330
18
100
AcDbEntity
  8
ADP1DETAIL
100
AcDbLine
 10
-106.940739428391
 20
15.94219225722006
 30
0.0
 11
-106.8974033043023
 21
15.91620234920522
 31
0.0
  0
LINE
  5
4A7
330
18
100
AcDbEntity
  8
ADP1DETAIL
100
AcDbLine
 10
-106.5680488744622
 20
15.63031352788996
 30
0.0
 11
-106.6027177575568
 21
15.79491616741863
 31
0.0
  0
LINE
  5
4A8
330
18
100
AcDbEntity
  8
ADP1DETAIL
100
AcDbLine
 10
-106.7933966550183
 20
15.72560980166171
 30
0.0
 11
-106.6980572467282
 21
15.78625286474701
 31
0.0
  0
LINE
  5
4A9
330
18
100
AcDbEntity
  8
ADP1DETAIL
100
AcDbLine
 10
-106.7933966550183
 20
16.31471404963547
 30
0.0
 11
-106.949406669385
 21
16.41001032340722
 31
0.0
  0
LINE
  5
4AA
330
18
100
AcDbEntity
  8
ADP1DETAIL
100
AcDbLine
 10
-106.273363408598
 20
16.07214168606228
 30
0.0
 11
-106.4380405830774
 21
16.06347838339066
 31
0.0
  0
LINE
  5
4AB
330
18
100
AcDbEntity
  8
ADP1DETAIL
100
AcDbLine
 10
-106.3427011747874
 20
15.89887574386199
 30
0.0
 11
-106.4467078240714
 21
15.94219225722006
 31
0.0
  0
LINE
  5
4AC
330
18
100
AcDbEntity
  8
ADP1DETAIL
100
AcDbLine
 10
-106.1433550363319
 20
15.72560980166171
 30
0.0
 11
-106.273363408598
 21
15.59566031720351
 31
0.0
  0
LINE
  5
4AD
330
18
100
AcDbEntity
  8
ADP1DETAIL
100
AcDbLine
 10
-106.1433550363319
 20
15.79491616741863
 30
0.0
 11
-106.2820305687107
 21
15.72560980166171
 31
0.0
  0
LINE
  5
4AE
330
18
100
AcDbEntity
  8
ADP1DETAIL
100
AcDbLine
 10
-106.4380405830774
 20
16.22808107853532
 30
0.0
 11
-106.3166994518053
 21
16.26273423360579
 31
0.0
  0
LINE
  5
4AF
330
18
100
AcDbEntity
  8
ADP1DETAIL
100
AcDbLine
 10
-106.4553750650654
 20
16.37535711272077
 30
0.0
 11
-106.3080322916927
 21
16.41001032340722
 31
0.0
  0
LINE
  5
4B0
330
18
100
AcDbEntity
  8
ADP1DETAIL
100
AcDbLine
 10
-106.7760622539116
 20
16.42733692875045
 30
0.0
 11
-106.9927427934737
 21
16.53129644957782
 31
0.0
  0
LINE
  5
4B1
330
18
100
AcDbEntity
  8
ADP1DETAIL
100
AcDbLine
 10
-106.828065538113
 20
16.57461296293589
 30
0.0
 11
-107.0360788366811
 21
16.65258263136442
 31
0.0
  0
LINE
  5
4B2
330
18
100
AcDbEntity
  8
ADP1DETAIL
100
AcDbLine
 10
-106.8974033043023
 20
16.75654220780778
 30
0.0
 11
-107.1054166028705
 21
16.77386881315101
 31
0.0
  0
LINE
  5
4B3
330
18
100
AcDbEntity
  8
ADP1DETAIL
100
AcDbLine
 10
-107.5474449229887
 20
17.10307409220835
 30
0.0
 11
-107.6514515722728
 21
16.99911451576498
 31
0.0
  0
LINE
  5
4B4
330
18
100
AcDbEntity
  8
ADP1DETAIL
100
AcDbLine
 10
-107.5474449229887
 20
17.3196565477667
 30
0.0
 11
-107.6601188132668
 21
17.38896291352361
 31
0.0
  0
LINE
  5
4B5
330
18
100
AcDbEntity
  8
ADP1DETAIL
100
AcDbLine
 10
-108.076145410403
 20
17.12906400022319
 30
0.0
 11
-108.1541504175864
 21
17.09441078953674
 31
0.0
  0
LINE
  5
4B6
330
18
100
AcDbEntity
  8
ADP1DETAIL
100
AcDbLine
 10
-108.0501437683023
 20
17.08574748686512
 30
0.0
 11
-108.076145410403
 21
16.97312466336613
 31
0.0
  0
LINE
  5
4B7
330
18
100
AcDbEntity
  8
ADP1DETAIL
100
AcDbLine
 10
-107.7814598636575
 20
17.10307409220835
 30
0.0
 11
-107.8507976298469
 21
16.99045121309337
 31
0.0
  0
LINE
  5
4B8
330
18
100
AcDbEntity
  8
ADP1DETAIL
100
AcDbLine
 10
-106.8714016622017
 20
17.21569697132333
 30
0.0
 11
-106.9147377862903
 21
17.37163630818039
 31
0.0
  0
LINE
  5
4B9
330
18
100
AcDbEntity
  8
ADP1DETAIL
100
AcDbLine
 10
-106.8714016622017
 20
17.12906400022319
 30
0.0
 11
-106.8714016622017
 21
17.21569697132333
 31
0.0
  0
LINE
  5
4BA
330
18
100
AcDbEntity
  8
ADP1DETAIL
100
AcDbLine
 10
-106.7153916478349
 20
16.95579805802291
 30
0.0
 11
-106.6980572467282
 21
17.03376772645143
 31
0.0
  0
LINE
  5
4BB
330
18
100
AcDbEntity
  8
ADP1DETAIL
100
AcDbLine
 10
-106.6980572467282
 20
17.03376772645143
 30
0.0
 11
-106.7067244877222
 21
17.1983703659801
 31
0.0
  0
LINE
  5
4BC
330
18
100
AcDbEntity
  8
ADP1DETAIL
100
AcDbLine
 10
-106.5767161154562
 20
16.86916508692276
 30
0.0
 11
-106.5247128312548
 21
17.10307409220835
 31
0.0
  0
LINE
  5
4BD
330
18
100
AcDbEntity
  8
ADP1DETAIL
100
AcDbLine
 10
-107.0794149607698
 20
16.96446136069452
 30
0.0
 11
-107.2700938582312
 21
16.94713475535129
 31
0.0
  0
LINE
  5
4BE
330
18
100
AcDbEntity
  8
ADP1DETAIL
100
AcDbLine
 10
-107.1660872089472
 20
17.25035018200978
 30
0.0
 11
-107.2614266172372
 21
17.43227942688168
 31
0.0
  0
LINE
  5
4BF
330
18
100
AcDbEntity
  8
ADP1DETAIL
100
AcDbLine
 10
-107.2614266172372
 20
17.06842093713789
 30
0.0
 11
-107.4347710327106
 21
17.00777781843659
 31
0.0
  0
LINE
  5
4C0
330
18
100
AcDbEntity
  8
ADP1DETAIL
100
AcDbLine
 10
-107.3480988654146
 20
17.28500333708024
 30
0.0
 11
-107.4867743977933
 21
17.43227942688168
 31
0.0
  0
LINE
  5
4C1
330
18
100
AcDbEntity
  8
ADP1DETAIL
100
AcDbLine
 10
-107.0534133186691
 20
17.21569697132333
 30
0.0
 11
-107.0620805596631
 21
17.41495282153845
 31
0.0
  0
LWPOLYLINE
  5
4C2
330
18
100
AcDbEntity
  8
ADP1DETAIL
100
AcDbPolyline
 90
        7
 70
     0
 43
0.0
 10
-104.8820444449996
 20
15.15197243932432
 42
-0.1223805115083897
 10
-103.534865503873
 20
16.04407437530658
 42
-0.2584415147969007
 10
-102.3897634729463
 20
16.06932258597926
 42
-1.125017714360042
 10
-102.9791542444618
 20
15.6316876602904
 42
0.181509592010193
 10
-103.3580482886609
 20
15.74109634982967
 42
0.0917731096307993
 10
-103.9390191618472
 20
15.64010367467071
 42
0.059511836639246
 10
-105.9850471467057
 20
14.04105301257566
 42
2.424948417102136
  0
LWPOLYLINE
  5
4CB
330
18
100
AcDbEntity
  8
ADP1DETAIL
100
AcDbPolyline
 90
        2
 70
     0
 43
0.0
 10
-102.9286350169118
 20
15.5643591543405
 42
0.1426516528141525
 10
-104.3768523319255
 20
15.10147607382287
 42
0.0145053842438297
  0
LWPOLYLINE
  5
4CF
330
18
100
AcDbEntity
  8
ADP1DETAIL
100
AcDbPolyline
 90
        5
 70
     0
 43
0.0
 10
-104.2101390434363
 20
15.80000872971143
 42
-0.2091196716498586
 10
-101.3979030718501
 20
16.75102310141936
 42
-0.127477694012738
 10
-100.7074738452347
 20
16.50695745582421
 42
-0.4203189046105981
 10
-100.7074738452347
 20
16.29655603528204
 42
0.2361161232833718
 10
-100.665374516014
 20
16.22081157079576
 42
0.3092084015755605
  0
LINE
  5
4D6
330
18
100
AcDbEntity
  8
ADP1DETAIL
100
AcDbLine
 10
-105.6666579140003
 20
16.73055229979294
 30
0.0
 11
-105.7966662053851
 21
16.86916508692276
 31
0.0
  0
LINE
  5
4D7
330
18
100
AcDbEntity
  8
ADP1DETAIL
100
AcDbLine
 10
-105.3459707251541
 20
16.60060287095073
 30
0.0
 11
-105.129290185592
 21
16.61792942067796
 31
0.0
  0
LINE
  5
4D8
330
18
100
AcDbEntity
  8
ADP1DETAIL
100
AcDbLine
 10
-105.2419640758701
 20
16.73055229979294
 30
0.0
 11
-105.025283536308
 21
16.73055229979294
 31
0.0
  0
LINE
  5
4D9
330
18
100
AcDbEntity
  8
ADP1DETAIL
100
AcDbLine
 10
-105.9873451028465
 20
15.62165022521835
 30
0.0
 11
-105.9873451028465
 21
15.50902734610336
 31
0.0
  0
LINE
  5
4DA
330
18
100
AcDbEntity
  8
ADP1DETAIL
100
AcDbLine
 10
-105.8573367305804
 20
15.64764013323318
 30
0.0
 11
-105.7706645632844
 21
15.51769064877498
 31
0.0
  0
LINE
  5
4DB
330
18
100
AcDbEntity
  8
ADP1DETAIL
100
AcDbLine
 10
-105.9873451028465
 20
15.50902734610336
 30
0.0
 11
-105.9700106208585
 21
15.42239437500322
 31
0.0
  0
LINE
  5
4DC
330
18
100
AcDbEntity
  8
ADP1DETAIL
100
AcDbLine
 10
-105.701326797095
 20
16.01149862297698
 30
0.0
 11
-105.6233217899116
 21
15.98550871496214
 31
0.0
  0
LINE
  5
4DD
330
18
100
AcDbEntity
  8
ADP1DETAIL
100
AcDbLine
 10
-105.7273284391957
 20
15.92486565187683
 30
0.0
 11
-105.597320147811
 21
15.79491616741863
 31
0.0
  0
LINE
  5
4DE
330
18
100
AcDbEntity
  8
ADP1DETAIL
100
AcDbLine
 10
-105.8140006873731
 20
15.79491616741863
 30
0.0
 11
-105.6753251549943
 21
15.6563034359048
 31
0.0
  0
LINE
  5
4DF
330
18
100
AcDbEntity
  8
ADP1DETAIL
100
AcDbLine
 10
-105.7793318042784
 20
16.62659272334958
 30
0.0
 11
-105.9440089787578
 21
16.71322569444972
 31
0.0
  0
LINE
  5
4E0
330
18
100
AcDbEntity
  8
ADP1DETAIL
100
AcDbLine
 10
-105.9353417377638
 20
16.24540762826256
 30
0.0
 11
-106.1346878762192
 21
16.33204065497869
 31
0.0
  0
LINE
  5
4E1
330
18
100
AcDbEntity
  8
ADP1DETAIL
100
AcDbLine
 10
-105.8400023294738
 20
16.51396989985059
 30
0.0
 11
-105.9873451028465
 21
16.60926617362234
 31
0.0
  0
LINE
  5
4E2
330
18
100
AcDbEntity
  8
ADP1DETAIL
100
AcDbLine
 10
-105.9180073366571
 20
16.37535711272077
 30
0.0
 11
-106.0740172701426
 21
16.45332678114929
 31
0.0
  0
LINE
  5
4E3
330
18
100
AcDbEntity
  8
ADP1DETAIL
100
AcDbLine
 10
-105.6233217899116
 20
15.98550871496214
 30
0.0
 11
-105.4759790165389
 21
15.99417201763375
 31
0.0
  0
LINE
  5
4E4
330
18
100
AcDbEntity
  8
ADP1DETAIL
100
AcDbLine
 10
-105.6059873079236
 20
16.13278480476357
 30
0.0
 11
-105.4413101334442
 21
16.0894682914055
 31
0.0
  0
LINE
  5
4E5
330
18
100
AcDbEntity
  8
ADP1DETAIL
100
AcDbLine
 10
-105.4586446154322
 20
16.50530659717897
 30
0.0
 11
-105.2246295938821
 21
16.49664329450736
 31
0.0
  0
LINE
  5
4E6
330
18
100
AcDbEntity
  8
ADP1DETAIL
100
AcDbLine
 10
-105.5453167827283
 20
16.36669381004915
 30
0.0
 11
-105.3373034841601
 21
16.37535711272077
 31
0.0
  0
LINE
  5
4E7
330
18
100
AcDbEntity
  8
ADP1DETAIL
100
AcDbLine
 10
-105.597320147811
 20
16.22808107853532
 30
0.0
 11
-105.4239757323375
 21
16.23674438120693
 31
0.0
  0
LINE
  5
4E8
330
18
100
AcDbEntity
  8
ADP1DETAIL
100
AcDbLine
 10
-104.7739341136512
 20
17.08574748686512
 30
0.0
 11
-104.5139174500004
 21
16.99911451576498
 31
0.0
  0
LINE
  5
4E9
330
18
100
AcDbEntity
  8
ADP1DETAIL
100
AcDbLine
 10
-105.2419640758701
 20
17.18104376063688
 30
0.0
 11
-105.2246295938821
 21
17.31099324509508
 31
0.0
  0
LINE
  5
4EA
330
18
100
AcDbEntity
  8
ADP1DETAIL
100
AcDbLine
 10
-105.0599524194026
 20
17.20703366865172
 30
0.0
 11
-105.1032885434913
 21
17.37163630818039
 31
0.0
  0
LINE
  5
4EB
330
18
100
AcDbEntity
  8
ADP1DETAIL
100
AcDbLine
 10
-105.3286362431661
 20
17.04243102912305
 30
0.0
 11
-105.3979740093555
 21
17.1983703659801
 31
0.0
  0
LINE
  5
4EC
330
18
100
AcDbEntity
  8
ADP1DETAIL
100
AcDbLine
 10
-105.2072951927754
 20
17.10307409220835
 30
0.0
 11
-105.2419640758701
 21
17.18104376063688
 31
0.0
  0
LINE
  5
4ED
330
18
100
AcDbEntity
  8
ADP1DETAIL
100
AcDbLine
 10
-104.9386112881306
 20
17.24168687933817
 30
0.0
 11
-104.9472785291246
 21
17.41495282153845
 31
0.0
  0
LINE
  5
4EE
330
18
100
AcDbEntity
  8
ADP1DETAIL
100
AcDbLine
 10
-104.8606062809472
 20
16.99911451576498
 30
0.0
 11
-104.6959291064678
 21
16.93847145267968
 31
0.0
  0
LINE
  5
4EF
330
18
100
AcDbEntity
  8
ADP1DETAIL
100
AcDbLine
 10
-104.8172702377399
 20
17.28500333708024
 30
0.0
 11
-104.7826013546452
 21
17.42361612421007
 31
0.0
  0
LINE
  5
4F0
330
18
100
AcDbEntity
  8
ADP1DETAIL
100
AcDbLine
 10
-105.4153084913435
 20
16.96446136069452
 30
0.0
 11
-105.5539840237223
 21
17.09441078953674
 31
0.0
  0
LINE
  5
4F1
330
18
100
AcDbEntity
  8
ADP1DETAIL
100
AcDbLine
 10
-105.0686196603966
 20
16.87782838959438
 30
0.0
 11
-104.8866080039292
 21
16.83451187623631
 31
0.0
  0
LINE
  5
4F2
330
18
100
AcDbEntity
  8
ADP1DETAIL
100
AcDbLine
 10
-105.5539840237223
 20
16.86916508692276
 30
0.0
 11
-105.692659556101
 21
16.99045121309337
 31
0.0
  0
LINE
  5
4F3
330
18
100
AcDbEntity
  8
ADP1DETAIL
100
AcDbLine
 10
-103.8465414302073
 20
17.1983703659801
 30
0.0
 11
-103.7598691820299
 21
17.28500333708024
 31
0.0
  0
LINE
  5
4F4
330
18
100
AcDbEntity
  8
ADP1DETAIL
100
AcDbLine
 10
-103.7598691820299
 20
17.1377273028948
 30
0.0
 11
-103.6818641748466
 21
17.20703366865172
 31
0.0
  0
LINE
  5
4F5
330
18
100
AcDbEntity
  8
ADP1DETAIL
100
AcDbLine
 10
-103.6905314158406
 20
17.06842093713789
 30
0.0
 11
-103.5518558834618
 21
17.10307409220835
 31
0.0
  0
LINE
  5
4F6
330
18
100
AcDbEntity
  8
ADP1DETAIL
100
AcDbLine
 10
-103.6211936496512
 20
16.96446136069452
 30
0.0
 11
-103.4738508762785
 21
16.96446136069452
 31
0.0
  0
LINE
  5
4F7
330
18
100
AcDbEntity
  8
ADP1DETAIL
100
AcDbLine
 10
-103.9332135975034
 20
17.24168687933817
 30
0.0
 11
-103.8552086712013
 21
17.33698315310992
 31
0.0
  0
LINE
  5
4F8
330
18
100
AcDbEntity
  8
ADP1DETAIL
100
AcDbLine
 10
-103.889877554296
 20
17.05975763446628
 30
0.0
 11
-103.8552086712013
 21
16.8951549949376
 31
0.0
  0
LINE
  5
4F9
330
18
100
AcDbEntity
  8
ADP1DETAIL
100
AcDbLine
 10
-103.6818641748466
 20
16.95579805802291
 30
0.0
 11
-103.6818641748466
 21
16.80852196822147
 31
0.0
  0
LINE
  5
4FA
330
18
100
AcDbEntity
  8
ADP1DETAIL
100
AcDbLine
 10
-103.7772036640179
 20
16.99045121309337
 30
0.0
 11
-103.7512020219172
 21
16.84317517890793
 31
0.0
  0
LINE
  5
4FB
330
18
100
AcDbEntity
  8
ADP1DETAIL
100
AcDbLine
 10
-104.2192319032549
 20
17.1377273028948
 30
0.0
 11
-104.1152252539708
 21
17.02510442377982
 31
0.0
  0
LINE
  5
4FC
330
18
100
AcDbEntity
  8
ADP1DETAIL
100
AcDbLine
 10
-104.1758958600475
 20
17.3196565477667
 30
0.0
 11
-104.0632219697694
 21
17.41495282153845
 31
0.0
  0
LINE
  5
4FD
330
18
100
AcDbEntity
  8
ADP1DETAIL
100
AcDbLine
 10
-104.5312519319884
 20
17.1377273028948
 30
0.0
 11
-104.2972369104382
 21
17.01644112110821
 31
0.0
  0
LINE
  5
4FE
330
18
100
AcDbEntity
  8
ADP1DETAIL
100
AcDbLine
 10
-104.6439257413851
 20
17.30232994242347
 30
0.0
 11
-104.557253574089
 21
17.45826927928053
 31
0.0
  0
LINE
  5
4FF
330
18
100
AcDbEntity
  8
ADP1DETAIL
100
AcDbLine
 10
-104.453246924805
 20
17.33698315310992
 30
0.0
 11
-104.4185780417103
 21
17.45826927928053
 31
0.0
  0
LINE
  5
500
330
18
100
AcDbEntity
  8
ADP1DETAIL
100
AcDbLine
 10
-104.3145713924262
 20
17.33698315310992
 30
0.0
 11
-104.2452336262369
 21
17.46693258195214
 31
0.0
  0
LINE
  5
501
330
18
100
AcDbEntity
  8
ADP1DETAIL
100
AcDbLine
 10
-104.0632219697694
 20
17.11173739487996
 30
0.0
 11
-103.9765497215921
 21
16.94713475535129
 31
0.0
  0
LINE
  5
502
330
18
100
AcDbEntity
  8
ADP1DETAIL
100
AcDbLine
 10
-104.0545547287754
 20
17.31099324509508
 30
0.0
 11
-103.9592153204854
 21
17.38896291352361
 31
0.0
  0
LWPOLYLINE
  5
503
330
18
100
AcDbEntity
  8
ADP1DETAIL
100
AcDbPolyline
 90
        4
 70
     0
 43
0.0
 10
-101.2379255720837
 20
16.87726393140709
 42
-0.1872847550938738
 10
-100.5559162437976
 20
16.43962900571823
 42
-0.7744616426473462
 10
-100.7243135606804
 20
16.22081157079576
 42
0.1754067089647783
 10
-102.997677988301
 20
16.21239550057153
 42
5.639671576670675
  0
LWPOLYLINE
  5
509
330
18
100
AcDbEntity
  8
ADP1DETAIL
100
AcDbPolyline
 90
        2
 70
     0
 43
0.0
 10
-101.4989414457373
 20
17.58421265751987
 10
-101.4905216286208
 20
17.47480391213668
  0
LWPOLYLINE
  5
50D
330
18
100
AcDbEntity
  8
ADP1DETAIL
100
AcDbPolyline
 90
        3
 70
     0
 43
0.0
 10
-100.2864804718148
 20
17.44955575730791
 10
-100.2864804718148
 20
17.58421265751987
 10
-101.4989414457373
 20
17.58421265751987
  0
LWPOLYLINE
  5
512
330
18
100
AcDbEntity
  8
ADP1DETAIL
100
AcDbPolyline
 90
        3
 70
     0
 43
0.0
 10
-96.75855574105108
 20
17.47480391213668
 10
-96.75855574105108
 20
17.55896450269111
 10
-97.37320612634157
 20
17.55896450269111
  0
LWPOLYLINE
  5
517
330
18
100
AcDbEntity
  8
ADP1DETAIL
100
AcDbPolyline
 90
        5
 70
     0
 43
0.0
 10
-100.0338844152778
 20
17.26440254743843
 42
-0.0605578126320529
 10
-98.66144594158898
 20
16.70052673591792
 42
0.0599889937602216
 10
-97.60054248789085
 20
16.33863633055926
 42
0.1963340683035012
 10
-96.9101133424882
 20
16.54903775110142
 42
0.2361696265753998
 10
-96.82591468404678
 20
17.02875297206751
 42
-1.342117224925646
  0
LWPOLYLINE
  5
51E
330
18
100
AcDbEntity
  8
ADP1DETAIL
100
AcDbPolyline
 90
        2
 70
     0
 43
0.0
 10
-97.37320612634157
 20
17.55896450269111
 10
-97.37320612634158
 20
17.44113968708368
  0
TEXT
  5
52F
330
18
100
AcDbEntity
  8
ADPDIM
100
AcDbText
 10
-125.5225161599158
 20
-0.1168340418863574
 30
0.0
 40
0.375
  1
J U L I U S  B L U M  &  C O . ,  I N C .      ( 8 0 0 )  5 2 6 - 6 2 9 3        W W W . J U L I U S B L U M . C O M        P A R T  N o .  5 8 8
 41
1.25
  7
ARIAL_WIDE
 72
     1
 11
-106.2183935473646
 21
0.2581659581136426
 31
0.0
100
AcDbText
 73
     3
  0
ENDSEC
  0
SECTION
  2
OBJECTS
  0
DICTIONARY
  5
C
330
0
100
AcDbDictionary
  3
ACAD_GROUP
350
D
  3
ACAD_LAYOUT
350
528
  3
ACAD_MLINESTYLE
350
E
  3
ACAD_PLOTSETTINGS
350
529
  3
ACAD_PLOTSTYLENAME
350
526
  3
ACDBHEADERROUNDTRIPXREC
350
673
  3
ACDBVARIABLEDICTIONARY
350
589
  0
DICTIONARY
  5
583
330
18
100
AcDbDictionary
280
     1
  3
ACAD_LAYOUTSELFREF
360
694
  0
DICTIONARY
  5
581
330
15
100
AcDbDictionary
280
     1
  3
ACAD_LAYOUTSELFREF
360
693
  0
DICTIONARY
  5
D
102
{ACAD_REACTORS
330
C
102
}
330
C
100
AcDbDictionary
  0
DICTIONARY
  5
528
102
{ACAD_REACTORS
330
C
102
}
330
C
100
AcDbDictionary
  0
DICTIONARY
  5
E
102
{ACAD_REACTORS
330
C
102
}
330
C
100
AcDbDictionary
  3
STANDARD
350
1B
  0
DICTIONARY
  5
529
102
{ACAD_REACTORS
330
C
102
}
330
C
100
AcDbDictionary
  0
ACDBDICTIONARYWDFLT
  5
526
102
{ACAD_REACTORS
330
C
102
}
330
C
100
AcDbDictionary
281
     1
  3
Normal
350
527
100
AcDbDictionaryWithDefault
340
527
  0
DICTIONARY
  5
673
102
{ACAD_REACTORS
330
C
102
}
330
C
100
AcDbDictionary
  3
CEPSNTYPE
350
67D
  3
FINGERPRINTGUID
350
67E
  3
HYPERLINKBASE
350
676
  3
INSUNITS
350
67C
  3
LAYOUTDICT
350
678
  3
LWETCUNION
350
67B
  3
PLOTSETDICT
350
679
  3
PLOTSTYLNAMDICT
350
67A
  3
PSVPSCALE
350
680
  3
PUCSBASE
350
683
  3
PUCSORGBACK
350
689
  3
PUCSORGBOTTOM
350
685
  3
PUCSORGFRONT
350
688
  3
PUCSORGLEFT
350
686
  3
PUCSORGRIGHT
350
687
  3
PUCSORGTOP
350
684
  3
PUCSORTHOREF
350
681
  3
PUCSORTHOVIEW
350
682
  3
STYLESHEET
350
677
  3
TSTACKALIGN
350
674
  3
TSTACKSIZE
350
675
  3
UCSBASE
350
68C
  3
UCSORGBACK
350
692
  3
UCSORGBOTTOM
350
68E
  3
UCSORGFRONT
350
691
  3
UCSORGLEFT
350
68F
  3
UCSORGRIGHT
350
690
  3
UCSORGTOP
350
68D
  3
UCSORTHOREF
350
68A
  3
UCSORTHOVIEW
350
68B
  3
VERSIONGUID
350
67F
  0
DICTIONARY
  5
589
102
{ACAD_REACTORS
330
C
102
}
330
C
100
AcDbDictionary
  3
DIMASSOC
350
58A
  0
XRECORD
  5
694
102
{ACAD_REACTORS
330
583
102
}
330
583
100
AcDbXrecord
340
18
  0
XRECORD
  5
693
102
{ACAD_REACTORS
330
581
102
}
330
581
100
AcDbXrecord
340
15
  0
MLINESTYLE
  5
1B
102
{ACAD_REACTORS
330
E
102
}
330
E
100
AcDbMlineStyle
  2
STANDARD
 70
     0
  3

 62
     0
 51
90.0
 52
90.0
 71
     2
 49
0.5
 62
   256
  6
BYLAYER
 49
-0.5
 62
   256
  6
BYLAYER
  0
ACDBPLACEHOLDER
  5
527
102
{ACAD_REACTORS
330
526
102
}
330
526
100
AcDbPlaceHolder
280
     0
  0
XRECORD
  5
67D
102
{ACAD_REACTORS
330
673
102
}
330
673
100
AcDbXrecord
 90
        0
  0
XRECORD
  5
67E
102
{ACAD_REACTORS
330
673
102
}
330
673
100
AcDbXrecord
  1
{79A4328B-D69F-4E8D-82D4-4BB0187568EE}
  0
XRECORD
  5
676
102
{ACAD_REACTORS
330
673
102
}
330
673
100
AcDbXrecord
  1

  0
XRECORD
  5
67C
102
{ACAD_REACTORS
330
673
102
}
330
673
100
AcDbXrecord
 90
        0
  0
XRECORD
  5
678
102
{ACAD_REACTORS
330
673
102
}
330
673
100
AcDbXrecord
340
528
  0
XRECORD
  5
67B
102
{ACAD_REACTORS
330
673
102
}
330
673
100
AcDbXrecord
 90
    14877
  0
XRECORD
  5
679
102
{ACAD_REACTORS
330
673
102
}
330
673
100
AcDbXrecord
340
529
  0
XRECORD
  5
67A
102
{ACAD_REACTORS
330
673
102
}
330
673
100
AcDbXrecord
340
526
  0
XRECORD
  5
680
102
{ACAD_REACTORS
330
673
102
}
330
673
100
AcDbXrecord
 40
0.0
  0
XRECORD
  5
683
102
{ACAD_REACTORS
330
673
102
}
330
673
100
AcDbXrecord
340
0
  0
XRECORD
  5
689
102
{ACAD_REACTORS
330
673
102
}
330
673
100
AcDbXrecord
 10
0.0
 20
0.0
 30
0.0
  0
XRECORD
  5
685
102
{ACAD_REACTORS
330
673
102
}
330
673
100
AcDbXrecord
 10
0.0
 20
0.0
 30
0.0
  0
XRECORD
  5
688
102
{ACAD_REACTORS
330
673
102
}
330
673
100
AcDbXrecord
 10
0.0
 20
0.0
 30
0.0
  0
XRECORD
  5
686
102
{ACAD_REACTORS
330
673
102
}
330
673
100
AcDbXrecord
 10
0.0
 20
0.0
 30
0.0
  0
XRECORD
  5
687
102
{ACAD_REACTORS
330
673
102
}
330
673
100
AcDbXrecord
 10
0.0
 20
0.0
 30
0.0
  0
XRECORD
  5
684
102
{ACAD_REACTORS
330
673
102
}
330
673
100
AcDbXrecord
 10
0.0
 20
0.0
 30
0.0
  0
XRECORD
  5
681
102
{ACAD_REACTORS
330
673
102
}
330
673
100
AcDbXrecord
340
0
  0
XRECORD
  5
682
102
{ACAD_REACTORS
330
673
102
}
330
673
100
AcDbXrecord
 70
     0
  0
XRECORD
  5
677
102
{ACAD_REACTORS
330
673
102
}
330
673
100
AcDbXrecord
  1

  0
XRECORD
  5
674
102
{ACAD_REACTORS
330
673
102
}
330
673
100
AcDbXrecord
 90
        1
  0
XRECORD
  5
675
102
{ACAD_REACTORS
330
673
102
}
330
673
100
AcDbXrecord
 90
       70
  0
XRECORD
  5
68C
102
{ACAD_REACTORS
330
673
102
}
330
673
100
AcDbXrecord
340
0
  0
XRECORD
  5
692
102
{ACAD_REACTORS
330
673
102
}
330
673
100
AcDbXrecord
 10
0.0
 20
0.0
 30
0.0
  0
XRECORD
  5
68E
102
{ACAD_REACTORS
330
673
102
}
330
673
100
AcDbXrecord
 10
0.0
 20
0.0
 30
0.0
  0
XRECORD
  5
691
102
{ACAD_REACTORS
330
673
102
}
330
673
100
AcDbXrecord
 10
0.0
 20
0.0
 30
0.0
  0
XRECORD
  5
68F
102
{ACAD_REACTORS
330
673
102
}
330
673
100
AcDbXrecord
 10
0.0
 20
0.0
 30
0.0
  0
XRECORD
  5
690
102
{ACAD_REACTORS
330
673
102
}
330
673
100
AcDbXrecord
 10
0.0
 20
0.0
 30
0.0
  0
XRECORD
  5
68D
102
{ACAD_REACTORS
330
673
102
}
330
673
100
AcDbXrecord
 10
0.0
 20
0.0
 30
0.0
  0
XRECORD
  5
68A
102
{ACAD_REACTORS
330
673
102
}
330
673
100
AcDbXrecord
340
0
  0
XRECORD
  5
68B
102
{ACAD_REACTORS
330
673
102
}
330
673
100
AcDbXrecord
 70
     0
  0
XRECORD
  5
67F
102
{ACAD_REACTORS
330
673
102
}
330
673
100
AcDbXrecord
  1
{A80C636B-56BE-4049-8F21-B95D5E672FF9}
  0
DICTIONARYVAR
  5
58A
102
{ACAD_REACTORS
330
589
102
}
330
589
100
DictionaryVariables
280
     0
  1
1
  0
ENDSEC
  0
EOF
