  0
SECTION
  2
HEADER
  9
$ACADVER
  1
AC1014
  9
$ACADMAINTVER
 70
     9
  9
$DWGCODEPAGE
  3
ANSI_1252
  9
$INSBASE
 10
-57.4183171622329
 20
25.903209555463
 30
0.0
  9
$EXTMIN
 10
-80.17464246465623
 20
23.72532387026848
 30
0.0
  9
$EXTMAX
 10
-28.6969821645198
 20
49.97532687863415
 30
0.0
  9
$LIMMIN
 10
0.0
 20
0.0
  9
$LIMMAX
 10
36.0
 20
36.0
  9
$ORTHOMODE
 70
     1
  9
$REGENMODE
 70
     1
  9
$FILLMODE
 70
     1
  9
$QTEXTMODE
 70
     0
  9
$MIRRTEXT
 70
     1
  9
$DRAGMODE
 70
     0
  9
$LTSCALE
 40
1.0
  9
$OSMODE
 70
    37
  9
$ATTMODE
 70
     1
  9
$TEXTSIZE
 40
0.2
  9
$TRACEWID
 40
0.05
  9
$TEXTSTYLE
  7
STANDARD
  9
$CLAYER
  8
ADPDIM
  9
$CELTYPE
  6
BYLAYER
  9
$CECOLOR
 62
   256
  9
$CELTSCALE
 40
1.0
  9
$DELOBJ
 70
     1
  9
$DISPSILH
 70
     0
  9
$DIMSCALE
 40
1.0
  9
$DIMASZ
 40
0.125
  9
$DIMEXO
 40
0.0625
  9
$DIMDLI
 40
0.38
  9
$DIMRND
 40
0.0
  9
$DIMDLE
 40
0.0
  9
$DIMEXE
 40
0.18
  9
$DIMTP
 40
0.0
  9
$DIMTM
 40
0.0
  9
$DIMTXT
 40
0.125
  9
$DIMCEN
 40
0.1875
  9
$DIMTSZ
 40
0.125
  9
$DIMTOL
 70
     0
  9
$DIMLIM
 70
     0
  9
$DIMTIH
 70
     0
  9
$DIMTOH
 70
     0
  9
$DIMSE1
 70
     0
  9
$DIMSE2
 70
     0
  9
$DIMTAD
 70
     0
  9
$DIMZIN
 70
     3
  9
$DIMBLK
  1

  9
$DIMASO
 70
     1
  9
$DIMSHO
 70
     1
  9
$DIMPOST
  1

  9
$DIMAPOST
  1

  9
$DIMALT
 70
     0
  9
$DIMALTD
 70
     1
  9
$DIMALTF
 40
25.4
  9
$DIMLFAC
 40
1.0
  9
$DIMTOFL
 70
     0
  9
$DIMTVP
 40
0.0
  9
$DIMTIX
 70
     0
  9
$DIMSOXD
 70
     0
  9
$DIMSAH
 70
     0
  9
$DIMBLK1
  1

  9
$DIMBLK2
  1

  9
$DIMSTYLE
  2
STANDARD
  9
$DIMCLRD
 70
     0
  9
$DIMCLRE
 70
     0
  9
$DIMCLRT
 70
     0
  9
$DIMTFAC
 40
1.0
  9
$DIMGAP
 40
0.125
  9
$DIMJUST
 70
     0
  9
$DIMSD1
 70
     0
  9
$DIMSD2
 70
     0
  9
$DIMTOLJ
 70
     1
  9
$DIMTZIN
 70
     0
  9
$DIMALTZ
 70
     0
  9
$DIMALTTZ
 70
     0
  9
$DIMFIT
 70
     3
  9
$DIMUPT
 70
     0
  9
$DIMUNIT
 70
     2
  9
$DIMDEC
 70
     4
  9
$DIMTDEC
 70
     4
  9
$DIMALTU
 70
     2
  9
$DIMALTTD
 70
     2
  9
$DIMTXSTY
  7
STANDARD
  9
$DIMAUNIT
 70
     0
  9
$LUNITS
 70
     5
  9
$LUPREC
 70
     5
  9
$SKETCHINC
 40
0.1
  9
$FILLETRAD
 40
0.062
  9
$AUNITS
 70
     0
  9
$AUPREC
 70
     0
  9
$MENU
  1
acad
  9
$ELEVATION
 40
0.0
  9
$PELEVATION
 40
0.0
  9
$THICKNESS
 40
0.0
  9
$LIMCHECK
 70
     0
  9
$BLIPMODE
 70
     0
  9
$CHAMFERA
 40
0.0
  9
$CHAMFERB
 40
0.0
  9
$CHAMFERC
 40
0.0
  9
$CHAMFERD
 40
0.0
  9
$SKPOLY
 70
     0
  9
$TDCREATE
 40
2450409.486148333
  9
$TDUPDATE
 40
2452297.073627384
  9
$TDINDWG
 40
0.0072608796
  9
$TDUSRTIMER
 40
0.0072608796
  9
$USRTIMER
 70
     1
  9
$ANGBASE
 50
0.0
  9
$ANGDIR
 70
     0
  9
$PDMODE
 70
     0
  9
$PDSIZE
 40
0.0
  9
$PLINEWID
 40
0.0
  9
$COORDS
 70
     2
  9
$SPLFRAME
 70
     0
  9
$SPLINETYPE
 70
     6
  9
$SPLINESEGS
 70
     8
  9
$ATTDIA
 70
     0
  9
$ATTREQ
 70
     1
  9
$HANDLING
 70
 22529
  9
$HANDSEED
  5
5F6
  9
$SURFTAB1
 70
     6
  9
$SURFTAB2
 70
     6
  9
$SURFTYPE
 70
     6
  9
$SURFU
 70
     6
  9
$SURFV
 70
     6
  9
$UCSNAME
  2

  9
$UCSORG
 10
0.0
 20
0.0
 30
0.0
  9
$UCSXDIR
 10
1.0
 20
0.0
 30
0.0
  9
$UCSYDIR
 10
0.0
 20
1.0
 30
0.0
  9
$PUCSNAME
  2

  9
$PUCSORG
 10
0.0
 20
0.0
 30
0.0
  9
$PUCSXDIR
 10
1.0
 20
0.0
 30
0.0
  9
$PUCSYDIR
 10
0.0
 20
1.0
 30
0.0
  9
$USERI1
 70
     0
  9
$USERI2
 70
     0
  9
$USERI3
 70
     0
  9
$USERI4
 70
     0
  9
$USERI5
 70
     0
  9
$USERR1
 40
0.0
  9
$USERR2
 40
0.0
  9
$USERR3
 40
0.0
  9
$USERR4
 40
0.0
  9
$USERR5
 40
0.0
  9
$WORLDVIEW
 70
     1
  9
$SHADEDGE
 70
     3
  9
$SHADEDIF
 70
    70
  9
$TILEMODE
 70
     1
  9
$MAXACTVP
 70
    15
  9
$PINSBASE
 10
0.0058594681322575
 20
8.002266177471257
 30
0.0
  9
$PLIMCHECK
 70
     0
  9
$PEXTMIN
 10
1.000000000000000E+20
 20
1.000000000000000E+20
 30
1.000000000000000E+20
  9
$PEXTMAX
 10
-1.000000000000000E+20
 20
-1.000000000000000E+20
 30
-1.000000000000000E+20
  9
$PLIMMIN
 10
0.0
 20
0.0
  9
$PLIMMAX
 10
12.0
 20
9.0
  9
$UNITMODE
 70
     0
  9
$VISRETAIN
 70
     0
  9
$PLINEGEN
 70
     0
  9
$PSLTSCALE
 70
     1
  9
$TREEDEPTH
 70
  3020
  9
$PICKSTYLE
 70
     1
  9
$CMLSTYLE
  2
STANDARD
  9
$CMLJUST
 70
     0
  9
$CMLSCALE
 40
1.0
  9
$PROXYGRAPHICS
 70
     1
  9
$MEASUREMENT
 70
     0
  0
ENDSEC
  0
SECTION
  2
CLASSES
  0
CLASS
  1
ACDBDICTIONARYWDFLT
  2
AcDbDictionaryWithDefault
  3
AutoCAD 2000
 90
        0
280
     0
281
     0
  0
CLASS
  1
ACDBPLACEHOLDER
  2
AcDbPlaceHolder
  3
AutoCAD 2000
 90
        0
280
     0
281
     0
  0
CLASS
  1
LAYOUT
  2
AcDbLayout
  3
AutoCAD 2000
 90
        0
280
     0
281
     0
  0
CLASS
  1
DICTIONARYVAR
  2
AcDbDictionaryVar
  3
AutoCAD 2000
 90
        0
280
     0
281
     0
  0
CLASS
  1
LONG_TRANSACTION
  2
AcDbLongTransaction
  3
AutoCAD 2000
 90
        0
280
     0
281
     0
  0
CLASS
  1
LWPOLYLINE
  2
AcDbPolyline
  3
AutoCAD 2000
 90
        0
280
     0
281
     1
  0
CLASS
  1
HATCH
  2
AcDbHatch
  3
AutoCAD 2000
 90
        0
280
     0
281
     1
  0
CLASS
  1
XRECORD
  2
AcDbXrecord
  3
AutoCAD 2000
 90
        0
280
     0
281
     0
  0
CLASS
  1
LONG_TRANSACTION
  2
AcDbLongTransaction
  3
AutoCAD 2000
 90
        0
280
     0
281
     0
  0
CLASS
  1
LWPOLYLINE
  2
AcDbPolyline
  3
AutoCAD 2000
 90
        0
280
     0
281
     1
  0
CLASS
  1
HATCH
  2
AcDbHatch
  3
AutoCAD 2000
 90
        0
280
     0
281
     1
  0
CLASS
  1
XRECORD
  2
AcDbXrecord
  3
AutoCAD 2000
 90
        0
280
     0
281
     0
  0
CLASS
  1
LONG_TRANSACTION
  2
AcDbLongTransaction
  3
AutoCAD 2000
 90
        0
280
     0
281
     0
  0
CLASS
  1
LWPOLYLINE
  2
AcDbPolyline
  3
AutoCAD 2000
 90
        0
280
     0
281
     1
  0
CLASS
  1
HATCH
  2
AcDbHatch
  3
AutoCAD 2000
 90
        0
280
     0
281
     1
  0
CLASS
  1
XRECORD
  2
AcDbXrecord
  3
AutoCAD 2000
 90
        0
280
     0
281
     0
  0
CLASS
  1
LONG_TRANSACTION
  2
AcDbLongTransaction
  3
AutoCAD 2000
 90
        0
280
     0
281
     0
  0
CLASS
  1
LWPOLYLINE
  2
AcDbPolyline
  3
AutoCAD 2000
 90
        0
280
     0
281
     1
  0
CLASS
  1
HATCH
  2
AcDbHatch
  3
AutoCAD 2000
 90
        0
280
     0
281
     1
  0
CLASS
  1
XRECORD
  2
AcDbXrecord
  3
AutoCAD 2000
 90
        0
280
     0
281
     0
  0
CLASS
  1
LONG_TRANSACTION
  2
AcDbLongTransaction
  3
AutoCAD 2000
 90
        0
280
     0
281
     0
  0
CLASS
  1
LWPOLYLINE
  2
AcDbPolyline
  3
AutoCAD 2000
 90
        0
280
     0
281
     1
  0
CLASS
  1
HATCH
  2
AcDbHatch
  3
AutoCAD 2000
 90
        0
280
     0
281
     1
  0
CLASS
  1
XRECORD
  2
AcDbXrecord
  3
AutoCAD 2000
 90
        0
280
     0
281
     0
  0
CLASS
  1
LONG_TRANSACTION
  2
AcDbLongTransaction
  3
AutoCAD 2000
 90
        0
280
     0
281
     0
  0
CLASS
  1
LWPOLYLINE
  2
AcDbPolyline
  3
AutoCAD 2000
 90
        0
280
     0
281
     1
  0
CLASS
  1
HATCH
  2
AcDbHatch
  3
AutoCAD 2000
 90
        0
280
     0
281
     1
  0
CLASS
  1
XRECORD
  2
AcDbXrecord
  3
AutoCAD 2000
 90
        0
280
     0
281
     0
  0
ENDSEC
  0
SECTION
  2
TABLES
  0
TABLE
  2
VPORT
  5
8
330
0
100
AcDbSymbolTable
 70
     2
  0
VPORT
  5
5D3
330
8
100
AcDbSymbolTableRecord
100
AcDbViewportTableRecord
  2
*ACTIVE
 70
     0
 10
0.0
 20
0.0
 11
1.0
 21
1.0
 12
-54.39622400025979
 22
36.84970381879892
 13
0.0
 23
0.0
 14
0.5740882589684922
 24
0.5740882589684922
 15
0.5
 25
0.5
 16
0.0
 26
0.0
 36
1.0
 17
0.0
 27
0.0
 37
0.0
 40
32.9955685911981
 41
1.570528967254408
 42
50.0
 43
0.0
 44
0.0
 50
0.0
 51
0.0
 71
     0
 72
   100
 73
     1
 74
     0
 75
     0
 76
     0
 77
     0
 78
     0
  0
ENDTAB
  0
TABLE
  2
LTYPE
  5
5
330
0
100
AcDbSymbolTable
 70
     1
  0
LTYPE
  5
12
330
5
100
AcDbSymbolTableRecord
100
AcDbLinetypeTableRecord
  2
BYBLOCK
 70
     0
  3

 72
    65
 73
     0
 40
0.0
  0
LTYPE
  5
13
330
5
100
AcDbSymbolTableRecord
100
AcDbLinetypeTableRecord
  2
BYLAYER
 70
     0
  3

 72
    65
 73
     0
 40
0.0
  0
LTYPE
  5
14
330
5
100
AcDbSymbolTableRecord
100
AcDbLinetypeTableRecord
  2
CONTINUOUS
 70
     0
  3
Solid line
 72
    65
 73
     0
 40
0.0
  0
ENDTAB
  0
TABLE
  2
LAYER
  5
2
330
0
100
AcDbSymbolTable
 70
     4
  0
LAYER
  5
F
330
2
100
AcDbSymbolTableRecord
100
AcDbLayerTableRecord
  2
0
 70
     0
 62
     7
  6
CONTINUOUS
  0
LAYER
  5
B4
330
2
100
AcDbSymbolTableRecord
100
AcDbLayerTableRecord
  2
DEFPOINTS
 70
     0
 62
     7
  6
CONTINUOUS
  0
LAYER
  5
B7
330
2
100
AcDbSymbolTableRecord
100
AcDbLayerTableRecord
  2
ADP1DETAIL
 70
     0
 62
     7
  6
CONTINUOUS
  0
LAYER
  5
BA
330
2
100
AcDbSymbolTableRecord
100
AcDbLayerTableRecord
  2
ADPDIM
 70
     0
 62
     3
  6
CONTINUOUS
  0
ENDTAB
  0
TABLE
  2
STYLE
  5
3
330
0
100
AcDbSymbolTable
 70
     2
  0
STYLE
  5
10
330
3
100
AcDbSymbolTableRecord
100
AcDbTextStyleTableRecord
  2
STANDARD
 70
     0
 40
0.0
 41
1.0
 50
0.0
 71
     0
 42
0.2
  3
txt
  4

  0
STYLE
  5
460
330
3
100
AcDbSymbolTableRecord
100
AcDbTextStyleTableRecord
  2
ARIAL_WIDE
 70
     0
 40
0.0
 41
1.25
 50
0.0
 71
     0
 42
0.2
  3
ARIAL.TTF
  4

1001
ACAD
1000
Arial
1071
       34
  0
ENDTAB
  0
TABLE
  2
VIEW
  5
6
330
0
100
AcDbSymbolTable
 70
     0
  0
ENDTAB
  0
TABLE
  2
UCS
  5
7
330
0
100
AcDbSymbolTable
 70
     0
  0
ENDTAB
  0
TABLE
  2
APPID
  5
9
330
0
100
AcDbSymbolTable
 70
     1
  0
APPID
  5
11
330
9
100
AcDbSymbolTableRecord
100
AcDbRegAppTableRecord
  2
ACAD
 70
     0
  0
ENDTAB
  0
TABLE
  2
DIMSTYLE
  5
A
330
0
100
AcDbSymbolTable
 70
     1
  0
DIMSTYLE
105
454
330
A
100
AcDbSymbolTableRecord
100
AcDbDimStyleTableRecord
  2
STANDARD
 70
     0
  3

  4

  5

  6

  7

 40
1.0
 41
0.18
 42
0.0625
 43
0.38
 44
0.18
 45
0.0
 46
0.0
 47
0.0
 48
0.0
140
0.18
141
0.09
142
0.0
143
25.4
144
1.0
145
0.0
146
1.0
147
0.09
 71
     0
 72
     0
 73
     1
 74
     1
 75
     0
 76
     0
 77
     0
 78
     0
170
     0
171
     2
172
     0
173
     0
174
     0
175
     0
176
     0
177
     0
178
     0
270
     2
271
     4
272
     4
273
     2
274
     2
340
10
275
     0
280
     0
281
     0
282
     0
283
     1
284
     0
285
     0
286
     0
287
     3
288
     0
  0
ENDTAB
  0
TABLE
  2
BLOCK_RECORD
  5
1
330
0
100
AcDbSymbolTable
 70
     3
  0
BLOCK_RECORD
  5
18
102
{ACAD_XDICTIONARY
360
4B5
102
}
330
1
100
AcDbSymbolTableRecord
100
AcDbBlockTableRecord
  2
*MODEL_SPACE
  0
BLOCK_RECORD
  5
15
102
{ACAD_XDICTIONARY
360
4B3
102
}
330
1
100
AcDbSymbolTableRecord
100
AcDbBlockTableRecord
  2
*PAPER_SPACE
  0
BLOCK_RECORD
  5
A9
330
1
100
AcDbSymbolTableRecord
100
AcDbBlockTableRecord
  2
*D0
  0
BLOCK_RECORD
  5
AB
330
1
100
AcDbSymbolTableRecord
100
AcDbBlockTableRecord
  2
*D1
  0
BLOCK_RECORD
  5
AE
330
1
100
AcDbSymbolTableRecord
100
AcDbBlockTableRecord
  2
*D2
  0
ENDTAB
  0
ENDSEC
  0
SECTION
  2
BLOCKS
  0
BLOCK
  5
BD
330
18
100
AcDbEntity
  8
0
100
AcDbBlockBegin
  2
*MODEL_SPACE
 70
     0
 10
0.0
 20
0.0
 30
0.0
  3
*MODEL_SPACE
  1

  0
ENDBLK
  5
BE
330
18
100
AcDbEntity
  8
0
100
AcDbBlockEnd
  0
BLOCK
  5
BB
330
15
100
AcDbEntity
 67
     1
  8
0
100
AcDbBlockBegin
  2
*PAPER_SPACE
 70
     0
 10
0.0
 20
0.0
 30
0.0
  3
*PAPER_SPACE
  1

  0
ENDBLK
  5
BC
330
15
100
AcDbEntity
 67
     1
  8
0
100
AcDbBlockEnd
  0
BLOCK
  5
C0
330
A9
100
AcDbEntity
  8
0
100
AcDbBlockBegin
  2
*D0
 70
     1
 10
0.0
 20
0.0
 30
0.0
  3
*D0
  1

  0
LINE
  5
C1
330
A9
100
AcDbEntity
  8
0
  6
BYBLOCK
 62
     0
100
AcDbLine
 10
-58.67030607292406
 20
40.13683363723477
 30
0.0
 11
-58.67030607292406
 21
49.97532687863415
 31
0.0
  0
LINE
  5
C2
330
A9
100
AcDbEntity
  8
0
  6
BYBLOCK
 62
     0
100
AcDbLine
 10
-49.92030607292406
 20
45.75678309053903
 30
0.0
 11
-49.92030607292406
 21
49.97532687863415
 31
0.0
  0
LINE
  5
C3
330
A9
100
AcDbEntity
  8
0
  6
BYBLOCK
 62
     0
100
AcDbLine
 10
-58.67030607292406
 20
49.79532687863415
 30
0.0
 11
-54.71197273959072
 21
49.79532687863415
 31
0.0
  0
LINE
  5
C4
330
A9
100
AcDbEntity
  8
0
  6
BYBLOCK
 62
     0
100
AcDbLine
 10
-49.92030607292406
 20
49.79532687863415
 30
0.0
 11
-53.87863940625739
 21
49.79532687863415
 31
0.0
  0
LINE
  5
C5
330
A9
100
AcDbEntity
  8
0
  6
BYBLOCK
 62
     0
100
AcDbLine
 10
-58.79530607292405
 20
49.67032687863415
 30
0.0
 11
-58.54530607292406
 21
49.92032687863416
 31
0.0
  0
LINE
  5
C6
330
A9
100
AcDbEntity
  8
0
  6
BYBLOCK
 62
     0
100
AcDbLine
 10
-50.04530607292405
 20
49.67032687863415
 30
0.0
 11
-49.79530607292406
 21
49.92032687863416
 31
0.0
  0
TEXT
  5
C7
330
A9
100
AcDbEntity
  8
0
  6
BYBLOCK
 62
     0
100
AcDbText
 10
-54.58697273959072
 20
49.73282687863416
 30
0.0
 40
0.125
  1
8 3/4
 72
     1
 11
-54.29530607292406
 21
49.79532687863415
 31
0.0
100
AcDbText
 73
     2
  0
POINT
  5
C8
330
A9
100
AcDbEntity
  8
DEFPOINTS
  6
BYBLOCK
 62
     0
100
AcDbPoint
 10
-58.67030607292406
 20
40.07433363723477
 30
0.0
  0
POINT
  5
C9
330
A9
100
AcDbEntity
  8
DEFPOINTS
  6
BYBLOCK
 62
     0
100
AcDbPoint
 10
-49.92030607292406
 20
45.69428309053903
 30
0.0
  0
POINT
  5
CA
330
A9
100
AcDbEntity
  8
DEFPOINTS
  6
BYBLOCK
 62
     0
100
AcDbPoint
 10
-49.92030607292406
 20
49.79532687863415
 30
0.0
  0
ENDBLK
  5
CB
330
A9
100
AcDbEntity
  8
0
100
AcDbBlockEnd
  0
BLOCK
  5
CC
330
AB
100
AcDbEntity
  8
0
100
AcDbBlockBegin
  2
*D1
 70
     1
 10
0.0
 20
0.0
 30
0.0
  3
*D1
  1

  0
LINE
  5
CD
330
AB
100
AcDbEntity
  8
0
  6
BYBLOCK
 62
     0
100
AcDbLine
 10
-54.52945254486618
 20
49.13713447956093
 30
0.0
 11
-61.73694618048795
 21
49.13713447956093
 31
0.0
  0
LINE
  5
CE
330
AB
100
AcDbEntity
  8
0
  6
BYBLOCK
 62
     0
100
AcDbLine
 10
-57.46673570886336
 20
25.88713447956092
 30
0.0
 11
-61.73694618048795
 21
25.88713447956092
 31
0.0
  0
LINE
  5
CF
330
AB
100
AcDbEntity
  8
0
  6
BYBLOCK
 62
     0
100
AcDbLine
 10
-61.55694618048794
 20
49.13713447956093
 30
0.0
 11
-61.55694618048794
 21
37.97046781289427
 31
0.0
  0
LINE
  5
D0
330
AB
100
AcDbEntity
  8
0
  6
BYBLOCK
 62
     0
100
AcDbLine
 10
-61.55694618048794
 20
25.88713447956092
 30
0.0
 11
-61.55694618048794
 21
37.0538011462276
 31
0.0
  0
LINE
  5
D1
330
AB
100
AcDbEntity
  8
0
  6
BYBLOCK
 62
     0
100
AcDbLine
 10
-61.43194618048795
 20
49.01213447956093
 30
0.0
 11
-61.68194618048794
 21
49.26213447956094
 31
0.0
  0
LINE
  5
D2
330
AB
100
AcDbEntity
  8
0
  6
BYBLOCK
 62
     0
100
AcDbLine
 10
-61.43194618048795
 20
25.76213447956092
 30
0.0
 11
-61.68194618048794
 21
26.01213447956093
 31
0.0
  0
TEXT
  5
D3
330
AB
100
AcDbEntity
  8
0
  6
BYBLOCK
 62
     0
100
AcDbText
 10
-61.49444618048795
 20
37.1788011462276
 30
0.0
 40
0.125
  1
23 1/4
 50
90.0
 72
     1
 11
-61.55694618048794
 21
37.51213447956093
 31
0.0
100
AcDbText
 73
     2
  0
POINT
  5
D4
330
AB
100
AcDbEntity
  8
DEFPOINTS
  6
BYBLOCK
 62
     0
100
AcDbPoint
 10
-54.46695254486618
 20
49.13713447956093
 30
0.0
  0
POINT
  5
D5
330
AB
100
AcDbEntity
  8
DEFPOINTS
  6
BYBLOCK
 62
     0
100
AcDbPoint
 10
-57.40423570886337
 20
25.88713447956092
 30
0.0
  0
POINT
  5
D6
330
AB
100
AcDbEntity
  8
DEFPOINTS
  6
BYBLOCK
 62
     0
100
AcDbPoint
 10
-61.55694618048794
 20
25.88713447956092
 30
0.0
  0
ENDBLK
  5
D7
330
AB
100
AcDbEntity
  8
0
100
AcDbBlockEnd
  0
BLOCK
  5
D8
330
AE
100
AcDbEntity
  8
0
100
AcDbBlockBegin
  2
*D2
 70
     1
 10
0.0
 20
0.0
 30
0.0
  3
*D2
  1

  0
LINE
  5
D9
330
AE
100
AcDbEntity
  8
0
  6
BYBLOCK
 62
     0
100
AcDbLine
 10
-54.59195254486618
 20
49.13713447956093
 30
0.0
 11
-60.01509099598168
 21
49.13713447956093
 31
0.0
  0
LINE
  5
DA
330
AE
100
AcDbEntity
  8
0
  6
BYBLOCK
 62
     0
100
AcDbLine
 10
-55.2384519756147
 20
27.13713447956092
 30
0.0
 11
-60.01509099598168
 21
27.13713447956092
 31
0.0
  0
LINE
  5
DB
330
AE
100
AcDbEntity
  8
0
  6
BYBLOCK
 62
     0
100
AcDbLine
 10
-59.83509099598168
 20
49.13713447956093
 30
0.0
 11
-59.83509099598168
 21
38.3663011462276
 31
0.0
  0
LINE
  5
DC
330
AE
100
AcDbEntity
  8
0
  6
BYBLOCK
 62
     0
100
AcDbLine
 10
-59.83509099598168
 20
27.13713447956092
 30
0.0
 11
-59.83509099598168
 21
37.90796781289427
 31
0.0
  0
LINE
  5
DD
330
AE
100
AcDbEntity
  8
0
  6
BYBLOCK
 62
     0
100
AcDbLine
 10
-59.71009099598168
 20
49.01213447956093
 30
0.0
 11
-59.96009099598168
 21
49.26213447956094
 31
0.0
  0
LINE
  5
DE
330
AE
100
AcDbEntity
  8
0
  6
BYBLOCK
 62
     0
100
AcDbLine
 10
-59.71009099598168
 20
27.01213447956092
 30
0.0
 11
-59.96009099598168
 21
27.26213447956093
 31
0.0
  0
TEXT
  5
DF
330
AE
100
AcDbEntity
  8
0
  6
BYBLOCK
 62
     0
100
AcDbText
 10
-59.77259099598168
 20
38.03296781289427
 30
0.0
 40
0.125
  1
22
 50
90.0
 72
     1
 11
-59.83509099598168
 21
38.13713447956093
 31
0.0
100
AcDbText
 73
     2
  0
POINT
  5
E0
330
AE
100
AcDbEntity
  8
DEFPOINTS
  6
BYBLOCK
 62
     0
100
AcDbPoint
 10
-54.52945254486618
 20
49.13713447956093
 30
0.0
  0
POINT
  5
E1
330
AE
100
AcDbEntity
  8
DEFPOINTS
  6
BYBLOCK
 62
     0
100
AcDbPoint
 10
-55.17595197561471
 20
27.13713447956092
 30
0.0
  0
POINT
  5
E2
330
AE
100
AcDbEntity
  8
DEFPOINTS
  6
BYBLOCK
 62
     0
100
AcDbPoint
 10
-59.83509099598168
 20
27.13713447956092
 30
0.0
  0
ENDBLK
  5
E3
330
AE
100
AcDbEntity
  8
0
100
AcDbBlockEnd
  0
ENDSEC
  0
SECTION
  2
ENTITIES
  0
DIMENSION
  5
E4
330
18
100
AcDbEntity
  8
ADPDIM
100
AcDbDimension
  2
*D2
 10
-59.83509099598168
 20
27.13713447956092
 30
0.0
 11
-59.83509099598168
 21
38.13713447956093
 31
0.0
100
AcDbAlignedDimension
 13
-54.52945254486618
 23
49.13713447956093
 33
0.0
 14
-55.17595197561471
 24
27.13713447956092
 34
0.0
 50
90.0
100
AcDbRotatedDimension
  0
DIMENSION
  5
E5
330
18
100
AcDbEntity
  8
ADPDIM
100
AcDbDimension
  2
*D1
 10
-61.55694618048794
 20
25.88713447956092
 30
0.0
 11
-61.55694618048794
 21
37.51213447956093
 31
0.0
100
AcDbAlignedDimension
 13
-54.46695254486618
 23
49.13713447956093
 33
0.0
 14
-57.40423570886337
 24
25.88713447956092
 34
0.0
 50
90.0
100
AcDbRotatedDimension
  0
DIMENSION
  5
E6
330
18
100
AcDbEntity
  8
ADPDIM
100
AcDbDimension
  2
*D0
 10
-49.92030607292406
 20
49.79532687863415
 30
0.0
 11
-54.29530607292406
 21
49.79532687863415
 31
0.0
100
AcDbAlignedDimension
 13
-58.67030607292406
 23
40.07433363723477
 33
0.0
 14
-49.92030607292406
 24
45.69428309053903
 34
0.0
100
AcDbRotatedDimension
  0
LINE
  5
E7
330
18
100
AcDbEntity
  8
ADP1DETAIL
100
AcDbLine
 10
-58.26682910993342
 20
40.82477907211304
 30
0.0
 11
-58.33218713531198
 21
41.02729691425331
 31
0.0
  0
LINE
  5
E8
330
18
100
AcDbEntity
  8
ADP1DETAIL
100
AcDbLine
 10
-58.31257969244781
 20
40.75945074636421
 30
0.0
 11
-58.41715236855069
 21
40.95543572361068
 31
0.0
  0
LINE
  5
E9
330
18
100
AcDbEntity
  8
ADP1DETAIL
100
AcDbLine
 10
-58.17532806240665
 20
40.90317312764946
 30
0.0
 11
-58.20800701634492
 21
41.09915810489593
 31
0.0
  0
LWPOLYLINE
  5
EA
330
18
100
AcDbEntity
  8
ADP1DETAIL
100
AcDbPolyline
 90
        9
 70
     0
 43
0.0
 10
-57.85507433731195
 20
41.11222375388623
 42
0.0065139399516056
 10
-58.24722178457125
 20
40.77251647615181
 42
0.2130425777018035
 10
-58.40408073997457
 20
40.10616748887598
 42
0.1913259583253517
 10
-57.98579015306505
 20
39.47248274527185
 42
0.2423390323928017
 10
-57.01195711420083
 20
39.25036638924747
 42
0.7363492542276169
 10
-56.99234978883867
 20
39.47901552936835
 42
-0.0981598759666827
 10
-57.40410467896214
 20
39.47901552936835
 42
-0.4261991981158975
 10
-58.29950806387169
 20
40.35441514288097
 42
-0.2210159074622217
 10
-57.85507433731195
 20
41.10569088899244
 42
-0.3101903762028968
  0
LWPOLYLINE
  5
F5
330
18
100
AcDbEntity
  8
ADP1DETAIL
100
AcDbPolyline
 90
        7
 70
     0
 43
0.0
 10
-55.60476843825565
 20
39.88500648001014
 42
-0.2655792368498397
 10
-55.82389041610085
 20
40.1770368927822
 42
0.0592586464018592
 10
-56.33517503107295
 20
40.87060899182023
 42
0.2333801857241679
 10
-56.62733766819988
 20
40.98012034611144
 42
-0.193973251001099
 10
-56.26213437179123
 20
41.18089118924443
 42
-0.4393154503787594
 10
-56.00649206430517
 20
40.961868480662
 42
0.0471992727758558
 10
-55.75084975681911
 20
40.5968305252949
 42
0.4619712840308888
  0
LWPOLYLINE
  5
FE
330
18
100
AcDbEntity
  8
ADP1DETAIL
100
AcDbPolyline
 90
        9
 70
     0
 43
0.0
 10
-53.08486581053796
 20
39.30094581606062
 42
-0.7962811375175801
 10
-53.0483454808971
 20
40.41431154761136
 42
0.7358371195313626
 10
-53.41354877730575
 20
40.88886085726968
 42
0.3561159352233199
 10
-54.01613421638002
 20
39.86675461456071
 42
0.2704003676825728
 10
-53.32224795320358
 20
39.04541921498474
 42
0.3890161594011101
 10
-53.1031259753584
 20
39.30094581606062
 42
-0.2910690923223839
 10
-53.54136993104877
 20
39.31919768151006
 42
-0.3592043219224698
 10
-53.54136993104877
 20
40.48731909020641
 42
-0.5612822723087647
 10
-53.03008531607666
 20
40.41431154761136
 42
0.4130315708203119
  0
LWPOLYLINE
  5
109
330
18
100
AcDbEntity
  8
ADP1DETAIL
100
AcDbPolyline
 90
        7
 70
     0
 43
0.0
 10
-55.33086596594916
 20
40.26829638162397
 42
-0.2940176758117371
 10
-55.49520744933306
 20
41.03487602325706
 42
-0.2327133269589781
 10
-55.02044316400181
 20
40.99837221156088
 42
-0.5704202331710403
 10
-55.02044316400181
 20
40.79760136842789
 42
0.2974030897331174
 10
-54.91088217507922
 20
39.97626596885192
 42
0.0784557546677186
 10
-53.90657322745743
 20
39.0819230266809
 42
-0.0065946149650856
 10
-52.55532103074542
 20
37.87729780628839
 42
0.3886004686502026
  0
LWPOLYLINE
  5
112
330
18
100
AcDbEntity
  8
ADP1DETAIL
100
AcDbPolyline
 90
        6
 70
     0
 43
0.0
 10
-50.57215338892581
 20
43.73694813401089
 42
0.1768567761865047
 10
-50.03541840302773
 20
45.5978503845485
 42
0.277616624418155
 10
-52.22663806397763
 20
48.68242097812482
 42
0.3512660245940006
 10
-57.68642711028295
 20
47.53255151567521
 42
0.4427395440255837
 10
-56.17083354768906
 20
40.03102172679482
 42
-0.0465210321481449
 10
-52.9935649864358
 20
38.0415649185225
 42
0.3382863031237644
  0
LWPOLYLINE
  5
11A
330
18
100
AcDbEntity
  8
ADP1DETAIL
100
AcDbPolyline
 90
       20
 70
     0
 43
0.0
 10
-55.14826431774483
 20
46.27317053733981
 42
0.8550669686229023
 10
-55.16652448256527
 20
45.68910987339028
 42
0.4936707641458048
 10
-54.71002036205445
 20
46.25491867189036
 42
0.4491935268068823
 10
-55.60476843825565
 20
46.85723128208661
 42
0.2299634069640607
 10
-56.42647585517511
 20
46.34617816073213
 42
0.1682141003775936
 10
-56.86471969336349
 20
44.46623270675103
 42
0.1946786331967935
 10
-55.33086596594916
 20
41.5824329563077
 42
0.2116415134656111
 10
-53.0483454808971
 20
40.92536466896584
 42
0.2702874216131421
 10
-51.97099575649158
 20
41.49117346746592
 42
0.2227753049112675
 10
-52.11707707505503
 20
42.42202022133311
 42
0.4001566316764804
 10
-52.86574383269277
 20
42.42202022133311
 42
0.543705724026911
 10
-52.70140234930888
 20
41.92921904622536
 42
0.4469970002069751
 10
-52.42749987700239
 20
42.11173802390891
 42
-0.3237178082575984
 10
-52.40923971218196
 20
41.5824329563077
 42
-0.1992814161123493
 10
-53.39528861248531
 20
41.25389881263677
 42
-0.2048099226759293
 10
-55.18478464738571
 20
41.98397472337097
 42
-0.1760126153016998
 10
-56.46299618481599
 20
44.48448465299776
 42
-0.1781972104886181
 10
-56.09779288840734
 20
46.05414782875738
 42
-0.1761476473784321
 10
-55.53172777897392
 20
46.47394146127008
 42
-0.4181080120519788
 10
-55.16652448256527
 20
46.27317053733981
 42
0.7560229695650689
  0
LWPOLYLINE
  5
130
330
18
100
AcDbEntity
  8
ADP1DETAIL
100
AcDbPolyline
 90
       14
 70
     0
 43
0.0
 10
-57.2211024664066
 20
39.04131576301069
 42
0.1467050321830755
 10
-56.72438234304441
 20
39.08051270998161
 42
0.1656996058660286
 10
-56.66556024945592
 20
39.40062155462922
 42
0.4257045382666674
 10
-56.913920252386
 20
39.71419753438303
 42
0.0689366824059645
 10
-57.40410467896214
 20
39.77952586013186
 42
-0.3253439409413843
 10
-57.9335037562626
 20
40.01470786514654
 42
-0.2354507937919226
 10
-57.97271852448893
 20
40.65492547364446
 42
-0.0144221551275955
 10
-57.69821526440662
 20
41.0338297791471
 42
0.6698260911055259
 10
-57.82239538337368
 20
41.2951430821424
 42
0.1148642268952106
 10
-58.2406859702832
 20
41.11222375388623
 42
0.2309448084768841
 10
-58.65244086040667
 20
40.43934198251389
 42
0.0476422667994491
 10
-58.65244086040667
 20
39.83832132098688
 42
0.3549455941855617
 10
-57.86814584838605
 20
39.04131576301069
 10
-57.2211024664066
 20
39.03478289811689
  0
LWPOLYLINE
  5
140
330
18
100
AcDbEntity
  8
ADP1DETAIL
100
AcDbPolyline
 90
        6
 70
     0
 43
0.0
 10
-57.63164661582166
 20
43.8274163656559
 42
-0.2738621929691951
 10
-56.93776035264522
 20
44.17420237477627
 42
-0.5463738121355246
 10
-56.82819948122464
 20
43.97343153164328
 42
-0.3366790964970034
 10
-57.02906117674738
 20
43.3528669752003
 42
0.3856622362105608
 10
-56.77341898676334
 20
41.07137983495322
 42
-0.0446056910420342
 10
-56.44473601999555
 20
40.72459382583285
 42
0.4838845952584939
  0
LWPOLYLINE
  5
148
330
18
100
AcDbEntity
  8
ADP1DETAIL
100
AcDbPolyline
 90
        4
 70
     0
 43
0.0
 10
-55.33086596594916
 20
41.54592914461153
 42
0.1764172945150082
 10
-55.75084975681911
 20
41.50942541371265
 42
0.248487091570107
 10
-55.76910992163955
 20
41.12613551209882
 42
0.2519921822836848
 10
-55.4586871196922
 20
40.37780773591519
 42
0.3559169029524395
  0
LINE
  5
14E
330
18
100
AcDbEntity
  8
ADP1DETAIL
100
AcDbLine
 10
-50.89209319735974
 20
26.10205470704991
 30
0.0
 11
-50.85287842913341
 21
25.95179954166817
 31
0.0
  0
LINE
  5
14F
330
18
100
AcDbEntity
  8
ADP1DETAIL
100
AcDbLine
 10
-50.68948365944204
 20
26.21964570955726
 30
0.0
 11
-50.68948365944204
 21
26.0301935164073
 31
0.0
  0
LINE
  5
150
330
18
100
AcDbEntity
  8
ADP1DETAIL
100
AcDbLine
 10
-50.77444889268075
 20
26.13471886992433
 30
0.0
 11
-50.77444889268075
 21
25.97793092044607
 31
0.0
  0
LWPOLYLINE
  5
151
330
18
100
AcDbEntity
  8
ADP1DETAIL
100
AcDbPolyline
 90
        3
 70
     0
 43
0.0
 10
-54.88559443253781
 20
27.35575326543634
 42
0.1555108510541747
 10
-57.4183171622329
 20
25.903209555463
 10
-57.4183171622329
 20
26.15221709675493
  0
LWPOLYLINE
  5
156
330
18
100
AcDbEntity
  8
ADP1DETAIL
100
AcDbPolyline
 90
       13
 70
     0
 43
0.0
 10
-52.09310488003811
 20
27.86594563291699
 42
0.0260434411845329
 10
-52.08814298200183
 20
27.81365690630693
 42
0.4257045382666674
 10
-51.83978297907174
 20
27.50008092655312
 42
0.0689366824059645
 10
-51.3495985524956
 20
27.4347526008043
 42
-0.3253439409413843
 10
-50.82019947519514
 20
27.19957059578961
 42
-0.2354507937919226
 10
-50.78098470696881
 20
26.55935298729168
 42
-0.0144221551275955
 10
-51.05548796705112
 20
26.18044868178905
 42
0.6698260911055259
 10
-50.93130784808407
 20
25.91913537879375
 42
0.1148642268952106
 10
-50.51301726117454
 20
26.10205470704991
 42
0.2309448084768841
 10
-50.10126237105108
 20
26.77493647842226
 42
0.0476422667994491
 10
-50.10126237105108
 20
27.37595713994927
 42
0.3549455941855617
 10
-50.88555738307169
 20
28.17296269792546
 10
-51.53260076505115
 20
28.17949556281926
  0
LWPOLYLINE
  5
165
330
18
100
AcDbEntity
  8
ADP1DETAIL
100
AcDbPolyline
 90
        9
 70
     0
 43
0.0
 10
-50.89862889414579
 20
26.10205470704991
 42
0.0065139399516056
 10
-50.50648144688649
 20
26.44176198478434
 42
0.2130425777018035
 10
-50.34962249148318
 20
27.10811097206017
 42
0.1913259583253517
 10
-50.76791307839269
 20
27.74179571566431
 42
0.2423390323928017
 10
-51.74174611725691
 20
27.96391207168868
 42
0.7363492542276169
 10
-51.76135344261908
 20
27.7352629315678
 42
-0.0981598759666827
 10
-51.3495985524956
 20
27.7352629315678
 42
-0.4261991981158975
 10
-50.45419516758606
 20
26.85986331805519
 42
-0.2210159074622217
 10
-50.89862889414579
 20
26.10858757194371
 42
-0.3101903762028968
  0
LWPOLYLINE
  5
170
330
18
100
AcDbEntity
  8
ADP1DETAIL
100
AcDbPolyline
 90
        6
 70
     0
 43
0.0
 10
-54.93843082810248
 20
37.52203758106483
 42
-0.0750263670564427
 10
-53.95238204530112
 20
37.99658689072314
 42
-0.2001914392895271
 10
-52.21766638736003
 20
37.48553376936866
 42
-0.0999297639981521
 10
-51.06727612117479
 20
36.44517566121026
 42
0.0722943355035497
 10
-52.49156885966652
 20
37.558541392761
 42
0.3593993801227671
 10
-54.75582917989815
 20
37.21175530284334
 42
-0.4477863432870467
  0
LWPOLYLINE
  5
178
330
18
100
AcDbEntity
  8
ADP1DETAIL
100
AcDbPolyline
 90
        6
 70
     0
 43
0.0
 10
-58.18154984253194
 20
32.86859506892565
 42
-0.1768567761865047
 10
-58.71828482843001
 20
34.72949731946327
 42
-0.277616624418155
 10
-56.52706516748011
 20
37.81406791303959
 42
-0.3512660245940006
 10
-51.06727612117479
 20
36.66419845058998
 42
-0.4427395440255837
 10
-52.58286968376868
 20
29.16266866170959
 42
0.0465210321481449
 10
-55.76013824502195
 20
27.17321185343727
 42
-0.3382863031237644
  0
LWPOLYLINE
  5
180
330
18
100
AcDbEntity
  8
ADP1DETAIL
100
AcDbPolyline
 90
        7
 70
     0
 43
0.0
 10
-54.88546186212542
 20
27.34982576117136
 42
-0.0396386505512575
 10
-53.95737940577559
 20
27.61767192906046
 42
-0.003587349682198
 10
-52.31689577707176
 20
27.76792701364492
 42
0.4102157352990702
 10
-52.02278507412527
 20
28.04230604642781
 42
0.1414871710130733
 10
-52.11428623915406
 20
28.42774313602696
 42
0.1786958839893957
 10
-52.43453996424875
 20
28.49307146177578
 42
0.0995196397882688
 10
-54.44102801806367
 20
28.08803585829253
 42
-0.2014466007559429
  0
LWPOLYLINE
  5
189
330
18
100
AcDbEntity
  8
ADP1DETAIL
100
AcDbPolyline
 90
        6
 70
     0
 43
0.0
 10
-55.31682407761106
 20
27.36942427505547
 42
-0.0784412118937368
 10
-53.63712568068089
 20
27.93124790881427
 42
-0.0660772226181683
 10
-52.49336205783724
 20
27.97044485578519
 42
0.4405142309421294
 10
-52.26460938026932
 20
28.14683131914756
 42
0.29235848435414
 10
-52.48029054676313
 20
28.2905537004328
 42
0.162446720779024
 10
-55.31682407761106
 20
27.37595705915198
 42
-0.3280576265165945
  0
LWPOLYLINE
  5
191
330
18
100
AcDbEntity
  8
ADP1DETAIL
100
AcDbPolyline
 90
        4
 70
     0
 43
0.0
 10
-52.31689577707176
 20
28.21869250979018
 42
-0.4141427489023124
 10
-52.40839682459853
 20
28.16642983303166
 42
0.0745840959025719
 10
-54.49985011165217
 20
27.77445987853872
 42
0.0382421970636635
 10
-55.32335989189911
 20
27.36942427505547
 42
-0.2732870558119768
  0
LWPOLYLINE
  5
197
330
18
100
AcDbEntity
  8
ADP1DETAIL
100
AcDbPolyline
 90
       20
 70
     0
 43
0.0
 10
-53.60543891371291
 20
35.40481747225458
 42
-0.8550669686229023
 10
-53.58717874889247
 20
34.82075680830504
 42
-0.4936707641458048
 10
-54.04368286940329
 20
35.38656560680513
 42
-0.4491935268068823
 10
-53.14893479320209
 20
35.98887821700138
 42
-0.2299634069640607
 10
-52.32722737628263
 20
35.4778250956469
 42
-0.1682141003775936
 10
-51.88898353809426
 20
33.5978796416658
 42
-0.1946786331967935
 10
-53.42283726550858
 20
30.71407989122247
 42
-0.2116415134656111
 10
-55.70535775056065
 20
30.05701160388061
 42
-0.2702874216131421
 10
-56.78270747496617
 20
30.62282040238069
 42
-0.2227753049112675
 10
-56.63662615640271
 20
31.55366715624788
 42
-0.4001566316764804
 10
-55.88795939876497
 20
31.55366715624788
 42
-0.543705724026911
 10
-56.05230088214887
 20
31.06086598114013
 42
-0.4469970002069751
 10
-56.32620335445536
 20
31.24338495882368
 42
0.3237178082575984
 10
-56.34446351927579
 20
30.71407989122247
 42
0.1992814161123493
 10
-55.35841461897243
 20
30.38554574755154
 42
0.2048099226759293
 10
-53.56891858407204
 20
31.11562165828574
 42
0.1760126153016998
 10
-52.29070704664176
 20
33.61613158791253
 42
0.1781972104886181
 10
-52.65591034305042
 20
35.18579476367214
 42
0.1761476473784321
 10
-53.22197545248382
 20
35.60558839618485
 42
0.4181080120519788
 10
-53.58717874889247
 20
35.40481747225458
 42
-0.7560229695650689
  0
LWPOLYLINE
  5
1AD
330
18
100
AcDbEntity
  8
ADP1DETAIL
100
AcDbPolyline
 90
        5
 70
     0
 43
0.0
 10
-54.11672352868502
 20
36.75545793943175
 42
-0.1623473768930485
 10
-53.97064221012156
 20
37.44903003846978
 42
-0.2478760715923672
 10
-53.34979660622686
 20
37.66805274705221
 42
-0.1975966424104265
 10
-52.50982902448695
 20
37.24825911453951
 42
-0.2139766754785154
 10
-52.38200787074393
 20
36.8284654820268
 42
-0.8812943211688603
  0
LWPOLYLINE
  5
1B4
330
18
100
AcDbEntity
  8
ADP1DETAIL
100
AcDbPolyline
 90
       27
 70
     0
 43
0.0
 10
-57.25747164279541
 20
37.23000724909006
 42
0.227442792046958
 10
-58.11569938935574
 20
35.45957323019747
 42
0.2609153220151345
 10
-57.29399197243627
 20
35.87936686271017
 42
0.3975851589134896
 10
-56.43576434337795
 20
35.14929095197597
 42
0.3486860002416602
 10
-56.05230088214887
 20
35.4230694185013
 42
-0.1487565983255768
 10
-56.2896830248145
 20
35.51432890734307
 42
-0.3643452595155256
 10
-56.41750417855752
 20
35.76985542762167
 42
0.8851904312048391
 10
-56.36272368409622
 20
36.11664151753933
 42
0.4591687291158824
 10
-55.92447972840584
 20
36.4634275266597
 42
0.4934288106932542
 10
-56.25316269517362
 20
36.73720599318503
 42
-0.1357515009560381
 10
-54.93843082810248
 20
37.54028952731156
 42
0.2123022436283269
 10
-55.01147148738422
 20
37.24825911453951
 42
0.1230516070010872
 10
-54.75582917989815
 20
37.21175530284334
 42
0.2598150340557776
 10
-54.71930885025728
 20
36.62769463889381
 42
0.2217583400590825
 10
-54.11672352868502
 20
36.75545793943175
 42
0.4303166274735225
 10
-53.8245608915581
 20
36.64594650434326
 42
0.8198762692895325
 10
-53.73326006745593
 20
36.81021361657736
 42
-0.5232444164377494
 10
-53.66021940817421
 20
37.17525157194446
 42
-0.2605428266147924
 10
-52.72895100233214
 20
37.06574013685596
 42
0.4143461651614543
 10
-52.60112984858912
 20
36.8284654820268
 42
0.1892859341315459
 10
-52.38200787074393
 20
36.84671742827353
 42
-0.0987030000007224
 10
-51.32291842866084
 20
35.66034407333046
 42
0.6368916302045396
 10
-52.01680457433528
 20
34.85726062000121
 42
0.2534997081763192
 10
-51.70638188988993
 20
34.61998588437477
 42
-0.737304423699603
 10
-50.99423546189306
 20
34.60173401892532
 42
0.7005355398381319
 10
-51.19509727491782
 20
34.30970368695057
 42
-0.1339427322238132
 10
-50.81163381368874
 20
33.70739107675431
 42
0.0384221568956804
  0
LWPOLYLINE
  5
1D1
330
18
100
AcDbEntity
  8
ADP1DETAIL
100
AcDbPolyline
 90
        7
 70
     0
 43
0.0
 10
-53.14893479320209
 20
29.01665341492492
 42
0.2655792368498397
 10
-52.9298128153569
 20
29.30868382769697
 42
-0.0592586464018592
 10
-52.41852820038479
 20
30.002255926735
 42
-0.2333801857241679
 10
-52.12636556325787
 20
30.11176728102622
 42
0.193973251001099
 10
-52.49156885966652
 20
30.3125381241592
 42
0.4393154503787594
 10
-52.74721116715258
 20
30.09351541557677
 42
-0.0471992727758558
 10
-53.00285347463863
 20
29.72847746020967
 42
-0.4619712840308888
  0
LWPOLYLINE
  5
1DA
330
18
100
AcDbEntity
  8
ADP1DETAIL
100
AcDbPolyline
 90
        4
 70
     0
 43
0.0
 10
-53.34979660622686
 20
37.64980088160277
 42
-0.1961908815020175
 10
-51.50552007686517
 20
36.64594650434326
 42
-0.063868008694506
 10
-50.50121101174138
 20
35.02152765143803
 42
0.0514048974393951
 10
-51.32291842866084
 20
35.66034407333046
 42
0.2865284051319578
  0
LWPOLYLINE
  5
1E0
330
18
100
AcDbEntity
  8
ADP1DETAIL
100
AcDbPolyline
 90
        8
 70
     0
 43
0.0
 10
-54.91088217507922
 20
39.95801410340249
 42
-0.0598668446644299
 10
-52.00751608613244
 20
37.80429018289606
 42
-0.2457919222523137
 10
-51.93447542685071
 20
39.46521284749744
 42
-0.2465301428308793
 10
-51.09450796261282
 20
39.75724326026949
 42
-0.4328193273572857
 10
-50.69278433656331
 20
39.02716734953529
 42
-1.121810057409094
 10
-51.33189010527845
 20
39.31919768151006
 42
0.4319088093056366
 10
-51.93447542685071
 20
38.47961041648464
 42
0.1196459873555179
 10
-51.42319092938061
 20
37.43925230832625
 42
0.3316166583388596
  0
LWPOLYLINE
  5
1EA
330
18
100
AcDbEntity
  8
ADP1DETAIL
100
AcDbPolyline
 90
        4
 70
     0
 43
0.0
 10
-55.39493494861329
 20
33.61613158791253
 42
-0.4600703369216273
 10
-55.26711379487027
 20
33.30584930969104
 42
-0.3139151751041467
 10
-55.41319511343373
 20
32.99556703146954
 10
-55.59579676163806
 20
32.74004051119095
  0
LWPOLYLINE
  5
1F0
330
18
100
AcDbEntity
  8
ADP1DETAIL
100
AcDbPolyline
 90
        7
 70
     0
 43
0.0
 10
-55.48623577271546
 20
35.02152765143803
 42
-0.7134766156357247
 10
-55.02973165220464
 20
34.25494800980496
 42
-0.5195566807443673
 10
-56.1801220358919
 20
34.54697834177972
 42
-0.6187564671631587
 10
-54.79234950953902
 20
35.58733644993812
 42
-0.3440405599818113
 10
-53.60543891371291
 20
33.87165810819112
 42
-0.4688842168303063
 10
-55.52275610235632
 20
31.73618613393143
 42
-0.1730720620465732
 10
-57.37954982685062
 20
32.12833017411419
 42
-0.277616624418155
  0
LWPOLYLINE
  5
1F9
330
18
100
AcDbEntity
  8
ADP1DETAIL
100
AcDbPolyline
 90
        7
 70
     0
 43
0.0
 10
-55.39493494861329
 20
33.61613158791253
 42
-0.7157483053350166
 10
-55.86969923394454
 20
33.52487209907076
 42
-0.5096215611418918
 10
-55.61405692645848
 20
34.09068089757084
 42
-0.4514995418305471
 10
-55.01147148738422
 20
33.50662015282402
 42
-0.3014333424833468
 10
-55.52275610235632
 20
32.61227721065301
 42
-0.1770196264506817
 10
-57.09313027691353
 20
32.57577339895684
 42
-0.3590781282360412
 10
-58.07917905971487
 20
35.44132128395074
 42
1.441913686840894
  0
LWPOLYLINE
  5
202
330
18
100
AcDbEntity
  8
ADP1DETAIL
100
AcDbPolyline
 90
        5
 70
     0
 43
0.0
 10
-55.55927643199719
 20
33.41536066398225
 42
-0.2913322576709147
 10
-55.59579676163806
 20
33.05032278941244
 42
-0.3706037663529773
 10
-56.50880500265968
 20
32.81304805378599
 42
-0.3388478715959558
 10
-57.82353675222882
 20
34.36445936409617
 42
-0.0929815838381065
 10
-57.71397576330622
 20
35.53258077279251
 42
1.326625515392093
  0
LWPOLYLINE
  5
209
330
18
100
AcDbEntity
  8
ADP1DETAIL
100
AcDbPolyline
 90
        5
 70
     0
 43
0.0
 10
-55.48623577271546
 20
35.02152765143803
 42
-0.1835949714295876
 10
-54.37236583617107
 20
34.85726062000121
 42
-0.2763732247769824
 10
-54.02542270458286
 20
33.47011642192515
 42
-0.3414549198994052
 10
-55.63231709127892
 20
32.00996460045675
 42
-0.0710359911271924
 10
-56.69140665086401
 20
32.08297222384909
 42
0.1057208449966263
  0
LWPOLYLINE
  5
210
330
18
100
AcDbEntity
  8
ADP1DETAIL
100
AcDbPolyline
 90
        3
 70
     0
 43
0.0
 10
-54.93843082810248
 20
34.38271122954561
 42
-0.5008332323506567
 10
-54.68278852061642
 20
33.08682652031132
 42
-0.2392697661935204
 10
-55.52275610235632
 20
32.63052907610244
 42
-0.013962686493639
  0
LWPOLYLINE
  5
215
330
18
100
AcDbEntity
  8
ADP1DETAIL
100
AcDbPolyline
 90
        9
 70
     0
 43
0.0
 10
-58.02439856525357
 20
32.50276585636179
 42
-0.7889739701419462
 10
-58.38960186166223
 20
32.70353669949478
 42
-0.3636945928173291
 10
-58.1522197189966
 20
32.86780381172889
 42
-1.106450221090461
 10
-58.48090268576439
 20
31.18862920088078
 42
-0.490022394415147
 10
-58.46264252094396
 20
31.82744562277321
 42
-1.055903671874957
 10
-58.22526037827834
 20
31.46240766740611
 42
0.7209450094086462
 10
-57.78701642258795
 20
32.50276585636179
 42
0.4177724648593983
 10
-58.04265873007401
 20
32.48451391011506
 42
-0.4636277985975335
 10
-58.11569938935574
 20
31.69968232223526
 42
-0.3146806567707097
  0
LWPOLYLINE
  5
220
330
18
100
AcDbEntity
  8
ADP1DETAIL
100
AcDbPolyline
 90
        7
 70
     0
 43
0.0
 10
-53.42283726550858
 20
29.39994331653874
 42
0.2940176758117371
 10
-53.25849578212469
 20
30.16652295817182
 42
0.2327133269589781
 10
-53.73326006745593
 20
30.13001914647565
 42
0.5704202331710403
 10
-53.73326006745593
 20
29.92924830334267
 42
-0.2974030897331174
 10
-53.84282105637853
 20
29.10791290376669
 42
-0.0784557546677186
 10
-54.84713000400032
 20
28.21356996159567
 42
0.0065946149650856
 10
-56.19838220071233
 20
27.00894474120316
 42
-0.3886004686502026
  0
LWPOLYLINE
  5
229
330
18
100
AcDbEntity
  8
ADP1DETAIL
100
AcDbPolyline
 90
        9
 70
     0
 43
0.0
 10
-55.66883742091978
 20
28.43259275097539
 42
0.7962811375175801
 10
-55.70535775056065
 20
29.54595848252612
 42
-0.7358371195313626
 10
-55.34015445415199
 20
30.02050779218444
 42
-0.3561159352233199
 10
-54.73756901507772
 20
28.99840154947548
 42
-0.2704003676825728
 10
-55.43145527825416
 20
28.1770661498995
 42
-0.3890161594011101
 10
-55.65057725609936
 20
28.43259275097539
 42
0.2910690923223839
 10
-55.21233330040897
 20
28.45084461642483
 42
0.3592043219224698
 10
-55.21233330040897
 20
29.61896602512117
 42
0.5612822723087647
 10
-55.72361791538108
 20
29.54595848252612
 42
-0.4130315708203119
  0
LWPOLYLINE
  5
234
330
18
100
AcDbEntity
  8
ADP1DETAIL
100
AcDbPolyline
 90
        4
 70
     0
 43
0.0
 10
-53.42283726550858
 20
30.6775760795263
 42
-0.1764172945150082
 10
-53.00285347463863
 20
30.64107234862742
 42
-0.248487091570107
 10
-52.9845933098182
 20
30.25778244701359
 42
-0.2519921822836848
 10
-53.29501611176556
 20
29.50945467082996
 42
-0.3559169029524395
  0
LWPOLYLINE
  5
23A
330
18
100
AcDbEntity
  8
ADP1DETAIL
100
AcDbPolyline
 90
        8
 70
     0
 43
0.0
 10
-53.84282105637853
 20
29.08966103831725
 42
0.0598668446644299
 10
-56.74618714532531
 20
26.93593711781082
 42
0.2457919222523137
 10
-56.81922780460704
 20
28.59685978241221
 42
0.2465301428308793
 10
-57.65919526884492
 20
28.88889019518426
 42
0.4328193273572857
 10
-58.06091889489444
 20
28.15881428445006
 42
1.121810057409094
 10
-57.4218131261793
 20
28.45084461642483
 42
-0.4319088093056366
 10
-56.81922780460704
 20
27.61125735139942
 42
-0.1196459873555179
 10
-57.33051230207713
 20
26.57089924324102
 42
-0.3316166583388596
  0
LWPOLYLINE
  5
244
330
18
100
AcDbEntity
  8
ADP1DETAIL
100
AcDbPolyline
 90
        3
 70
     0
 43
0.0
 10
-57.44007329099973
 20
26.15110561072831
 42
-0.0277682262457292
 10
-57.33051230207713
 20
26.80817389807018
 42
0.2392589098787791
 10
-57.40355296135887
 20
28.01279911846268
 42
0.5729261670679014
  0
ARC
  5
249
330
18
100
AcDbEntity
  8
ADP1DETAIL
100
AcDbCircle
 10
-56.42956965648848
 20
27.38684184198441
 30
0.0
 40
0.1775367198812092
100
AcDbArc
 50
196.1434781010634
 51
273.8968514009305
  0
LWPOLYLINE
  5
24A
330
18
100
AcDbEntity
  8
ADP1DETAIL
100
AcDbPolyline
 90
        4
 70
     0
 43
0.0
 10
-52.60112984858912
 20
30.27603439326032
 42
0.449159618772597
 10
-52.94807298017733
 20
30.91485073435546
 42
0.3607396564733519
 10
-53.42283726550858
 20
30.6775760795263
 42
-0.3867364711649129
 10
-53.24023561730426
 20
30.16652295817182
 42
-0.6666074375980471
  0
LINE
  5
250
330
18
100
AcDbEntity
  8
ADP1DETAIL
100
AcDbLine
 10
-58.58054713824206
 20
39.6162050457598
 30
0.0
 11
-58.27336492422148
 21
39.73379604826714
 31
0.0
  0
LINE
  5
251
330
18
100
AcDbEntity
  8
ADP1DETAIL
100
AcDbLine
 10
-58.50865341607746
 20
39.47248274527185
 30
0.0
 11
-58.19493550527082
 21
39.6358035596439
 31
0.0
  0
LINE
  5
252
330
18
100
AcDbEntity
  8
ADP1DETAIL
100
AcDbLine
 10
-58.63283353504451
 20
39.76646021114154
 30
0.0
 11
-58.33218713531198
 21
39.77952586013186
 31
0.0
  0
LINE
  5
253
330
18
100
AcDbEntity
  8
ADP1DETAIL
100
AcDbLine
 10
-58.50865341607746
 20
40.75945074636421
 30
0.0
 11
-58.34525864638608
 21
40.64185982465416
 31
0.0
  0
LINE
  5
254
330
18
100
AcDbEntity
  8
ADP1DETAIL
100
AcDbLine
 10
-58.50865341607746
 20
38.61014878074954
 30
0.0
 11
-58.19493550527082
 21
38.44682796637748
 31
0.0
  0
LINE
  5
255
330
18
100
AcDbEntity
  8
ADP1DETAIL
100
AcDbLine
 10
-58.58054713824206
 20
38.46642648026159
 30
0.0
 11
-58.27336492422148
 21
38.34883547775424
 31
0.0
  0
LINE
  5
256
330
18
100
AcDbEntity
  8
ADP1DETAIL
100
AcDbLine
 10
-58.63283353504451
 20
38.31617131487984
 30
0.0
 11
-58.33218713531198
 21
38.30310566588953
 31
0.0
  0
LINE
  5
257
330
18
100
AcDbEntity
  8
ADP1DETAIL
100
AcDbLine
 10
-58.39100922890047
 20
38.72120699916037
 30
0.0
 11
-58.12957747989226
 21
38.53828767090421
 31
0.0
  0
LINE
  5
258
330
18
100
AcDbEntity
  8
ADP1DETAIL
100
AcDbLine
 10
-58.39100922890047
 20
39.36142452686101
 30
0.0
 11
-58.12957747989226
 21
39.54434385511717
 31
0.0
  0
LINE
  5
259
330
18
100
AcDbEntity
  8
ADP1DETAIL
100
AcDbLine
 10
-58.50865341607746
 20
37.32318077965717
 30
0.0
 11
-58.34525864638608
 21
37.44077170136722
 31
0.0
  0
LINE
  5
25A
330
18
100
AcDbEntity
  8
ADP1DETAIL
100
AcDbLine
 10
-58.31257969244781
 20
37.32318077965717
 30
0.0
 11
-58.41715236855069
 21
37.1271958024107
 31
0.0
  0
LWPOLYLINE
  5
25B
330
18
100
AcDbEntity
  8
ADP1DETAIL
100
AcDbPolyline
 90
       13
 70
     0
 43
0.0
 10
-56.66059835141964
 20
38.73429869800222
 42
-0.0260434411845329
 10
-56.66556024945592
 20
38.68200997139216
 42
-0.4257045382666674
 10
-56.913920252386
 20
38.36843399163835
 42
-0.0689366824059645
 10
-57.40410467896214
 20
38.30310566588953
 42
0.3253439409413843
 10
-57.9335037562626
 20
38.06792366087485
 42
0.2354507937919226
 10
-57.97271852448893
 20
37.42770605237692
 42
0.0144221551275955
 10
-57.69821526440662
 20
37.04880174687428
 42
-0.6698260911055259
 10
-57.82239538337368
 20
36.78748844387898
 42
-0.1148642268952106
 10
-58.2406859702832
 20
36.97040777213515
 42
-0.2309448084768841
 10
-58.65244086040667
 20
37.64328954350749
 42
-0.0476422667994491
 10
-58.65244086040667
 20
38.2443102050345
 42
-0.3549455941855617
 10
-57.86814584838605
 20
39.04131576301069
 10
-57.2211024664066
 20
39.04784862790449
  0
LWPOLYLINE
  5
26A
330
18
100
AcDbEntity
  8
ADP1DETAIL
100
AcDbPolyline
 90
        9
 70
     0
 43
0.0
 10
-57.85507433731195
 20
36.97040777213515
 42
-0.0065139399516056
 10
-58.24722178457125
 20
37.31011504986958
 42
-0.2130425777018035
 10
-58.40408073997457
 20
37.97646403714541
 42
-0.1913259583253517
 10
-57.98579015306505
 20
38.61014878074954
 42
-0.2423390323928017
 10
-57.01195711420083
 20
38.83226513677392
 42
-0.7363492542276169
 10
-56.99234978883867
 20
38.60361599665303
 42
0.0981598759666827
 10
-57.40410467896214
 20
38.60361599665303
 42
0.4261991981158975
 10
-58.29950806387169
 20
37.72821638314042
 42
0.2210159074622217
 10
-57.85507433731195
 20
36.97694063702894
 42
0.3101903762028968
  0
LINE
  5
275
330
18
100
AcDbEntity
  8
ADP1DETAIL
100
AcDbLine
 10
-58.63283353504451
 20
37.76741341090863
 30
0.0
 11
-58.4302239971268
 21
37.83274173665745
 31
0.0
  0
LINE
  5
276
330
18
100
AcDbEntity
  8
ADP1DETAIL
100
AcDbLine
 10
-58.61322609218034
 20
37.61062538063308
 30
0.0
 11
-58.42368818283874
 21
37.6824865712757
 31
0.0
  0
LINE
  5
277
330
18
100
AcDbEntity
  8
ADP1DETAIL
100
AcDbLine
 10
-58.65897667469472
 20
37.92420136038689
 30
0.0
 11
-58.41061655426263
 21
37.97646403714541
 31
0.0
  0
LINE
  5
278
330
18
100
AcDbEntity
  8
ADP1DETAIL
100
AcDbLine
 10
-58.65897667469472
 20
38.08098939066244
 30
0.0
 11
-58.42368818283874
 21
38.08098939066244
 31
0.0
  0
LINE
  5
279
330
18
100
AcDbEntity
  8
ADP1DETAIL
100
AcDbLine
 10
-58.64590504611861
 20
38.1985803123725
 30
0.0
 11
-58.38447341461241
 21
38.20511317726629
 31
0.0
  0
LINE
  5
27A
330
18
100
AcDbEntity
  8
ADP1DETAIL
100
AcDbLine
 10
-58.58708295253013
 20
37.48650159402923
 30
0.0
 11
-58.41061655426263
 21
37.59102686674897
 31
0.0
  0
LINE
  5
27B
330
18
100
AcDbEntity
  8
ADP1DETAIL
100
AcDbLine
 10
-58.58708295253013
 20
40.59612993199215
 30
0.0
 11
-58.41061655426263
 21
40.49160465927241
 31
0.0
  0
LINE
  5
27C
330
18
100
AcDbEntity
  8
ADP1DETAIL
100
AcDbLine
 10
-58.61322609218034
 20
40.4720061453883
 30
0.0
 11
-58.42368818283874
 21
40.40014495474568
 31
0.0
  0
LINE
  5
27D
330
18
100
AcDbEntity
  8
ADP1DETAIL
100
AcDbLine
 10
-58.64590504611861
 20
39.88405121364889
 30
0.0
 11
-58.38447341461241
 21
39.87751834875509
 31
0.0
  0
LINE
  5
27E
330
18
100
AcDbEntity
  8
ADP1DETAIL
100
AcDbLine
 10
-58.65897667469472
 20
40.00164213535894
 30
0.0
 11
-58.42368818283874
 21
40.00164213535894
 31
0.0
  0
LINE
  5
27F
330
18
100
AcDbEntity
  8
ADP1DETAIL
100
AcDbLine
 10
-58.65897667469472
 20
40.1584301656345
 30
0.0
 11
-58.41061655426263
 21
40.10616748887598
 31
0.0
  0
LINE
  5
280
330
18
100
AcDbEntity
  8
ADP1DETAIL
100
AcDbLine
 10
-58.63283353504451
 20
40.31521811511275
 30
0.0
 11
-58.4302239971268
 21
40.24988978936393
 31
0.0
  0
LINE
  5
281
330
18
100
AcDbEntity
  8
ADP1DETAIL
100
AcDbLine
 10
-58.26682910993342
 20
37.25785245390834
 30
0.0
 11
-58.33218713531198
 21
37.05533461176808
 31
0.0
  0
LWPOLYLINE
  5
282
330
18
100
AcDbEntity
  8
ADP1DETAIL
100
AcDbPolyline
 90
        5
 70
     0
 43
0.0
 10
-57.14791077137483
 20
37.24825911453951
 42
0.1369387856199347
 10
-57.95135790597185
 20
35.89761872815961
 42
0.4185098603084131
 10
-57.82353675222882
 20
35.67859593877989
 42
0.2092001347405044
 10
-57.29399197243627
 20
36.22615287183055
 42
0.0135192591369426
 10
-57.03834978245223
 20
36.97448064801418
 42
1.359145917299853
  0
LWPOLYLINE
  5
289
330
18
100
AcDbEntity
  8
ADP1DETAIL
100
AcDbPolyline
 90
        4
 70
     0
 43
0.0
 10
-56.36272368409622
 20
36.11664151753933
 42
-0.5144340807308039
 10
-56.67314648604357
 20
36.60944269264708
 42
-0.2355132880685252
 10
-56.14360170625103
 20
37.46728190391923
 42
-0.1258439230241488
 10
-54.73756901507772
 20
38.05134264866604
 42
13.92928505065691
  0
LWPOLYLINE
  5
28F
330
18
100
AcDbEntity
  8
ADP1DETAIL
100
AcDbPolyline
 90
        4
 70
     0
 43
0.0
 10
-56.2896830248145
 20
36.71895412773558
 42
0.2804490703045635
 10
-56.39924401373709
 20
36.5729389617482
 42
-0.200187101068143
 10
-56.0705610469693
 20
37.50378571561539
 42
-0.2016880952693036
 10
-53.97064221012156
 20
38.01483883696987
 42
-12.5276352254793
  0
LWPOLYLINE
  5
295
330
18
100
AcDbEntity
  8
ADP1DETAIL
100
AcDbPolyline
 90
        4
 70
     0
 43
0.0
 10
-55.77839840984238
 20
37.86882367098249
 42
0.2305558328730897
 10
-57.14791077137483
 20
36.49993133835587
 42
0.2473567510464908
 10
-56.89226846388876
 20
35.3135579834128
 42
0.3140524100635967
 10
-56.03404071732843
 20
35.40481747225458
 42
2.678912995137256
  0
LWPOLYLINE
  5
29B
330
18
100
AcDbEntity
  8
ADP1DETAIL
100
AcDbPolyline
 90
        2
 70
     0
 43
0.0
 10
-56.41750417855752
 20
35.76985542762167
 42
-0.4142605026813357
 10
-56.78270747496617
 20
36.31741236067232
 42
1.219643580896803
  0
LINE
  5
29F
330
18
100
AcDbEntity
  8
ADP1DETAIL
100
AcDbLine
 10
-58.07075538630376
 20
37.19252412815952
 30
0.0
 11
-57.87468166267411
 21
37.19905691225603
 31
0.0
  0
LINE
  5
2A0
330
18
100
AcDbEntity
  8
ADP1DETAIL
100
AcDbLine
 10
-57.979254338777
 20
37.00307193500956
 30
0.0
 11
-57.979254338777
 21
36.8462839855313
 31
0.0
  0
LINE
  5
2A1
330
18
100
AcDbEntity
  8
ADP1DETAIL
100
AcDbLine
 10
-58.17532806240665
 20
37.17945839837192
 30
0.0
 11
-58.20800701634492
 21
36.98347342112546
 31
0.0
  0
LINE
  5
2A2
330
18
100
AcDbEntity
  8
ADP1DETAIL
100
AcDbLine
 10
-58.06421957201571
 20
37.08799877464249
 30
0.0
 11
-58.06421957201571
 21
36.89854658149253
 31
0.0
  0
LINE
  5
2A3
330
18
100
AcDbEntity
  8
ADP1DETAIL
100
AcDbLine
 10
-57.861610034098
 20
36.97040777213515
 30
0.0
 11
-57.90082480232433
 21
36.82015260675339
 31
0.0
  0
LINE
  5
2A4
330
18
100
AcDbEntity
  8
ADP1DETAIL
100
AcDbLine
 10
-57.85507433731195
 20
36.97694063702894
 30
0.0
 11
-57.74396584692102
 21
37.00307193500956
 31
0.0
  0
LINE
  5
2A5
330
18
100
AcDbEntity
  8
ADP1DETAIL
100
AcDbLine
 10
-57.9335037562626
 20
37.05533461176808
 30
0.0
 11
-57.7897164294354
 21
37.07493312565218
 31
0.0
  0
LWPOLYLINE
  5
2A6
330
18
100
AcDbEntity
  8
ADP1DETAIL
100
AcDbPolyline
 90
        4
 70
     0
 43
0.0
 10
-56.43680745438598
 20
39.08704557487541
 42
0.4141427489023124
 10
-56.34530640685921
 20
39.03478289811689
 42
-0.0745840959025719
 10
-54.25385311980558
 20
38.64281294362395
 42
-0.0382421970636635
 10
-53.43034333955863
 20
38.2377773401407
 42
0.2732870558119768
  0
LWPOLYLINE
  5
2AC
330
18
100
AcDbEntity
  8
ADP1DETAIL
100
AcDbPolyline
 90
        6
 70
     0
 43
0.0
 10
-53.43687915384669
 20
38.2377773401407
 42
0.0784412118937368
 10
-55.11657755077685
 20
38.7996009738995
 42
0.0660772226181683
 10
-56.2603411736205
 20
38.83879792087043
 42
-0.4405142309421294
 10
-56.48909385118843
 20
39.01518438423279
 42
-0.29235848435414
 10
-56.27341268469461
 20
39.15890676551803
 42
-0.162446720779024
 10
-53.43687915384669
 20
38.24431012423721
 42
0.3280576265165945
  0
LWPOLYLINE
  5
2B4
330
18
100
AcDbEntity
  8
ADP1DETAIL
100
AcDbPolyline
 90
        7
 70
     0
 43
0.0
 10
-53.86824136933232
 20
38.21817882625659
 42
0.0396386505512575
 10
-54.79632382568215
 20
38.48602499414569
 42
0.003587349682198
 10
-56.43680745438598
 20
38.63628007873015
 42
-0.4102157352990702
 10
-56.73091815733247
 20
38.91065911151304
 42
-0.1414871710130733
 10
-56.63941699230369
 20
39.29609620111219
 42
-0.1786958839893957
 10
-56.319163267209
 20
39.36142452686101
 42
-0.0995196397882688
 10
-54.31267521339407
 20
38.95638892337776
 42
0.2014466007559429
  0
LINE
  5
2BD
330
18
100
AcDbEntity
  8
ADP1DETAIL
100
AcDbLine
 10
-56.98581397455061
 20
39.21770222637306
 30
0.0
 11
-56.86816978737363
 21
39.08704557487541
 31
0.0
  0
LINE
  5
2BE
330
18
100
AcDbEntity
  8
ADP1DETAIL
100
AcDbLine
 10
-57.31913932822142
 20
39.0609142768948
 30
0.0
 11
-57.29299618857121
 21
39.18503806349865
 31
0.0
  0
LINE
  5
2BF
330
18
100
AcDbEntity
  8
ADP1DETAIL
100
AcDbLine
 10
-57.031564557065
 20
39.19157092839244
 30
0.0
 11
-57.031564557065
 21
39.054381412001
 31
0.0
  0
LINE
  5
2C0
330
18
100
AcDbEntity
  8
ADP1DETAIL
100
AcDbLine
 10
-57.19495932675638
 20
39.0674470609913
 30
0.0
 11
-57.16881618710615
 21
39.19810371248896
 31
0.0
  0
LINE
  5
2C1
330
18
100
AcDbEntity
  8
ADP1DETAIL
100
AcDbLine
 10
-57.48906991220086
 20
39.0674470609913
 30
0.0
 11
-57.45639095826258
 21
39.18503806349865
 31
0.0
  0
LINE
  5
2C2
330
18
100
AcDbEntity
  8
ADP1DETAIL
100
AcDbLine
 10
-57.6001784025918
 20
39.0674470609913
 30
0.0
 11
-57.56096363436546
 21
39.21770222637306
 31
0.0
  0
LWPOLYLINE
  5
2C3
330
18
100
AcDbEntity
  8
ADP1DETAIL
100
AcDbPolyline
 90
        2
 70
     0
 43
0.0
 10
-57.2211024664066
 20
39.04131576301069
 42
-0.1467050321830755
 10
-56.72438234304441
 20
39.00211881603977
 42
-0.1656996058660286
  0
LINE
  5
2C7
330
18
100
AcDbEntity
  8
ADP1DETAIL
100
AcDbLine
 10
-56.98581397455061
 20
38.86492929964833
 30
0.0
 11
-56.86816978737363
 21
38.99558595114597
 31
0.0
  0
LINE
  5
2C8
330
18
100
AcDbEntity
  8
ADP1DETAIL
100
AcDbLine
 10
-56.913920252386
 20
38.68854283628596
 30
0.0
 11
-56.69823920339419
 21
38.72773978325687
 31
0.0
  0
LINE
  5
2C9
330
18
100
AcDbEntity
  8
ADP1DETAIL
100
AcDbLine
 10
-56.92045606667406
 20
38.64934580851775
 30
0.0
 11
-56.78974025092096
 21
38.46642648026159
 31
0.0
  0
LINE
  5
2CA
330
18
100
AcDbEntity
  8
ADP1DETAIL
100
AcDbLine
 10
-56.94659920632428
 20
38.7996009738995
 30
0.0
 11
-56.71131071446829
 21
38.87799494863863
 31
0.0
  0
LINE
  5
2CB
330
18
100
AcDbEntity
  8
ADP1DETAIL
100
AcDbLine
 10
-56.98581397455061
 20
38.59055034766273
 30
0.0
 11
-56.94659920632428
 21
38.41416380350307
 31
0.0
  0
LINE
  5
2CC
330
18
100
AcDbEntity
  8
ADP1DETAIL
100
AcDbLine
 10
-57.18188769818027
 20
38.58401748276893
 30
0.0
 11
-57.24724560605682
 21
38.36190112674455
 31
0.0
  0
LINE
  5
2CD
330
18
100
AcDbEntity
  8
ADP1DETAIL
100
AcDbLine
 10
-57.30606781714732
 20
38.59055034766273
 30
0.0
 11
-57.33874677108559
 21
38.34883547775424
 31
0.0
  0
LINE
  5
2CE
330
18
100
AcDbEntity
  8
ADP1DETAIL
100
AcDbLine
 10
-57.07731502207739
 20
38.58401748276893
 30
0.0
 11
-57.09038665065349
 21
38.36843399163835
 31
0.0
  0
LINE
  5
2CF
330
18
100
AcDbEntity
  8
ADP1DETAIL
100
AcDbLine
 10
-57.31913932822142
 20
39.02171724912658
 30
0.0
 11
-57.29299618857121
 21
38.89759346252274
 31
0.0
  0
LINE
  5
2D0
330
18
100
AcDbEntity
  8
ADP1DETAIL
100
AcDbLine
 10
-57.19495932675638
 20
39.01518446503008
 30
0.0
 11
-57.16881618710615
 21
38.88452781353243
 31
0.0
  0
LINE
  5
2D1
330
18
100
AcDbEntity
  8
ADP1DETAIL
100
AcDbLine
 10
-57.031564557065
 20
38.89106059762894
 30
0.0
 11
-57.031564557065
 21
39.02825011402038
 31
0.0
  0
LINE
  5
2D2
330
18
100
AcDbEntity
  8
ADP1DETAIL
100
AcDbLine
 10
-58.28643655279758
 20
37.74781489702452
 30
0.0
 11
-58.09689852595398
 21
37.68901935537221
 31
0.0
  0
LINE
  5
2D3
330
18
100
AcDbEntity
  8
ADP1DETAIL
100
AcDbLine
 10
-58.14918492275643
 20
38.87146216454212
 30
0.0
 11
-57.94657538483872
 21
38.67547710649836
 31
0.0
  0
LINE
  5
2D4
330
18
100
AcDbEntity
  8
ADP1DETAIL
100
AcDbLine
 10
-58.07729120059182
 20
38.27044150301512
 30
0.0
 11
-57.96618271020088
 21
38.11365355353686
 31
0.0
  0
LINE
  5
2D5
330
18
100
AcDbEntity
  8
ADP1DETAIL
100
AcDbLine
 10
-58.26682910993342
 20
38.7996009738995
 30
0.0
 11
-58.03807643236549
 21
38.62321451053714
 31
0.0
  0
LINE
  5
2D6
330
18
100
AcDbEntity
  8
ADP1DETAIL
100
AcDbLine
 10
-58.23415015599515
 20
38.02219384901013
 30
0.0
 11
-58.09036282916793
 21
37.91113571139659
 31
0.0
  0
LINE
  5
2D7
330
18
100
AcDbEntity
  8
ADP1DETAIL
100
AcDbLine
 10
-58.26029341314737
 20
37.93073422528069
 30
0.0
 11
-58.08382701487988
 21
37.78701184399544
 31
0.0
  0
LINE
  5
2D8
330
18
100
AcDbEntity
  8
ADP1DETAIL
100
AcDbLine
 10
-58.1818638766947
 20
38.12671920252716
 30
0.0
 11
-58.0511480609416
 21
37.99606255102951
 31
0.0
  0
LINE
  5
2D9
330
18
100
AcDbEntity
  8
ADP1DETAIL
100
AcDbLine
 10
-57.48906991220086
 20
39.01518446503008
 30
0.0
 11
-57.45639095826258
 21
38.89759346252274
 31
0.0
  0
LINE
  5
2DA
330
18
100
AcDbEntity
  8
ADP1DETAIL
100
AcDbLine
 10
-57.94657538483872
 20
38.41416380350307
 30
0.0
 11
-57.86814584838605
 21
38.26390863812132
 31
0.0
  0
LINE
  5
2DB
330
18
100
AcDbEntity
  8
ADP1DETAIL
100
AcDbLine
 10
-57.83546689444778
 20
38.48602499414569
 30
0.0
 11
-57.78318061514735
 21
38.28350715200542
 31
0.0
  0
LINE
  5
2DC
330
18
100
AcDbEntity
  8
ADP1DETAIL
100
AcDbLine
 10
-57.66553631046835
 20
38.55135331989451
 30
0.0
 11
-57.66553631046835
 21
38.32270417977364
 31
0.0
  0
LINE
  5
2DD
330
18
100
AcDbEntity
  8
ADP1DETAIL
100
AcDbLine
 10
-57.5413563090033
 20
38.57748461787513
 30
0.0
 11
-57.56096363436546
 21
38.36843399163835
 31
0.0
  0
LINE
  5
2DE
330
18
100
AcDbEntity
  8
ADP1DETAIL
100
AcDbLine
 10
-57.9204322451885
 20
38.93679049029095
 30
0.0
 11
-57.80932375479756
 21
38.74733829714098
 31
0.0
  0
LINE
  5
2DF
330
18
100
AcDbEntity
  8
ADP1DETAIL
100
AcDbLine
 10
-57.71782270727079
 20
38.98905308625217
 30
0.0
 11
-57.67860793904446
 21
38.81266662288981
 31
0.0
  0
LINE
  5
2E0
330
18
100
AcDbEntity
  8
ADP1DETAIL
100
AcDbLine
 10
-57.6001784025918
 20
39.01518446503008
 30
0.0
 11
-57.56096363436546
 21
38.86492929964833
 31
0.0
  0
LINE
  5
2E1
330
18
100
AcDbEntity
  8
ADP1DETAIL
100
AcDbLine
 10
-57.41717619003625
 20
38.59055034766273
 30
0.0
 11
-57.44985526147654
 21
38.36843399163835
 31
0.0
  0
LINE
  5
2E2
330
18
100
AcDbEntity
  8
ADP1DETAIL
100
AcDbLine
 10
-58.13611329418032
 20
37.28398375188896
 30
0.0
 11
-57.9204322451885
 21
37.28398375188896
 31
0.0
  0
LINE
  5
2E3
330
18
100
AcDbEntity
  8
ADP1DETAIL
100
AcDbLine
 10
-58.22107864492103
 20
37.44730456626102
 30
0.0
 11
-57.99886166413916
 21
37.41464040338661
 31
0.0
  0
LINE
  5
2E4
330
18
100
AcDbEntity
  8
ADP1DETAIL
100
AcDbLine
 10
-58.26682910993342
 20
37.61062538063308
 30
0.0
 11
-58.02500492129138
 21
37.52569854100015
 31
0.0
  0
LINE
  5
2E5
330
18
100
AcDbEntity
  8
ADP1DETAIL
100
AcDbLine
 10
-56.92045606667406
 20
39.43328571750363
 30
0.0
 11
-56.78974025092096
 21
39.6162050457598
 31
0.0
  0
LINE
  5
2E6
330
18
100
AcDbEntity
  8
ADP1DETAIL
100
AcDbLine
 10
-56.913920252386
 20
39.39408868973542
 30
0.0
 11
-56.69823920339419
 21
39.35489174276451
 31
0.0
  0
LINE
  5
2E7
330
18
100
AcDbEntity
  8
ADP1DETAIL
100
AcDbLine
 10
-56.94659920632428
 20
39.28303055212188
 30
0.0
 11
-56.71131071446829
 21
39.20463657738276
 31
0.0
  0
LINE
  5
2E8
330
18
100
AcDbEntity
  8
ADP1DETAIL
100
AcDbLine
 10
-56.98581397455061
 20
39.49208117835866
 30
0.0
 11
-56.94659920632428
 21
39.66846772251831
 31
0.0
  0
LINE
  5
2E9
330
18
100
AcDbEntity
  8
ADP1DETAIL
100
AcDbLine
 10
-57.07731502207739
 20
39.49861404325245
 30
0.0
 11
-57.09038665065349
 21
39.71419753438303
 31
0.0
  0
LINE
  5
2EA
330
18
100
AcDbEntity
  8
ADP1DETAIL
100
AcDbLine
 10
-57.30606781714732
 20
39.49208117835866
 30
0.0
 11
-57.33874677108559
 21
39.73379604826714
 31
0.0
  0
LINE
  5
2EB
330
18
100
AcDbEntity
  8
ADP1DETAIL
100
AcDbLine
 10
-57.18188769818027
 20
39.49861404325245
 30
0.0
 11
-57.24724560605682
 21
39.72073039927683
 31
0.0
  0
LINE
  5
2EC
330
18
100
AcDbEntity
  8
ADP1DETAIL
100
AcDbLine
 10
-58.13611329418032
 20
40.79864777413242
 30
0.0
 11
-57.9204322451885
 21
40.79864777413242
 31
0.0
  0
LINE
  5
2ED
330
18
100
AcDbEntity
  8
ADP1DETAIL
100
AcDbLine
 10
-58.07729120059182
 20
39.81219002300627
 30
0.0
 11
-57.96618271020088
 21
39.96897797248453
 31
0.0
  0
LINE
  5
2EE
330
18
100
AcDbEntity
  8
ADP1DETAIL
100
AcDbLine
 10
-58.07075538630376
 20
40.89010739786186
 30
0.0
 11
-57.87468166267411
 21
40.88357461376535
 31
0.0
  0
LINE
  5
2EF
330
18
100
AcDbEntity
  8
ADP1DETAIL
100
AcDbLine
 10
-58.28643655279758
 20
40.33481662899686
 30
0.0
 11
-58.09689852595398
 21
40.39361217064917
 31
0.0
  0
LINE
  5
2F0
330
18
100
AcDbEntity
  8
ADP1DETAIL
100
AcDbLine
 10
-58.26682910993342
 20
40.4720061453883
 30
0.0
 11
-58.02500492129138
 21
40.55693298502123
 31
0.0
  0
LINE
  5
2F1
330
18
100
AcDbEntity
  8
ADP1DETAIL
100
AcDbLine
 10
-58.23415015599515
 20
40.06043767701125
 30
0.0
 11
-58.09036282916793
 21
40.1714958146248
 31
0.0
  0
LINE
  5
2F2
330
18
100
AcDbEntity
  8
ADP1DETAIL
100
AcDbLine
 10
-58.26029341314737
 20
40.15189730074069
 30
0.0
 11
-58.08382701487988
 21
40.29561968202594
 31
0.0
  0
LINE
  5
2F3
330
18
100
AcDbEntity
  8
ADP1DETAIL
100
AcDbLine
 10
-58.1818638766947
 20
39.95591232349422
 30
0.0
 11
-58.0511480609416
 21
40.08656897499188
 31
0.0
  0
LINE
  5
2F4
330
18
100
AcDbEntity
  8
ADP1DETAIL
100
AcDbLine
 10
-58.22107864492103
 20
40.63532695976036
 30
0.0
 11
-57.99886166413916
 21
40.66799112263477
 31
0.0
  0
LINE
  5
2F5
330
18
100
AcDbEntity
  8
ADP1DETAIL
100
AcDbLine
 10
-57.66553631046835
 20
39.53127820612687
 30
0.0
 11
-57.66553631046835
 21
39.75992734624775
 31
0.0
  0
LINE
  5
2F6
330
18
100
AcDbEntity
  8
ADP1DETAIL
100
AcDbLine
 10
-57.5413563090033
 20
39.50514690814626
 30
0.0
 11
-57.56096363436546
 21
39.71419753438303
 31
0.0
  0
LINE
  5
2F7
330
18
100
AcDbEntity
  8
ADP1DETAIL
100
AcDbLine
 10
-57.83546689444778
 20
39.59660653187569
 30
0.0
 11
-57.78318061514735
 21
39.79912437401596
 31
0.0
  0
LINE
  5
2F8
330
18
100
AcDbEntity
  8
ADP1DETAIL
100
AcDbLine
 10
-57.41717619003625
 20
39.49208117835866
 30
0.0
 11
-57.44985526147654
 21
39.71419753438303
 31
0.0
  0
LINE
  5
2F9
330
18
100
AcDbEntity
  8
ADP1DETAIL
100
AcDbLine
 10
-57.94657538483872
 20
39.66846772251831
 30
0.0
 11
-57.86814584838605
 21
39.81872288790007
 31
0.0
  0
LINE
  5
2FA
330
18
100
AcDbEntity
  8
ADP1DETAIL
100
AcDbLine
 10
-58.14918492275643
 20
39.21116936147926
 30
0.0
 11
-57.94657538483872
 21
39.40715441952302
 31
0.0
  0
LINE
  5
2FB
330
18
100
AcDbEntity
  8
ADP1DETAIL
100
AcDbLine
 10
-57.9204322451885
 20
39.14584103573044
 30
0.0
 11
-57.80932375479756
 21
39.3352932288804
 31
0.0
  0
LINE
  5
2FC
330
18
100
AcDbEntity
  8
ADP1DETAIL
100
AcDbLine
 10
-57.71782270727079
 20
39.09357843976921
 30
0.0
 11
-57.67860793904446
 21
39.26996490313158
 31
0.0
  0
LINE
  5
2FD
330
18
100
AcDbEntity
  8
ADP1DETAIL
100
AcDbLine
 10
-58.26682910993342
 20
39.28303055212188
 30
0.0
 11
-58.03807643236549
 21
39.45941701548425
 31
0.0
  0
LWPOLYLINE
  5
2FE
330
18
100
AcDbEntity
  8
ADP1DETAIL
100
AcDbPolyline
 90
        2
 70
     0
 43
0.0
 10
-50.81163381368874
 20
33.70739107675431
 10
-50.81163381368874
 20
33.03207084316571
  0
LWPOLYLINE
  5
302
330
18
100
AcDbEntity
  8
ADP1DETAIL
100
AcDbPolyline
 90
        7
 70
     0
 43
0.0
 10
-50.81163381368874
 20
33.70739107675431
 42
-0.1711427191304343
 10
-50.57425167102311
 20
32.72178856494422
 42
-0.1051948086144435
 10
-50.9029346377909
 20
31.00611022319723
 42
0.1339787234536198
 10
-50.77511348404787
 20
32.97731516602011
 42
0.8610406798737315
 10
-51.12205661563609
 20
32.95906330057067
 42
0.0534417599947774
 10
-51.01249562671349
 20
32.1924835781403
 42
-0.2418202333700333
 10
-51.6881217250695
 20
30.20302676986799
 42
-0.4045718014131431
  0
LWPOLYLINE
  5
30B
330
18
100
AcDbEntity
  8
ADP1DETAIL
100
AcDbPolyline
 90
        4
 70
     0
 43
0.0
 10
-50.30034919871662
 20
33.41536066398225
 42
0.131200517537093
 10
-50.72033298958658
 20
34.93026816259626
 42
0.2373279267523119
 10
-51.26813793419955
 20
35.33180992965952
 42
0.8550440771500934
 10
-51.70638188988993
 20
34.58348215347589
 42
-0.2952020463135026
  0
LINE
  5
311
330
18
100
AcDbEntity
  8
ADP1DETAIL
100
AcDbLine
 10
-50.53262458653671
 20
29.76697389467513
 30
0.0
 11
-50.75484156731859
 21
29.79963805754954
 31
0.0
  0
LINE
  5
312
330
18
100
AcDbEntity
  8
ADP1DETAIL
100
AcDbLine
 10
-50.24504981538029
 20
29.89109768127898
 30
0.0
 11
-50.40844458507166
 21
29.77350675956893
 31
0.0
  0
LWPOLYLINE
  5
313
330
18
100
AcDbEntity
  8
ADP1DETAIL
100
AcDbPolyline
 90
       14
 70
     0
 43
0.0
 10
-51.53260076505115
 20
28.17296269792546
 42
-0.1467050321830755
 10
-52.02932088841333
 20
28.21215964489638
 42
-0.1656996058660286
 10
-52.08814298200183
 20
28.53226848954399
 42
-0.4257045382666674
 10
-51.83978297907174
 20
28.8458444692978
 42
-0.0689366824059645
 10
-51.3495985524956
 20
28.91117279504662
 42
0.3253439409413843
 10
-50.82019947519514
 20
29.14635480006131
 42
0.2354507937919226
 10
-50.78098470696881
 20
29.78657240855924
 42
0.0144221551275955
 10
-51.05548796705112
 20
30.16547671406187
 42
-0.6698260911055259
 10
-50.93130784808407
 20
30.42679001705717
 42
-0.1148642268952106
 10
-50.51301726117454
 20
30.243870688801
 42
-0.2309448084768841
 10
-50.10126237105108
 20
29.57098891742866
 42
-0.0476422667994491
 10
-50.10126237105108
 20
28.96996825590165
 42
-0.3549455941855617
 10
-50.88555738307169
 20
28.17296269792546
 10
-51.53260076505115
 20
28.16642983303166
  0
LWPOLYLINE
  5
323
330
18
100
AcDbEntity
  8
ADP1DETAIL
100
AcDbPolyline
 90
        9
 70
     0
 43
0.0
 10
-50.89862889414579
 20
30.243870688801
 42
-0.0065139399516056
 10
-50.50648144688649
 20
29.90416341106658
 42
-0.2130425777018035
 10
-50.34962249148318
 20
29.23781442379075
 42
-0.1913259583253517
 10
-50.76791307839269
 20
28.60412968018661
 42
-0.2423390323928017
 10
-51.74174611725691
 20
28.38201332416224
 42
-0.7363492542276169
 10
-51.76135344261908
 20
28.61066246428312
 42
0.0981598759666827
 10
-51.3495985524956
 20
28.61066246428312
 42
0.4261991981158975
 10
-50.45419516758606
 20
29.48606207779573
 42
0.2210159074622217
 10
-50.89862889414579
 20
30.23733782390721
 42
0.3101903762028968
  0
LINE
  5
32E
330
18
100
AcDbEntity
  8
ADP1DETAIL
100
AcDbLine
 10
-50.83327098626924
 20
28.06843742520571
 30
0.0
 11
-50.94437947666018
 21
27.87898523205575
 31
0.0
  0
LINE
  5
32F
330
18
100
AcDbEntity
  8
ADP1DETAIL
100
AcDbLine
 10
-50.60451830870132
 20
28.00310909945689
 30
0.0
 11
-50.80712784661902
 21
27.80712404141313
 31
0.0
  0
LINE
  5
330
330
18
100
AcDbEntity
  8
ADP1DETAIL
100
AcDbLine
 10
-51.80710402513346
 20
27.93124790881427
 30
0.0
 11
-52.04239251698944
 21
28.0096418835534
 31
0.0
  0
LINE
  5
331
330
18
100
AcDbEntity
  8
ADP1DETAIL
100
AcDbLine
 10
-50.82019947519514
 20
26.18698154668285
 30
0.0
 11
-50.96398680202234
 21
26.20658006056695
 31
0.0
  0
LINE
  5
332
330
18
100
AcDbEntity
  8
ADP1DETAIL
100
AcDbLine
 10
-51.08816692098939
 20
27.68300025480928
 30
0.0
 11
-51.08816692098939
 21
27.4543511146884
 31
0.0
  0
LINE
  5
333
330
18
100
AcDbEntity
  8
ADP1DETAIL
100
AcDbLine
 10
-51.21234692245444
 20
27.70913155278989
 30
0.0
 11
-51.19273959709228
 21
27.50008092655312
 31
0.0
  0
LINE
  5
334
330
18
100
AcDbEntity
  8
ADP1DETAIL
100
AcDbLine
 10
-51.3365270414215
 20
27.72219728257749
 30
0.0
 11
-51.30384796998121
 21
27.50008092655312
 31
0.0
  0
LINE
  5
335
330
18
100
AcDbEntity
  8
ADP1DETAIL
100
AcDbLine
 10
-50.91823633700997
 20
27.61767192906046
 30
0.0
 11
-50.9705226163104
 21
27.41515408692019
 31
0.0
  0
LINE
  5
336
330
18
100
AcDbEntity
  8
ADP1DETAIL
100
AcDbLine
 10
-51.67638820938036
 20
27.71566441768369
 30
0.0
 11
-51.66331658080425
 21
27.50008092655312
 31
0.0
  0
LINE
  5
337
330
18
100
AcDbEntity
  8
ADP1DETAIL
100
AcDbLine
 10
-51.76788925690713
 20
27.72219728257749
 30
0.0
 11
-51.80710402513346
 21
27.54581073841784
 31
0.0
  0
LINE
  5
338
330
18
100
AcDbEntity
  8
ADP1DETAIL
100
AcDbLine
 10
-51.83978297907174
 20
27.82018977120073
 30
0.0
 11
-52.05546402806355
 21
27.85938671817165
 31
0.0
  0
LINE
  5
339
330
18
100
AcDbEntity
  8
ADP1DETAIL
100
AcDbLine
 10
-51.83324716478368
 20
27.78099274343252
 30
0.0
 11
-51.96396298053678
 21
27.59807341517635
 31
0.0
  0
LINE
  5
33A
330
18
100
AcDbEntity
  8
ADP1DETAIL
100
AcDbLine
 10
-51.44763541431043
 20
27.72219728257749
 30
0.0
 11
-51.41495646037215
 21
27.48048241266901
 31
0.0
  0
LINE
  5
33B
330
18
100
AcDbEntity
  8
ADP1DETAIL
100
AcDbLine
 10
-51.57181553327748
 20
27.71566441768369
 30
0.0
 11
-51.50645762540093
 21
27.49354806165932
 31
0.0
  0
LINE
  5
33C
330
18
100
AcDbEntity
  8
ADP1DETAIL
100
AcDbLine
 10
-50.89862889414579
 20
26.10858757194371
 30
0.0
 11
-51.00973738453673
 21
26.13471886992433
 31
0.0
  0
LINE
  5
33D
330
18
100
AcDbEntity
  8
ADP1DETAIL
100
AcDbLine
 10
-50.16662027892762
 20
26.618148528944
 30
0.0
 11
-50.34308667719511
 21
26.72267380166374
 31
0.0
  0
LINE
  5
33E
330
18
100
AcDbEntity
  8
ADP1DETAIL
100
AcDbLine
 10
-50.48687412152433
 20
26.74227231554785
 30
0.0
 11
-50.72869831016635
 21
26.65734547591492
 31
0.0
  0
LINE
  5
33F
330
18
100
AcDbEntity
  8
ADP1DETAIL
100
AcDbLine
 10
-50.53262458653671
 20
26.57895150117579
 30
0.0
 11
-50.75484156731859
 21
26.54628733830138
 31
0.0
  0
LINE
  5
340
330
18
100
AcDbEntity
  8
ADP1DETAIL
100
AcDbLine
 10
-50.68294784515398
 20
26.32417106307429
 30
0.0
 11
-50.87902156878364
 21
26.3307038471708
 31
0.0
  0
LINE
  5
341
330
18
100
AcDbEntity
  8
ADP1DETAIL
100
AcDbLine
 10
-50.61758993727742
 20
26.41563068680373
 30
0.0
 11
-50.83327098626924
 21
26.41563068680373
 31
0.0
  0
LINE
  5
342
330
18
100
AcDbEntity
  8
ADP1DETAIL
100
AcDbLine
 10
-50.24504981538029
 20
26.45482771457194
 30
0.0
 11
-50.40844458507166
 21
26.57241863628199
 31
0.0
  0
LINE
  5
343
330
18
100
AcDbEntity
  8
ADP1DETAIL
100
AcDbLine
 10
-50.09472655676302
 20
27.21263632557721
 30
0.0
 11
-50.330015048619
 21
27.21263632557721
 31
0.0
  0
LINE
  5
344
330
18
100
AcDbEntity
  8
ADP1DETAIL
100
AcDbLine
 10
-50.09472655676302
 20
27.05584829530166
 30
0.0
 11
-50.34308667719511
 21
27.10811097206017
 31
0.0
  0
LINE
  5
345
330
18
100
AcDbEntity
  8
ADP1DETAIL
100
AcDbLine
 10
-50.49340981831037
 20
27.06238116019546
 30
0.0
 11
-50.66987621657787
 21
26.91865877891022
 31
0.0
  0
LINE
  5
346
330
18
100
AcDbEntity
  8
ADP1DETAIL
100
AcDbLine
 10
-50.36269400255728
 20
27.85285393407514
 30
0.0
 11
-50.62412575156549
 21
27.66993460581898
 31
0.0
  0
LINE
  5
347
330
18
100
AcDbEntity
  8
ADP1DETAIL
100
AcDbLine
 10
-50.48687412152433
 20
27.93124790881427
 30
0.0
 11
-50.71562679909225
 21
27.7548614454519
 31
0.0
  0
LINE
  5
348
330
18
100
AcDbEntity
  8
ADP1DETAIL
100
AcDbLine
 10
-50.57183935476304
 20
27.25836613744193
 30
0.0
 11
-50.70255517051614
 21
27.12770948594428
 31
0.0
  0
LINE
  5
349
330
18
100
AcDbEntity
  8
ADP1DETAIL
100
AcDbLine
 10
-50.5195530754626
 20
27.1538407839249
 30
0.0
 11
-50.66334040228981
 21
27.04278264631135
 31
0.0
  0
LINE
  5
34A
330
18
100
AcDbEntity
  8
ADP1DETAIL
100
AcDbLine
 10
-50.46726667866016
 20
26.87946183193929
 30
0.0
 11
-50.65680470550375
 21
26.82066629028698
 31
0.0
  0
LINE
  5
34B
330
18
100
AcDbEntity
  8
ADP1DETAIL
100
AcDbLine
 10
-50.80712784661902
 20
27.54581073841784
 30
0.0
 11
-50.88555738307169
 21
27.39555557303608
 31
0.0
  0
LINE
  5
34C
330
18
100
AcDbEntity
  8
ADP1DETAIL
100
AcDbLine
 10
-50.67641203086592
 20
27.40208843792988
 30
0.0
 11
-50.78752052125686
 21
27.24530048845162
 31
0.0
  0
LINE
  5
34D
330
18
100
AcDbEntity
  8
ADP1DETAIL
100
AcDbLine
 10
-50.24504981538029
 20
27.74179571566431
 30
0.0
 11
-50.55876772618693
 21
27.57847490129225
 31
0.0
  0
LINE
  5
34E
330
18
100
AcDbEntity
  8
ADP1DETAIL
100
AcDbLine
 10
-50.17315609321568
 20
27.59807341517635
 30
0.0
 11
-50.48033830723627
 21
27.48048241266901
 31
0.0
  0
LINE
  5
34F
330
18
100
AcDbEntity
  8
ADP1DETAIL
100
AcDbLine
 10
-50.12086969641323
 20
27.4478182497946
 30
0.0
 11
-50.42151609614577
 21
27.4347526008043
 31
0.0
  0
LINE
  5
350
330
18
100
AcDbEntity
  8
ADP1DETAIL
100
AcDbLine
 10
-50.10779818533913
 20
27.33022724728726
 30
0.0
 11
-50.36922981684533
 21
27.33676011218106
 31
0.0
  0
LINE
  5
351
330
18
100
AcDbEntity
  8
ADP1DETAIL
100
AcDbLine
 10
-50.12086969641323
 20
26.8990603458234
 30
0.0
 11
-50.32347923433095
 21
26.96438867157223
 31
0.0
  0
LINE
  5
352
330
18
100
AcDbEntity
  8
ADP1DETAIL
100
AcDbLine
 10
-50.14047713927741
 20
26.74227231554785
 30
0.0
 11
-50.330015048619
 21
26.81413350619047
 31
0.0
  0
LINE
  5
353
330
18
100
AcDbEntity
  8
ADP1DETAIL
100
AcDbLine
 10
-50.44112353900994
 20
26.45482771457194
 30
0.0
 11
-50.33655086290706
 21
26.25884273732547
 31
0.0
  0
LINE
  5
354
330
18
100
AcDbEntity
  8
ADP1DETAIL
100
AcDbLine
 10
-50.57837516905109
 20
26.31110533328669
 30
0.0
 11
-50.54569621511283
 21
26.11512035604022
 31
0.0
  0
LINE
  5
355
330
18
100
AcDbEntity
  8
ADP1DETAIL
100
AcDbLine
 10
-50.48687412152433
 20
26.38949938882312
 30
0.0
 11
-50.42151609614577
 21
26.18698154668285
 31
0.0
  0
LINE
  5
356
330
18
100
AcDbEntity
  8
ADP1DETAIL
100
AcDbLine
 10
-50.83327098626924
 20
28.2774879706452
 30
0.0
 11
-50.94437947666018
 21
28.46694016379517
 31
0.0
  0
LINE
  5
357
330
18
100
AcDbEntity
  8
ADP1DETAIL
100
AcDbLine
 10
-51.26463331925688
 20
28.19909399590607
 30
0.0
 11
-51.29731227319516
 21
28.31668499841342
 31
0.0
  0
LINE
  5
358
330
18
100
AcDbEntity
  8
ADP1DETAIL
100
AcDbLine
 10
-51.15352482886595
 20
28.19909399590607
 30
0.0
 11
-51.19273959709228
 21
28.34934916128783
 31
0.0
  0
LINE
  5
359
330
18
100
AcDbEntity
  8
ADP1DETAIL
100
AcDbLine
 10
-51.3365270414215
 20
28.62372811327343
 30
0.0
 11
-51.30384796998121
 21
28.8458444692978
 31
0.0
  0
LINE
  5
35A
330
18
100
AcDbEntity
  8
ADP1DETAIL
100
AcDbLine
 10
-51.21234692245444
 20
28.63679384306102
 30
0.0
 11
-51.19273959709228
 21
28.8458444692978
 31
0.0
  0
LINE
  5
35B
330
18
100
AcDbEntity
  8
ADP1DETAIL
100
AcDbLine
 10
-51.08816692098939
 20
28.66292514104164
 30
0.0
 11
-51.08816692098939
 21
28.89157428116252
 31
0.0
  0
LINE
  5
35C
330
18
100
AcDbEntity
  8
ADP1DETAIL
100
AcDbLine
 10
-51.03588052418695
 20
28.22522537468397
 30
0.0
 11
-51.07509529241328
 21
28.40161183804634
 31
0.0
  0
LINE
  5
35D
330
18
100
AcDbEntity
  8
ADP1DETAIL
100
AcDbLine
 10
-50.91823633700997
 20
28.72825346679046
 30
0.0
 11
-50.9705226163104
 21
28.93077130893073
 31
0.0
  0
LINE
  5
35E
330
18
100
AcDbEntity
  8
ADP1DETAIL
100
AcDbLine
 10
-51.83978297907174
 20
28.52573562465019
 30
0.0
 11
-52.05546402806355
 21
28.48653867767927
 31
0.0
  0
LINE
  5
35F
330
18
100
AcDbEntity
  8
ADP1DETAIL
100
AcDbLine
 10
-51.55874390470136
 20
28.19909399590607
 30
0.0
 11
-51.58488704435158
 21
28.32975064740372
 31
0.0
  0
LINE
  5
360
330
18
100
AcDbEntity
  8
ADP1DETAIL
100
AcDbLine
 10
-51.80710402513346
 20
28.41467748703665
 30
0.0
 11
-52.04239251698944
 21
28.33628351229752
 31
0.0
  0
LINE
  5
361
330
18
100
AcDbEntity
  8
ADP1DETAIL
100
AcDbLine
 10
-51.76788925690713
 20
28.34934916128783
 30
0.0
 11
-51.88553344408411
 21
28.21869250979018
 31
0.0
  0
LINE
  5
362
330
18
100
AcDbEntity
  8
ADP1DETAIL
100
AcDbLine
 10
-51.72213867439274
 20
28.32321786330721
 30
0.0
 11
-51.72213867439274
 21
28.18602834691576
 31
0.0
  0
LINE
  5
363
330
18
100
AcDbEntity
  8
ADP1DETAIL
100
AcDbLine
 10
-51.43456390323632
 20
28.19256121180957
 30
0.0
 11
-51.46070704288653
 21
28.31668499841342
 31
0.0
  0
LINE
  5
364
330
18
100
AcDbEntity
  8
ADP1DETAIL
100
AcDbLine
 10
-51.83324716478368
 20
28.5649326524184
 30
0.0
 11
-51.96396298053678
 21
28.74785198067456
 31
0.0
  0
LINE
  5
365
330
18
100
AcDbEntity
  8
ADP1DETAIL
100
AcDbLine
 10
-51.76788925690713
 20
28.62372811327343
 30
0.0
 11
-51.80710402513346
 21
28.80011465743308
 31
0.0
  0
LINE
  5
366
330
18
100
AcDbEntity
  8
ADP1DETAIL
100
AcDbLine
 10
-51.67638820938036
 20
28.63026097816723
 30
0.0
 11
-51.66331658080425
 21
28.8458444692978
 31
0.0
  0
LINE
  5
367
330
18
100
AcDbEntity
  8
ADP1DETAIL
100
AcDbLine
 10
-51.57181553327748
 20
28.63026097816723
 30
0.0
 11
-51.50645762540093
 21
28.8523773341916
 31
0.0
  0
LINE
  5
368
330
18
100
AcDbEntity
  8
ADP1DETAIL
100
AcDbLine
 10
-51.44763541431043
 20
28.62372811327343
 30
0.0
 11
-51.41495646037215
 21
28.86544298318191
 31
0.0
  0
LINE
  5
369
330
18
100
AcDbEntity
  8
ADP1DETAIL
100
AcDbLine
 10
-51.15352482886595
 20
28.14683139994485
 30
0.0
 11
-51.19273959709228
 21
27.99657623456309
 31
0.0
  0
LINE
  5
36A
330
18
100
AcDbEntity
  8
ADP1DETAIL
100
AcDbLine
 10
-51.26463331925688
 20
28.14683139994485
 30
0.0
 11
-51.29731227319516
 21
28.0292403974375
 31
0.0
  0
LINE
  5
36B
330
18
100
AcDbEntity
  8
ADP1DETAIL
100
AcDbLine
 10
-51.03588052418695
 20
28.12070002116694
 30
0.0
 11
-51.07509529241328
 21
27.94431355780458
 31
0.0
  0
LINE
  5
36C
330
18
100
AcDbEntity
  8
ADP1DETAIL
100
AcDbLine
 10
-51.55874390470136
 20
28.14683139994485
 30
0.0
 11
-51.58488704435158
 21
28.0161747484472
 31
0.0
  0
LINE
  5
36D
330
18
100
AcDbEntity
  8
ADP1DETAIL
100
AcDbLine
 10
-51.76788925690713
 20
27.99657623456309
 30
0.0
 11
-51.88553344408411
 21
28.12723288606074
 31
0.0
  0
LINE
  5
36E
330
18
100
AcDbEntity
  8
ADP1DETAIL
100
AcDbLine
 10
-51.72213867439274
 20
28.02270753254371
 30
0.0
 11
-51.72213867439274
 21
28.15989704893516
 31
0.0
  0
LINE
  5
36F
330
18
100
AcDbEntity
  8
ADP1DETAIL
100
AcDbLine
 10
-51.43456390323632
 20
28.15336418404136
 30
0.0
 11
-51.46070704288653
 21
28.0292403974375
 31
0.0
  0
LWPOLYLINE
  5
370
330
18
100
AcDbEntity
  8
ADP1DETAIL
100
AcDbPolyline
 90
        2
 70
     0
 43
0.0
 10
-51.53260076505115
 20
28.17296269792546
 42
0.1467050321830755
 10
-52.02932088841333
 20
28.13376575095454
 42
0.1656996058660286
  0
LINE
  5
374
330
18
100
AcDbEntity
  8
ADP1DETAIL
100
AcDbLine
 10
-50.09472655676302
 20
29.29007710054926
 30
0.0
 11
-50.34308667719511
 21
29.23781442379075
 31
0.0
  0
LINE
  5
375
330
18
100
AcDbEntity
  8
ADP1DETAIL
100
AcDbLine
 10
-50.09472655676302
 20
29.13328907027371
 30
0.0
 11
-50.330015048619
 21
29.13328907027371
 31
0.0
  0
LINE
  5
376
330
18
100
AcDbEntity
  8
ADP1DETAIL
100
AcDbLine
 10
-50.60451830870132
 20
28.34281629639403
 30
0.0
 11
-50.80712784661902
 21
28.53880135443779
 31
0.0
  0
LINE
  5
377
330
18
100
AcDbEntity
  8
ADP1DETAIL
100
AcDbLine
 10
-50.36269400255728
 20
28.49307146177578
 30
0.0
 11
-50.62412575156549
 21
28.67599079003194
 31
0.0
  0
LINE
  5
378
330
18
100
AcDbEntity
  8
ADP1DETAIL
100
AcDbLine
 10
-50.48687412152433
 20
28.41467748703665
 30
0.0
 11
-50.71562679909225
 21
28.59106395039901
 31
0.0
  0
LINE
  5
379
330
18
100
AcDbEntity
  8
ADP1DETAIL
100
AcDbLine
 10
-50.49340981831037
 20
29.28354423565546
 30
0.0
 11
-50.66987621657787
 21
29.4272666169407
 31
0.0
  0
LINE
  5
37A
330
18
100
AcDbEntity
  8
ADP1DETAIL
100
AcDbLine
 10
-50.48687412152433
 20
29.60365308030307
 30
0.0
 11
-50.72869831016635
 21
29.688579919936
 31
0.0
  0
LINE
  5
37B
330
18
100
AcDbEntity
  8
ADP1DETAIL
100
AcDbLine
 10
-50.46726667866016
 20
29.46646356391163
 30
0.0
 11
-50.65680470550375
 21
29.52525910556394
 31
0.0
  0
LINE
  5
37C
330
18
100
AcDbEntity
  8
ADP1DETAIL
100
AcDbLine
 10
-50.57183935476304
 20
29.08755925840899
 30
0.0
 11
-50.70255517051614
 21
29.21821590990664
 31
0.0
  0
LINE
  5
37D
330
18
100
AcDbEntity
  8
ADP1DETAIL
100
AcDbLine
 10
-50.5195530754626
 20
29.19208461192603
 30
0.0
 11
-50.66334040228981
 21
29.30314274953957
 31
0.0
  0
LINE
  5
37E
330
18
100
AcDbEntity
  8
ADP1DETAIL
100
AcDbLine
 10
-50.80712784661902
 20
28.80011465743308
 30
0.0
 11
-50.88555738307169
 21
28.95036982281483
 31
0.0
  0
LINE
  5
37F
330
18
100
AcDbEntity
  8
ADP1DETAIL
100
AcDbLine
 10
-50.67641203086592
 20
28.94383695792104
 30
0.0
 11
-50.78752052125686
 21
29.1006249073993
 31
0.0
  0
LINE
  5
380
330
18
100
AcDbEntity
  8
ADP1DETAIL
100
AcDbLine
 10
-50.12086969641323
 20
28.89810714605632
 30
0.0
 11
-50.42151609614577
 21
28.91117279504662
 31
0.0
  0
LINE
  5
381
330
18
100
AcDbEntity
  8
ADP1DETAIL
100
AcDbLine
 10
-50.10779818533913
 20
29.01569814856366
 30
0.0
 11
-50.36922981684533
 21
29.00916528366986
 31
0.0
  0
LINE
  5
382
330
18
100
AcDbEntity
  8
ADP1DETAIL
100
AcDbLine
 10
-50.17315609321568
 20
28.74785198067456
 30
0.0
 11
-50.48033830723627
 21
28.86544298318191
 31
0.0
  0
LINE
  5
383
330
18
100
AcDbEntity
  8
ADP1DETAIL
100
AcDbLine
 10
-50.24504981538029
 20
28.60412968018661
 30
0.0
 11
-50.55876772618693
 21
28.76745049455867
 31
0.0
  0
LINE
  5
384
330
18
100
AcDbEntity
  8
ADP1DETAIL
100
AcDbLine
 10
-50.12086969641323
 20
29.44686505002752
 30
0.0
 11
-50.32347923433095
 21
29.38153672427869
 31
0.0
  0
LINE
  5
385
330
18
100
AcDbEntity
  8
ADP1DETAIL
100
AcDbLine
 10
-50.14047713927741
 20
29.60365308030307
 30
0.0
 11
-50.330015048619
 21
29.53179188966045
 31
0.0
  0
LINE
  5
386
330
18
100
AcDbEntity
  8
ADP1DETAIL
100
AcDbLine
 10
-50.16662027892762
 20
29.72777686690692
 30
0.0
 11
-50.34308667719511
 21
29.62325159418718
 31
0.0
  0
LWPOLYLINE
  5
387
330
18
100
AcDbEntity
  8
ADP1DETAIL
100
AcDbPolyline
 90
        3
 70
     0
 43
0.0
 10
-51.74290221953079
 20
32.46626204466563
 42
0.4472898654225374
 10
-51.83420304363296
 20
32.10122408929853
 42
-0.3943474591406006
 10
-52.2541867170009
 20
30.29428625870976
 42
-0.3045079351524696
  0
LWPOLYLINE
  5
38C
330
18
100
AcDbEntity
  8
ADP1DETAIL
100
AcDbPolyline
 90
        6
 70
     0
 43
0.0
 10
-51.12205661563609
 20
32.95906330057067
 42
0.2738621929691951
 10
-51.81594287881253
 20
33.30584930969104
 42
0.5463738121355246
 10
-51.92550375023311
 20
33.10507846655805
 42
0.3366790964970034
 10
-51.72464205471037
 20
32.48451391011506
 42
-0.3856622362105608
 10
-51.98028424469441
 20
30.20302676986799
 42
0.0446056910420342
 10
-52.30896721146219
 20
29.85624076074762
 42
-0.4838845952584939
  0
LINE
  5
394
330
18
100
AcDbEntity
  8
ADP1DETAIL
100
AcDbLine
 10
-50.82019947519514
 20
30.15894384916808
 30
0.0
 11
-50.96398680202234
 21
30.13934533528397
 31
0.0
  0
LINE
  5
395
330
18
100
AcDbEntity
  8
ADP1DETAIL
100
AcDbLine
 10
-50.89862889414579
 20
30.23733782390721
 30
0.0
 11
-51.00973738453673
 21
30.21120652592659
 31
0.0
  0
LINE
  5
396
330
18
100
AcDbEntity
  8
ADP1DETAIL
100
AcDbLine
 10
-50.89209319735974
 20
30.243870688801
 30
0.0
 11
-50.85287842913341
 21
30.39412585418276
 31
0.0
  0
LINE
  5
397
330
18
100
AcDbEntity
  8
ADP1DETAIL
100
AcDbLine
 10
-50.77444889268075
 20
30.21120652592659
 30
0.0
 11
-50.77444889268075
 21
30.36799447540485
 31
0.0
  0
LINE
  5
398
330
18
100
AcDbEntity
  8
ADP1DETAIL
100
AcDbLine
 10
-50.68948365944204
 20
30.12627968629366
 30
0.0
 11
-50.68948365944204
 21
30.31573187944363
 31
0.0
  0
LINE
  5
399
330
18
100
AcDbEntity
  8
ADP1DETAIL
100
AcDbLine
 10
-50.68294784515398
 20
30.02175433277663
 30
0.0
 11
-50.87902156878364
 21
30.01522154868012
 31
0.0
  0
LINE
  5
39A
330
18
100
AcDbEntity
  8
ADP1DETAIL
100
AcDbLine
 10
-50.61758993727742
 20
29.93029470904719
 30
0.0
 11
-50.83327098626924
 21
29.93029470904719
 31
0.0
  0
LINE
  5
39B
330
18
100
AcDbEntity
  8
ADP1DETAIL
100
AcDbLine
 10
-50.44112353900994
 20
29.89109768127898
 30
0.0
 11
-50.33655086290706
 21
30.08708265852545
 31
0.0
  0
LINE
  5
39C
330
18
100
AcDbEntity
  8
ADP1DETAIL
100
AcDbLine
 10
-50.48687412152433
 20
29.9564260070278
 30
0.0
 11
-50.42151609614577
 21
30.15894384916808
 31
0.0
  0
LINE
  5
39D
330
18
100
AcDbEntity
  8
ADP1DETAIL
100
AcDbLine
 10
-50.57837516905109
 20
30.03482006256422
 30
0.0
 11
-50.54569621511283
 21
30.2308050398107
 31
0.0
  0
LWPOLYLINE
  5
39E
330
18
100
AcDbEntity
  8
ADP1DETAIL
100
AcDbPolyline
 90
        3
 70
     0
 43
0.0
 10
-51.31362994045801
 20
37.01945867581354
 42
0.0277682262457292
 10
-51.42319092938061
 20
37.67652696315541
 42
-0.2392589098787791
 10
-51.35015027009888
 20
38.88115218354792
 42
-0.5729261670679014
  0
LWPOLYLINE
  5
3A3
330
18
100
AcDbEntity
  8
ADP1DETAIL
100
AcDbPolyline
 90
        2
 70
     0
 43
0.0
 10
-50.99423546189306
 20
34.60173401892532
 42
-0.3179459433164347
 10
-50.6838126599457
 20
34.21844419810879
 42
-1.067278061293553
  0
ARC
  5
3A7
330
18
100
AcDbEntity
  8
ADP1DETAIL
100
AcDbCircle
 10
-52.32413357496926
 20
38.25519490706963
 30
0.0
 40
0.1775367198812092
100
AcDbArc
 50
266.1031485990694
 51
343.8565218989365
  0
LWPOLYLINE
  5
3A8
330
18
100
AcDbEntity
  8
ADP1DETAIL
100
AcDbPolyline
 90
        7
 70
     0
 43
0.0
 10
-53.26746745874229
 20
45.88988071652326
 42
0.7134766156357247
 10
-53.7239715792531
 20
45.12330107489019
 42
0.5195566807443673
 10
-52.57358119556585
 20
45.41533140686495
 42
0.6187564671631587
 10
-53.96135372191873
 20
46.45568951502335
 42
0.3440405599818113
 10
-55.14826431774483
 20
44.74001117327635
 42
0.4688842168303063
 10
-53.23094712910142
 20
42.60453919901666
 42
0.1730720620465732
 10
-51.37415340460712
 20
42.99668323919942
 42
0.277616624418155
  0
LWPOLYLINE
  5
3B1
330
18
100
AcDbEntity
  8
ADP1DETAIL
100
AcDbPolyline
 90
        4
 70
     0
 43
0.0
 10
-52.46402020664326
 20
47.58730719282081
 42
-0.2804490703045635
 10
-52.35445921772066
 20
47.44129202683343
 42
0.200187101068143
 10
-52.68314218448844
 20
48.37213878070063
 42
0.2016880952693036
 10
-54.78306102133618
 20
48.8831919020551
 42
12.5276352254793
  0
LWPOLYLINE
  5
3B7
330
18
100
AcDbEntity
  8
ADP1DETAIL
100
AcDbPolyline
 90
        4
 70
     0
 43
0.0
 10
-52.39097954736152
 20
46.98499458262456
 42
0.5144340807308039
 10
-52.08055674541417
 20
47.47779575773232
 42
0.2355132880685252
 10
-52.61010152520672
 20
48.33563496900445
 42
0.1258439230241488
 10
-54.01613421638002
 20
48.91969571375128
 42
-13.92928505065691
  0
LWPOLYLINE
  5
3BD
330
18
100
AcDbEntity
  8
ADP1DETAIL
100
AcDbPolyline
 90
       27
 70
     0
 43
0.0
 10
-51.49623158866234
 20
48.09836031417529
 42
-0.227442792046958
 10
-50.63800384210201
 20
46.3279262952827
 42
-0.2609153220151345
 10
-51.45971125902147
 20
46.74771992779541
 42
-0.3975851589134896
 10
-52.31793888807979
 20
46.0176440170612
 42
-0.3486860002416602
 10
-52.70140234930888
 20
46.29142248358653
 42
0.1487565983255768
 10
-52.46402020664326
 20
46.38268197242831
 42
0.3643452595155256
 10
-52.33619905290023
 20
46.6382084927069
 42
-0.8851904312048391
 10
-52.39097954736152
 20
46.98499458262456
 42
-0.4591687291158824
 10
-52.82922350305191
 20
47.33178059174493
 42
-0.4934288106932542
 10
-52.50054053628412
 20
47.60555905827025
 42
0.1357515009560381
 10
-53.81527240335526
 20
48.40864259239679
 42
-0.2123022436283269
 10
-53.74223174407354
 20
48.11661217962473
 42
-0.1230516070010872
 10
-53.99787405155959
 20
48.08010836792857
 42
-0.2598150340557776
 10
-54.03439438120045
 20
47.49604770397904
 42
-0.2217583400590825
 10
-54.63697970277272
 20
47.62381100451698
 42
-0.4303166274735225
 10
-54.92914233989965
 20
47.51429956942849
 42
-0.8198762692895325
 10
-55.02044316400181
 20
47.67856668166259
 42
0.5232444164377494
 10
-55.09348382328354
 20
48.04360463702969
 42
0.2605428266147924
 10
-56.0247522291256
 20
47.93409320194118
 42
-0.4143461651614543
 10
-56.15257338286863
 20
47.69681854711203
 42
-0.1892859341315459
 10
-56.37169536071382
 20
47.71507049335876
 42
0.0987030000007224
 10
-57.4307848027969
 20
46.52869713841569
 42
-0.6368916302045396
 10
-56.73689865712248
 20
45.72561368508644
 42
-0.2534997081763192
 10
-57.04732134156781
 20
45.48833894946
 42
0.737304423699603
 10
-57.75946776956469
 20
45.47008708401055
 42
-0.7005355398381319
 10
-57.55860595653992
 20
45.1780567520358
 42
0.1339427322238132
 10
-57.94206941776901
 20
44.57574414183954
 42
-0.0384221568956804
  0
LWPOLYLINE
  5
3DA
330
18
100
AcDbEntity
  8
ADP1DETAIL
100
AcDbPolyline
 90
        5
 70
     0
 43
0.0
 10
-53.19442679946056
 20
44.28371372906748
 42
0.2913322576709147
 10
-53.1579064698197
 20
43.91867585449768
 42
0.3706037663529773
 10
-52.24489822879807
 20
43.68140111887123
 42
0.3388478715959558
 10
-50.93016647922893
 20
45.2328124291814
 42
0.0929815838381065
 10
-51.03972746815152
 20
46.40093383787774
 42
-1.326625515392093
  0
LWPOLYLINE
  5
3E1
330
18
100
AcDbEntity
  8
ADP1DETAIL
100
AcDbPolyline
 90
        7
 70
     0
 43
0.0
 10
-53.35876828284445
 20
44.48448465299776
 42
0.7157483053350166
 10
-52.88400399751321
 20
44.39322516415599
 42
0.5096215611418918
 10
-53.13964630499926
 20
44.95903396265608
 42
0.4514995418305471
 10
-53.74223174407354
 20
44.37497321790925
 42
0.3014333424833468
 10
-53.23094712910142
 20
43.48063027573824
 42
0.1770196264506817
 10
-51.66057295454422
 20
43.44412646404207
 42
0.3590781282360412
 10
-50.67452417174287
 20
46.30967434903597
 42
-1.441913686840894
  0
LWPOLYLINE
  5
3EA
330
18
100
AcDbEntity
  8
ADP1DETAIL
100
AcDbPolyline
 90
        5
 70
     0
 43
0.0
 10
-53.26746745874229
 20
45.88988071652326
 42
0.1835949714295876
 10
-54.38133739528666
 20
45.72561368508644
 42
0.2763732247769824
 10
-54.72828052687488
 20
44.33846948701038
 42
0.3414549198994052
 10
-53.12138614017882
 20
42.87831766554198
 42
0.0710359911271924
 10
-52.06229658059374
 20
42.95132528893432
 42
-0.1057208449966263
  0
LWPOLYLINE
  5
3F1
330
18
100
AcDbEntity
  8
ADP1DETAIL
100
AcDbPolyline
 90
        4
 70
     0
 43
0.0
 10
-52.97530482161537
 20
48.73717673606773
 42
-0.2305558328730897
 10
-51.60579246008293
 20
47.3682844034411
 42
-0.2473567510464908
 10
-51.86143476756898
 20
46.18191104849802
 42
-0.3140524100635967
 10
-52.71966251412931
 20
46.27317053733981
 42
-2.678912995137256
  0
LWPOLYLINE
  5
3F7
330
18
100
AcDbEntity
  8
ADP1DETAIL
100
AcDbPolyline
 90
        4
 70
     0
 43
0.0
 10
-55.4039066252309
 20
48.518153946688
 42
0.1961908815020175
 10
-57.24818315459257
 20
47.51429956942849
 42
0.063868008694506
 10
-58.25249221971636
 20
45.88988071652326
 42
-0.0514048974393951
 10
-57.4307848027969
 20
46.52869713841569
 42
-0.2865284051319578
  0
LWPOLYLINE
  5
3FD
330
18
100
AcDbEntity
  8
ADP1DETAIL
100
AcDbPolyline
 90
        5
 70
     0
 43
0.0
 10
-54.63697970277272
 20
47.62381100451698
 42
0.1623473768930485
 10
-54.78306102133618
 20
48.31738310355501
 42
0.2478760715923672
 10
-55.4039066252309
 20
48.53640581213745
 42
0.1975966424104265
 10
-56.24387420697079
 20
48.11661217962473
 42
0.2139766754785154
 10
-56.37169536071382
 20
47.69681854711203
 42
0.8812943211688603
  0
LWPOLYLINE
  5
404
330
18
100
AcDbEntity
  8
ADP1DETAIL
100
AcDbPolyline
 90
        6
 70
     0
 43
0.0
 10
-53.81527240335526
 20
48.39039064615007
 42
0.0750263670564427
 10
-54.80132118615661
 20
48.86493995580837
 42
0.2001914392895271
 10
-56.53603684409771
 20
48.3538868344539
 42
0.0999297639981521
 10
-57.68642711028295
 20
47.31352872629549
 42
-0.0722943355035497
 10
-56.26213437179123
 20
48.42689445784623
 42
-0.3593993801227671
 10
-53.99787405155959
 20
48.08010836792857
 42
0.4477863432870467
  0
LWPOLYLINE
  5
40C
330
18
100
AcDbEntity
  8
ADP1DETAIL
100
AcDbPolyline
 90
        4
 70
     0
 43
0.0
 10
-58.45335403274113
 20
44.28371372906748
 42
-0.131200517537093
 10
-58.03337024187118
 20
45.79862122768149
 42
-0.2373279267523119
 10
-57.4855652972582
 20
46.20016299474476
 42
-0.8550440771500934
 10
-57.04732134156781
 20
45.45183521856112
 42
0.2952020463135026
  0
LWPOLYLINE
  5
412
330
18
100
AcDbEntity
  8
ADP1DETAIL
100
AcDbPolyline
 90
        3
 70
     0
 43
0.0
 10
-53.81527240335526
 20
45.25106429463084
 42
0.5008332323506567
 10
-54.07091471084132
 20
43.95517958539655
 42
0.2392697661935204
 10
-53.23094712910142
 20
43.49888214118768
 42
0.013962686493639
  0
LWPOLYLINE
  5
417
330
18
100
AcDbEntity
  8
ADP1DETAIL
100
AcDbPolyline
 90
        4
 70
     0
 43
0.0
 10
-56.15257338286863
 20
41.14438745834556
 42
-0.449159618772597
 10
-55.80563025128041
 20
41.78320379944069
 42
-0.3607396564733519
 10
-55.33086596594916
 20
41.54592914461153
 42
0.3867364711649129
 10
-55.51346761415349
 20
41.03487602325706
 42
0.6666074375980471
  0
LWPOLYLINE
  5
41D
330
18
100
AcDbEntity
  8
ADP1DETAIL
100
AcDbPolyline
 90
        3
 70
     0
 43
0.0
 10
-57.01080101192695
 20
43.33461510975086
 42
-0.4472898654225374
 10
-56.91950018782478
 20
42.96957715438376
 42
0.3943474591406006
 10
-56.49951651445685
 20
41.16263932379499
 42
0.3045079351524696
  0
LWPOLYLINE
  5
422
330
18
100
AcDbEntity
  8
ADP1DETAIL
100
AcDbPolyline
 90
        7
 70
     0
 43
0.0
 10
-57.94206941776901
 20
44.57574414183954
 42
0.1711427191304343
 10
-58.17945156043464
 20
43.59014163002945
 42
0.1051948086144435
 10
-57.85076859366685
 20
41.87446328828246
 42
-0.1339787234536198
 10
-57.97858974740988
 20
43.84566823110534
 42
-0.8610406798737315
 10
-57.63164661582166
 20
43.8274163656559
 42
-0.0534417599947774
 10
-57.74120760474425
 20
43.06083664322554
 42
0.2418202333700333
 10
-57.06558150638825
 20
41.07137983495322
 42
0.4045718014131431
  0
LINE
  5
42B
330
18
100
AcDbEntity
  8
ADP1DETAIL
100
AcDbLine
 10
-58.06421957201571
 20
40.99463275137889
 30
0.0
 11
-58.06421957201571
 21
41.18408494452886
 31
0.0
  0
LINE
  5
42C
330
18
100
AcDbEntity
  8
ADP1DETAIL
100
AcDbLine
 10
-57.979254338777
 20
41.07955959101182
 30
0.0
 11
-57.979254338777
 21
41.23634754049009
 31
0.0
  0
LINE
  5
42D
330
18
100
AcDbEntity
  8
ADP1DETAIL
100
AcDbLine
 10
-57.9335037562626
 20
41.02729691425331
 30
0.0
 11
-57.7897164294354
 21
41.0076984003692
 31
0.0
  0
LINE
  5
42E
330
18
100
AcDbEntity
  8
ADP1DETAIL
100
AcDbLine
 10
-57.85507433731195
 20
41.10569088899244
 30
0.0
 11
-57.74396584692102
 21
41.07955959101182
 31
0.0
  0
LINE
  5
42F
330
18
100
AcDbEntity
  8
ADP1DETAIL
100
AcDbLine
 10
-57.861610034098
 20
41.11222375388623
 30
0.0
 11
-57.90082480232433
 21
41.26247891926799
 31
0.0
  0
LWPOLYLINE
  5
430
330
18
100
AcDbEntity
  8
ADP1DETAIL
100
AcDbPolyline
 90
        2
 70
     0
 43
0.0
 10
-57.94206941776901
 20
44.57574414183954
 10
-57.94206941776901
 20
43.90042390825095
  0
LWPOLYLINE
  5
434
330
18
100
AcDbEntity
  8
ADP1DETAIL
100
AcDbPolyline
 90
        4
 70
     0
 43
0.0
 10
-53.35876828284445
 20
44.48448465299776
 42
0.4600703369216273
 10
-53.48658943658747
 20
44.17420237477627
 42
0.3139151751041467
 10
-53.34050811802402
 20
43.86392009655478
 10
-53.1579064698197
 20
43.60839357627618
  0
LWPOLYLINE
  5
43A
330
18
100
AcDbEntity
  8
ADP1DETAIL
100
AcDbPolyline
 90
        2
 70
     0
 43
0.0
 10
-57.75946776956469
 20
45.47008708401055
 42
0.3179459433164347
 10
-58.06989057151204
 20
45.08679726319402
 42
1.067278061293553
  0
LWPOLYLINE
  5
43E
330
18
100
AcDbEntity
  8
ADP1DETAIL
100
AcDbPolyline
 90
        9
 70
     0
 43
0.0
 10
-50.72930466620417
 20
43.37111892144704
 42
0.7889739701419462
 10
-50.36410136979552
 20
43.57188976458002
 42
0.3636945928173291
 10
-50.60148351246114
 20
43.73615687681413
 42
1.106450221090461
 10
-50.27280054569335
 20
42.05698226596601
 42
0.490022394415147
 10
-50.29106071051379
 20
42.69579868785844
 42
1.055903671874957
 10
-50.52844285317942
 20
42.33076073249134
 42
-0.7209450094086462
 10
-50.96668680886979
 20
43.37111892144704
 42
-0.4177724648593983
 10
-50.71104450138374
 20
43.3528669752003
 42
0.4636277985975335
 10
-50.63800384210201
 20
42.56803538732049
 42
0.3146806567707097
  0
LWPOLYLINE
  5
449
330
18
100
AcDbEntity
  8
ADP1DETAIL
100
AcDbPolyline
 90
        5
 70
     0
 43
0.0
 10
-51.60579246008293
 20
48.11661217962473
 42
-0.1369387856199347
 10
-50.8023453254859
 20
46.76597179324484
 42
-0.4185098603084131
 10
-50.93016647922893
 20
46.54694900386512
 42
-0.2092001347405044
 10
-51.45971125902147
 20
47.09450593691578
 42
-0.0135192591369426
 10
-51.71535344900552
 20
47.84283371309941
 42
-1.359145917299853
  0
LWPOLYLINE
  5
450
330
18
100
AcDbEntity
  8
ADP1DETAIL
100
AcDbPolyline
 90
        2
 70
     0
 43
0.0
 10
-52.33619905290023
 20
46.6382084927069
 42
0.4142605026813357
 10
-51.97099575649158
 20
47.18576542575755
 42
-1.219643580896803
  0
TEXT
  5
461
330
18
100
AcDbEntity
  8
ADPDIM
100
AcDbText
 10
-80.17464246465623
 20
23.87334569837217
 30
0.0
 40
0.5
  1
J U L I U S  B L U M  &  C O . ,  I N C .      ( 8 0 0 )  5 2 6 - 6 2 9 3        W W W . J U L I U S B L U M . C O M        P A R T  N o .  5 8 7
 41
1.25
  7
ARIAL_WIDE
 72
     1
 11
-54.43581231458802
 21
24.37334569837217
 31
0.0
100
AcDbText
 73
     3
  0
ENDSEC
  0
SECTION
  2
OBJECTS
  0
DICTIONARY
  5
C
330
0
100
AcDbDictionary
  3
ACAD_GROUP
350
D
  3
ACAD_LAYOUT
350
45A
  3
ACAD_MLINESTYLE
350
E
  3
ACAD_PLOTSETTINGS
350
45B
  3
ACAD_PLOTSTYLENAME
350
458
  3
ACDBHEADERROUNDTRIPXREC
350
5D4
  3
ACDBVARIABLEDICTIONARY
350
4BB
  0
DICTIONARY
  5
4B5
330
18
100
AcDbDictionary
280
     1
  3
ACAD_LAYOUTSELFREF
360
5F5
  0
DICTIONARY
  5
4B3
330
15
100
AcDbDictionary
280
     1
  3
ACAD_LAYOUTSELFREF
360
5F4
  0
DICTIONARY
  5
D
102
{ACAD_REACTORS
330
C
102
}
330
C
100
AcDbDictionary
  0
DICTIONARY
  5
45A
102
{ACAD_REACTORS
330
C
102
}
330
C
100
AcDbDictionary
  0
DICTIONARY
  5
E
102
{ACAD_REACTORS
330
C
102
}
330
C
100
AcDbDictionary
  3
STANDARD
350
1B
  0
DICTIONARY
  5
45B
102
{ACAD_REACTORS
330
C
102
}
330
C
100
AcDbDictionary
  0
ACDBDICTIONARYWDFLT
  5
458
102
{ACAD_REACTORS
330
C
102
}
330
C
100
AcDbDictionary
281
     1
  3
Normal
350
459
100
AcDbDictionaryWithDefault
340
459
  0
DICTIONARY
  5
5D4
102
{ACAD_REACTORS
330
C
102
}
330
C
100
AcDbDictionary
  3
CEPSNTYPE
350
5DE
  3
FINGERPRINTGUID
350
5DF
  3
HYPERLINKBASE
350
5D7
  3
INSUNITS
350
5DD
  3
LAYOUTDICT
350
5D9
  3
LWETCUNION
350
5DC
  3
PLOTSETDICT
350
5DA
  3
PLOTSTYLNAMDICT
350
5DB
  3
PSVPSCALE
350
5E1
  3
PUCSBASE
350
5E4
  3
PUCSORGBACK
350
5EA
  3
PUCSORGBOTTOM
350
5E6
  3
PUCSORGFRONT
350
5E9
  3
PUCSORGLEFT
350
5E7
  3
PUCSORGRIGHT
350
5E8
  3
PUCSORGTOP
350
5E5
  3
PUCSORTHOREF
350
5E2
  3
PUCSORTHOVIEW
350
5E3
  3
STYLESHEET
350
5D8
  3
TSTACKALIGN
350
5D5
  3
TSTACKSIZE
350
5D6
  3
UCSBASE
350
5ED
  3
UCSORGBACK
350
5F3
  3
UCSORGBOTTOM
350
5EF
  3
UCSORGFRONT
350
5F2
  3
UCSORGLEFT
350
5F0
  3
UCSORGRIGHT
350
5F1
  3
UCSORGTOP
350
5EE
  3
UCSORTHOREF
350
5EB
  3
UCSORTHOVIEW
350
5EC
  3
VERSIONGUID
350
5E0
  0
DICTIONARY
  5
4BB
102
{ACAD_REACTORS
330
C
102
}
330
C
100
AcDbDictionary
  3
DIMASSOC
350
4BC
  0
XRECORD
  5
5F5
102
{ACAD_REACTORS
330
4B5
102
}
330
4B5
100
AcDbXrecord
340
18
  0
XRECORD
  5
5F4
102
{ACAD_REACTORS
330
4B3
102
}
330
4B3
100
AcDbXrecord
340
15
  0
MLINESTYLE
  5
1B
102
{ACAD_REACTORS
330
E
102
}
330
E
100
AcDbMlineStyle
  2
STANDARD
 70
     0
  3

 62
     0
 51
90.0
 52
90.0
 71
     2
 49
0.5
 62
   256
  6
BYLAYER
 49
-0.5
 62
   256
  6
BYLAYER
  0
ACDBPLACEHOLDER
  5
459
102
{ACAD_REACTORS
330
458
102
}
330
458
100
AcDbPlaceHolder
280
     0
  0
XRECORD
  5
5DE
102
{ACAD_REACTORS
330
5D4
102
}
330
5D4
100
AcDbXrecord
 90
        0
  0
XRECORD
  5
5DF
102
{ACAD_REACTORS
330
5D4
102
}
330
5D4
100
AcDbXrecord
  1
{311FE639-F8D7-44BE-BF81-246DACB978CC}
  0
XRECORD
  5
5D7
102
{ACAD_REACTORS
330
5D4
102
}
330
5D4
100
AcDbXrecord
  1

  0
XRECORD
  5
5DD
102
{ACAD_REACTORS
330
5D4
102
}
330
5D4
100
AcDbXrecord
 90
        0
  0
XRECORD
  5
5D9
102
{ACAD_REACTORS
330
5D4
102
}
330
5D4
100
AcDbXrecord
340
45A
  0
XRECORD
  5
5DC
102
{ACAD_REACTORS
330
5D4
102
}
330
5D4
100
AcDbXrecord
 90
    14877
  0
XRECORD
  5
5DA
102
{ACAD_REACTORS
330
5D4
102
}
330
5D4
100
AcDbXrecord
340
45B
  0
XRECORD
  5
5DB
102
{ACAD_REACTORS
330
5D4
102
}
330
5D4
100
AcDbXrecord
340
458
  0
XRECORD
  5
5E1
102
{ACAD_REACTORS
330
5D4
102
}
330
5D4
100
AcDbXrecord
 40
0.0
  0
XRECORD
  5
5E4
102
{ACAD_REACTORS
330
5D4
102
}
330
5D4
100
AcDbXrecord
340
0
  0
XRECORD
  5
5EA
102
{ACAD_REACTORS
330
5D4
102
}
330
5D4
100
AcDbXrecord
 10
0.0
 20
0.0
 30
0.0
  0
XRECORD
  5
5E6
102
{ACAD_REACTORS
330
5D4
102
}
330
5D4
100
AcDbXrecord
 10
0.0
 20
0.0
 30
0.0
  0
XRECORD
  5
5E9
102
{ACAD_REACTORS
330
5D4
102
}
330
5D4
100
AcDbXrecord
 10
0.0
 20
0.0
 30
0.0
  0
XRECORD
  5
5E7
102
{ACAD_REACTORS
330
5D4
102
}
330
5D4
100
AcDbXrecord
 10
0.0
 20
0.0
 30
0.0
  0
XRECORD
  5
5E8
102
{ACAD_REACTORS
330
5D4
102
}
330
5D4
100
AcDbXrecord
 10
0.0
 20
0.0
 30
0.0
  0
XRECORD
  5
5E5
102
{ACAD_REACTORS
330
5D4
102
}
330
5D4
100
AcDbXrecord
 10
0.0
 20
0.0
 30
0.0
  0
XRECORD
  5
5E2
102
{ACAD_REACTORS
330
5D4
102
}
330
5D4
100
AcDbXrecord
340
0
  0
XRECORD
  5
5E3
102
{ACAD_REACTORS
330
5D4
102
}
330
5D4
100
AcDbXrecord
 70
     0
  0
XRECORD
  5
5D8
102
{ACAD_REACTORS
330
5D4
102
}
330
5D4
100
AcDbXrecord
  1

  0
XRECORD
  5
5D5
102
{ACAD_REACTORS
330
5D4
102
}
330
5D4
100
AcDbXrecord
 90
        1
  0
XRECORD
  5
5D6
102
{ACAD_REACTORS
330
5D4
102
}
330
5D4
100
AcDbXrecord
 90
       70
  0
XRECORD
  5
5ED
102
{ACAD_REACTORS
330
5D4
102
}
330
5D4
100
AcDbXrecord
340
0
  0
XRECORD
  5
5F3
102
{ACAD_REACTORS
330
5D4
102
}
330
5D4
100
AcDbXrecord
 10
0.0
 20
0.0
 30
0.0
  0
XRECORD
  5
5EF
102
{ACAD_REACTORS
330
5D4
102
}
330
5D4
100
AcDbXrecord
 10
0.0
 20
0.0
 30
0.0
  0
XRECORD
  5
5F2
102
{ACAD_REACTORS
330
5D4
102
}
330
5D4
100
AcDbXrecord
 10
0.0
 20
0.0
 30
0.0
  0
XRECORD
  5
5F0
102
{ACAD_REACTORS
330
5D4
102
}
330
5D4
100
AcDbXrecord
 10
0.0
 20
0.0
 30
0.0
  0
XRECORD
  5
5F1
102
{ACAD_REACTORS
330
5D4
102
}
330
5D4
100
AcDbXrecord
 10
0.0
 20
0.0
 30
0.0
  0
XRECORD
  5
5EE
102
{ACAD_REACTORS
330
5D4
102
}
330
5D4
100
AcDbXrecord
 10
0.0
 20
0.0
 30
0.0
  0
XRECORD
  5
5EB
102
{ACAD_REACTORS
330
5D4
102
}
330
5D4
100
AcDbXrecord
340
0
  0
XRECORD
  5
5EC
102
{ACAD_REACTORS
330
5D4
102
}
330
5D4
100
AcDbXrecord
 70
     0
  0
XRECORD
  5
5E0
102
{ACAD_REACTORS
330
5D4
102
}
330
5D4
100
AcDbXrecord
  1
{2A91E9A4-5069-48E5-9A24-7294BBD369CA}
  0
DICTIONARYVAR
  5
4BC
102
{ACAD_REACTORS
330
4BB
102
}
330
4BB
100
DictionaryVariables
280
     0
  1
1
  0
ENDSEC
  0
EOF
