  0
SECTION
  2
HEADER
  9
$ACADVER
  1
AC1014
  9
$ACADMAINTVER
 70
     9
  9
$DWGCODEPAGE
  3
ANSI_1252
  9
$INSBASE
 10
-94.0027533596347
 20
26.30750613059038
 30
0.0
  9
$EXTMIN
 10
-124.3587232509238
 20
23.44972175663257
 30
0.0
  9
$EXTMAX
 10
-72.88106295078745
 20
53.43250613059038
 30
0.0
  9
$LIMMIN
 10
0.0
 20
0.0
  9
$LIMMAX
 10
36.0
 20
36.0
  9
$ORTHOMODE
 70
     1
  9
$REGENMODE
 70
     1
  9
$FILLMODE
 70
     1
  9
$QTEXTMODE
 70
     0
  9
$MIRRTEXT
 70
     1
  9
$DRAGMODE
 70
     0
  9
$LTSCALE
 40
1.0
  9
$OSMODE
 70
    37
  9
$ATTMODE
 70
     1
  9
$TEXTSIZE
 40
0.2
  9
$TRACEWID
 40
0.05
  9
$TEXTSTYLE
  7
STANDARD
  9
$CLAYER
  8
ADPDIM
  9
$CELTYPE
  6
BYLAYER
  9
$CECOLOR
 62
   256
  9
$CELTSCALE
 40
1.0
  9
$DELOBJ
 70
     1
  9
$DISPSILH
 70
     0
  9
$DIMSCALE
 40
1.0
  9
$DIMASZ
 40
0.125
  9
$DIMEXO
 40
0.0625
  9
$DIMDLI
 40
0.38
  9
$DIMRND
 40
0.0
  9
$DIMDLE
 40
0.0
  9
$DIMEXE
 40
0.18
  9
$DIMTP
 40
0.0
  9
$DIMTM
 40
0.0
  9
$DIMTXT
 40
0.125
  9
$DIMCEN
 40
0.1875
  9
$DIMTSZ
 40
0.125
  9
$DIMTOL
 70
     0
  9
$DIMLIM
 70
     0
  9
$DIMTIH
 70
     0
  9
$DIMTOH
 70
     0
  9
$DIMSE1
 70
     0
  9
$DIMSE2
 70
     0
  9
$DIMTAD
 70
     0
  9
$DIMZIN
 70
     3
  9
$DIMBLK
  1

  9
$DIMASO
 70
     1
  9
$DIMSHO
 70
     1
  9
$DIMPOST
  1

  9
$DIMAPOST
  1

  9
$DIMALT
 70
     0
  9
$DIMALTD
 70
     1
  9
$DIMALTF
 40
25.4
  9
$DIMLFAC
 40
1.0
  9
$DIMTOFL
 70
     0
  9
$DIMTVP
 40
0.0
  9
$DIMTIX
 70
     0
  9
$DIMSOXD
 70
     0
  9
$DIMSAH
 70
     0
  9
$DIMBLK1
  1

  9
$DIMBLK2
  1

  9
$DIMSTYLE
  2
STANDARD
  9
$DIMCLRD
 70
     0
  9
$DIMCLRE
 70
     0
  9
$DIMCLRT
 70
     0
  9
$DIMTFAC
 40
1.0
  9
$DIMGAP
 40
0.125
  9
$DIMJUST
 70
     0
  9
$DIMSD1
 70
     0
  9
$DIMSD2
 70
     0
  9
$DIMTOLJ
 70
     1
  9
$DIMTZIN
 70
     0
  9
$DIMALTZ
 70
     0
  9
$DIMALTTZ
 70
     0
  9
$DIMFIT
 70
     3
  9
$DIMUPT
 70
     0
  9
$DIMUNIT
 70
     2
  9
$DIMDEC
 70
     4
  9
$DIMTDEC
 70
     4
  9
$DIMALTU
 70
     2
  9
$DIMALTTD
 70
     2
  9
$DIMTXSTY
  7
STANDARD
  9
$DIMAUNIT
 70
     0
  9
$LUNITS
 70
     5
  9
$LUPREC
 70
     5
  9
$SKETCHINC
 40
0.1
  9
$FILLETRAD
 40
0.062
  9
$AUNITS
 70
     0
  9
$AUPREC
 70
     0
  9
$MENU
  1
acad
  9
$ELEVATION
 40
0.0
  9
$PELEVATION
 40
0.0
  9
$THICKNESS
 40
0.0
  9
$LIMCHECK
 70
     0
  9
$BLIPMODE
 70
     0
  9
$CHAMFERA
 40
0.0
  9
$CHAMFERB
 40
0.0
  9
$CHAMFERC
 40
0.0
  9
$CHAMFERD
 40
0.0
  9
$SKPOLY
 70
     0
  9
$TDCREATE
 40
2450409.501295139
  9
$TDUPDATE
 40
2452297.073574398
  9
$TDINDWG
 40
0.0079935301
  9
$TDUSRTIMER
 40
0.0079935301
  9
$USRTIMER
 70
     1
  9
$ANGBASE
 50
0.0
  9
$ANGDIR
 70
     0
  9
$PDMODE
 70
     0
  9
$PDSIZE
 40
0.0
  9
$PLINEWID
 40
0.0
  9
$COORDS
 70
     2
  9
$SPLFRAME
 70
     0
  9
$SPLINETYPE
 70
     6
  9
$SPLINESEGS
 70
     8
  9
$ATTDIA
 70
     0
  9
$ATTREQ
 70
     1
  9
$HANDLING
 70
 22529
  9
$HANDSEED
  5
4EA
  9
$SURFTAB1
 70
     6
  9
$SURFTAB2
 70
     6
  9
$SURFTYPE
 70
     6
  9
$SURFU
 70
     6
  9
$SURFV
 70
     6
  9
$UCSNAME
  2

  9
$UCSORG
 10
0.0
 20
0.0
 30
0.0
  9
$UCSXDIR
 10
1.0
 20
0.0
 30
0.0
  9
$UCSYDIR
 10
0.0
 20
1.0
 30
0.0
  9
$PUCSNAME
  2

  9
$PUCSORG
 10
0.0
 20
0.0
 30
0.0
  9
$PUCSXDIR
 10
1.0
 20
0.0
 30
0.0
  9
$PUCSYDIR
 10
0.0
 20
1.0
 30
0.0
  9
$USERI1
 70
     0
  9
$USERI2
 70
     0
  9
$USERI3
 70
     0
  9
$USERI4
 70
     0
  9
$USERI5
 70
     0
  9
$USERR1
 40
0.0
  9
$USERR2
 40
0.0
  9
$USERR3
 40
0.0
  9
$USERR4
 40
0.0
  9
$USERR5
 40
0.0
  9
$WORLDVIEW
 70
     1
  9
$SHADEDGE
 70
     3
  9
$SHADEDIF
 70
    70
  9
$TILEMODE
 70
     1
  9
$MAXACTVP
 70
    15
  9
$PINSBASE
 10
0.0058594681322575
 20
8.002266177471257
 30
0.0
  9
$PLIMCHECK
 70
     0
  9
$PEXTMIN
 10
1.000000000000000E+20
 20
1.000000000000000E+20
 30
1.000000000000000E+20
  9
$PEXTMAX
 10
-1.000000000000000E+20
 20
-1.000000000000000E+20
 30
-1.000000000000000E+20
  9
$PLIMMIN
 10
0.0
 20
0.0
  9
$PLIMMAX
 10
12.0
 20
9.0
  9
$UNITMODE
 70
     0
  9
$VISRETAIN
 70
     0
  9
$PLINEGEN
 70
     0
  9
$PSLTSCALE
 70
     1
  9
$TREEDEPTH
 70
  3020
  9
$PICKSTYLE
 70
     1
  9
$CMLSTYLE
  2
STANDARD
  9
$CMLJUST
 70
     0
  9
$CMLSCALE
 40
1.0
  9
$PROXYGRAPHICS
 70
     1
  9
$MEASUREMENT
 70
     0
  0
ENDSEC
  0
SECTION
  2
CLASSES
  0
CLASS
  1
ACDBDICTIONARYWDFLT
  2
AcDbDictionaryWithDefault
  3
AutoCAD 2000
 90
        0
280
     0
281
     0
  0
CLASS
  1
ACDBPLACEHOLDER
  2
AcDbPlaceHolder
  3
AutoCAD 2000
 90
        0
280
     0
281
     0
  0
CLASS
  1
LAYOUT
  2
AcDbLayout
  3
AutoCAD 2000
 90
        0
280
     0
281
     0
  0
CLASS
  1
DICTIONARYVAR
  2
AcDbDictionaryVar
  3
AutoCAD 2000
 90
        0
280
     0
281
     0
  0
CLASS
  1
LONG_TRANSACTION
  2
AcDbLongTransaction
  3
AutoCAD 2000
 90
        0
280
     0
281
     0
  0
CLASS
  1
LWPOLYLINE
  2
AcDbPolyline
  3
AutoCAD 2000
 90
        0
280
     0
281
     1
  0
CLASS
  1
HATCH
  2
AcDbHatch
  3
AutoCAD 2000
 90
        0
280
     0
281
     1
  0
CLASS
  1
XRECORD
  2
AcDbXrecord
  3
AutoCAD 2000
 90
        0
280
     0
281
     0
  0
CLASS
  1
LONG_TRANSACTION
  2
AcDbLongTransaction
  3
AutoCAD 2000
 90
        0
280
     0
281
     0
  0
CLASS
  1
LWPOLYLINE
  2
AcDbPolyline
  3
AutoCAD 2000
 90
        0
280
     0
281
     1
  0
CLASS
  1
HATCH
  2
AcDbHatch
  3
AutoCAD 2000
 90
        0
280
     0
281
     1
  0
CLASS
  1
XRECORD
  2
AcDbXrecord
  3
AutoCAD 2000
 90
        0
280
     0
281
     0
  0
CLASS
  1
LONG_TRANSACTION
  2
AcDbLongTransaction
  3
AutoCAD 2000
 90
        0
280
     0
281
     0
  0
CLASS
  1
LWPOLYLINE
  2
AcDbPolyline
  3
AutoCAD 2000
 90
        0
280
     0
281
     1
  0
CLASS
  1
HATCH
  2
AcDbHatch
  3
AutoCAD 2000
 90
        0
280
     0
281
     1
  0
CLASS
  1
XRECORD
  2
AcDbXrecord
  3
AutoCAD 2000
 90
        0
280
     0
281
     0
  0
CLASS
  1
LONG_TRANSACTION
  2
AcDbLongTransaction
  3
AutoCAD 2000
 90
        0
280
     0
281
     0
  0
CLASS
  1
LWPOLYLINE
  2
AcDbPolyline
  3
AutoCAD 2000
 90
        0
280
     0
281
     1
  0
CLASS
  1
HATCH
  2
AcDbHatch
  3
AutoCAD 2000
 90
        0
280
     0
281
     1
  0
CLASS
  1
XRECORD
  2
AcDbXrecord
  3
AutoCAD 2000
 90
        0
280
     0
281
     0
  0
CLASS
  1
LONG_TRANSACTION
  2
AcDbLongTransaction
  3
AutoCAD 2000
 90
        0
280
     0
281
     0
  0
CLASS
  1
LWPOLYLINE
  2
AcDbPolyline
  3
AutoCAD 2000
 90
        0
280
     0
281
     1
  0
CLASS
  1
HATCH
  2
AcDbHatch
  3
AutoCAD 2000
 90
        0
280
     0
281
     1
  0
CLASS
  1
XRECORD
  2
AcDbXrecord
  3
AutoCAD 2000
 90
        0
280
     0
281
     0
  0
ENDSEC
  0
SECTION
  2
TABLES
  0
TABLE
  2
VPORT
  5
8
330
0
100
AcDbSymbolTable
 70
     2
  0
VPORT
  5
4C7
330
8
100
AcDbSymbolTableRecord
100
AcDbViewportTableRecord
  2
*ACTIVE
 70
     0
 10
0.0
 20
0.0
 11
1.0
 21
1.0
 12
-98.57834120518496
 22
38.44169070078123
 13
0.0
 23
0.0
 14
0.5740882589684922
 24
0.5740882589684922
 15
0.5
 25
0.5
 16
0.0
 26
0.0
 36
1.0
 17
0.0
 27
0.0
 37
0.0
 40
32.99967225341063
 41
1.570528967254408
 42
50.0
 43
0.0
 44
0.0
 50
0.0
 51
0.0
 71
     0
 72
   100
 73
     1
 74
     0
 75
     0
 76
     0
 77
     0
 78
     0
  0
ENDTAB
  0
TABLE
  2
LTYPE
  5
5
330
0
100
AcDbSymbolTable
 70
     1
  0
LTYPE
  5
12
330
5
100
AcDbSymbolTableRecord
100
AcDbLinetypeTableRecord
  2
BYBLOCK
 70
     0
  3

 72
    65
 73
     0
 40
0.0
  0
LTYPE
  5
13
330
5
100
AcDbSymbolTableRecord
100
AcDbLinetypeTableRecord
  2
BYLAYER
 70
     0
  3

 72
    65
 73
     0
 40
0.0
  0
LTYPE
  5
14
330
5
100
AcDbSymbolTableRecord
100
AcDbLinetypeTableRecord
  2
CONTINUOUS
 70
     0
  3
Solid line
 72
    65
 73
     0
 40
0.0
  0
ENDTAB
  0
TABLE
  2
LAYER
  5
2
330
0
100
AcDbSymbolTable
 70
     4
  0
LAYER
  5
F
330
2
100
AcDbSymbolTableRecord
100
AcDbLayerTableRecord
  2
0
 70
     0
 62
     7
  6
CONTINUOUS
  0
LAYER
  5
C2
330
2
100
AcDbSymbolTableRecord
100
AcDbLayerTableRecord
  2
DEFPOINTS
 70
     0
 62
     7
  6
CONTINUOUS
  0
LAYER
  5
C5
330
2
100
AcDbSymbolTableRecord
100
AcDbLayerTableRecord
  2
ADP1DETAIL
 70
     0
 62
     7
  6
CONTINUOUS
  0
LAYER
  5
C8
330
2
100
AcDbSymbolTableRecord
100
AcDbLayerTableRecord
  2
ADPDIM
 70
     0
 62
     3
  6
CONTINUOUS
  0
ENDTAB
  0
TABLE
  2
STYLE
  5
3
330
0
100
AcDbSymbolTable
 70
     2
  0
STYLE
  5
10
330
3
100
AcDbSymbolTableRecord
100
AcDbTextStyleTableRecord
  2
STANDARD
 70
     0
 40
0.0
 41
1.0
 50
0.0
 71
     0
 42
0.2
  3
txt
  4

  0
STYLE
  5
383
330
3
100
AcDbSymbolTableRecord
100
AcDbTextStyleTableRecord
  2
ARIAL_WIDE
 70
     0
 40
0.0
 41
1.25
 50
0.0
 71
     0
 42
0.2
  3
ARIAL.TTF
  4

1001
ACAD
1000
Arial
1071
       34
  0
ENDTAB
  0
TABLE
  2
VIEW
  5
6
330
0
100
AcDbSymbolTable
 70
     0
  0
ENDTAB
  0
TABLE
  2
UCS
  5
7
330
0
100
AcDbSymbolTable
 70
     0
  0
ENDTAB
  0
TABLE
  2
APPID
  5
9
330
0
100
AcDbSymbolTable
 70
     1
  0
APPID
  5
11
330
9
100
AcDbSymbolTableRecord
100
AcDbRegAppTableRecord
  2
ACAD
 70
     0
  0
ENDTAB
  0
TABLE
  2
DIMSTYLE
  5
A
330
0
100
AcDbSymbolTable
 70
     1
  0
DIMSTYLE
105
377
330
A
100
AcDbSymbolTableRecord
100
AcDbDimStyleTableRecord
  2
STANDARD
 70
     0
  3

  4

  5

  6

  7

 40
1.0
 41
0.18
 42
0.0625
 43
0.38
 44
0.18
 45
0.0
 46
0.0
 47
0.0
 48
0.0
140
0.18
141
0.09
142
0.0
143
25.4
144
1.0
145
0.0
146
1.0
147
0.09
 71
     0
 72
     0
 73
     1
 74
     1
 75
     0
 76
     0
 77
     0
 78
     0
170
     0
171
     2
172
     0
173
     0
174
     0
175
     0
176
     0
177
     0
178
     0
270
     2
271
     4
272
     4
273
     2
274
     2
340
10
275
     0
280
     0
281
     0
282
     0
283
     1
284
     0
285
     0
286
     0
287
     3
288
     0
  0
ENDTAB
  0
TABLE
  2
BLOCK_RECORD
  5
1
330
0
100
AcDbSymbolTable
 70
     3
  0
BLOCK_RECORD
  5
18
102
{ACAD_XDICTIONARY
360
3D8
102
}
330
1
100
AcDbSymbolTableRecord
100
AcDbBlockTableRecord
  2
*MODEL_SPACE
  0
BLOCK_RECORD
  5
15
102
{ACAD_XDICTIONARY
360
3D6
102
}
330
1
100
AcDbSymbolTableRecord
100
AcDbBlockTableRecord
  2
*PAPER_SPACE
  0
BLOCK_RECORD
  5
74
330
1
100
AcDbSymbolTableRecord
100
AcDbBlockTableRecord
  2
585
  0
BLOCK_RECORD
  5
BB
330
1
100
AcDbSymbolTableRecord
100
AcDbBlockTableRecord
  2
*D1
  0
BLOCK_RECORD
  5
BC
330
1
100
AcDbSymbolTableRecord
100
AcDbBlockTableRecord
  2
*D2
  0
ENDTAB
  0
ENDSEC
  0
SECTION
  2
BLOCKS
  0
BLOCK
  5
CB
330
18
100
AcDbEntity
  8
0
100
AcDbBlockBegin
  2
*MODEL_SPACE
 70
     0
 10
0.0
 20
0.0
 30
0.0
  3
*MODEL_SPACE
  1

  0
ENDBLK
  5
CC
330
18
100
AcDbEntity
  8
0
100
AcDbBlockEnd
  0
BLOCK
  5
C9
330
15
100
AcDbEntity
 67
     1
  8
0
100
AcDbBlockBegin
  2
*PAPER_SPACE
 70
     0
 10
0.0
 20
0.0
 30
0.0
  3
*PAPER_SPACE
  1

  0
ENDBLK
  5
CA
330
15
100
AcDbEntity
 67
     1
  8
0
100
AcDbBlockEnd
  0
BLOCK
  5
CE
330
74
100
AcDbEntity
  8
0
100
AcDbBlockBegin
  2
585
 70
     0
 10
0.0
 20
0.0
 30
0.0
  3
585
  1

  0
ARC
  5
CF
330
74
100
AcDbEntity
  8
0
100
AcDbCircle
 10
6.73340104971446
 20
15.60418624306494
 30
0.0
 40
1.062
100
AcDbArc
 50
90.00000000000003
 51
147.556115029077
  0
ARC
  5
D0
330
74
100
AcDbEntity
  8
0
100
AcDbCircle
 10
6.73340104971446
 20
18.10055734948346
 30
0.0
 40
1.062
100
AcDbArc
 50
212.443884970923
 51
270.0
  0
ARC
  5
D1
330
74
100
AcDbEntity
  8
0
100
AcDbCircle
 10
6.73340104971446
 20
22.35055734948346
 30
0.0
 40
1.062
100
AcDbArc
 50
90.00000000000003
 51
147.556115029077
  0
ARC
  5
D2
330
74
100
AcDbEntity
  8
0
100
AcDbCircle
 10
6.73340104971446
 20
24.84692845590198
 30
0.0
 40
1.062
100
AcDbArc
 50
212.443884970923
 51
270.0
  0
ARC
  5
D3
330
74
100
AcDbEntity
  8
0
100
AcDbCircle
 10
6.73340104971446
 20
8.857815136646426
 30
0.0
 40
1.062
100
AcDbArc
 50
90.00000000000003
 51
147.556115029077
  0
ARC
  5
D4
330
74
100
AcDbEntity
  8
0
100
AcDbCircle
 10
6.73340104971446
 20
11.35418624306494
 30
0.0
 40
1.062
100
AcDbArc
 50
212.443884970923
 51
270.0
  0
ARC
  5
D5
330
74
100
AcDbEntity
  8
0
100
AcDbCircle
 10
6.73340104971446
 20
4.607815136646427
 30
0.0
 40
1.062
100
AcDbArc
 50
212.443884970923
 51
270.0
  0
ARC
  5
D6
330
74
100
AcDbEntity
  8
0
100
AcDbCircle
 10
6.73340104971446
 20
2.111444030227909
 30
0.0
 40
1.062
100
AcDbArc
 50
89.99999999999998
 51
147.556115029077
  0
ARC
  5
D7
330
74
100
AcDbEntity
  8
0
100
AcDbCircle
 10
7.23340104971446
 20
13.47918624306494
 30
0.0
 40
2.625
100
AcDbArc
 50
147.4764775962479
 51
180.0
  0
ARC
  5
D8
330
74
100
AcDbEntity
  8
0
100
AcDbCircle
 10
-0.5087386915065054
 20
13.47918624306494
 30
0.0
 40
2.625
100
AcDbArc
 50
0.0
 51
32.52352240375208
  0
LWPOLYLINE
  5
D9
330
74
100
AcDbEntity
  8
0
100
AcDbPolyline
 90
        5
 70
     0
 43
0.0
 10
2.610921455171157
 20
13.46422857398417
 42
0.0833747253464985
 10
2.523300429354839
 20
13.65288325649434
 10
1.330306296988502
 20
15.8830510625744
 42
-0.0577497503696406
 10
1.047222948574921
 20
16.55681779380492
 42
-0.0704586086750162
 10
1.014776836071432
 20
16.8523717962742
  0
LWPOLYLINE
  5
E0
330
74
100
AcDbEntity
  8
0
100
AcDbPolyline
 90
        5
 70
     0
 43
0.0
 10
2.361538521274355
 20
13.47770391642909
 42
0.0784859440637047
 10
2.314357963205424
 20
13.6596209277168
 42
0.0622651658687979
 10
1.242685271172184
 20
15.83588739194686
 42
-0.0872927853522097
 10
0.8922011308159799
 20
16.55008012258246
 42
-0.068082193146649
 10
0.8524443441222738
 20
16.8523717962742
 42
-0.8008646004752439
  0
LWPOLYLINE
  5
E7
330
74
100
AcDbEntity
  8
0
100
AcDbPolyline
 90
        5
 70
     0
 43
0.0
 10
4.363123836933599
 20
13.47770391642909
 42
-0.0784859440637047
 10
4.41030439500253
 20
13.6596209277168
 42
-0.0622651658687979
 10
5.481977087035771
 20
15.83588739194686
 42
0.0872927853522097
 10
5.832461227391975
 20
16.55008012258246
 42
0.068082193146649
 10
5.872218014085682
 20
16.8523717962742
 42
0.8008646004752439
  0
LWPOLYLINE
  5
EE
330
74
100
AcDbEntity
  8
0
100
AcDbPolyline
 90
        5
 70
     0
 43
0.0
 10
4.113740903036798
 20
13.46422857398417
 42
-0.0833747253464985
 10
4.201361928853115
 20
13.65288325649434
 10
5.394356061219453
 20
15.8830510625744
 42
0.0577497503696406
 10
5.677439409633033
 20
16.55681779380492
 42
0.0704586086750162
 10
5.709885522136522
 20
16.8523717962742
  0
LWPOLYLINE
  5
F5
330
74
100
AcDbEntity
  8
0
100
AcDbPolyline
 90
        5
 70
     0
 43
0.0
 10
4.113740903036798
 20
13.49414391214572
 42
0.0833747253464985
 10
4.201361928853115
 20
13.30548922963554
 10
5.394356061219453
 20
11.07532142355548
 42
-0.0577497503696406
 10
5.677439409633033
 20
10.40155469232496
 42
-0.0704586086750162
 10
5.709885522136522
 20
10.10600068985568
  0
LWPOLYLINE
  5
FC
330
74
100
AcDbEntity
  8
0
100
AcDbPolyline
 90
        5
 70
     0
 43
0.0
 10
4.363123836933599
 20
13.48066856970079
 42
0.0784859440637047
 10
4.41030439500253
 20
13.29875155841309
 42
0.0622651658687979
 10
5.481977087035771
 20
11.12248509418302
 42
-0.0872927853522097
 10
5.832461227391975
 20
10.40829236354742
 42
-0.068082193146649
 10
5.872218014085682
 20
10.10600068985568
 42
-0.8008646004752439
  0
LWPOLYLINE
  5
103
330
74
100
AcDbEntity
  8
0
100
AcDbPolyline
 90
        5
 70
     0
 43
0.0
 10
2.361538521274355
 20
13.48066856970079
 42
-0.0784859440637047
 10
2.314357963205424
 20
13.29875155841309
 42
-0.0622651658687979
 10
1.242685271172184
 20
11.12248509418302
 42
0.0872927853522097
 10
0.8922011308159799
 20
10.40829236354742
 42
0.068082193146649
 10
0.8524443441222738
 20
10.10600068985568
 42
0.8008646004752439
  0
LWPOLYLINE
  5
10A
330
74
100
AcDbEntity
  8
0
100
AcDbPolyline
 90
        5
 70
     0
 43
0.0
 10
2.610921455171157
 20
13.49414391214572
 42
-0.0833747253464985
 10
2.523300429354839
 20
13.30548922963554
 10
1.330306296988502
 20
11.07532142355548
 42
0.0577497503696406
 10
1.047222948574921
 20
10.40155469232496
 42
0.0704586086750162
 10
1.014776836071432
 20
10.10600068985568
  0
LINE
  5
111
330
74
100
AcDbEntity
  8
0
100
AcDbLine
 10
4.60840104971446
 20
-0.0135559697720895
 30
0.0
 11
2.116261308493494
 21
-0.0135559697720898
 31
0.0
  0
ARC
  5
112
330
74
100
AcDbEntity
  8
0
100
AcDbCircle
 10
3.362331179103977
 20
7.981000689855685
 30
0.0
 40
1.062
100
AcDbArc
 50
212.443884970923
 51
270.0
  0
LWPOLYLINE
  5
113
330
74
100
AcDbEntity
  8
0
100
AcDbPolyline
 90
        5
 70
     0
 43
0.0
 10
2.610921455171157
 20
6.71785746756565
 42
0.0833747253464985
 10
2.523300429354839
 20
6.90651215007582
 10
1.330306296988502
 20
9.136679956155887
 42
-0.0577497503696406
 10
1.047222948574921
 20
9.810446687386402
 42
-0.0704586086750162
 10
1.014776836071432
 20
10.10600068985568
  0
ARC
  5
11A
330
74
100
AcDbEntity
  8
0
100
AcDbCircle
 10
3.362331179103977
 20
12.23100068985568
 30
0.0
 40
1.062
100
AcDbArc
 50
90.00000000000003
 51
147.556115029077
  0
ARC
  5
11B
330
74
100
AcDbEntity
  8
0
100
AcDbCircle
 10
3.362331179103977
 20
5.484629583437168
 30
0.0
 40
1.062
100
AcDbArc
 50
90.00000000000003
 51
147.556115029077
  0
LWPOLYLINE
  5
11C
330
74
100
AcDbEntity
  8
0
100
AcDbPolyline
 90
        5
 70
     0
 43
0.0
 10
2.610921455171157
 20
6.747772805727203
 42
-0.0833747253464985
 10
2.523300429354839
 20
6.559118123217033
 10
1.330306296988502
 20
4.328950317136966
 42
0.0577497503696406
 10
1.047222948574921
 20
3.65518358590645
 42
0.0704586086750162
 10
1.014776836071432
 20
3.359629583437168
  0
LWPOLYLINE
  5
123
330
74
100
AcDbEntity
  8
0
100
AcDbPolyline
 90
        5
 70
     0
 43
0.0
 10
2.610921455171157
 20
-0.0285136388528666
 42
0.0833747253464985
 10
2.523300429354839
 20
0.1601410436573036
 10
1.330306296988502
 20
2.39030884973737
 42
-0.0577497503696406
 10
1.047222948574921
 20
3.064075580967886
 42
-0.0704586086750162
 10
1.014776836071432
 20
3.359629583437168
  0
ARC
  5
12A
330
74
100
AcDbEntity
  8
0
100
AcDbCircle
 10
3.362331179103977
 20
1.234629583437168
 30
0.0
 40
1.062
100
AcDbArc
 50
212.443884970923
 51
270.0
  0
LINE
  5
12B
330
74
100
AcDbEntity
  8
0
100
AcDbLine
 10
0.887114262045949
 20
4.037471831599946
 30
0.0
 11
1.705587111765804
 21
5.323068266828146
 31
0.0
  0
LINE
  5
12C
330
74
100
AcDbEntity
  8
0
100
AcDbLine
 10
2.466478225551523
 20
6.05497288848365
 30
0.0
 11
1.648005375831668
 21
4.76937645325545
 31
0.0
  0
LWPOLYLINE
  5
12D
330
74
100
AcDbEntity
  8
0
100
AcDbPolyline
 90
        5
 70
     0
 43
0.0
 10
2.361538521274355
 20
6.734297463282284
 42
-0.0784859440637047
 10
2.314357963205424
 20
6.552380451994573
 42
-0.0622651658687979
 10
1.242685271172184
 20
4.376113987764508
 42
0.0872927853522097
 10
0.8922011308159799
 20
3.66192125712891
 42
0.068082193146649
 10
0.8524443441222738
 20
3.359629583437168
 42
0.8008646004752439
  0
ARC
  5
134
330
74
100
AcDbEntity
  8
0
100
AcDbCircle
 10
-0.0087386915065053
 20
4.607815136646427
 30
0.0
 40
1.062
100
AcDbArc
 50
270.0
 51
327.5561150290769
  0
ARC
  5
135
330
74
100
AcDbEntity
  8
0
100
AcDbCircle
 10
-0.0087386915065053
 20
2.111444030227909
 30
0.0
 40
1.062
100
AcDbArc
 50
32.443884970923
 51
90.00000000000003
  0
LINE
  5
136
330
74
100
AcDbEntity
  8
0
100
AcDbLine
 10
-0.0087386915065058
 20
3.173444030227909
 30
0.0
 11
-0.0087386915065055
 21
3.545815136646427
 31
0.0
  0
LWPOLYLINE
  5
137
330
74
100
AcDbEntity
  8
0
100
AcDbPolyline
 90
        5
 70
     0
 43
0.0
 10
2.361538521274355
 20
-0.015038296407947
 42
0.0784859440637047
 10
2.314357963205424
 20
0.1668787148797634
 42
0.0622651658687979
 10
1.242685271172184
 20
2.343145179109828
 42
-0.0872927853522097
 10
0.8922011308159799
 20
3.057337909745426
 42
-0.068082193146649
 10
0.8524443441222738
 20
3.359629583437168
 42
-0.8008646004752439
  0
ARC
  5
13E
330
74
100
AcDbEntity
  8
0
100
AcDbCircle
 10
-0.5087386915065054
 20
-0.0135559697720898
 30
0.0
 40
2.625
100
AcDbArc
 50
0.0
 51
32.52352240375208
  0
LINE
  5
13F
330
74
100
AcDbEntity
  8
0
100
AcDbLine
 10
2.466478225551523
 20
0.6642862783906867
 30
0.0
 11
1.648005375831668
 21
1.949882713618887
 31
0.0
  0
ARC
  5
140
330
74
100
AcDbEntity
  8
0
100
AcDbCircle
 10
3.862331179103977
 20
3.359629583437168
 30
0.0
 40
2.625
100
AcDbArc
 50
147.4764775962479
 51
180.0
  0
LINE
  5
141
330
74
100
AcDbEntity
  8
0
100
AcDbLine
 10
0.887114262045949
 20
2.681787335274391
 30
0.0
 11
1.705587111765804
 21
1.396190900046191
 31
0.0
  0
ARC
  5
142
330
74
100
AcDbEntity
  8
0
100
AcDbCircle
 10
3.862331179103977
 20
3.359629583437168
 30
0.0
 40
2.625
100
AcDbArc
 50
180.0
 51
212.523522403752
  0
ARC
  5
143
330
74
100
AcDbEntity
  8
0
100
AcDbCircle
 10
-0.0087386915065053
 20
8.857815136646426
 30
0.0
 40
1.062
100
AcDbArc
 50
32.443884970923
 51
90.00000000000003
  0
ARC
  5
144
330
74
100
AcDbEntity
  8
0
100
AcDbCircle
 10
-0.0087386915065053
 20
11.35418624306494
 30
0.0
 40
1.062
100
AcDbArc
 50
270.0
 51
327.5561150290769
  0
LINE
  5
145
330
74
100
AcDbEntity
  8
0
100
AcDbLine
 10
-0.0087386915065058
 20
9.919815136646425
 30
0.0
 11
-0.0087386915065055
 21
10.29218624306494
 31
0.0
  0
LWPOLYLINE
  5
146
330
74
100
AcDbEntity
  8
0
100
AcDbPolyline
 90
        5
 70
     0
 43
0.0
 10
2.361538521274355
 20
6.731332810010569
 42
0.0784859440637047
 10
2.314357963205424
 20
6.91324982129828
 42
0.0622651658687979
 10
1.242685271172184
 20
9.089516285528345
 42
-0.0872927853522097
 10
0.8922011308159799
 20
9.803709016163942
 42
-0.068082193146649
 10
0.8524443441222738
 20
10.10600068985568
 42
-0.8008646004752439
  0
LINE
  5
14D
330
74
100
AcDbEntity
  8
0
100
AcDbLine
 10
0.887114262045949
 20
9.428158441692907
 30
0.0
 11
1.705587111765804
 21
8.142562006464707
 31
0.0
  0
ARC
  5
14E
330
74
100
AcDbEntity
  8
0
100
AcDbCircle
 10
3.862331179103977
 20
10.10600068985568
 30
0.0
 40
2.625
100
AcDbArc
 50
180.0
 51
212.523522403752
  0
ARC
  5
14F
330
74
100
AcDbEntity
  8
0
100
AcDbCircle
 10
-0.5087386915065054
 20
6.732815136646427
 30
0.0
 40
2.625
100
AcDbArc
 50
0.0
 51
32.52352240375209
  0
ARC
  5
150
330
74
100
AcDbEntity
  8
0
100
AcDbCircle
 10
-0.5087386915065054
 20
6.732815136646427
 30
0.0
 40
2.625
100
AcDbArc
 50
327.4764775962479
 51
0.0
  0
LINE
  5
151
330
74
100
AcDbEntity
  8
0
100
AcDbLine
 10
2.466478225551523
 20
7.410657384809203
 30
0.0
 11
1.648005375831668
 21
8.696253820037403
 31
0.0
  0
ARC
  5
152
330
74
100
AcDbEntity
  8
0
100
AcDbCircle
 10
3.862331179103977
 20
10.10600068985568
 30
0.0
 40
2.625
100
AcDbArc
 50
147.4764775962479
 51
180.0
  0
LINE
  5
153
330
74
100
AcDbEntity
  8
0
100
AcDbLine
 10
0.887114262045949
 20
10.78384293801846
 30
0.0
 11
1.705587111765804
 21
12.06943937324666
 31
0.0
  0
ARC
  5
154
330
74
100
AcDbEntity
  8
0
100
AcDbCircle
 10
-0.5087386915065054
 20
13.47918624306494
 30
0.0
 40
2.625
100
AcDbArc
 50
327.4764775962479
 51
0.0
  0
LINE
  5
155
330
74
100
AcDbEntity
  8
0
100
AcDbLine
 10
2.466478225551523
 20
12.80134399490216
 30
0.0
 11
1.648005375831668
 21
11.51574755967396
 31
0.0
  0
LWPOLYLINE
  5
156
330
74
100
AcDbEntity
  8
0
100
AcDbPolyline
 90
        5
 70
     0
 43
0.0
 10
4.113740903036798
 20
6.747772805727203
 42
0.0833747253464985
 10
4.201361928853115
 20
6.559118123217033
 10
5.394356061219453
 20
4.328950317136966
 42
-0.0577497503696406
 10
5.677439409633033
 20
3.65518358590645
 42
-0.0704586086750162
 10
5.709885522136522
 20
3.359629583437168
  0
LWPOLYLINE
  5
15D
330
74
100
AcDbEntity
  8
0
100
AcDbPolyline
 90
        5
 70
     0
 43
0.0
 10
4.363123836933599
 20
6.734297463282284
 42
0.0784859440637047
 10
4.41030439500253
 20
6.552380451994573
 42
0.0622651658687979
 10
5.481977087035771
 20
4.376113987764508
 42
-0.0872927853522097
 10
5.832461227391975
 20
3.66192125712891
 42
-0.068082193146649
 10
5.872218014085682
 20
3.359629583437168
 42
-0.8008646004752439
  0
LINE
  5
164
330
74
100
AcDbEntity
  8
0
100
AcDbLine
 10
4.258184132656431
 20
6.05497288848365
 30
0.0
 11
5.076656982376286
 21
4.76937645325545
 31
0.0
  0
LINE
  5
165
330
74
100
AcDbEntity
  8
0
100
AcDbLine
 10
5.837548096162006
 20
4.037471831599946
 30
0.0
 11
5.019075246442151
 21
5.323068266828146
 31
0.0
  0
ARC
  5
166
330
74
100
AcDbEntity
  8
0
100
AcDbCircle
 10
7.23340104971446
 20
-0.0135559697720898
 30
0.0
 40
2.625
100
AcDbArc
 50
147.4764775962479
 51
180.0
  0
LINE
  5
167
330
74
100
AcDbEntity
  8
0
100
AcDbLine
 10
4.258184132656431
 20
0.6642862783906867
 30
0.0
 11
5.076656982376286
 21
1.949882713618887
 31
0.0
  0
LWPOLYLINE
  5
168
330
74
100
AcDbEntity
  8
0
100
AcDbPolyline
 90
        5
 70
     0
 43
0.0
 10
4.363123836933599
 20
-0.015038296407947
 42
-0.0784859440637047
 10
4.41030439500253
 20
0.1668787148797634
 42
-0.0622651658687979
 10
5.481977087035771
 20
2.343145179109828
 42
0.0872927853522097
 10
5.832461227391975
 20
3.057337909745426
 42
0.068082193146649
 10
5.872218014085682
 20
3.359629583437168
 42
0.8008646004752439
  0
LWPOLYLINE
  5
16F
330
74
100
AcDbEntity
  8
0
100
AcDbPolyline
 90
        5
 70
     0
 43
0.0
 10
4.113740903036798
 20
-0.0285136388528666
 42
-0.0833747253464985
 10
4.201361928853115
 20
0.1601410436573036
 10
5.394356061219453
 20
2.39030884973737
 42
0.0577497503696406
 10
5.677439409633033
 20
3.064075580967886
 42
0.0704586086750162
 10
5.709885522136522
 20
3.359629583437168
  0
ARC
  5
176
330
74
100
AcDbEntity
  8
0
100
AcDbCircle
 10
3.362331179103977
 20
1.234629583437168
 30
0.0
 40
1.062
100
AcDbArc
 50
270.0
 51
327.5561150290769
  0
LINE
  5
177
330
74
100
AcDbEntity
  8
0
100
AcDbLine
 10
5.837548096162006
 20
2.681787335274391
 30
0.0
 11
5.019075246442151
 21
1.396190900046191
 31
0.0
  0
ARC
  5
178
330
74
100
AcDbEntity
  8
0
100
AcDbCircle
 10
2.862331179103977
 20
3.359629583437168
 30
0.0
 40
2.625
100
AcDbArc
 50
327.4764775962479
 51
0.000000000000007
  0
ARC
  5
179
330
74
100
AcDbEntity
  8
0
100
AcDbCircle
 10
2.862331179103977
 20
3.359629583437168
 30
0.0
 40
2.625
100
AcDbArc
 50
0.0
 51
32.52352240375209
  0
LINE
  5
17A
330
74
100
AcDbEntity
  8
0
100
AcDbLine
 10
4.258184132656431
 20
7.410657384809203
 30
0.0
 11
5.076656982376286
 21
8.696253820037403
 31
0.0
  0
ARC
  5
17B
330
74
100
AcDbEntity
  8
0
100
AcDbCircle
 10
7.23340104971446
 20
6.732815136646427
 30
0.0
 40
2.625
100
AcDbArc
 50
147.4764775962479
 51
180.0
  0
LWPOLYLINE
  5
17C
330
74
100
AcDbEntity
  8
0
100
AcDbPolyline
 90
        5
 70
     0
 43
0.0
 10
4.363123836933599
 20
6.731332810010569
 42
-0.0784859440637047
 10
4.41030439500253
 20
6.91324982129828
 42
-0.0622651658687979
 10
5.481977087035771
 20
9.089516285528345
 42
0.0872927853522097
 10
5.832461227391975
 20
9.803709016163942
 42
0.068082193146649
 10
5.872218014085682
 20
10.10600068985568
 42
0.8008646004752439
  0
LWPOLYLINE
  5
183
330
74
100
AcDbEntity
  8
0
100
AcDbPolyline
 90
        5
 70
     0
 43
0.0
 10
4.113740903036798
 20
6.71785746756565
 42
-0.0833747253464985
 10
4.201361928853115
 20
6.90651215007582
 10
5.394356061219453
 20
9.136679956155887
 42
0.0577497503696406
 10
5.677439409633033
 20
9.810446687386402
 42
0.0704586086750162
 10
5.709885522136522
 20
10.10600068985568
  0
ARC
  5
18A
330
74
100
AcDbEntity
  8
0
100
AcDbCircle
 10
7.23340104971446
 20
13.47918624306494
 30
0.0
 40
2.625
100
AcDbArc
 50
180.0
 51
212.523522403752
  0
LINE
  5
18B
330
74
100
AcDbEntity
  8
0
100
AcDbLine
 10
4.258184132656431
 20
12.80134399490216
 30
0.0
 11
5.076656982376286
 21
11.51574755967396
 31
0.0
  0
ARC
  5
18C
330
74
100
AcDbEntity
  8
0
100
AcDbCircle
 10
7.23340104971446
 20
6.732815136646427
 30
0.0
 40
2.625
100
AcDbArc
 50
180.0
 51
212.523522403752
  0
ARC
  5
18D
330
74
100
AcDbEntity
  8
0
100
AcDbCircle
 10
3.362331179103977
 20
7.981000689855685
 30
0.0
 40
1.062
100
AcDbArc
 50
270.0
 51
327.5561150290769
  0
ARC
  5
18E
330
74
100
AcDbEntity
  8
0
100
AcDbCircle
 10
3.362331179103977
 20
5.484629583437168
 30
0.0
 40
1.062
100
AcDbArc
 50
32.443884970923
 51
90.00000000000003
  0
ARC
  5
18F
330
74
100
AcDbEntity
  8
0
100
AcDbCircle
 10
3.362331179103977
 20
12.23100068985568
 30
0.0
 40
1.062
100
AcDbArc
 50
32.443884970923
 51
90.00000000000003
  0
LINE
  5
190
330
74
100
AcDbEntity
  8
0
100
AcDbLine
 10
5.837548096162006
 20
9.428158441692907
 30
0.0
 11
5.019075246442151
 21
8.142562006464707
 31
0.0
  0
ARC
  5
191
330
74
100
AcDbEntity
  8
0
100
AcDbCircle
 10
2.862331179103977
 20
10.10600068985568
 30
0.0
 40
2.625
100
AcDbArc
 50
327.4764775962479
 51
0.0
  0
LINE
  5
192
330
74
100
AcDbEntity
  8
0
100
AcDbLine
 10
5.837548096162006
 20
10.78384293801846
 30
0.0
 11
5.019075246442151
 21
12.06943937324666
 31
0.0
  0
ARC
  5
193
330
74
100
AcDbEntity
  8
0
100
AcDbCircle
 10
2.862331179103977
 20
10.10600068985568
 30
0.0
 40
2.625
100
AcDbArc
 50
0.0
 51
32.52352240375209
  0
LINE
  5
194
330
74
100
AcDbEntity
  8
0
100
AcDbLine
 10
2.116261308493494
 20
26.97192845590198
 30
0.0
 11
4.60840104971446
 21
26.97192845590198
 31
0.0
  0
ARC
  5
195
330
74
100
AcDbEntity
  8
0
100
AcDbCircle
 10
3.362331179103977
 20
14.7273717962742
 30
0.0
 40
1.062
100
AcDbArc
 50
212.443884970923
 51
270.0
  0
ARC
  5
196
330
74
100
AcDbEntity
  8
0
100
AcDbCircle
 10
3.362331179103977
 20
18.9773717962742
 30
0.0
 40
1.062
100
AcDbArc
 50
90.00000000000003
 51
147.556115029077
  0
LWPOLYLINE
  5
197
330
74
100
AcDbEntity
  8
0
100
AcDbPolyline
 90
        5
 70
     0
 43
0.0
 10
2.610921455171157
 20
20.24051501856424
 42
-0.0833747253464985
 10
2.523300429354839
 20
20.05186033605407
 10
1.330306296988502
 20
17.821692529974
 42
0.0577497503696406
 10
1.047222948574921
 20
17.14792579874348
 42
0.0704586086750162
 10
1.014776836071432
 20
16.8523717962742
  0
ARC
  5
19E
330
74
100
AcDbEntity
  8
0
100
AcDbCircle
 10
3.362331179103977
 20
21.47374290269272
 30
0.0
 40
1.062
100
AcDbArc
 50
212.443884970923
 51
270.0
  0
LWPOLYLINE
  5
19F
330
74
100
AcDbEntity
  8
0
100
AcDbPolyline
 90
        5
 70
     0
 43
0.0
 10
2.610921455171157
 20
20.21059968040268
 42
0.0833747253464985
 10
2.523300429354839
 20
20.39925436291285
 10
1.330306296988502
 20
22.62942216899292
 42
-0.0577497503696406
 10
1.047222948574921
 20
23.30318890022343
 42
-0.0704586086750162
 10
1.014776836071432
 20
23.59874290269272
  0
ARC
  5
1A6
330
74
100
AcDbEntity
  8
0
100
AcDbCircle
 10
3.362331179103977
 20
25.72374290269272
 30
0.0
 40
1.062
100
AcDbArc
 50
90.00000000000003
 51
147.556115029077
  0
LWPOLYLINE
  5
1A7
330
74
100
AcDbEntity
  8
0
100
AcDbPolyline
 90
        5
 70
     0
 43
0.0
 10
2.610921455171157
 20
26.98688612498275
 42
-0.0833747253464985
 10
2.523300429354839
 20
26.79823144247258
 10
1.330306296988502
 20
24.56806363639252
 42
0.0577497503696406
 10
1.047222948574921
 20
23.894296905162
 42
0.0704586086750162
 10
1.014776836071432
 20
23.59874290269272
  0
LINE
  5
1AE
330
74
100
AcDbEntity
  8
0
100
AcDbLine
 10
2.466478225551523
 20
20.90339959764623
 30
0.0
 11
1.648005375831668
 21
22.18899603287443
 31
0.0
  0
LWPOLYLINE
  5
1AF
330
74
100
AcDbEntity
  8
0
100
AcDbPolyline
 90
        5
 70
     0
 43
0.0
 10
2.361538521274355
 20
20.2240750228476
 42
0.0784859440637047
 10
2.314357963205424
 20
20.40599203413531
 42
0.0622651658687979
 10
1.242685271172184
 20
22.58225849836537
 42
-0.0872927853522097
 10
0.8922011308159799
 20
23.29645122900097
 42
-0.068082193146649
 10
0.8524443441222738
 20
23.59874290269272
 42
-0.8008646004752439
  0
LINE
  5
1B6
330
74
100
AcDbEntity
  8
0
100
AcDbLine
 10
0.887114262045949
 20
22.92090065452994
 30
0.0
 11
1.705587111765804
 21
21.63530421930174
 31
0.0
  0
ARC
  5
1B7
330
74
100
AcDbEntity
  8
0
100
AcDbCircle
 10
-0.0087386915065053
 20
15.60418624306494
 30
0.0
 40
1.062
100
AcDbArc
 50
32.443884970923
 51
90.00000000000003
  0
ARC
  5
1B8
330
74
100
AcDbEntity
  8
0
100
AcDbCircle
 10
-0.0087386915065053
 20
18.10055734948346
 30
0.0
 40
1.062
100
AcDbArc
 50
270.0
 51
327.5561150290769
  0
LINE
  5
1B9
330
74
100
AcDbEntity
  8
0
100
AcDbLine
 10
-0.0087386915065058
 20
16.66618624306494
 30
0.0
 11
-0.0087386915065055
 21
17.03855734948346
 31
0.0
  0
ARC
  5
1BA
330
74
100
AcDbEntity
  8
0
100
AcDbCircle
 10
3.862331179103977
 20
16.8523717962742
 30
0.0
 40
2.625
100
AcDbArc
 50
147.4764775962479
 51
180.0
  0
LINE
  5
1BB
330
74
100
AcDbEntity
  8
0
100
AcDbLine
 10
0.887114262045949
 20
17.53021404443698
 30
0.0
 11
1.705587111765804
 21
18.81581047966518
 31
0.0
  0
LWPOLYLINE
  5
1BC
330
74
100
AcDbEntity
  8
0
100
AcDbPolyline
 90
        5
 70
     0
 43
0.0
 10
2.361538521274355
 20
20.22703967611931
 42
-0.0784859440637047
 10
2.314357963205424
 20
20.0451226648316
 42
-0.0622651658687979
 10
1.242685271172184
 20
17.86885620060154
 42
0.0872927853522097
 10
0.8922011308159799
 20
17.15466346996594
 42
0.068082193146649
 10
0.8524443441222738
 20
16.8523717962742
 42
0.8008646004752439
  0
LINE
  5
1C3
330
74
100
AcDbEntity
  8
0
100
AcDbLine
 10
0.887114262045949
 20
16.17452954811143
 30
0.0
 11
1.705587111765804
 21
14.88893311288322
 31
0.0
  0
ARC
  5
1C4
330
74
100
AcDbEntity
  8
0
100
AcDbCircle
 10
3.862331179103977
 20
16.8523717962742
 30
0.0
 40
2.625
100
AcDbArc
 50
180.0
 51
212.523522403752
  0
LINE
  5
1C5
330
74
100
AcDbEntity
  8
0
100
AcDbLine
 10
2.466478225551523
 20
14.15702849122772
 30
0.0
 11
1.648005375831668
 21
15.44262492645592
 31
0.0
  0
ARC
  5
1C6
330
74
100
AcDbEntity
  8
0
100
AcDbCircle
 10
-0.5087386915065054
 20
20.22555734948346
 30
0.0
 40
2.625
100
AcDbArc
 50
327.4764775962479
 51
0.0
  0
LINE
  5
1C7
330
74
100
AcDbEntity
  8
0
100
AcDbLine
 10
2.466478225551523
 20
19.54771510132068
 30
0.0
 11
1.648005375831668
 21
18.26211866609248
 31
0.0
  0
ARC
  5
1C8
330
74
100
AcDbEntity
  8
0
100
AcDbCircle
 10
-0.5087386915065054
 20
20.22555734948346
 30
0.0
 40
2.625
100
AcDbArc
 50
0.0
 51
32.52352240375208
  0
ARC
  5
1C9
330
74
100
AcDbEntity
  8
0
100
AcDbCircle
 10
-0.0087386915065053
 20
22.35055734948346
 30
0.0
 40
1.062
100
AcDbArc
 50
32.443884970923
 51
90.00000000000003
  0
ARC
  5
1CA
330
74
100
AcDbEntity
  8
0
100
AcDbCircle
 10
-0.0087386915065053
 20
24.84692845590198
 30
0.0
 40
1.062
100
AcDbArc
 50
270.0
 51
327.5561150290769
  0
LINE
  5
1CB
330
74
100
AcDbEntity
  8
0
100
AcDbLine
 10
-0.0087386915065058
 20
23.41255734948346
 30
0.0
 11
-0.0087386915065055
 21
23.78492845590197
 31
0.0
  0
ARC
  5
1CC
330
74
100
AcDbEntity
  8
0
100
AcDbCircle
 10
-0.5087386915065054
 20
26.97192845590198
 30
0.0
 40
2.625
100
AcDbArc
 50
327.4764775962479
 51
0.0
  0
LINE
  5
1CD
330
74
100
AcDbEntity
  8
0
100
AcDbLine
 10
2.466478225551523
 20
26.2940862077392
 30
0.0
 11
1.648005375831668
 21
25.008489772511
 31
0.0
  0
LWPOLYLINE
  5
1CE
330
74
100
AcDbEntity
  8
0
100
AcDbPolyline
 90
        5
 70
     0
 43
0.0
 10
2.361538521274355
 20
26.97341078253783
 42
-0.0784859440637047
 10
2.314357963205424
 20
26.79149377125012
 42
-0.0622651658687979
 10
1.242685271172184
 20
24.61522730702006
 42
0.0872927853522097
 10
0.8922011308159799
 20
23.90103457638446
 42
0.068082193146649
 10
0.8524443441222738
 20
23.59874290269272
 42
0.8008646004752439
  0
ARC
  5
1D5
330
74
100
AcDbEntity
  8
0
100
AcDbCircle
 10
3.862331179103977
 20
23.59874290269272
 30
0.0
 40
2.625
100
AcDbArc
 50
180.0
 51
212.523522403752
  0
ARC
  5
1D6
330
74
100
AcDbEntity
  8
0
100
AcDbCircle
 10
3.862331179103977
 20
23.59874290269272
 30
0.0
 40
2.625
100
AcDbArc
 50
147.4764775962479
 51
180.0
  0
LINE
  5
1D7
330
74
100
AcDbEntity
  8
0
100
AcDbLine
 10
0.887114262045949
 20
24.27658515085549
 30
0.0
 11
1.705587111765804
 21
25.56218158608369
 31
0.0
  0
LINE
  5
1D8
330
74
100
AcDbEntity
  8
0
100
AcDbLine
 10
4.258184132656431
 20
20.90339959764623
 30
0.0
 11
5.076656982376286
 21
22.18899603287443
 31
0.0
  0
LINE
  5
1D9
330
74
100
AcDbEntity
  8
0
100
AcDbLine
 10
5.837548096162006
 20
22.92090065452994
 30
0.0
 11
5.019075246442151
 21
21.63530421930174
 31
0.0
  0
LWPOLYLINE
  5
1DA
330
74
100
AcDbEntity
  8
0
100
AcDbPolyline
 90
        5
 70
     0
 43
0.0
 10
4.363123836933599
 20
20.2240750228476
 42
-0.0784859440637047
 10
4.41030439500253
 20
20.40599203413531
 42
-0.0622651658687979
 10
5.481977087035771
 20
22.58225849836537
 42
0.0872927853522097
 10
5.832461227391975
 20
23.29645122900097
 42
0.068082193146649
 10
5.872218014085682
 20
23.59874290269272
 42
0.8008646004752439
  0
LWPOLYLINE
  5
1E1
330
74
100
AcDbEntity
  8
0
100
AcDbPolyline
 90
        5
 70
     0
 43
0.0
 10
4.113740903036798
 20
20.21059968040268
 42
-0.0833747253464985
 10
4.201361928853115
 20
20.39925436291285
 10
5.394356061219453
 20
22.62942216899292
 42
0.0577497503696406
 10
5.677439409633033
 20
23.30318890022343
 42
0.0704586086750162
 10
5.709885522136522
 20
23.59874290269272
  0
LINE
  5
1E8
330
74
100
AcDbEntity
  8
0
100
AcDbLine
 10
4.258184132656431
 20
14.15702849122772
 30
0.0
 11
5.076656982376286
 21
15.44262492645592
 31
0.0
  0
LINE
  5
1E9
330
74
100
AcDbEntity
  8
0
100
AcDbLine
 10
4.258184132656431
 20
19.54771510132068
 30
0.0
 11
5.076656982376286
 21
18.26211866609248
 31
0.0
  0
LWPOLYLINE
  5
1EA
330
74
100
AcDbEntity
  8
0
100
AcDbPolyline
 90
        5
 70
     0
 43
0.0
 10
4.113740903036798
 20
20.24051501856424
 42
0.0833747253464985
 10
4.201361928853115
 20
20.05186033605407
 10
5.394356061219453
 20
17.821692529974
 42
-0.0577497503696406
 10
5.677439409633033
 20
17.14792579874348
 42
-0.0704586086750162
 10
5.709885522136522
 20
16.8523717962742
  0
LWPOLYLINE
  5
1F1
330
74
100
AcDbEntity
  8
0
100
AcDbPolyline
 90
        5
 70
     0
 43
0.0
 10
4.363123836933599
 20
20.22703967611931
 42
0.0784859440637047
 10
4.41030439500253
 20
20.0451226648316
 42
0.0622651658687979
 10
5.481977087035771
 20
17.86885620060154
 42
-0.0872927853522097
 10
5.832461227391975
 20
17.15466346996594
 42
-0.068082193146649
 10
5.872218014085682
 20
16.8523717962742
 42
-0.8008646004752439
  0
ARC
  5
1F8
330
74
100
AcDbEntity
  8
0
100
AcDbCircle
 10
7.23340104971446
 20
20.22555734948346
 30
0.0
 40
2.625
100
AcDbArc
 50
180.0
 51
212.523522403752
  0
ARC
  5
1F9
330
74
100
AcDbEntity
  8
0
100
AcDbCircle
 10
7.23340104971446
 20
20.22555734948346
 30
0.0
 40
2.625
100
AcDbArc
 50
147.4764775962479
 51
180.0
  0
ARC
  5
1FA
330
74
100
AcDbEntity
  8
0
100
AcDbCircle
 10
3.362331179103977
 20
14.7273717962742
 30
0.0
 40
1.062
100
AcDbArc
 50
270.0
 51
327.5561150290769
  0
ARC
  5
1FB
330
74
100
AcDbEntity
  8
0
100
AcDbCircle
 10
3.362331179103977
 20
18.9773717962742
 30
0.0
 40
1.062
100
AcDbArc
 50
32.443884970923
 51
90.00000000000003
  0
ARC
  5
1FC
330
74
100
AcDbEntity
  8
0
100
AcDbCircle
 10
3.362331179103977
 20
21.47374290269272
 30
0.0
 40
1.062
100
AcDbArc
 50
270.0
 51
327.5561150290769
  0
ARC
  5
1FD
330
74
100
AcDbEntity
  8
0
100
AcDbCircle
 10
2.862331179103977
 20
16.8523717962742
 30
0.0
 40
2.625
100
AcDbArc
 50
0.0
 51
32.52352240375208
  0
LINE
  5
1FE
330
74
100
AcDbEntity
  8
0
100
AcDbLine
 10
5.837548096162006
 20
17.53021404443698
 30
0.0
 11
5.019075246442151
 21
18.81581047966518
 31
0.0
  0
LINE
  5
1FF
330
74
100
AcDbEntity
  8
0
100
AcDbLine
 10
5.837548096162006
 20
16.17452954811143
 30
0.0
 11
5.019075246442151
 21
14.88893311288322
 31
0.0
  0
ARC
  5
200
330
74
100
AcDbEntity
  8
0
100
AcDbCircle
 10
2.862331179103977
 20
16.8523717962742
 30
0.0
 40
2.625
100
AcDbArc
 50
327.4764775962479
 51
0.0
  0
ARC
  5
201
330
74
100
AcDbEntity
  8
0
100
AcDbCircle
 10
7.23340104971446
 20
26.97192845590198
 30
0.0
 40
2.625
100
AcDbArc
 50
180.0
 51
212.523522403752
  0
LWPOLYLINE
  5
202
330
74
100
AcDbEntity
  8
0
100
AcDbPolyline
 90
        5
 70
     0
 43
0.0
 10
4.113740903036798
 20
26.98688612498275
 42
0.0833747253464985
 10
4.201361928853115
 20
26.79823144247258
 10
5.394356061219453
 20
24.56806363639252
 42
-0.0577497503696406
 10
5.677439409633033
 20
23.894296905162
 42
-0.0704586086750162
 10
5.709885522136522
 20
23.59874290269272
  0
LWPOLYLINE
  5
209
330
74
100
AcDbEntity
  8
0
100
AcDbPolyline
 90
        5
 70
     0
 43
0.0
 10
4.363123836933599
 20
26.97341078253783
 42
0.0784859440637047
 10
4.41030439500253
 20
26.79149377125012
 42
0.0622651658687979
 10
5.481977087035771
 20
24.61522730702006
 42
-0.0872927853522097
 10
5.832461227391975
 20
23.90103457638446
 42
-0.068082193146649
 10
5.872218014085682
 20
23.59874290269272
 42
-0.8008646004752439
  0
LINE
  5
210
330
74
100
AcDbEntity
  8
0
100
AcDbLine
 10
4.258184132656431
 20
26.2940862077392
 30
0.0
 11
5.076656982376286
 21
25.008489772511
 31
0.0
  0
ARC
  5
211
330
74
100
AcDbEntity
  8
0
100
AcDbCircle
 10
3.362331179103977
 20
25.72374290269272
 30
0.0
 40
1.062
100
AcDbArc
 50
32.443884970923
 51
90.00000000000003
  0
LINE
  5
212
330
74
100
AcDbEntity
  8
0
100
AcDbLine
 10
5.837548096162006
 20
24.27658515085549
 30
0.0
 11
5.019075246442151
 21
25.56218158608369
 31
0.0
  0
ARC
  5
213
330
74
100
AcDbEntity
  8
0
100
AcDbCircle
 10
2.862331179103977
 20
23.59874290269272
 30
0.0
 40
2.625
100
AcDbArc
 50
0.0
 51
32.52352240375208
  0
ARC
  5
214
330
74
100
AcDbEntity
  8
0
100
AcDbCircle
 10
2.862331179103977
 20
23.59874290269272
 30
0.0
 40
2.625
100
AcDbArc
 50
327.4764775962479
 51
0.0
  0
ARC
  5
215
330
74
100
AcDbEntity
  8
0
100
AcDbCircle
 10
13.97554079093542
 20
13.47918624306494
 30
0.0
 40
2.625
100
AcDbArc
 50
147.4764775962479
 51
180.0
  0
ARC
  5
216
330
74
100
AcDbEntity
  8
0
100
AcDbCircle
 10
6.233401049714461
 20
13.47918624306494
 30
0.0
 40
2.625
100
AcDbArc
 50
0.0
 51
32.52352240375208
  0
LWPOLYLINE
  5
217
330
74
100
AcDbEntity
  8
0
100
AcDbPolyline
 90
        5
 70
     0
 43
0.0
 10
9.353061196392124
 20
13.46422857398417
 42
0.0833747253464985
 10
9.265440170575805
 20
13.65288325649434
 10
8.072446038209468
 20
15.8830510625744
 42
-0.0577497503696406
 10
7.789362689795888
 20
16.55681779380492
 42
-0.0704586086750162
 10
7.7569165772924
 20
16.8523717962742
  0
LWPOLYLINE
  5
21E
330
74
100
AcDbEntity
  8
0
100
AcDbPolyline
 90
        5
 70
     0
 43
0.0
 10
9.103678262495323
 20
13.47770391642909
 42
0.0784859440637047
 10
9.056497704426393
 20
13.6596209277168
 42
0.0622651658687979
 10
7.984825012393151
 20
15.83588739194686
 42
-0.0872927853522097
 10
7.634340872036946
 20
16.55008012258246
 42
-0.068082193146649
 10
7.59458408534324
 20
16.8523717962742
 42
-0.8008646004752439
  0
LWPOLYLINE
  5
225
330
74
100
AcDbEntity
  8
0
100
AcDbPolyline
 90
        5
 70
     0
 43
0.0
 10
11.10526357815456
 20
13.47770391642909
 42
-0.0784859440637047
 10
11.15244413622349
 20
13.6596209277168
 42
-0.0622651658687979
 10
12.22411682825673
 20
15.83588739194686
 42
0.0872927853522097
 10
12.57460096861294
 20
16.55008012258246
 42
0.068082193146649
 10
12.61435775530664
 20
16.8523717962742
 42
0.8008646004752439
  0
LWPOLYLINE
  5
22C
330
74
100
AcDbEntity
  8
0
100
AcDbPolyline
 90
        5
 70
     0
 43
0.0
 10
10.85588064425776
 20
13.46422857398417
 42
-0.0833747253464985
 10
10.94350167007408
 20
13.65288325649434
 10
12.13649580244042
 20
15.8830510625744
 42
0.0577497503696406
 10
12.419579150854
 20
16.55681779380492
 42
0.0704586086750162
 10
12.45202526335749
 20
16.8523717962742
  0
LWPOLYLINE
  5
233
330
74
100
AcDbEntity
  8
0
100
AcDbPolyline
 90
        5
 70
     0
 43
0.0
 10
10.85588064425776
 20
13.49414391214572
 42
0.0833747253464985
 10
10.94350167007408
 20
13.30548922963554
 10
12.13649580244042
 20
11.07532142355548
 42
-0.0577497503696406
 10
12.419579150854
 20
10.40155469232496
 42
-0.0704586086750162
 10
12.45202526335749
 20
10.10600068985568
  0
LWPOLYLINE
  5
23A
330
74
100
AcDbEntity
  8
0
100
AcDbPolyline
 90
        5
 70
     0
 43
0.0
 10
11.10526357815456
 20
13.48066856970079
 42
0.0784859440637047
 10
11.15244413622349
 20
13.29875155841309
 42
0.0622651658687979
 10
12.22411682825673
 20
11.12248509418302
 42
-0.0872927853522097
 10
12.57460096861294
 20
10.40829236354742
 42
-0.068082193146649
 10
12.61435775530664
 20
10.10600068985568
 42
-0.8008646004752439
  0
LWPOLYLINE
  5
241
330
74
100
AcDbEntity
  8
0
100
AcDbPolyline
 90
        5
 70
     0
 43
0.0
 10
9.103678262495323
 20
13.48066856970079
 42
-0.0784859440637047
 10
9.056497704426393
 20
13.29875155841309
 42
-0.0622651658687979
 10
7.984825012393151
 20
11.12248509418302
 42
0.0872927853522097
 10
7.634340872036946
 20
10.40829236354742
 42
0.068082193146649
 10
7.59458408534324
 20
10.10600068985568
 42
0.8008646004752439
  0
LWPOLYLINE
  5
248
330
74
100
AcDbEntity
  8
0
100
AcDbPolyline
 90
        5
 70
     0
 43
0.0
 10
9.353061196392124
 20
13.49414391214572
 42
-0.0833747253464985
 10
9.265440170575805
 20
13.30548922963554
 10
8.072446038209468
 20
11.07532142355548
 42
0.0577497503696406
 10
7.789362689795888
 20
10.40155469232496
 42
0.0704586086750162
 10
7.7569165772924
 20
10.10600068985568
  0
LINE
  5
24F
330
74
100
AcDbEntity
  8
0
100
AcDbLine
 10
11.35054079093542
 20
-0.0135559697720895
 30
0.0
 11
8.85840104971446
 21
-0.0135559697720895
 31
0.0
  0
ARC
  5
250
330
74
100
AcDbEntity
  8
0
100
AcDbCircle
 10
10.10447092032494
 20
7.981000689855685
 30
0.0
 40
1.062
100
AcDbArc
 50
270.0
 51
327.5561150290769
  0
LWPOLYLINE
  5
251
330
74
100
AcDbEntity
  8
0
100
AcDbPolyline
 90
        5
 70
     0
 43
0.0
 10
10.85588064425776
 20
6.71785746756565
 42
-0.0833747253464985
 10
10.94350167007408
 20
6.90651215007582
 10
12.13649580244042
 20
9.136679956155887
 42
0.0577497503696406
 10
12.419579150854
 20
9.810446687386402
 42
0.0704586086750162
 10
12.45202526335749
 20
10.10600068985568
  0
ARC
  5
258
330
74
100
AcDbEntity
  8
0
100
AcDbCircle
 10
10.10447092032494
 20
12.23100068985568
 30
0.0
 40
1.062
100
AcDbArc
 50
32.443884970923
 51
90.00000000000003
  0
ARC
  5
259
330
74
100
AcDbEntity
  8
0
100
AcDbCircle
 10
10.10447092032494
 20
5.484629583437168
 30
0.0
 40
1.062
100
AcDbArc
 50
32.443884970923
 51
90.00000000000003
  0
LWPOLYLINE
  5
25A
330
74
100
AcDbEntity
  8
0
100
AcDbPolyline
 90
        5
 70
     0
 43
0.0
 10
10.85588064425776
 20
6.747772805727203
 42
0.0833747253464985
 10
10.94350167007408
 20
6.559118123217033
 10
12.13649580244042
 20
4.328950317136966
 42
-0.0577497503696406
 10
12.419579150854
 20
3.65518358590645
 42
-0.0704586086750162
 10
12.45202526335749
 20
3.359629583437168
  0
ARC
  5
261
330
74
100
AcDbEntity
  8
0
100
AcDbCircle
 10
10.10447092032494
 20
1.234629583437168
 30
0.0
 40
1.062
100
AcDbArc
 50
270.0
 51
327.5561150290769
  0
LWPOLYLINE
  5
262
330
74
100
AcDbEntity
  8
0
100
AcDbPolyline
 90
        5
 70
     0
 43
0.0
 10
10.85588064425776
 20
-0.0285136388528666
 42
-0.0833747253464985
 10
10.94350167007408
 20
0.1601410436573036
 10
12.13649580244042
 20
2.39030884973737
 42
0.0577497503696406
 10
12.419579150854
 20
3.064075580967886
 42
0.0704586086750162
 10
12.45202526335749
 20
3.359629583437168
  0
LINE
  5
269
330
74
100
AcDbEntity
  8
0
100
AcDbLine
 10
7.629254003266916
 20
4.037471831599946
 30
0.0
 11
8.44772685298677
 21
5.323068266828146
 31
0.0
  0
LINE
  5
26A
330
74
100
AcDbEntity
  8
0
100
AcDbLine
 10
9.208617966772491
 20
6.05497288848365
 30
0.0
 11
8.390145117052634
 21
4.76937645325545
 31
0.0
  0
LWPOLYLINE
  5
26B
330
74
100
AcDbEntity
  8
0
100
AcDbPolyline
 90
        5
 70
     0
 43
0.0
 10
9.103678262495323
 20
6.734297463282284
 42
-0.0784859440637047
 10
9.056497704426393
 20
6.552380451994573
 42
-0.0622651658687979
 10
7.984825012393151
 20
4.376113987764508
 42
0.0872927853522097
 10
7.634340872036946
 20
3.66192125712891
 42
0.068082193146649
 10
7.59458408534324
 20
3.359629583437168
 42
0.8008646004752439
  0
LWPOLYLINE
  5
272
330
74
100
AcDbEntity
  8
0
100
AcDbPolyline
 90
        5
 70
     0
 43
0.0
 10
9.353061196392124
 20
6.747772805727203
 42
-0.0833747253464985
 10
9.265440170575805
 20
6.559118123217033
 10
8.072446038209468
 20
4.328950317136966
 42
0.0577497503696406
 10
7.789362689795888
 20
3.65518358590645
 42
0.0704586086750162
 10
7.7569165772924
 20
3.359629583437168
  0
ARC
  5
279
330
74
100
AcDbEntity
  8
0
100
AcDbCircle
 10
6.233401049714461
 20
-0.0135559697720898
 30
0.0
 40
2.625
100
AcDbArc
 50
0.000000000000007
 51
32.52352240375208
  0
LWPOLYLINE
  5
27A
330
74
100
AcDbEntity
  8
0
100
AcDbPolyline
 90
        5
 70
     0
 43
0.0
 10
9.353061196392124
 20
-0.0285136388528666
 42
0.0833747253464985
 10
9.265440170575805
 20
0.1601410436573036
 10
8.072446038209468
 20
2.39030884973737
 42
-0.0577497503696406
 10
7.789362689795888
 20
3.064075580967886
 42
-0.0704586086750162
 10
7.7569165772924
 20
3.359629583437168
  0
LWPOLYLINE
  5
281
330
74
100
AcDbEntity
  8
0
100
AcDbPolyline
 90
        5
 70
     0
 43
0.0
 10
9.103678262495323
 20
-0.015038296407947
 42
0.0784859440637047
 10
9.056497704426393
 20
0.1668787148797634
 42
0.0622651658687979
 10
7.984825012393151
 20
2.343145179109828
 42
-0.0872927853522097
 10
7.634340872036946
 20
3.057337909745426
 42
-0.068082193146649
 10
7.59458408534324
 20
3.359629583437168
 42
-0.8008646004752439
  0
LINE
  5
288
330
74
100
AcDbEntity
  8
0
100
AcDbLine
 10
9.208617966772491
 20
0.6642862783906867
 30
0.0
 11
8.390145117052634
 21
1.949882713618887
 31
0.0
  0
LINE
  5
289
330
74
100
AcDbEntity
  8
0
100
AcDbLine
 10
7.629254003266916
 20
2.681787335274391
 30
0.0
 11
8.44772685298677
 21
1.396190900046191
 31
0.0
  0
ARC
  5
28A
330
74
100
AcDbEntity
  8
0
100
AcDbCircle
 10
6.733401049714461
 20
2.111444030227909
 30
0.0
 40
1.062
100
AcDbArc
 50
32.443884970923
 51
90.00000000000003
  0
ARC
  5
28B
330
74
100
AcDbEntity
  8
0
100
AcDbCircle
 10
6.733401049714461
 20
4.607815136646427
 30
0.0
 40
1.062
100
AcDbArc
 50
270.0
 51
327.5561150290769
  0
ARC
  5
28C
330
74
100
AcDbEntity
  8
0
100
AcDbCircle
 10
10.60447092032494
 20
3.359629583437168
 30
0.0
 40
2.625
100
AcDbArc
 50
180.0
 51
212.523522403752
  0
ARC
  5
28D
330
74
100
AcDbEntity
  8
0
100
AcDbCircle
 10
10.60447092032494
 20
3.359629583437168
 30
0.0
 40
2.625
100
AcDbArc
 50
147.4764775962478
 51
180.0
  0
ARC
  5
28E
330
74
100
AcDbEntity
  8
0
100
AcDbCircle
 10
10.10447092032494
 20
1.234629583437168
 30
0.0
 40
1.062
100
AcDbArc
 50
212.443884970923
 51
270.0
  0
LINE
  5
28F
330
74
100
AcDbEntity
  8
0
100
AcDbLine
 10
9.208617966772491
 20
7.410657384809203
 30
0.0
 11
8.390145117052634
 21
8.696253820037403
 31
0.0
  0
ARC
  5
290
330
74
100
AcDbEntity
  8
0
100
AcDbCircle
 10
6.233401049714461
 20
6.732815136646427
 30
0.0
 40
2.625
100
AcDbArc
 50
0.0
 51
32.52352240375209
  0
LWPOLYLINE
  5
291
330
74
100
AcDbEntity
  8
0
100
AcDbPolyline
 90
        5
 70
     0
 43
0.0
 10
9.353061196392124
 20
6.71785746756565
 42
0.0833747253464985
 10
9.265440170575805
 20
6.90651215007582
 10
8.072446038209468
 20
9.136679956155887
 42
-0.0577497503696406
 10
7.789362689795888
 20
9.810446687386402
 42
-0.0704586086750162
 10
7.7569165772924
 20
10.10600068985568
  0
LWPOLYLINE
  5
298
330
74
100
AcDbEntity
  8
0
100
AcDbPolyline
 90
        5
 70
     0
 43
0.0
 10
9.103678262495323
 20
6.731332810010569
 42
0.0784859440637047
 10
9.056497704426393
 20
6.91324982129828
 42
0.0622651658687979
 10
7.984825012393151
 20
9.089516285528345
 42
-0.0872927853522097
 10
7.634340872036946
 20
9.803709016163942
 42
-0.068082193146649
 10
7.59458408534324
 20
10.10600068985568
 42
-0.8008646004752439
  0
ARC
  5
29F
330
74
100
AcDbEntity
  8
0
100
AcDbCircle
 10
6.233401049714461
 20
13.47918624306494
 30
0.0
 40
2.625
100
AcDbArc
 50
327.4764775962479
 51
0.0
  0
LINE
  5
2A0
330
74
100
AcDbEntity
  8
0
100
AcDbLine
 10
9.208617966772491
 20
12.80134399490216
 30
0.0
 11
8.390145117052634
 21
11.51574755967396
 31
0.0
  0
ARC
  5
2A1
330
74
100
AcDbEntity
  8
0
100
AcDbCircle
 10
6.233401049714461
 20
6.732815136646427
 30
0.0
 40
2.625
100
AcDbArc
 50
327.4764775962479
 51
0.0
  0
LINE
  5
2A2
330
74
100
AcDbEntity
  8
0
100
AcDbLine
 10
7.629254003266916
 20
9.428158441692907
 30
0.0
 11
8.44772685298677
 21
8.142562006464707
 31
0.0
  0
ARC
  5
2A3
330
74
100
AcDbEntity
  8
0
100
AcDbCircle
 10
10.60447092032494
 20
10.10600068985568
 30
0.0
 40
2.625
100
AcDbArc
 50
180.0
 51
212.523522403752
  0
LINE
  5
2A4
330
74
100
AcDbEntity
  8
0
100
AcDbLine
 10
7.629254003266916
 20
10.78384293801846
 30
0.0
 11
8.44772685298677
 21
12.06943937324666
 31
0.0
  0
ARC
  5
2A5
330
74
100
AcDbEntity
  8
0
100
AcDbCircle
 10
6.733401049714461
 20
8.857815136646426
 30
0.0
 40
1.062
100
AcDbArc
 50
32.443884970923
 51
90.00000000000003
  0
ARC
  5
2A6
330
74
100
AcDbEntity
  8
0
100
AcDbCircle
 10
6.733401049714461
 20
11.35418624306494
 30
0.0
 40
1.062
100
AcDbArc
 50
270.0
 51
327.5561150290769
  0
ARC
  5
2A7
330
74
100
AcDbEntity
  8
0
100
AcDbCircle
 10
10.60447092032494
 20
10.10600068985568
 30
0.0
 40
2.625
100
AcDbArc
 50
147.4764775962478
 51
180.0
  0
ARC
  5
2A8
330
74
100
AcDbEntity
  8
0
100
AcDbCircle
 10
10.10447092032494
 20
7.981000689855685
 30
0.0
 40
1.062
100
AcDbArc
 50
212.443884970923
 51
270.0
  0
ARC
  5
2A9
330
74
100
AcDbEntity
  8
0
100
AcDbCircle
 10
10.10447092032494
 20
5.484629583437168
 30
0.0
 40
1.062
100
AcDbArc
 50
90.00000000000003
 51
147.5561150290769
  0
ARC
  5
2AA
330
74
100
AcDbEntity
  8
0
100
AcDbCircle
 10
10.10447092032494
 20
12.23100068985568
 30
0.0
 40
1.062
100
AcDbArc
 50
90.00000000000003
 51
147.5561150290769
  0
LWPOLYLINE
  5
2AB
330
74
100
AcDbEntity
  8
0
100
AcDbPolyline
 90
        5
 70
     0
 43
0.0
 10
11.10526357815456
 20
6.734297463282284
 42
0.0784859440637047
 10
11.15244413622349
 20
6.552380451994573
 42
0.0622651658687979
 10
12.22411682825673
 20
4.376113987764508
 42
-0.0872927853522097
 10
12.57460096861294
 20
3.66192125712891
 42
-0.068082193146649
 10
12.61435775530664
 20
3.359629583437168
 42
-0.8008646004752439
  0
LINE
  5
2B2
330
74
100
AcDbEntity
  8
0
100
AcDbLine
 10
11.0003238738774
 20
6.05497288848365
 30
0.0
 11
11.81879672359725
 21
4.76937645325545
 31
0.0
  0
LINE
  5
2B3
330
74
100
AcDbEntity
  8
0
100
AcDbLine
 10
12.57968783738297
 20
4.037471831599946
 30
0.0
 11
11.76121498766311
 21
5.323068266828146
 31
0.0
  0
ARC
  5
2B4
330
74
100
AcDbEntity
  8
0
100
AcDbCircle
 10
13.47554079093542
 20
4.607815136646427
 30
0.0
 40
1.062
100
AcDbArc
 50
212.443884970923
 51
270.0
  0
ARC
  5
2B5
330
74
100
AcDbEntity
  8
0
100
AcDbCircle
 10
13.47554079093542
 20
2.111444030227909
 30
0.0
 40
1.062
100
AcDbArc
 50
89.99999999999998
 51
147.556115029077
  0
ARC
  5
2B6
330
74
100
AcDbEntity
  8
0
100
AcDbCircle
 10
13.97554079093542
 20
-0.0135559697720898
 30
0.0
 40
2.625
100
AcDbArc
 50
147.4764775962479
 51
180.0
  0
LINE
  5
2B7
330
74
100
AcDbEntity
  8
0
100
AcDbLine
 10
11.0003238738774
 20
0.6642862783906867
 30
0.0
 11
11.81879672359725
 21
1.949882713618887
 31
0.0
  0
LWPOLYLINE
  5
2B8
330
74
100
AcDbEntity
  8
0
100
AcDbPolyline
 90
        5
 70
     0
 43
0.0
 10
11.10526357815456
 20
-0.015038296407947
 42
-0.0784859440637047
 10
11.15244413622349
 20
0.1668787148797634
 42
-0.0622651658687979
 10
12.22411682825673
 20
2.343145179109828
 42
0.0872927853522097
 10
12.57460096861294
 20
3.057337909745426
 42
0.068082193146649
 10
12.61435775530664
 20
3.359629583437168
 42
0.8008646004752439
  0
ARC
  5
2BF
330
74
100
AcDbEntity
  8
0
100
AcDbCircle
 10
9.604470920324944
 20
3.359629583437168
 30
0.0
 40
2.625
100
AcDbArc
 50
0.0
 51
32.52352240375209
  0
ARC
  5
2C0
330
74
100
AcDbEntity
  8
0
100
AcDbCircle
 10
9.604470920324944
 20
3.359629583437168
 30
0.0
 40
2.625
100
AcDbArc
 50
327.4764775962479
 51
0.000000000000007
  0
LINE
  5
2C1
330
74
100
AcDbEntity
  8
0
100
AcDbLine
 10
12.57968783738297
 20
2.681787335274391
 30
0.0
 11
11.76121498766311
 21
1.396190900046191
 31
0.0
  0
LINE
  5
2C2
330
74
100
AcDbEntity
  8
0
100
AcDbLine
 10
13.47554079093542
 20
3.545815136646427
 30
0.0
 11
13.47554079093542
 21
3.173444030227909
 31
0.0
  0
ARC
  5
2C3
330
74
100
AcDbEntity
  8
0
100
AcDbCircle
 10
13.47554079093542
 20
8.857815136646426
 30
0.0
 40
1.062
100
AcDbArc
 50
90.00000000000003
 51
147.556115029077
  0
ARC
  5
2C4
330
74
100
AcDbEntity
  8
0
100
AcDbCircle
 10
13.47554079093542
 20
11.35418624306494
 30
0.0
 40
1.062
100
AcDbArc
 50
212.443884970923
 51
270.0
  0
LINE
  5
2C5
330
74
100
AcDbEntity
  8
0
100
AcDbLine
 10
12.57968783738297
 20
9.428158441692907
 30
0.0
 11
11.76121498766311
 21
8.142562006464707
 31
0.0
  0
LWPOLYLINE
  5
2C6
330
74
100
AcDbEntity
  8
0
100
AcDbPolyline
 90
        5
 70
     0
 43
0.0
 10
11.10526357815456
 20
6.731332810010569
 42
-0.0784859440637047
 10
11.15244413622349
 20
6.91324982129828
 42
-0.0622651658687979
 10
12.22411682825673
 20
9.089516285528345
 42
0.0872927853522097
 10
12.57460096861294
 20
9.803709016163942
 42
0.068082193146649
 10
12.61435775530664
 20
10.10600068985568
 42
0.8008646004752439
  0
ARC
  5
2CD
330
74
100
AcDbEntity
  8
0
100
AcDbCircle
 10
9.604470920324944
 20
10.10600068985568
 30
0.0
 40
2.625
100
AcDbArc
 50
327.4764775962479
 51
0.0
  0
ARC
  5
2CE
330
74
100
AcDbEntity
  8
0
100
AcDbCircle
 10
13.97554079093542
 20
6.732815136646427
 30
0.0
 40
2.625
100
AcDbArc
 50
147.4764775962479
 51
180.0
  0
ARC
  5
2CF
330
74
100
AcDbEntity
  8
0
100
AcDbCircle
 10
13.97554079093542
 20
6.732815136646427
 30
0.0
 40
2.625
100
AcDbArc
 50
180.0
 51
212.523522403752
  0
LINE
  5
2D0
330
74
100
AcDbEntity
  8
0
100
AcDbLine
 10
11.0003238738774
 20
7.410657384809203
 30
0.0
 11
11.81879672359725
 21
8.696253820037403
 31
0.0
  0
ARC
  5
2D1
330
74
100
AcDbEntity
  8
0
100
AcDbCircle
 10
9.604470920324944
 20
10.10600068985568
 30
0.0
 40
2.625
100
AcDbArc
 50
0.0
 51
32.52352240375209
  0
LINE
  5
2D2
330
74
100
AcDbEntity
  8
0
100
AcDbLine
 10
12.57968783738297
 20
10.78384293801846
 30
0.0
 11
11.76121498766311
 21
12.06943937324666
 31
0.0
  0
ARC
  5
2D3
330
74
100
AcDbEntity
  8
0
100
AcDbCircle
 10
13.97554079093542
 20
13.47918624306494
 30
0.0
 40
2.625
100
AcDbArc
 50
180.0
 51
212.523522403752
  0
LINE
  5
2D4
330
74
100
AcDbEntity
  8
0
100
AcDbLine
 10
11.0003238738774
 20
12.80134399490216
 30
0.0
 11
11.81879672359725
 21
11.51574755967396
 31
0.0
  0
LINE
  5
2D5
330
74
100
AcDbEntity
  8
0
100
AcDbLine
 10
13.47554079093542
 20
10.29218624306494
 30
0.0
 11
13.47554079093542
 21
9.919815136646425
 31
0.0
  0
LINE
  5
2D6
330
74
100
AcDbEntity
  8
0
100
AcDbLine
 10
8.85840104971446
 20
26.97192845590198
 30
0.0
 11
11.35054079093542
 21
26.97192845590198
 31
0.0
  0
ARC
  5
2D7
330
74
100
AcDbEntity
  8
0
100
AcDbCircle
 10
10.10447092032494
 20
14.7273717962742
 30
0.0
 40
1.062
100
AcDbArc
 50
270.0
 51
327.5561150290769
  0
LWPOLYLINE
  5
2D8
330
74
100
AcDbEntity
  8
0
100
AcDbPolyline
 90
        5
 70
     0
 43
0.0
 10
10.85588064425776
 20
20.24051501856424
 42
0.0833747253464985
 10
10.94350167007408
 20
20.05186033605407
 10
12.13649580244042
 20
17.821692529974
 42
-0.0577497503696406
 10
12.419579150854
 20
17.14792579874348
 42
-0.0704586086750162
 10
12.45202526335749
 20
16.8523717962742
  0
ARC
  5
2DF
330
74
100
AcDbEntity
  8
0
100
AcDbCircle
 10
10.10447092032494
 20
18.9773717962742
 30
0.0
 40
1.062
100
AcDbArc
 50
32.443884970923
 51
90.00000000000003
  0
ARC
  5
2E0
330
74
100
AcDbEntity
  8
0
100
AcDbCircle
 10
10.10447092032494
 20
21.47374290269272
 30
0.0
 40
1.062
100
AcDbArc
 50
270.0
 51
327.5561150290769
  0
LWPOLYLINE
  5
2E1
330
74
100
AcDbEntity
  8
0
100
AcDbPolyline
 90
        5
 70
     0
 43
0.0
 10
10.85588064425776
 20
20.21059968040268
 42
-0.0833747253464985
 10
10.94350167007408
 20
20.39925436291285
 10
12.13649580244042
 20
22.62942216899292
 42
0.0577497503696406
 10
12.419579150854
 20
23.30318890022343
 42
0.0704586086750162
 10
12.45202526335749
 20
23.59874290269272
  0
ARC
  5
2E8
330
74
100
AcDbEntity
  8
0
100
AcDbCircle
 10
10.10447092032494
 20
25.72374290269272
 30
0.0
 40
1.062
100
AcDbArc
 50
32.443884970923
 51
90.00000000000003
  0
LWPOLYLINE
  5
2E9
330
74
100
AcDbEntity
  8
0
100
AcDbPolyline
 90
        5
 70
     0
 43
0.0
 10
10.85588064425776
 20
26.98688612498275
 42
0.0833747253464985
 10
10.94350167007408
 20
26.79823144247258
 10
12.13649580244042
 20
24.56806363639252
 42
-0.0577497503696406
 10
12.419579150854
 20
23.894296905162
 42
-0.0704586086750162
 10
12.45202526335749
 20
23.59874290269272
  0
LINE
  5
2F0
330
74
100
AcDbEntity
  8
0
100
AcDbLine
 10
9.208617966772491
 20
20.90339959764623
 30
0.0
 11
8.390145117052634
 21
22.18899603287443
 31
0.0
  0
LWPOLYLINE
  5
2F1
330
74
100
AcDbEntity
  8
0
100
AcDbPolyline
 90
        5
 70
     0
 43
0.0
 10
9.353061196392124
 20
20.21059968040268
 42
0.0833747253464985
 10
9.265440170575805
 20
20.39925436291285
 10
8.072446038209468
 20
22.62942216899292
 42
-0.0577497503696406
 10
7.789362689795888
 20
23.30318890022343
 42
-0.0704586086750162
 10
7.7569165772924
 20
23.59874290269272
  0
LWPOLYLINE
  5
2F8
330
74
100
AcDbEntity
  8
0
100
AcDbPolyline
 90
        5
 70
     0
 43
0.0
 10
9.103678262495323
 20
20.2240750228476
 42
0.0784859440637047
 10
9.056497704426393
 20
20.40599203413531
 42
0.0622651658687979
 10
7.984825012393151
 20
22.58225849836537
 42
-0.0872927853522097
 10
7.634340872036946
 20
23.29645122900097
 42
-0.068082193146649
 10
7.59458408534324
 20
23.59874290269272
 42
-0.8008646004752439
  0
LINE
  5
2FF
330
74
100
AcDbEntity
  8
0
100
AcDbLine
 10
7.629254003266916
 20
22.92090065452994
 30
0.0
 11
8.44772685298677
 21
21.63530421930174
 31
0.0
  0
LINE
  5
300
330
74
100
AcDbEntity
  8
0
100
AcDbLine
 10
9.208617966772491
 20
14.15702849122772
 30
0.0
 11
8.390145117052634
 21
15.44262492645592
 31
0.0
  0
LINE
  5
301
330
74
100
AcDbEntity
  8
0
100
AcDbLine
 10
9.208617966772491
 20
19.54771510132068
 30
0.0
 11
8.390145117052634
 21
18.26211866609248
 31
0.0
  0
LWPOLYLINE
  5
302
330
74
100
AcDbEntity
  8
0
100
AcDbPolyline
 90
        5
 70
     0
 43
0.0
 10
9.103678262495323
 20
20.22703967611931
 42
-0.0784859440637047
 10
9.056497704426393
 20
20.0451226648316
 42
-0.0622651658687979
 10
7.984825012393151
 20
17.86885620060154
 42
0.0872927853522097
 10
7.634340872036946
 20
17.15466346996594
 42
0.068082193146649
 10
7.59458408534324
 20
16.8523717962742
 42
0.8008646004752439
  0
LWPOLYLINE
  5
309
330
74
100
AcDbEntity
  8
0
100
AcDbPolyline
 90
        5
 70
     0
 43
0.0
 10
9.353061196392124
 20
20.24051501856424
 42
-0.0833747253464985
 10
9.265440170575805
 20
20.05186033605407
 10
8.072446038209468
 20
17.821692529974
 42
0.0577497503696406
 10
7.789362689795888
 20
17.14792579874348
 42
0.0704586086750162
 10
7.7569165772924
 20
16.8523717962742
  0
ARC
  5
310
330
74
100
AcDbEntity
  8
0
100
AcDbCircle
 10
6.233401049714461
 20
20.22555734948346
 30
0.0
 40
2.625
100
AcDbArc
 50
327.4764775962479
 51
0.0
  0
ARC
  5
311
330
74
100
AcDbEntity
  8
0
100
AcDbCircle
 10
6.233401049714461
 20
20.22555734948346
 30
0.0
 40
2.625
100
AcDbArc
 50
0.0
 51
32.52352240375208
  0
ARC
  5
312
330
74
100
AcDbEntity
  8
0
100
AcDbCircle
 10
10.60447092032494
 20
16.8523717962742
 30
0.0
 40
2.625
100
AcDbArc
 50
147.4764775962479
 51
180.0
  0
LINE
  5
313
330
74
100
AcDbEntity
  8
0
100
AcDbLine
 10
7.629254003266916
 20
17.53021404443698
 30
0.0
 11
8.44772685298677
 21
18.81581047966518
 31
0.0
  0
LINE
  5
314
330
74
100
AcDbEntity
  8
0
100
AcDbLine
 10
7.629254003266916
 20
16.17452954811143
 30
0.0
 11
8.44772685298677
 21
14.88893311288322
 31
0.0
  0
ARC
  5
315
330
74
100
AcDbEntity
  8
0
100
AcDbCircle
 10
6.733401049714461
 20
15.60418624306494
 30
0.0
 40
1.062
100
AcDbArc
 50
32.443884970923
 51
90.00000000000003
  0
ARC
  5
316
330
74
100
AcDbEntity
  8
0
100
AcDbCircle
 10
6.733401049714461
 20
18.10055734948346
 30
0.0
 40
1.062
100
AcDbArc
 50
270.0
 51
327.5561150290769
  0
ARC
  5
317
330
74
100
AcDbEntity
  8
0
100
AcDbCircle
 10
10.60447092032494
 20
16.8523717962742
 30
0.0
 40
2.625
100
AcDbArc
 50
180.0
 51
212.523522403752
  0
ARC
  5
318
330
74
100
AcDbEntity
  8
0
100
AcDbCircle
 10
10.10447092032494
 20
14.7273717962742
 30
0.0
 40
1.062
100
AcDbArc
 50
212.443884970923
 51
270.0
  0
ARC
  5
319
330
74
100
AcDbEntity
  8
0
100
AcDbCircle
 10
10.10447092032494
 20
18.9773717962742
 30
0.0
 40
1.062
100
AcDbArc
 50
90.00000000000003
 51
147.556115029077
  0
ARC
  5
31A
330
74
100
AcDbEntity
  8
0
100
AcDbCircle
 10
10.10447092032494
 20
21.47374290269272
 30
0.0
 40
1.062
100
AcDbArc
 50
212.443884970923
 51
270.0
  0
ARC
  5
31B
330
74
100
AcDbEntity
  8
0
100
AcDbCircle
 10
6.233401049714461
 20
26.97192845590198
 30
0.0
 40
2.625
100
AcDbArc
 50
327.4764775962479
 51
0.0
  0
LINE
  5
31C
330
74
100
AcDbEntity
  8
0
100
AcDbLine
 10
9.208617966772491
 20
26.2940862077392
 30
0.0
 11
8.390145117052634
 21
25.008489772511
 31
0.0
  0
LWPOLYLINE
  5
31D
330
74
100
AcDbEntity
  8
0
100
AcDbPolyline
 90
        5
 70
     0
 43
0.0
 10
9.103678262495323
 20
26.97341078253783
 42
-0.0784859440637047
 10
9.056497704426393
 20
26.79149377125012
 42
-0.0622651658687979
 10
7.984825012393151
 20
24.61522730702006
 42
0.0872927853522097
 10
7.634340872036946
 20
23.90103457638446
 42
0.068082193146649
 10
7.59458408534324
 20
23.59874290269272
 42
0.8008646004752439
  0
LWPOLYLINE
  5
324
330
74
100
AcDbEntity
  8
0
100
AcDbPolyline
 90
        5
 70
     0
 43
0.0
 10
9.353061196392124
 20
26.98688612498275
 42
-0.0833747253464985
 10
9.265440170575805
 20
26.79823144247258
 10
8.072446038209468
 20
24.56806363639252
 42
0.0577497503696406
 10
7.789362689795888
 20
23.894296905162
 42
0.0704586086750162
 10
7.7569165772924
 20
23.59874290269272
  0
LINE
  5
32B
330
74
100
AcDbEntity
  8
0
100
AcDbLine
 10
7.629254003266916
 20
24.27658515085549
 30
0.0
 11
8.44772685298677
 21
25.56218158608369
 31
0.0
  0
ARC
  5
32C
330
74
100
AcDbEntity
  8
0
100
AcDbCircle
 10
6.733401049714461
 20
24.84692845590198
 30
0.0
 40
1.062
100
AcDbArc
 50
270.0
 51
327.5561150290769
  0
ARC
  5
32D
330
74
100
AcDbEntity
  8
0
100
AcDbCircle
 10
6.733401049714461
 20
22.35055734948346
 30
0.0
 40
1.062
100
AcDbArc
 50
32.443884970923
 51
90.00000000000003
  0
ARC
  5
32E
330
74
100
AcDbEntity
  8
0
100
AcDbCircle
 10
10.60447092032494
 20
23.59874290269272
 30
0.0
 40
2.625
100
AcDbArc
 50
147.4764775962479
 51
180.0
  0
ARC
  5
32F
330
74
100
AcDbEntity
  8
0
100
AcDbCircle
 10
10.60447092032494
 20
23.59874290269272
 30
0.0
 40
2.625
100
AcDbArc
 50
180.0
 51
212.523522403752
  0
ARC
  5
330
330
74
100
AcDbEntity
  8
0
100
AcDbCircle
 10
10.10447092032494
 20
25.72374290269272
 30
0.0
 40
1.062
100
AcDbArc
 50
90.00000000000003
 51
147.556115029077
  0
LINE
  5
331
330
74
100
AcDbEntity
  8
0
100
AcDbLine
 10
11.0003238738774
 20
20.90339959764623
 30
0.0
 11
11.81879672359725
 21
22.18899603287443
 31
0.0
  0
LINE
  5
332
330
74
100
AcDbEntity
  8
0
100
AcDbLine
 10
12.57968783738297
 20
22.92090065452994
 30
0.0
 11
11.76121498766311
 21
21.63530421930174
 31
0.0
  0
LWPOLYLINE
  5
333
330
74
100
AcDbEntity
  8
0
100
AcDbPolyline
 90
        5
 70
     0
 43
0.0
 10
11.10526357815456
 20
20.2240750228476
 42
-0.0784859440637047
 10
11.15244413622349
 20
20.40599203413531
 42
-0.0622651658687979
 10
12.22411682825673
 20
22.58225849836537
 42
0.0872927853522097
 10
12.57460096861294
 20
23.29645122900097
 42
0.068082193146649
 10
12.61435775530664
 20
23.59874290269272
 42
0.8008646004752439
  0
ARC
  5
33A
330
74
100
AcDbEntity
  8
0
100
AcDbCircle
 10
13.47554079093542
 20
15.60418624306494
 30
0.0
 40
1.062
100
AcDbArc
 50
90.00000000000003
 51
147.556115029077
  0
ARC
  5
33B
330
74
100
AcDbEntity
  8
0
100
AcDbCircle
 10
13.47554079093542
 20
18.10055734948346
 30
0.0
 40
1.062
100
AcDbArc
 50
212.443884970923
 51
270.0
  0
ARC
  5
33C
330
74
100
AcDbEntity
  8
0
100
AcDbCircle
 10
9.604470920324944
 20
16.8523717962742
 30
0.0
 40
2.625
100
AcDbArc
 50
0.0
 51
32.52352240375208
  0
LINE
  5
33D
330
74
100
AcDbEntity
  8
0
100
AcDbLine
 10
12.57968783738297
 20
17.53021404443698
 30
0.0
 11
11.76121498766311
 21
18.81581047966518
 31
0.0
  0
LWPOLYLINE
  5
33E
330
74
100
AcDbEntity
  8
0
100
AcDbPolyline
 90
        5
 70
     0
 43
0.0
 10
11.10526357815456
 20
20.22703967611931
 42
0.0784859440637047
 10
11.15244413622349
 20
20.0451226648316
 42
0.0622651658687979
 10
12.22411682825673
 20
17.86885620060154
 42
-0.0872927853522097
 10
12.57460096861294
 20
17.15466346996594
 42
-0.068082193146649
 10
12.61435775530664
 20
16.8523717962742
 42
-0.8008646004752439
  0
LINE
  5
345
330
74
100
AcDbEntity
  8
0
100
AcDbLine
 10
12.57968783738297
 20
16.17452954811143
 30
0.0
 11
11.76121498766311
 21
14.88893311288322
 31
0.0
  0
ARC
  5
346
330
74
100
AcDbEntity
  8
0
100
AcDbCircle
 10
9.604470920324944
 20
16.8523717962742
 30
0.0
 40
2.625
100
AcDbArc
 50
327.4764775962479
 51
0.0
  0
LINE
  5
347
330
74
100
AcDbEntity
  8
0
100
AcDbLine
 10
11.0003238738774
 20
14.15702849122772
 30
0.0
 11
11.81879672359725
 21
15.44262492645592
 31
0.0
  0
ARC
  5
348
330
74
100
AcDbEntity
  8
0
100
AcDbCircle
 10
13.97554079093542
 20
20.22555734948346
 30
0.0
 40
2.625
100
AcDbArc
 50
180.0
 51
212.523522403752
  0
LINE
  5
349
330
74
100
AcDbEntity
  8
0
100
AcDbLine
 10
11.0003238738774
 20
19.54771510132068
 30
0.0
 11
11.81879672359725
 21
18.26211866609248
 31
0.0
  0
ARC
  5
34A
330
74
100
AcDbEntity
  8
0
100
AcDbCircle
 10
13.97554079093542
 20
20.22555734948346
 30
0.0
 40
2.625
100
AcDbArc
 50
147.4764775962479
 51
180.0
  0
LINE
  5
34B
330
74
100
AcDbEntity
  8
0
100
AcDbLine
 10
13.47554079093542
 20
17.03855734948346
 30
0.0
 11
13.47554079093542
 21
16.66618624306494
 31
0.0
  0
ARC
  5
34C
330
74
100
AcDbEntity
  8
0
100
AcDbCircle
 10
13.47554079093542
 20
22.35055734948346
 30
0.0
 40
1.062
100
AcDbArc
 50
90.00000000000003
 51
147.556115029077
  0
ARC
  5
34D
330
74
100
AcDbEntity
  8
0
100
AcDbCircle
 10
13.47554079093542
 20
24.84692845590198
 30
0.0
 40
1.062
100
AcDbArc
 50
212.443884970923
 51
270.0
  0
ARC
  5
34E
330
74
100
AcDbEntity
  8
0
100
AcDbCircle
 10
13.97554079093542
 20
26.97192845590198
 30
0.0
 40
2.625
100
AcDbArc
 50
180.0
 51
212.523522403752
  0
LWPOLYLINE
  5
34F
330
74
100
AcDbEntity
  8
0
100
AcDbPolyline
 90
        5
 70
     0
 43
0.0
 10
11.10526357815456
 20
26.97341078253783
 42
0.0784859440637047
 10
11.15244413622349
 20
26.79149377125012
 42
0.0622651658687979
 10
12.22411682825673
 20
24.61522730702006
 42
-0.0872927853522097
 10
12.57460096861294
 20
23.90103457638446
 42
-0.068082193146649
 10
12.61435775530664
 20
23.59874290269272
 42
-0.8008646004752439
  0
LINE
  5
356
330
74
100
AcDbEntity
  8
0
100
AcDbLine
 10
11.0003238738774
 20
26.2940862077392
 30
0.0
 11
11.81879672359725
 21
25.008489772511
 31
0.0
  0
ARC
  5
357
330
74
100
AcDbEntity
  8
0
100
AcDbCircle
 10
9.604470920324944
 20
23.59874290269272
 30
0.0
 40
2.625
100
AcDbArc
 50
327.4764775962479
 51
0.0
  0
ARC
  5
358
330
74
100
AcDbEntity
  8
0
100
AcDbCircle
 10
9.604470920324944
 20
23.59874290269272
 30
0.0
 40
2.625
100
AcDbArc
 50
0.0
 51
32.52352240375208
  0
LINE
  5
359
330
74
100
AcDbEntity
  8
0
100
AcDbLine
 10
12.57968783738297
 20
24.27658515085549
 30
0.0
 11
11.76121498766311
 21
25.56218158608369
 31
0.0
  0
LINE
  5
35A
330
74
100
AcDbEntity
  8
0
100
AcDbLine
 10
13.47554079093542
 20
23.78492845590197
 30
0.0
 11
13.47554079093542
 21
23.41255734948346
 31
0.0
  0
ENDBLK
  5
35B
330
74
100
AcDbEntity
  8
0
100
AcDbBlockEnd
  0
BLOCK
  5
35C
330
BB
100
AcDbEntity
  8
0
100
AcDbBlockBegin
  2
*D1
 70
     1
 10
0.0
 20
0.0
 30
0.0
  3
*D1
  1

  0
LINE
  5
35D
330
BB
100
AcDbEntity
  8
0
  6
BYBLOCK
 62
     0
100
AcDbLine
 10
-105.3620328420766
 20
29.43200613059037
 30
0.0
 11
-105.3620328420766
 21
25.28774585625395
 31
0.0
  0
LINE
  5
35E
330
BB
100
AcDbEntity
  8
0
  6
BYBLOCK
 62
     0
100
AcDbLine
 10
-91.86203284207664
 20
29.43200613059037
 30
0.0
 11
-91.86203284207664
 21
25.28774585625395
 31
0.0
  0
LINE
  5
35F
330
BB
100
AcDbEntity
  8
0
  6
BYBLOCK
 62
     0
100
AcDbLine
 10
-105.3620328420766
 20
25.46774585625395
 30
0.0
 11
-99.04953284207664
 21
25.46774585625395
 31
0.0
  0
LINE
  5
360
330
BB
100
AcDbEntity
  8
0
  6
BYBLOCK
 62
     0
100
AcDbLine
 10
-91.86203284207664
 20
25.46774585625395
 30
0.0
 11
-98.17453284207665
 21
25.46774585625395
 31
0.0
  0
LINE
  5
361
330
BB
100
AcDbEntity
  8
0
  6
BYBLOCK
 62
     0
100
AcDbLine
 10
-105.4870328420766
 20
25.34274585625395
 30
0.0
 11
-105.2370328420766
 21
25.59274585625395
 31
0.0
  0
LINE
  5
362
330
BB
100
AcDbEntity
  8
0
  6
BYBLOCK
 62
     0
100
AcDbLine
 10
-91.98703284207665
 20
25.34274585625395
 30
0.0
 11
-91.73703284207665
 21
25.59274585625395
 31
0.0
  0
TEXT
  5
363
330
BB
100
AcDbEntity
  8
0
  6
BYBLOCK
 62
     0
100
AcDbText
 10
-98.92453284207665
 20
25.40524585625395
 30
0.0
 40
0.125
  1
13 1/2
 72
     1
 11
-98.61203284207665
 21
25.46774585625395
 31
0.0
100
AcDbText
 73
     2
  0
POINT
  5
364
330
BB
100
AcDbEntity
  8
DEFPOINTS
  6
BYBLOCK
 62
     0
100
AcDbPoint
 10
-105.3620328420766
 20
29.49450613059037
 30
0.0
  0
POINT
  5
365
330
BB
100
AcDbEntity
  8
DEFPOINTS
  6
BYBLOCK
 62
     0
100
AcDbPoint
 10
-91.86203284207664
 20
29.49450613059037
 30
0.0
  0
POINT
  5
366
330
BB
100
AcDbEntity
  8
DEFPOINTS
  6
BYBLOCK
 62
     0
100
AcDbPoint
 10
-91.86203284207664
 20
25.46774585625395
 30
0.0
  0
ENDBLK
  5
367
330
BB
100
AcDbEntity
  8
0
100
AcDbBlockEnd
  0
BLOCK
  5
368
330
BC
100
AcDbEntity
  8
0
100
AcDbBlockBegin
  2
*D2
 70
     1
 10
0.0
 20
0.0
 30
0.0
  3
*D2
  1

  0
LINE
  5
369
330
BC
100
AcDbEntity
  8
0
  6
BYBLOCK
 62
     0
100
AcDbLine
 10
-103.2995328420766
 20
53.30750613059038
 30
0.0
 11
-106.6609760496362
 21
53.30750613059038
 31
0.0
  0
LINE
  5
36A
330
BC
100
AcDbEntity
  8
0
  6
BYBLOCK
 62
     0
100
AcDbLine
 10
-103.2995328420766
 20
26.30750613059038
 30
0.0
 11
-106.6609760496362
 21
26.30750613059038
 31
0.0
  0
LINE
  5
36B
330
BC
100
AcDbEntity
  8
0
  6
BYBLOCK
 62
     0
100
AcDbLine
 10
-106.4809760496361
 20
53.30750613059038
 30
0.0
 11
-106.4809760496361
 21
40.03667279725704
 31
0.0
  0
LINE
  5
36C
330
BC
100
AcDbEntity
  8
0
  6
BYBLOCK
 62
     0
100
AcDbLine
 10
-106.4809760496361
 20
26.30750613059038
 30
0.0
 11
-106.4809760496361
 21
39.57833946392371
 31
0.0
  0
LINE
  5
36D
330
BC
100
AcDbEntity
  8
0
  6
BYBLOCK
 62
     0
100
AcDbLine
 10
-106.3559760496361
 20
53.18250613059039
 30
0.0
 11
-106.6059760496361
 21
53.43250613059038
 31
0.0
  0
LINE
  5
36E
330
BC
100
AcDbEntity
  8
0
  6
BYBLOCK
 62
     0
100
AcDbLine
 10
-106.3559760496361
 20
26.18250613059037
 30
0.0
 11
-106.6059760496361
 21
26.43250613059038
 31
0.0
  0
TEXT
  5
36F
330
BC
100
AcDbEntity
  8
0
  6
BYBLOCK
 62
     0
100
AcDbText
 10
-106.4184760496361
 20
39.70333946392372
 30
0.0
 40
0.125
  1
27
 50
90.0
 72
     1
 11
-106.4809760496361
 21
39.80750613059038
 31
0.0
100
AcDbText
 73
     2
  0
POINT
  5
370
330
BC
100
AcDbEntity
  8
DEFPOINTS
  6
BYBLOCK
 62
     0
100
AcDbPoint
 10
-103.2370328420766
 20
53.30750613059038
 30
0.0
  0
POINT
  5
371
330
BC
100
AcDbEntity
  8
DEFPOINTS
  6
BYBLOCK
 62
     0
100
AcDbPoint
 10
-103.2370328420766
 20
26.30750613059038
 30
0.0
  0
POINT
  5
372
330
BC
100
AcDbEntity
  8
DEFPOINTS
  6
BYBLOCK
 62
     0
100
AcDbPoint
 10
-106.4809760496361
 20
26.30750613059038
 30
0.0
  0
ENDBLK
  5
373
330
BC
100
AcDbEntity
  8
0
100
AcDbBlockEnd
  0
ENDSEC
  0
SECTION
  2
ENTITIES
  0
DIMENSION
  5
374
330
18
100
AcDbEntity
  8
ADPDIM
100
AcDbDimension
  2
*D2
 10
-106.4809760496361
 20
26.30750613059038
 30
0.0
 11
-106.4809760496361
 21
39.80750613059038
 31
0.0
100
AcDbAlignedDimension
 13
-103.2370328420766
 23
53.30750613059038
 33
0.0
 14
-103.2370328420766
 24
26.30750613059038
 34
0.0
 50
90.0
100
AcDbRotatedDimension
  0
INSERT
  5
375
330
18
100
AcDbEntity
  8
ADP1DETAIL
100
AcDbBlockReference
  2
585
 10
-105.3532941505701
 20
26.32106210036246
 30
0.0
  0
DIMENSION
  5
376
330
18
100
AcDbEntity
  8
ADPDIM
100
AcDbDimension
  2
*D1
 10
-91.86203284207664
 20
25.46774585625395
 30
0.0
 11
-98.61203284207665
 21
25.46774585625395
 31
0.0
100
AcDbAlignedDimension
 13
-105.3620328420766
 23
29.49450613059037
 33
0.0
 14
-91.86203284207664
 24
29.49450613059037
 34
0.0
100
AcDbRotatedDimension
  0
TEXT
  5
384
330
18
100
AcDbEntity
  8
ADPDIM
100
AcDbText
 10
-124.3587232509238
 20
23.59774358473626
 30
0.0
 40
0.5
  1
J U L I U S  B L U M  &  C O . ,  I N C .      ( 8 0 0 )  5 2 6 - 6 2 9 3        W W W . J U L I U S B L U M . C O M        P A R T  N o .  5 8 5
 41
1.25
  7
ARIAL_WIDE
 72
     1
 11
-98.61989310085569
 21
24.09774358473626
 31
0.0
100
AcDbText
 73
     3
  0
ENDSEC
  0
SECTION
  2
OBJECTS
  0
DICTIONARY
  5
C
330
0
100
AcDbDictionary
  3
ACAD_GROUP
350
D
  3
ACAD_LAYOUT
350
37D
  3
ACAD_MLINESTYLE
350
E
  3
ACAD_PLOTSETTINGS
350
37E
  3
ACAD_PLOTSTYLENAME
350
37B
  3
ACDBHEADERROUNDTRIPXREC
350
4C8
  3
ACDBVARIABLEDICTIONARY
350
3DE
  0
DICTIONARY
  5
3D8
330
18
100
AcDbDictionary
280
     1
  3
ACAD_LAYOUTSELFREF
360
4E9
  0
DICTIONARY
  5
3D6
330
15
100
AcDbDictionary
280
     1
  3
ACAD_LAYOUTSELFREF
360
4E8
  0
DICTIONARY
  5
D
102
{ACAD_REACTORS
330
C
102
}
330
C
100
AcDbDictionary
  0
DICTIONARY
  5
37D
102
{ACAD_REACTORS
330
C
102
}
330
C
100
AcDbDictionary
  0
DICTIONARY
  5
E
102
{ACAD_REACTORS
330
C
102
}
330
C
100
AcDbDictionary
  3
STANDARD
350
1B
  0
DICTIONARY
  5
37E
102
{ACAD_REACTORS
330
C
102
}
330
C
100
AcDbDictionary
  0
ACDBDICTIONARYWDFLT
  5
37B
102
{ACAD_REACTORS
330
C
102
}
330
C
100
AcDbDictionary
281
     1
  3
Normal
350
37C
100
AcDbDictionaryWithDefault
340
37C
  0
DICTIONARY
  5
4C8
102
{ACAD_REACTORS
330
C
102
}
330
C
100
AcDbDictionary
  3
CEPSNTYPE
350
4D2
  3
FINGERPRINTGUID
350
4D3
  3
HYPERLINKBASE
350
4CB
  3
INSUNITS
350
4D1
  3
LAYOUTDICT
350
4CD
  3
LWETCUNION
350
4D0
  3
PLOTSETDICT
350
4CE
  3
PLOTSTYLNAMDICT
350
4CF
  3
PSVPSCALE
350
4D5
  3
PUCSBASE
350
4D8
  3
PUCSORGBACK
350
4DE
  3
PUCSORGBOTTOM
350
4DA
  3
PUCSORGFRONT
350
4DD
  3
PUCSORGLEFT
350
4DB
  3
PUCSORGRIGHT
350
4DC
  3
PUCSORGTOP
350
4D9
  3
PUCSORTHOREF
350
4D6
  3
PUCSORTHOVIEW
350
4D7
  3
STYLESHEET
350
4CC
  3
TSTACKALIGN
350
4C9
  3
TSTACKSIZE
350
4CA
  3
UCSBASE
350
4E1
  3
UCSORGBACK
350
4E7
  3
UCSORGBOTTOM
350
4E3
  3
UCSORGFRONT
350
4E6
  3
UCSORGLEFT
350
4E4
  3
UCSORGRIGHT
350
4E5
  3
UCSORGTOP
350
4E2
  3
UCSORTHOREF
350
4DF
  3
UCSORTHOVIEW
350
4E0
  3
VERSIONGUID
350
4D4
  0
DICTIONARY
  5
3DE
102
{ACAD_REACTORS
330
C
102
}
330
C
100
AcDbDictionary
  3
DIMASSOC
350
3DF
  0
XRECORD
  5
4E9
102
{ACAD_REACTORS
330
3D8
102
}
330
3D8
100
AcDbXrecord
340
18
  0
XRECORD
  5
4E8
102
{ACAD_REACTORS
330
3D6
102
}
330
3D6
100
AcDbXrecord
340
15
  0
MLINESTYLE
  5
1B
102
{ACAD_REACTORS
330
E
102
}
330
E
100
AcDbMlineStyle
  2
STANDARD
 70
     0
  3

 62
     0
 51
90.0
 52
90.0
 71
     2
 49
0.5
 62
   256
  6
BYLAYER
 49
-0.5
 62
   256
  6
BYLAYER
  0
ACDBPLACEHOLDER
  5
37C
102
{ACAD_REACTORS
330
37B
102
}
330
37B
100
AcDbPlaceHolder
280
     0
  0
XRECORD
  5
4D2
102
{ACAD_REACTORS
330
4C8
102
}
330
4C8
100
AcDbXrecord
 90
        0
  0
XRECORD
  5
4D3
102
{ACAD_REACTORS
330
4C8
102
}
330
4C8
100
AcDbXrecord
  1
{B200354A-B7DD-4660-9396-55321F0EE030}
  0
XRECORD
  5
4CB
102
{ACAD_REACTORS
330
4C8
102
}
330
4C8
100
AcDbXrecord
  1

  0
XRECORD
  5
4D1
102
{ACAD_REACTORS
330
4C8
102
}
330
4C8
100
AcDbXrecord
 90
        0
  0
XRECORD
  5
4CD
102
{ACAD_REACTORS
330
4C8
102
}
330
4C8
100
AcDbXrecord
340
37D
  0
XRECORD
  5
4D0
102
{ACAD_REACTORS
330
4C8
102
}
330
4C8
100
AcDbXrecord
 90
    14877
  0
XRECORD
  5
4CE
102
{ACAD_REACTORS
330
4C8
102
}
330
4C8
100
AcDbXrecord
340
37E
  0
XRECORD
  5
4CF
102
{ACAD_REACTORS
330
4C8
102
}
330
4C8
100
AcDbXrecord
340
37B
  0
XRECORD
  5
4D5
102
{ACAD_REACTORS
330
4C8
102
}
330
4C8
100
AcDbXrecord
 40
0.0
  0
XRECORD
  5
4D8
102
{ACAD_REACTORS
330
4C8
102
}
330
4C8
100
AcDbXrecord
340
0
  0
XRECORD
  5
4DE
102
{ACAD_REACTORS
330
4C8
102
}
330
4C8
100
AcDbXrecord
 10
0.0
 20
0.0
 30
0.0
  0
XRECORD
  5
4DA
102
{ACAD_REACTORS
330
4C8
102
}
330
4C8
100
AcDbXrecord
 10
0.0
 20
0.0
 30
0.0
  0
XRECORD
  5
4DD
102
{ACAD_REACTORS
330
4C8
102
}
330
4C8
100
AcDbXrecord
 10
0.0
 20
0.0
 30
0.0
  0
XRECORD
  5
4DB
102
{ACAD_REACTORS
330
4C8
102
}
330
4C8
100
AcDbXrecord
 10
0.0
 20
0.0
 30
0.0
  0
XRECORD
  5
4DC
102
{ACAD_REACTORS
330
4C8
102
}
330
4C8
100
AcDbXrecord
 10
0.0
 20
0.0
 30
0.0
  0
XRECORD
  5
4D9
102
{ACAD_REACTORS
330
4C8
102
}
330
4C8
100
AcDbXrecord
 10
0.0
 20
0.0
 30
0.0
  0
XRECORD
  5
4D6
102
{ACAD_REACTORS
330
4C8
102
}
330
4C8
100
AcDbXrecord
340
0
  0
XRECORD
  5
4D7
102
{ACAD_REACTORS
330
4C8
102
}
330
4C8
100
AcDbXrecord
 70
     0
  0
XRECORD
  5
4CC
102
{ACAD_REACTORS
330
4C8
102
}
330
4C8
100
AcDbXrecord
  1

  0
XRECORD
  5
4C9
102
{ACAD_REACTORS
330
4C8
102
}
330
4C8
100
AcDbXrecord
 90
        1
  0
XRECORD
  5
4CA
102
{ACAD_REACTORS
330
4C8
102
}
330
4C8
100
AcDbXrecord
 90
       70
  0
XRECORD
  5
4E1
102
{ACAD_REACTORS
330
4C8
102
}
330
4C8
100
AcDbXrecord
340
0
  0
XRECORD
  5
4E7
102
{ACAD_REACTORS
330
4C8
102
}
330
4C8
100
AcDbXrecord
 10
0.0
 20
0.0
 30
0.0
  0
XRECORD
  5
4E3
102
{ACAD_REACTORS
330
4C8
102
}
330
4C8
100
AcDbXrecord
 10
0.0
 20
0.0
 30
0.0
  0
XRECORD
  5
4E6
102
{ACAD_REACTORS
330
4C8
102
}
330
4C8
100
AcDbXrecord
 10
0.0
 20
0.0
 30
0.0
  0
XRECORD
  5
4E4
102
{ACAD_REACTORS
330
4C8
102
}
330
4C8
100
AcDbXrecord
 10
0.0
 20
0.0
 30
0.0
  0
XRECORD
  5
4E5
102
{ACAD_REACTORS
330
4C8
102
}
330
4C8
100
AcDbXrecord
 10
0.0
 20
0.0
 30
0.0
  0
XRECORD
  5
4E2
102
{ACAD_REACTORS
330
4C8
102
}
330
4C8
100
AcDbXrecord
 10
0.0
 20
0.0
 30
0.0
  0
XRECORD
  5
4DF
102
{ACAD_REACTORS
330
4C8
102
}
330
4C8
100
AcDbXrecord
340
0
  0
XRECORD
  5
4E0
102
{ACAD_REACTORS
330
4C8
102
}
330
4C8
100
AcDbXrecord
 70
     0
  0
XRECORD
  5
4D4
102
{ACAD_REACTORS
330
4C8
102
}
330
4C8
100
AcDbXrecord
  1
{E6FDD554-BD48-46C1-A6A6-AE92876749FC}
  0
DICTIONARYVAR
  5
3DF
102
{ACAD_REACTORS
330
3DE
102
}
330
3DE
100
DictionaryVariables
280
     0
  1
1
  0
ENDSEC
  0
EOF
