  0
SECTION
  2
HEADER
  9
$ACADVER
  1
AC1014
  9
$ACADMAINTVER
 70
     9
  9
$DWGCODEPAGE
  3
ANSI_1252
  9
$INSBASE
 10
-116.6262898346929
 20
26.33941505806749
 30
0.0
  9
$EXTMIN
 10
-138.9362614723359
 20
23.64720035668415
 30
0.0
  9
$EXTMAX
 10
-87.45860117219953
 20
55.4096410956674
 30
0.0
  9
$LIMMIN
 10
0.0
 20
0.0
  9
$LIMMAX
 10
36.0
 20
36.0
  9
$ORTHOMODE
 70
     1
  9
$REGENMODE
 70
     1
  9
$FILLMODE
 70
     1
  9
$QTEXTMODE
 70
     0
  9
$MIRRTEXT
 70
     1
  9
$DRAGMODE
 70
     0
  9
$LTSCALE
 40
1.0
  9
$OSMODE
 70
    37
  9
$ATTMODE
 70
     1
  9
$TEXTSIZE
 40
0.2
  9
$TRACEWID
 40
0.05
  9
$TEXTSTYLE
  7
STANDARD
  9
$CLAYER
  8
ADPDIM
  9
$CELTYPE
  6
BYLAYER
  9
$CECOLOR
 62
   256
  9
$CELTSCALE
 40
1.0
  9
$DELOBJ
 70
     1
  9
$DISPSILH
 70
     0
  9
$DIMSCALE
 40
1.0
  9
$DIMASZ
 40
0.125
  9
$DIMEXO
 40
0.0625
  9
$DIMDLI
 40
0.38
  9
$DIMRND
 40
0.0
  9
$DIMDLE
 40
0.0
  9
$DIMEXE
 40
0.18
  9
$DIMTP
 40
0.0
  9
$DIMTM
 40
0.0
  9
$DIMTXT
 40
0.125
  9
$DIMCEN
 40
0.1875
  9
$DIMTSZ
 40
0.125
  9
$DIMTOL
 70
     0
  9
$DIMLIM
 70
     0
  9
$DIMTIH
 70
     0
  9
$DIMTOH
 70
     0
  9
$DIMSE1
 70
     0
  9
$DIMSE2
 70
     0
  9
$DIMTAD
 70
     0
  9
$DIMZIN
 70
     3
  9
$DIMBLK
  1

  9
$DIMASO
 70
     1
  9
$DIMSHO
 70
     1
  9
$DIMPOST
  1

  9
$DIMAPOST
  1

  9
$DIMALT
 70
     0
  9
$DIMALTD
 70
     1
  9
$DIMALTF
 40
25.4
  9
$DIMLFAC
 40
1.0
  9
$DIMTOFL
 70
     0
  9
$DIMTVP
 40
0.0
  9
$DIMTIX
 70
     0
  9
$DIMSOXD
 70
     0
  9
$DIMSAH
 70
     0
  9
$DIMBLK1
  1

  9
$DIMBLK2
  1

  9
$DIMSTYLE
  2
STANDARD
  9
$DIMCLRD
 70
     0
  9
$DIMCLRE
 70
     0
  9
$DIMCLRT
 70
     0
  9
$DIMTFAC
 40
1.0
  9
$DIMGAP
 40
0.125
  9
$DIMJUST
 70
     0
  9
$DIMSD1
 70
     0
  9
$DIMSD2
 70
     0
  9
$DIMTOLJ
 70
     1
  9
$DIMTZIN
 70
     0
  9
$DIMALTZ
 70
     0
  9
$DIMALTTZ
 70
     0
  9
$DIMFIT
 70
     3
  9
$DIMUPT
 70
     0
  9
$DIMUNIT
 70
     2
  9
$DIMDEC
 70
     4
  9
$DIMTDEC
 70
     4
  9
$DIMALTU
 70
     2
  9
$DIMALTTD
 70
     2
  9
$DIMTXSTY
  7
STANDARD
  9
$DIMAUNIT
 70
     0
  9
$LUNITS
 70
     5
  9
$LUPREC
 70
     5
  9
$SKETCHINC
 40
0.1
  9
$FILLETRAD
 40
0.062
  9
$AUNITS
 70
     0
  9
$AUPREC
 70
     0
  9
$MENU
  1
acad
  9
$ELEVATION
 40
0.0
  9
$PELEVATION
 40
0.0
  9
$THICKNESS
 40
0.0
  9
$LIMCHECK
 70
     0
  9
$BLIPMODE
 70
     0
  9
$CHAMFERA
 40
0.0
  9
$CHAMFERB
 40
0.0
  9
$CHAMFERC
 40
0.0
  9
$CHAMFERD
 40
0.0
  9
$SKPOLY
 70
     0
  9
$TDCREATE
 40
2450409.501043588
  9
$TDUPDATE
 40
2452297.073547812
  9
$TDINDWG
 40
0.0083686227
  9
$TDUSRTIMER
 40
0.0083686227
  9
$USRTIMER
 70
     1
  9
$ANGBASE
 50
0.0
  9
$ANGDIR
 70
     0
  9
$PDMODE
 70
     0
  9
$PDSIZE
 40
0.0
  9
$PLINEWID
 40
0.0
  9
$COORDS
 70
     2
  9
$SPLFRAME
 70
     0
  9
$SPLINETYPE
 70
     6
  9
$SPLINESEGS
 70
     8
  9
$ATTDIA
 70
     0
  9
$ATTREQ
 70
     1
  9
$HANDLING
 70
 22529
  9
$HANDSEED
  5
75F
  9
$SURFTAB1
 70
     6
  9
$SURFTAB2
 70
     6
  9
$SURFTYPE
 70
     6
  9
$SURFU
 70
     6
  9
$SURFV
 70
     6
  9
$UCSNAME
  2

  9
$UCSORG
 10
0.0
 20
0.0
 30
0.0
  9
$UCSXDIR
 10
1.0
 20
0.0
 30
0.0
  9
$UCSYDIR
 10
0.0
 20
1.0
 30
0.0
  9
$PUCSNAME
  2

  9
$PUCSORG
 10
0.0
 20
0.0
 30
0.0
  9
$PUCSXDIR
 10
1.0
 20
0.0
 30
0.0
  9
$PUCSYDIR
 10
0.0
 20
1.0
 30
0.0
  9
$USERI1
 70
     0
  9
$USERI2
 70
     0
  9
$USERI3
 70
     0
  9
$USERI4
 70
     0
  9
$USERI5
 70
     0
  9
$USERR1
 40
0.0
  9
$USERR2
 40
0.0
  9
$USERR3
 40
0.0
  9
$USERR4
 40
0.0
  9
$USERR5
 40
0.0
  9
$WORLDVIEW
 70
     1
  9
$SHADEDGE
 70
     3
  9
$SHADEDIF
 70
    70
  9
$TILEMODE
 70
     1
  9
$MAXACTVP
 70
    15
  9
$PINSBASE
 10
0.0058594681322575
 20
8.002266177471257
 30
0.0
  9
$PLIMCHECK
 70
     0
  9
$PEXTMIN
 10
1.000000000000000E+20
 20
1.000000000000000E+20
 30
1.000000000000000E+20
  9
$PEXTMAX
 10
-1.000000000000000E+20
 20
-1.000000000000000E+20
 30
-1.000000000000000E+20
  9
$PLIMMIN
 10
0.0
 20
0.0
  9
$PLIMMAX
 10
12.0
 20
9.0
  9
$UNITMODE
 70
     0
  9
$VISRETAIN
 70
     0
  9
$PLINEGEN
 70
     0
  9
$PSLTSCALE
 70
     1
  9
$TREEDEPTH
 70
  3020
  9
$PICKSTYLE
 70
     1
  9
$CMLSTYLE
  2
STANDARD
  9
$CMLJUST
 70
     0
  9
$CMLSCALE
 40
1.0
  9
$PROXYGRAPHICS
 70
     1
  9
$MEASUREMENT
 70
     0
  0
ENDSEC
  0
SECTION
  2
CLASSES
  0
CLASS
  1
ACDBDICTIONARYWDFLT
  2
AcDbDictionaryWithDefault
  3
AutoCAD 2000
 90
        0
280
     0
281
     0
  0
CLASS
  1
ACDBPLACEHOLDER
  2
AcDbPlaceHolder
  3
AutoCAD 2000
 90
        0
280
     0
281
     0
  0
CLASS
  1
LAYOUT
  2
AcDbLayout
  3
AutoCAD 2000
 90
        0
280
     0
281
     0
  0
CLASS
  1
DICTIONARYVAR
  2
AcDbDictionaryVar
  3
AutoCAD 2000
 90
        0
280
     0
281
     0
  0
CLASS
  1
LONG_TRANSACTION
  2
AcDbLongTransaction
  3
AutoCAD 2000
 90
        0
280
     0
281
     0
  0
CLASS
  1
LWPOLYLINE
  2
AcDbPolyline
  3
AutoCAD 2000
 90
        0
280
     0
281
     1
  0
CLASS
  1
HATCH
  2
AcDbHatch
  3
AutoCAD 2000
 90
        0
280
     0
281
     1
  0
CLASS
  1
XRECORD
  2
AcDbXrecord
  3
AutoCAD 2000
 90
        0
280
     0
281
     0
  0
CLASS
  1
LONG_TRANSACTION
  2
AcDbLongTransaction
  3
AutoCAD 2000
 90
        0
280
     0
281
     0
  0
CLASS
  1
LWPOLYLINE
  2
AcDbPolyline
  3
AutoCAD 2000
 90
        0
280
     0
281
     1
  0
CLASS
  1
HATCH
  2
AcDbHatch
  3
AutoCAD 2000
 90
        0
280
     0
281
     1
  0
CLASS
  1
XRECORD
  2
AcDbXrecord
  3
AutoCAD 2000
 90
        0
280
     0
281
     0
  0
CLASS
  1
LONG_TRANSACTION
  2
AcDbLongTransaction
  3
AutoCAD 2000
 90
        0
280
     0
281
     0
  0
CLASS
  1
LWPOLYLINE
  2
AcDbPolyline
  3
AutoCAD 2000
 90
        0
280
     0
281
     1
  0
CLASS
  1
HATCH
  2
AcDbHatch
  3
AutoCAD 2000
 90
        0
280
     0
281
     1
  0
CLASS
  1
XRECORD
  2
AcDbXrecord
  3
AutoCAD 2000
 90
        0
280
     0
281
     0
  0
CLASS
  1
LONG_TRANSACTION
  2
AcDbLongTransaction
  3
AutoCAD 2000
 90
        0
280
     0
281
     0
  0
CLASS
  1
LWPOLYLINE
  2
AcDbPolyline
  3
AutoCAD 2000
 90
        0
280
     0
281
     1
  0
CLASS
  1
HATCH
  2
AcDbHatch
  3
AutoCAD 2000
 90
        0
280
     0
281
     1
  0
CLASS
  1
XRECORD
  2
AcDbXrecord
  3
AutoCAD 2000
 90
        0
280
     0
281
     0
  0
CLASS
  1
LONG_TRANSACTION
  2
AcDbLongTransaction
  3
AutoCAD 2000
 90
        0
280
     0
281
     0
  0
CLASS
  1
LWPOLYLINE
  2
AcDbPolyline
  3
AutoCAD 2000
 90
        0
280
     0
281
     1
  0
CLASS
  1
HATCH
  2
AcDbHatch
  3
AutoCAD 2000
 90
        0
280
     0
281
     1
  0
CLASS
  1
XRECORD
  2
AcDbXrecord
  3
AutoCAD 2000
 90
        0
280
     0
281
     0
  0
ENDSEC
  0
SECTION
  2
TABLES
  0
TABLE
  2
VPORT
  5
8
330
0
100
AcDbSymbolTable
 70
     2
  0
VPORT
  5
73C
330
8
100
AcDbSymbolTableRecord
100
AcDbViewportTableRecord
  2
*ACTIVE
 70
     0
 10
0.0
 20
0.0
 11
1.0
 21
1.0
 12
-113.1596902829878
 22
39.52803688739387
 13
0.0
 23
0.0
 14
0.5740882589684922
 24
0.5740882589684922
 15
0.5
 25
0.5
 16
0.0
 26
0.0
 36
1.0
 17
0.0
 27
0.0
 37
0.0
 40
32.99770647932449
 41
1.570528967254408
 42
50.0
 43
0.0
 44
0.0
 50
0.0
 51
0.0
 71
     0
 72
   100
 73
     1
 74
     0
 75
     0
 76
     0
 77
     0
 78
     0
  0
ENDTAB
  0
TABLE
  2
LTYPE
  5
5
330
0
100
AcDbSymbolTable
 70
     1
  0
LTYPE
  5
12
330
5
100
AcDbSymbolTableRecord
100
AcDbLinetypeTableRecord
  2
BYBLOCK
 70
     0
  3

 72
    65
 73
     0
 40
0.0
  0
LTYPE
  5
13
330
5
100
AcDbSymbolTableRecord
100
AcDbLinetypeTableRecord
  2
BYLAYER
 70
     0
  3

 72
    65
 73
     0
 40
0.0
  0
LTYPE
  5
14
330
5
100
AcDbSymbolTableRecord
100
AcDbLinetypeTableRecord
  2
CONTINUOUS
 70
     0
  3
Solid line
 72
    65
 73
     0
 40
0.0
  0
ENDTAB
  0
TABLE
  2
LAYER
  5
2
330
0
100
AcDbSymbolTable
 70
     4
  0
LAYER
  5
F
330
2
100
AcDbSymbolTableRecord
100
AcDbLayerTableRecord
  2
0
 70
     0
 62
     7
  6
CONTINUOUS
  0
LAYER
  5
C0
330
2
100
AcDbSymbolTableRecord
100
AcDbLayerTableRecord
  2
DEFPOINTS
 70
     0
 62
     7
  6
CONTINUOUS
  0
LAYER
  5
C3
330
2
100
AcDbSymbolTableRecord
100
AcDbLayerTableRecord
  2
ADP1DETAIL
 70
     0
 62
     7
  6
CONTINUOUS
  0
LAYER
  5
C6
330
2
100
AcDbSymbolTableRecord
100
AcDbLayerTableRecord
  2
ADPDIM
 70
     0
 62
     3
  6
CONTINUOUS
  0
ENDTAB
  0
TABLE
  2
STYLE
  5
3
330
0
100
AcDbSymbolTable
 70
     2
  0
STYLE
  5
10
330
3
100
AcDbSymbolTableRecord
100
AcDbTextStyleTableRecord
  2
STANDARD
 70
     0
 40
0.0
 41
1.0
 50
0.0
 71
     0
 42
0.2
  3
txt
  4

  0
STYLE
  5
5F8
330
3
100
AcDbSymbolTableRecord
100
AcDbTextStyleTableRecord
  2
ARIAL_WIDE
 70
     0
 40
0.0
 41
1.25
 50
0.0
 71
     0
 42
0.2
  3
ARIAL.TTF
  4

1001
ACAD
1000
Arial
1071
       34
  0
ENDTAB
  0
TABLE
  2
VIEW
  5
6
330
0
100
AcDbSymbolTable
 70
     0
  0
ENDTAB
  0
TABLE
  2
UCS
  5
7
330
0
100
AcDbSymbolTable
 70
     0
  0
ENDTAB
  0
TABLE
  2
APPID
  5
9
330
0
100
AcDbSymbolTable
 70
     1
  0
APPID
  5
11
330
9
100
AcDbSymbolTableRecord
100
AcDbRegAppTableRecord
  2
ACAD
 70
     0
  0
ENDTAB
  0
TABLE
  2
DIMSTYLE
  5
A
330
0
100
AcDbSymbolTable
 70
     1
  0
DIMSTYLE
105
5EC
330
A
100
AcDbSymbolTableRecord
100
AcDbDimStyleTableRecord
  2
STANDARD
 70
     0
  3

  4

  5

  6

  7

 40
1.0
 41
0.18
 42
0.0625
 43
0.38
 44
0.18
 45
0.0
 46
0.0
 47
0.0
 48
0.0
140
0.18
141
0.09
142
0.0
143
25.4
144
1.0
145
0.0
146
1.0
147
0.09
 71
     0
 72
     0
 73
     1
 74
     1
 75
     0
 76
     0
 77
     0
 78
     0
170
     0
171
     2
172
     0
173
     0
174
     0
175
     0
176
     0
177
     0
178
     0
270
     2
271
     4
272
     4
273
     2
274
     2
340
10
275
     0
280
     0
281
     0
282
     0
283
     1
284
     0
285
     0
286
     0
287
     3
288
     0
  0
ENDTAB
  0
TABLE
  2
BLOCK_RECORD
  5
1
330
0
100
AcDbSymbolTable
 70
     2
  0
BLOCK_RECORD
  5
18
102
{ACAD_XDICTIONARY
360
64D
102
}
330
1
100
AcDbSymbolTableRecord
100
AcDbBlockTableRecord
  2
*MODEL_SPACE
  0
BLOCK_RECORD
  5
15
102
{ACAD_XDICTIONARY
360
64B
102
}
330
1
100
AcDbSymbolTableRecord
100
AcDbBlockTableRecord
  2
*PAPER_SPACE
  0
BLOCK_RECORD
  5
B9
330
1
100
AcDbSymbolTableRecord
100
AcDbBlockTableRecord
  2
*D0
  0
BLOCK_RECORD
  5
BA
330
1
100
AcDbSymbolTableRecord
100
AcDbBlockTableRecord
  2
*D1
  0
ENDTAB
  0
ENDSEC
  0
SECTION
  2
BLOCKS
  0
BLOCK
  5
C9
330
18
100
AcDbEntity
  8
0
100
AcDbBlockBegin
  2
*MODEL_SPACE
 70
     0
 10
0.0
 20
0.0
 30
0.0
  3
*MODEL_SPACE
  1

  0
ENDBLK
  5
CA
330
18
100
AcDbEntity
  8
0
100
AcDbBlockEnd
  0
BLOCK
  5
C7
330
15
100
AcDbEntity
 67
     1
  8
0
100
AcDbBlockBegin
  2
*PAPER_SPACE
 70
     0
 10
0.0
 20
0.0
 30
0.0
  3
*PAPER_SPACE
  1

  0
ENDBLK
  5
C8
330
15
100
AcDbEntity
 67
     1
  8
0
100
AcDbBlockEnd
  0
BLOCK
  5
CC
330
B9
100
AcDbEntity
  8
0
100
AcDbBlockBegin
  2
*D0
 70
     1
 10
0.0
 20
0.0
 30
0.0
  3
*D0
  1

  0
LINE
  5
CD
330
B9
100
AcDbEntity
  8
0
  6
BYBLOCK
 62
     0
100
AcDbLine
 10
-110.1929283729959
 20
55.2846410956674
 30
0.0
 11
-109.5461490741261
 21
55.2846410956674
 31
0.0
  0
LINE
  5
CE
330
B9
100
AcDbEntity
  8
0
  6
BYBLOCK
 62
     0
100
AcDbLine
 10
-116.0417371284998
 20
26.28464109566739
 30
0.0
 11
-109.5461490741261
 21
26.28464109566739
 31
0.0
  0
LINE
  5
CF
330
B9
100
AcDbEntity
  8
0
  6
BYBLOCK
 62
     0
100
AcDbLine
 10
-109.7261490741261
 20
55.2846410956674
 30
0.0
 11
-109.7261490741261
 21
41.01380776233406
 31
0.0
  0
LINE
  5
D0
330
B9
100
AcDbEntity
  8
0
  6
BYBLOCK
 62
     0
100
AcDbLine
 10
-109.7261490741261
 20
26.28464109566739
 30
0.0
 11
-109.7261490741261
 21
40.55547442900073
 31
0.0
  0
LINE
  5
D1
330
B9
100
AcDbEntity
  8
0
  6
BYBLOCK
 62
     0
100
AcDbLine
 10
-109.6011490741261
 20
55.15964109566739
 30
0.0
 11
-109.8511490741261
 21
55.4096410956674
 31
0.0
  0
LINE
  5
D2
330
B9
100
AcDbEntity
  8
0
  6
BYBLOCK
 62
     0
100
AcDbLine
 10
-109.6011490741261
 20
26.15964109566739
 30
0.0
 11
-109.8511490741261
 21
26.40964109566739
 31
0.0
  0
TEXT
  5
D3
330
B9
100
AcDbEntity
  8
0
  6
BYBLOCK
 62
     0
100
AcDbText
 10
-109.6636490741261
 20
40.68047442900073
 30
0.0
 40
0.125
  1
29
 50
90.0
 72
     1
 11
-109.7261490741261
 21
40.78464109566739
 31
0.0
100
AcDbText
 73
     2
  0
POINT
  5
D4
330
B9
100
AcDbEntity
  8
DEFPOINTS
  6
BYBLOCK
 62
     0
100
AcDbPoint
 10
-110.2554283729959
 20
55.2846410956674
 30
0.0
  0
POINT
  5
D5
330
B9
100
AcDbEntity
  8
DEFPOINTS
  6
BYBLOCK
 62
     0
100
AcDbPoint
 10
-116.1042371284998
 20
26.28464109566739
 30
0.0
  0
POINT
  5
D6
330
B9
100
AcDbEntity
  8
DEFPOINTS
  6
BYBLOCK
 62
     0
100
AcDbPoint
 10
-109.7261490741261
 20
26.28464109566739
 30
0.0
  0
ENDBLK
  5
D7
330
B9
100
AcDbEntity
  8
0
100
AcDbBlockEnd
  0
BLOCK
  5
D8
330
BA
100
AcDbEntity
  8
0
100
AcDbBlockBegin
  2
*D1
 70
     1
 10
0.0
 20
0.0
 30
0.0
  3
*D1
  1

  0
LINE
  5
D9
330
BA
100
AcDbEntity
  8
0
  6
BYBLOCK
 62
     0
100
AcDbLine
 10
-116.6262898346929
 20
26.27691505806749
 30
0.0
 11
-116.6262898346929
 21
25.1492245910247
 31
0.0
  0
LINE
  5
DA
330
BA
100
AcDbEntity
  8
0
  6
BYBLOCK
 62
     0
100
AcDbLine
 10
-110.1262898346929
 20
35.69956520532364
 30
0.0
 11
-110.1262898346929
 21
25.1492245910247
 31
0.0
  0
LINE
  5
DB
330
BA
100
AcDbEntity
  8
0
  6
BYBLOCK
 62
     0
100
AcDbLine
 10
-116.6262898346929
 20
25.32922459102469
 30
0.0
 11
-113.7721231680262
 21
25.32922459102469
 31
0.0
  0
LINE
  5
DC
330
BA
100
AcDbEntity
  8
0
  6
BYBLOCK
 62
     0
100
AcDbLine
 10
-110.1262898346929
 20
25.32922459102469
 30
0.0
 11
-112.9804565013596
 21
25.32922459102469
 31
0.0
  0
LINE
  5
DD
330
BA
100
AcDbEntity
  8
0
  6
BYBLOCK
 62
     0
100
AcDbLine
 10
-116.7512898346929
 20
25.20422459102469
 30
0.0
 11
-116.5012898346929
 21
25.4542245910247
 31
0.0
  0
LINE
  5
DE
330
BA
100
AcDbEntity
  8
0
  6
BYBLOCK
 62
     0
100
AcDbLine
 10
-110.2512898346929
 20
25.20422459102469
 30
0.0
 11
-110.0012898346929
 21
25.4542245910247
 31
0.0
  0
TEXT
  5
DF
330
BA
100
AcDbEntity
  8
0
  6
BYBLOCK
 62
     0
100
AcDbText
 10
-113.6471231680262
 20
25.26672459102469
 30
0.0
 40
0.125
  1
6 1/2
 72
     1
 11
-113.3762898346929
 21
25.32922459102469
 31
0.0
100
AcDbText
 73
     2
  0
POINT
  5
E0
330
BA
100
AcDbEntity
  8
DEFPOINTS
  6
BYBLOCK
 62
     0
100
AcDbPoint
 10
-116.6262898346929
 20
26.33941505806749
 30
0.0
  0
POINT
  5
E1
330
BA
100
AcDbEntity
  8
DEFPOINTS
  6
BYBLOCK
 62
     0
100
AcDbPoint
 10
-110.1262898346929
 20
35.76206520532364
 30
0.0
  0
POINT
  5
E2
330
BA
100
AcDbEntity
  8
DEFPOINTS
  6
BYBLOCK
 62
     0
100
AcDbPoint
 10
-110.1262898346929
 20
25.32922459102469
 30
0.0
  0
ENDBLK
  5
E3
330
BA
100
AcDbEntity
  8
0
100
AcDbBlockEnd
  0
ENDSEC
  0
SECTION
  2
ENTITIES
  0
DIMENSION
  5
E4
330
18
100
AcDbEntity
  8
ADPDIM
100
AcDbDimension
  2
*D0
 10
-109.7261490741261
 20
26.28464109566739
 30
0.0
 11
-109.7261490741261
 21
40.78464109566739
 31
0.0
100
AcDbAlignedDimension
 13
-110.2554283729959
 23
55.2846410956674
 33
0.0
 14
-116.1042371284998
 24
26.28464109566739
 34
0.0
 50
90.0
100
AcDbRotatedDimension
  0
ARC
  5
E5
330
18
100
AcDbEntity
  8
ADP1DETAIL
100
AcDbCircle
 10
-115.1139456133762
 20
40.66354142017003
 30
0.0
 40
0.6386649940173129
100
AcDbArc
 50
14.77045057946662
 51
41.04551218698339
  0
ARC
  5
E6
330
18
100
AcDbEntity
  8
ADP1DETAIL
100
AcDbCircle
 10
-115.4881559280569
 20
40.83484681994479
 30
0.0
 40
0.2068209106307735
100
AcDbArc
 50
357.6502269889736
 51
78.68940142340022
  0
ARC
  5
E7
330
18
100
AcDbEntity
  8
ADP1DETAIL
100
AcDbCircle
 10
-114.1045109052265
 20
41.12590983822506
 30
0.0
 40
0.3394591966108034
100
AcDbArc
 50
158.7514485210055
 51
224.7955321648374
  0
ARC
  5
E8
330
18
100
AcDbEntity
  8
ADP1DETAIL
100
AcDbCircle
 10
-113.0245424114156
 20
42.22113586663211
 30
0.0
 40
1.493284349755789
100
AcDbArc
 50
214.4989092809169
 51
240.1416946733466
  0
LWPOLYLINE
  5
E9
330
18
100
AcDbEntity
  8
ADP1DETAIL
100
AcDbPolyline
 90
        5
 70
     0
 43
0.0
 10
-111.7635511542211
 20
41.38475997315104
 42
-0.0531153252251551
 10
-112.065521790269
 20
40.90182570836423
 42
0.1840961819375856
 10
-112.2165071816649
 20
41.44512678147556
 42
-0.196880137624704
 10
-112.5486747492482
 20
42.18461988073693
 42
0.3627042586492349
 10
-112.6543644498534
 20
41.50549358980008
 42
-1.768433457522479
  0
LWPOLYLINE
  5
F0
330
18
100
AcDbEntity
  8
ADP1DETAIL
100
AcDbPolyline
 90
        6
 70
     0
 43
0.0
 10
-112.2769011914795
 20
42.80337936334926
 42
-0.2235163308040519
 10
-110.8878364711003
 20
41.80732742961335
 42
0.0836357024709985
 10
-110.6160629133316
 20
41.18856794700102
 42
-0.1101374992835824
 10
-111.0992158723107
 20
41.27911815948779
 42
0.1282747227824757
 10
-111.1747084946367
 20
40.73581708637646
 42
-0.1181606913410218
 10
-111.7635511542211
 20
41.38475997315104
 42
0.5920760366107267
  0
LWPOLYLINE
  5
F8
330
18
100
AcDbEntity
  8
ADP1DETAIL
100
AcDbPolyline
 90
       44
 70
     0
 43
0.0
 10
-113.0620247668113
 20
37.98912850931114
 42
-0.1310118121381794
 10
-112.3825909660755
 20
36.32904205573658
 42
-0.5949959421906702
 10
-112.6543645153535
 20
36.13285001487872
 42
-0.2332662224560772
 10
-112.9261380646314
 20
36.47995893358933
 42
0.0143897503138128
 10
-113.5904734234129
 20
37.92876175817005
 42
-0.1374184187926911
 10
-113.6961630967659
 20
37.15908528252386
 42
-0.1720612423993288
 10
-113.937739617217
 20
36.04229978851777
 42
-0.6131619820768744
 10
-114.1189219350962
 20
36.05739147630305
 42
-0.1687189708976209
 10
-114.3453998686748
 20
36.52523409659444
 10
-114.5416807734266
 20
36.29885858051673
 42
-0.3253029177161147
 10
-114.6624690336521
 20
36.82706795194923
 42
0.2997060209127507
 10
-114.7983558807502
 20
37.58165273981013
 42
-0.236756490144638
 10
-115.4022970369597
 20
36.81197626416396
 42
0.0617568163624932
 10
-116.1421251851855
 20
36.34413374352186
 42
-0.2111694314029125
 10
-115.8401544621625
 20
37.52128598866905
 42
-0.2483234662458026
 10
-115.4173956238322
 20
37.80802815623856
 42
0.1790153870993848
 10
-115.1758191033811
 20
37.92876175817005
 42
0.0290534828431313
 10
-114.7228632362239
 20
38.47206271773852
 42
0.0231201439419183
 10
-116.0364353669143
 20
38.04949526045224
 42
0.0024618999582475
 10
-116.4742927921171
 20
37.88348659516492
 42
-0.4087681647655698
 10
-115.9911397512149
 20
38.59279631967001
 42
-0.4008995341299145
 10
-115.7646618176364
 20
39.12100569110251
 42
-0.1575640358150971
 10
-115.2664103347798
 20
39.16628075445833
 42
0.1526546912880003
 10
-115.9760413092606
 20
39.49829808503297
 42
-0.1327459952538064
 10
-116.3082089161922
 20
39.7699485648172
 42
0.0268173975931865
 10
-116.4289971764178
 20
39.92086554231924
 42
-0.2515829545323085
 10
-116.5195884078165
 20
40.2981579362497
 42
-0.0324670463860186
 10
-115.8250560202082
 20
40.07178251982129
 42
-0.1380467785660767
 10
-115.1758191033811
 20
39.57375652395933
 42
0.355898334140447
 10
-114.7530602650508
 20
39.46811470946242
 42
-0.3596597345502192
 10
-115.6589721442833
 20
41.7620523489664
 42
0.0149699837728204
 10
-115.2211147190805
 20
41.00746756110548
 42
-0.2868650884060827
 10
-115.0248338143287
 20
40.66035864239488
 42
0.3271180437731093
 10
-114.7832572938777
 20
40.2981579362497
 42
-0.0626298370710538
 10
-114.3303014267205
 20
39.63412327510043
 42
-0.0531538518405519
 10
-114.1793161376681
 20
39.2417391933847
 42
0.2102531511263231
 10
-114.5114837445997
 20
40.41889143853189
 42
-0.1096465086181778
 10
-114.93424258293
 20
41.24893476496848
 42
-0.192157014870864
 10
-114.8436514964495
 20
41.95824438982426
 42
-0.013328745155158
 10
-114.2699072241486
 20
41.56586030810853
 42
0.1180988850258277
 10
-114.1793161376681
 20
41.03765093667603
 42
0.1623569451287376
 10
-113.937739617217
 20
40.7660004568918
 42
-0.2744736753520484
 10
-113.7867543281646
 20
39.70958181367611
 42
0.074491354087762
 10
-113.8924440015176
 20
39.28701435638983
 42
-0.907985711502777
  0
LWPOLYLINE
  5
126
330
18
100
AcDbEntity
  8
ADP1DETAIL
100
AcDbPolyline
 90
        8
 70
     0
 43
0.0
 10
-113.7565572993377
 20
39.40774785867202
 42
0.201995579819041
 10
-113.4696851631873
 20
40.63017516717503
 42
-0.0918464555481521
 10
-113.3639954898343
 20
40.93200912217912
 42
-0.283671338926924
 10
-112.6543645153535
 20
41.50549355696743
 42
-0.2044695122298694
 10
-112.533576255128
 20
41.26402645275375
 42
-0.103848899833127
 10
-112.6996601310529
 20
40.61508347938975
 42
-0.2663446065142395
 10
-113.0771233536838
 20
39.54357314838878
 42
0.0470756413898142
 10
-113.4394881343605
 20
39.16628075445833
 42
-0.4828448284182766
  0
LWPOLYLINE
  5
130
330
18
100
AcDbEntity
  8
ADP1DETAIL
100
AcDbPolyline
 90
       14
 70
     0
 43
0.0
 10
-114.2929562743952
 20
41.58113196891072
 42
0.5125087325312313
 10
-114.1340205518138
 20
41.71677731803123
 42
-0.3178719892909955
 10
-114.0434293169763
 20
41.91296934418126
 42
0.1382935264723801
 10
-113.4394881916242
 20
42.5317288267936
 42
-0.2665076661373309
 10
-113.0469263207388
 20
42.773195959187
 42
0.1412395196056145
 10
-113.3488969567867
 20
42.09406966825016
 42
-0.2705344015505381
 10
-113.5149808139503
 20
41.882785940019
 42
0.2267744242699753
 10
-113.7112616026492
 20
41.67150221178784
 42
0.0254049295078658
 10
-113.8471483815336
 20
41.14329284075764
 42
0.2875107357410744
 10
-113.7565572934398
 20
40.90182570836423
 42
0.5066372336605636
 10
-113.4998822014388
 20
40.97728421876986
 42
-0.226032946444451
 10
-113.3488969567867
 20
41.49040188771894
 42
0.2206626964878961
 10
-113.1073204772971
 20
42.21480328489918
 42
-0.20008373573775
 10
-112.9563350859013
 20
42.80337936334926
 42
-7.491471087488463
  0
DIMENSION
  5
140
330
18
100
AcDbEntity
  8
ADPDIM
100
AcDbDimension
  2
*D1
 10
-110.1262898346929
 20
25.32922459102469
 30
0.0
 11
-113.3762898346929
 21
25.32922459102469
 31
0.0
100
AcDbAlignedDimension
 13
-116.6262898346929
 23
26.33941505806749
 33
0.0
 14
-110.1262898346929
 24
35.76206520532364
 34
0.0
100
AcDbRotatedDimension
  0
LWPOLYLINE
  5
141
330
18
100
AcDbEntity
  8
ADP1DETAIL
100
AcDbPolyline
 90
        3
 70
     0
 43
0.0
 10
-112.6946092665109
 20
40.23155353121464
 42
0.0597328946242547
 10
-111.9900291565721
 20
39.64921496288571
 42
-0.0020536554779249
 10
-111.9803649093713
 20
39.64294553178021
 42
-0.103351655778276
  0
ARC
  5
146
330
18
100
AcDbEntity
  8
ADP1DETAIL
100
AcDbCircle
 10
-112.5216459869749
 20
39.35555893157915
 30
0.0
 40
0.7234558990499492
100
AcDbArc
 50
30.67783123752364
 51
71.49245637132896
  0
ARC
  5
147
330
18
100
AcDbEntity
  8
ADP1DETAIL
100
AcDbCircle
 10
-110.6509333925541
 20
42.14067215204453
 30
0.0
 40
2.489836415430054
100
AcDbArc
 50
231.4848406275529
 51
243.0683120247365
  0
LWPOLYLINE
  5
148
330
18
100
AcDbEntity
  8
ADP1DETAIL
100
AcDbPolyline
 90
        3
 70
     0
 43
0.0
 10
-112.6996601310529
 20
38.75880498495734
 42
-0.2784577485944994
 10
-112.1561128875788
 20
38.17022886238373
 42
-0.2465540689196883
 10
-111.748452636121
 20
37.68729455430706
 42
-0.0891591773093337
  0
ARC
  5
14D
330
18
100
AcDbEntity
  8
ADP1DETAIL
100
AcDbCircle
 10
-112.2513549873
 20
39.36922624594291
 30
0.0
 40
0.339082579376554
100
AcDbArc
 50
252.6638633394721
 51
316.5652310735129
  0
ARC
  5
14E
330
18
100
AcDbEntity
  8
ADP1DETAIL
100
AcDbCircle
 10
-112.3356783672105
 20
39.96073587370102
 30
0.0
 40
0.6028070373676334
100
AcDbArc
 50
255.3358442818977
 51
293.4575946750507
  0
LWPOLYLINE
  5
14F
330
18
100
AcDbEntity
  8
ADP1DETAIL
100
AcDbPolyline
 90
        5
 70
     0
 43
0.0
 10
-111.809410226379
 20
36.99638578883067
 42
-0.0079195368240658
 10
-111.8239452806472
 20
36.962893241666
 42
0.0634165947427303
 10
-111.9447335408727
 20
36.57050915995027
 42
0.0787747547729911
 10
-112.3070983215494
 20
37.08362674394819
 42
-0.279890671666275
 10
-112.3966322304121
 20
37.43800602293989
 42
0.2282471528368135
  0
LWPOLYLINE
  5
156
330
18
100
AcDbEntity
  8
ADP1DETAIL
100
AcDbPolyline
 90
       14
 70
     0
 43
0.0
 10
-110.133628359247
 20
35.9569759733626
 42
0.1168749269485346
 10
-110.2084024269339
 20
36.4346838702335
 42
-0.2200157427603418
 10
-110.2536980426332
 20
37.03835168059237
 42
0.199871856094036
 10
-110.2838950714601
 20
38.26077898909538
 42
0.4405527348923565
 10
-110.3291906871594
 20
38.27587067688066
 42
0.2131068167803701
 10
-110.4801759762118
 20
37.52128598866905
 42
-0.0769509402455244
 10
-111.0086246328134
 20
39.04554715252683
 42
-0.1346347879686963
 10
-110.9331319882872
 20
39.90577385453397
 42
0.217938967594208
 10
-110.9935260459409
 20
40.72072539353597
 42
0.7511063278494851
 10
-111.2803981820913
 20
40.56980841603393
 42
0.1455673941997827
 10
-111.3105952109181
 20
39.95104891788979
 42
0.4295905871305504
 10
-111.2049055375651
 20
39.8906821667487
 42
-0.1272654766803499
 10
-111.2954966240457
 20
39.57375652395933
 42
0.1052502924215235
 10
-112.6936661415916
 20
40.62738784837406
 42
-0.0367630702413711
  0
ARC
  5
166
330
18
100
AcDbEntity
  8
ADP1DETAIL
100
AcDbCircle
 10
-112.5770137529724
 20
30.0250069677743
 30
0.0
 40
0.5493024818408795
100
AcDbArc
 50
282.3194130890891
 51
338.1277047525019
  0
ARC
  5
167
330
18
100
AcDbEntity
  8
ADP1DETAIL
100
AcDbCircle
 10
-113.4544324705142
 20
32.98905670248564
 30
0.0
 40
3.954361161106873
100
AcDbArc
 50
285.9282661635816
 51
299.9806380025253
  0
ARC
  5
168
330
18
100
AcDbEntity
  8
ADP1DETAIL
100
AcDbCircle
 10
-112.0502913262099
 20
27.84273322159406
 30
0.0
 40
1.256372862583035
100
AcDbArc
 50
74.04266085724007
 51
99.77200070540341
  0
ARC
  5
169
330
18
100
AcDbEntity
  8
ADP1DETAIL
100
AcDbCircle
 10
-112.7149760586312
 20
19.68396622677802
 30
0.0
 40
9.312781428504953
100
AcDbArc
 50
83.96015309964345
 51
87.87230467258305
  0
ARC
  5
16A
330
18
100
AcDbEntity
  8
ADP1DETAIL
100
AcDbCircle
 10
-96.76437919918837
 20
78.86240765573663
 30
0.0
 40
52.28809876689872
100
AcDbArc
 50
252.5147074993923
 51
253.0170548201027
  0
ARC
  5
16B
330
18
100
AcDbEntity
  8
ADP1DETAIL
100
AcDbCircle
 10
-111.8302252204626
 20
26.71998500043638
 30
0.0
 40
2.512648629537444
100
AcDbArc
 50
64.63073986611451
 51
104.1557569833912
  0
ARC
  5
16C
330
18
100
AcDbEntity
  8
ADP1DETAIL
100
AcDbCircle
 10
-112.9504893113115
 20
27.93447017342101
 30
0.0
 40
0.9748543774481918
100
AcDbArc
 50
2.628889789892559
 51
63.80803050546692
  0
LWPOLYLINE
  5
16D
330
18
100
AcDbEntity
  8
ADP1DETAIL
100
AcDbPolyline
 90
       10
 70
     0
 43
0.0
 10
-110.5383330199956
 20
35.9569759733626
 42
-0.2408518029750137
 10
-111.1009459961188
 20
34.60443783825236
 42
-0.0402726163631541
 10
-111.206635696724
 20
34.93645518313255
 42
0.5353856733642265
 10
-111.1915372309563
 20
35.13264720928258
 42
0.2052209923854696
 10
-111.8709711253782
 20
35.63067317615053
 42
0.4143462292137647
 10
-111.9615623602157
 20
35.35902263959486
 42
0.2448766463257162
 10
-111.4784092544928
 20
34.81572156648352
 42
-0.2884344840188844
 10
-111.2821284657938
 20
34.16677867970893
 42
0.0421861268981448
 10
-111.9615623602157
 20
32.46141705087392
 42
-0.038395806507377
 10
-112.1276460706355
 20
32.3708669392918
 42
-2.979949493228208
  0
LWPOLYLINE
  5
179
330
18
100
AcDbEntity
  8
ADP1DETAIL
100
AcDbPolyline
 90
       44
 70
     0
 43
0.0
 10
-113.6978934271286
 20
28.37156759401604
 42
0.1310118121381794
 10
-114.3773272278643
 20
26.71148114044148
 42
0.5949959421906702
 10
-114.1055536785864
 20
26.51528909958361
 42
0.2332662224560772
 10
-113.8337801293085
 20
26.86239801829422
 42
-0.0143897503138128
 10
-113.169444770527
 20
28.31120084287494
 42
0.1374184187926911
 10
-113.063755097174
 20
27.54152436722876
 42
0.1720612423993288
 10
-112.8221785767229
 20
26.42473887322267
 42
0.6131619820768744
 10
-112.6409962588436
 20
26.43983056100794
 42
0.1687189708976209
 10
-112.4145183252651
 20
26.90767318129934
 10
-112.2182374205133
 20
26.68129766522163
 42
0.3253029177161147
 10
-112.0974491602878
 20
27.20950703665412
 42
-0.2997060209127507
 10
-111.9615623131897
 20
27.96409182451503
 42
0.236756490144638
 10
-111.3576211569802
 20
27.19441534886885
 42
-0.0617568163624932
 10
-110.6177930087544
 20
26.72657282822675
 42
0.2111694314029125
 10
-110.9197637317773
 20
27.90372507337394
 42
0.2483234662458026
 10
-111.3425225701077
 20
28.19046724094345
 42
-0.1790153870993848
 10
-111.5840990905587
 20
28.31120084287494
 42
-0.0290534828431313
 10
-112.0370549577159
 20
28.85450180244341
 42
-0.0231201439419183
 10
-110.7234828270256
 20
28.43193434515713
 42
-0.0024618999582475
 10
-110.2856254018228
 20
28.26592567986982
 42
0.4087681647655698
 10
-110.7687784427249
 20
28.97523540437491
 42
0.4008995341299145
 10
-110.9952563763035
 20
29.5034447758074
 42
0.1575640358150971
 10
-111.4935078591601
 20
29.54871983916323
 42
-0.1526546912880003
 10
-110.7838768846793
 20
29.88073716973786
 42
0.1327459952538064
 10
-110.4517092777477
 20
30.1523876495221
 42
-0.0268173975931865
 10
-110.3309210175221
 20
30.30330462702414
 42
0.2515829545323085
 10
-110.2403297861234
 20
30.68059702095459
 42
0.0324670463860186
 10
-110.9348621737317
 20
30.45422160452618
 42
0.1380467785660767
 10
-111.5840990905587
 20
29.95619560866423
 42
-0.355898334140447
 10
-112.0068579288891
 20
29.85055379416731
 42
0.3596597345502192
 10
-111.1009460496566
 20
32.14449143367129
 42
-0.0149699837728204
 10
-111.5388034748594
 20
31.38990664581038
 42
0.2868650884060827
 10
-111.7350843796111
 20
31.04279772709977
 42
-0.3271180437731093
 10
-111.9766609000622
 20
30.68059702095459
 42
0.0626298370710538
 10
-112.4296167672194
 20
30.01656235980533
 42
0.0531538518405519
 10
-112.5806020562718
 20
29.6241782780896
 42
-0.2102531511263231
 10
-112.2484344493402
 20
30.80133052323679
 42
0.1096465086181778
 10
-111.8256756110099
 20
31.63137384967337
 42
0.192157014870864
 10
-111.9162666974904
 20
32.34068347452915
 42
0.013328745155158
 10
-112.4900109697913
 20
31.94829939281342
 42
-0.1180988850258277
 10
-112.5806020562718
 20
31.42009002138093
 42
-0.1623569451287376
 10
-112.8221785767229
 20
31.14843954159669
 42
0.2744736753520484
 10
-112.9731638657753
 20
30.092020898381
 42
-0.074491354087762
 10
-112.8674741924222
 20
29.66945344109472
 42
0.907985711502777
  0
LWPOLYLINE
  5
1A7
330
18
100
AcDbEntity
  8
ADP1DETAIL
100
AcDbPolyline
 90
        9
 70
     0
 43
0.0
 10
-113.7280903389688
 20
33.65366101075985
 42
-0.14674972949424
 10
-113.1543462918959
 20
34.0460450630599
 42
0.09565842942823
 10
-112.6560947204053
 20
34.31769559961557
 42
-0.09565842942823
 10
-112.1578431489146
 20
34.58934613617124
 42
-0.4155941535846527
 10
-111.7803798905407
 20
34.39315411002121
 42
0.0030628590973929
 10
-111.6595917241678
 20
34.01586175980229
 42
0.1812652890665091
 10
-112.1880402271938
 20
34.16677867970893
 42
0.2973950514116313
 10
-112.6560947204053
 20
33.80457793066649
 42
-0.2373728486470764
 10
-113.5771050943167
 20
33.42728558044757
 42
-25.85334327674754
  0
LWPOLYLINE
  5
1B2
330
18
100
AcDbEntity
  8
ADP1DETAIL
100
AcDbPolyline
 90
       10
 70
     0
 43
0.0
 10
-113.9545683526907
 20
34.74026305607788
 42
-0.2418754287312255
 10
-113.4714153937115
 20
34.83081326856465
 42
-0.1197108150568948
 10
-112.6107991763584
 20
35.52503126158263
 42
-0.4175447583946147
 10
-111.9917592917511
 20
35.29865583127035
 10
-112.3541240843573
 20
35.02700529471468
 10
-112.5202079415209
 20
34.69498805073914
 42
-0.205279527264941
 10
-112.7164888769636
 20
34.52897932784672
 10
-112.9882624347323
 20
34.37806240794009
 42
0.1101986120770639
 10
-113.1241492136167
 20
34.25732879129105
 42
-0.0004163809489557
 10
-113.3204300023157
 20
33.98567835564003
 42
1.958285606046534
  0
LWPOLYLINE
  5
1BE
330
18
100
AcDbEntity
  8
ADP1DETAIL
100
AcDbPolyline
 90
       13
 70
     0
 43
0.0
 10
-113.6206704522397
 20
39.10591400331723
 42
-0.0380136708070005
 10
-112.0202261853989
 20
39.63412327510043
 42
-0.3252805431109151
 10
-111.1294128930389
 20
39.27192266860456
 42
0.0088862582188574
 10
-111.7937482518203
 20
38.84935511166897
 42
0.0113289011370281
 10
-113.4998821920141
 20
38.68334654603096
 42
0.2271234732483414
 10
-112.9563350934583
 20
38.38151259102687
 42
-0.0243697145651082
 10
-112.5939703127816
 20
38.185320550169
 42
0.1130919986642323
 10
-112.2014085032782
 20
37.97403682152587
 42
-0.0371319130061632
 10
-111.5672701733236
 20
37.56656105202486
 42
-0.5644162919714582
 10
-111.6276643758954
 20
36.97798492945127
 42
-0.2905104653767691
 10
-112.3070983215494
 20
37.370369011167
 42
-0.0194078600158273
 10
-112.6090688996541
 20
37.61183611538069
 42
0.0036777137736698
 10
-113.6357690391122
 20
38.48715450517309
 42
0.3642468310892509
  0
LWPOLYLINE
  5
1CD
330
18
100
AcDbEntity
  8
ADP1DETAIL
100
AcDbPolyline
 90
        6
 70
     0
 43
0.0
 10
-112.6560947204053
 20
33.78948622858536
 42
-0.5202431589547293
 10
-111.9766608259834
 20
33.21600185221641
 42
0.2722019086531191
 10
-112.5202079415209
 20
33.36691877212305
 42
-0.1611025229001096
 10
-113.0335579787792
 20
33.27636866054092
 42
-0.1247246730333917
 10
-112.1729417614261
 20
32.47650875295505
 42
-0.190412803361524
 10
-112.1276460706355
 20
32.25013332264277
 42
1.196976243778081
  0
LINE
  5
1D5
330
18
100
AcDbEntity
  8
ADP1DETAIL
100
AcDbLine
 10
-112.8674741216157
 20
33.50274409085321
 30
0.0
 11
-112.4447153191949
 21
33.63856930867872
 31
0.0
  0
CIRCLE
  5
1D6
330
18
100
AcDbEntity
  8
ADP1DETAIL
100
AcDbCircle
 10
-114.0869761838408
 20
33.41389312961216
 30
0.0
 40
0.1664674977689781
  0
LINE
  5
1D7
330
18
100
AcDbEntity
  8
ADP1DETAIL
100
AcDbLine
 10
-114.1659477539011
 20
33.53292749501547
 30
0.0
 11
-114.1659477539011
 21
33.30655206470318
 31
0.0
  0
LINE
  5
1D8
330
18
100
AcDbEntity
  8
ADP1DETAIL
100
AcDbLine
 10
-113.9847654309698
 20
33.51783579293434
 30
0.0
 11
-114.090455131575
 21
33.3367353679608
 31
0.0
  0
LINE
  5
1D9
330
18
100
AcDbEntity
  8
ADP1DETAIL
100
AcDbLine
 10
-115.3587316855812
 20
33.62347760659759
 30
0.0
 11
-115.4191258421396
 21
33.41219387836643
 31
0.0
  0
LWPOLYLINE
  5
1DA
330
18
100
AcDbEntity
  8
ADP1DETAIL
100
AcDbPolyline
 90
       17
 70
     0
 43
0.0
 10
-114.5132140807396
 20
34.31769559961557
 42
0.1246418500037349
 10
-115.4040273763719
 20
35.11755550720145
 42
0.3608294370343628
 10
-115.9022788011187
 20
35.01191359263355
 42
0.3722361983668172
 10
-115.6456038558615
 20
34.60443783825236
 10
-114.8906773391136
 20
34.07622846722216
 42
-0.2000000637628336
 10
-114.5736080905542
 20
33.78948622858536
 42
0.1808474252388663
 10
-115.1171552060917
 20
34.06113676514102
 42
0.1029933663822761
 10
-116.0230671142354
 20
33.97058665355891
 42
0.2118820127149557
 10
-116.5817126955406
 20
33.2612769584598
 42
0.6012979517806824
 10
-116.4156288383771
 20
33.11035993764852
 42
-0.0445015033640751
 10
-115.5399141552563
 20
33.57820250035421
 42
-0.1756446430288846
 10
-114.9812684272073
 20
33.60838590451646
 42
-0.0555384044771777
 10
-114.5585096247865
 20
33.42728558044757
 42
0.1817483594849633
 10
-115.7059980124198
 20
33.29146036262206
 42
0.1741293448803862
 10
-116.4911216074469
 20
32.44632534879279
 42
0.242143810223065
 10
-116.4458259166562
 20
31.81247416409933
 42
-0.2033953906531774
 10
-115.2681405974875
 20
32.92925961357962
 42
-0.180702155386139
  0
CIRCLE
  5
1ED
330
18
100
AcDbEntity
  8
ADP1DETAIL
100
AcDbCircle
 10
-114.1153832942145
 20
33.4515316249245
 30
0.0
 40
0.3871741245739806
  0
ARC
  5
1EE
330
18
100
AcDbEntity
  8
ADP1DETAIL
100
AcDbCircle
 10
-109.0433747007744
 20
30.26557540756095
 30
0.0
 40
3.75262234470032
100
AcDbArc
 50
177.3491898896001
 51
187.7427151086116
  0
LWPOLYLINE
  5
1EF
330
18
100
AcDbEntity
  8
ADP1DETAIL
100
AcDbPolyline
 90
        8
 70
     0
 43
0.0
 10
-113.0033608946021
 20
29.79018694337691
 42
-0.201995579819041
 10
-113.2902330307526
 20
31.01261425187992
 42
0.0918464555481521
 10
-113.3959227041056
 20
31.31444820688401
 42
0.283671338926924
 10
-114.1055536785864
 20
31.88793264167233
 42
0.2044695122298694
 10
-114.2263419388119
 20
31.64646553745864
 42
0.103848899833127
 10
-114.060258062887
 20
30.99752256409465
 42
0.2663446065142395
 10
-113.6827948402561
 20
29.92601223309368
 42
-0.0470756413898142
 10
-113.3204300595794
 20
29.54871983916323
 42
0.4828448284182766
  0
LWPOLYLINE
  5
1F9
330
18
100
AcDbEntity
  8
ADP1DETAIL
100
AcDbPolyline
 90
       14
 70
     0
 43
0.0
 10
-116.6262898346929
 20
26.33941505806749
 42
-0.1168749269485353
 10
-116.551515767006
 20
26.8171229549384
 42
0.2200157427603418
 10
-116.5062201513066
 20
27.42079076529726
 42
-0.199871856094036
 10
-116.4760231224798
 20
28.64321807380028
 42
-0.4405527348923565
 10
-116.4307275067804
 20
28.65830976158555
 42
-0.2131068167803701
 10
-116.279742217728
 20
27.90372507337394
 42
0.0769509402455244
 10
-115.7512935611265
 20
29.42798623723173
 42
0.1346347879686963
 10
-115.8267862056527
 20
30.28821293923886
 42
-0.217938967594208
 10
-115.766392147999
 20
31.10316447824087
 42
-0.7511063278494851
 10
-115.4795200118486
 20
30.95224750073883
 42
-0.1455673941997827
 10
-115.4493229830217
 20
30.33348800259469
 42
-0.4295905871305504
 10
-115.5550126563748
 20
30.27312125145359
 42
0.1272654766803499
 10
-115.4644215698942
 20
29.95619560866423
 42
-0.1052502924215235
 10
-114.0662520523483
 20
31.00982693307896
 42
0.0367630702413711
  0
LWPOLYLINE
  5
209
330
18
100
AcDbEntity
  8
ADP1DETAIL
100
AcDbPolyline
 90
       13
 70
     0
 43
0.0
 10
-113.1392477417002
 20
29.48835308802213
 42
0.0380136708070005
 10
-114.739692008541
 20
30.01656235980533
 42
0.3252805431109151
 10
-115.630505300901
 20
29.65436175330945
 42
-0.0088862582188574
 10
-114.9661699421195
 20
29.23179419637387
 42
-0.0113289011370281
 10
-113.2600360019257
 20
29.06578563073585
 42
-0.2271234732483414
 10
-113.8035831004816
 20
28.76395167573177
 42
0.0243697145651082
 10
-114.1659478811582
 20
28.56775963487391
 42
-0.1130919986642323
 10
-114.5585096906617
 20
28.35647590623077
 42
0.0371319130061632
 10
-115.1926480206163
 20
27.94900013672976
 42
0.5644162919714582
 10
-115.1322538180444
 20
27.36042401415617
 42
0.2905104653767691
 10
-114.4528198723905
 20
27.7528080958719
 42
0.0194078600158273
 10
-114.1508492942857
 20
27.99427520008558
 42
-0.0036777137736698
 10
-113.1241491548277
 20
28.86959358987799
 42
-0.3642468310892509
  0
LWPOLYLINE
  5
218
330
18
100
AcDbEntity
  8
ADP1DETAIL
100
AcDbPolyline
 90
        4
 70
     0
 43
0.0
 10
-114.9511330771623
 20
27.37543671680312
 42
-0.1281789543279362
 10
-114.9661699421195
 20
27.34533232637089
 42
-0.3626156110589968
 10
-115.358731751623
 20
26.93785655686989
 42
-0.0876420245222814
 10
-115.8116877636984
 20
26.96803993244044
 42
-8.245580757386617
  0
LINE
  5
21E
330
18
100
AcDbEntity
  8
ADP1DETAIL
100
AcDbLine
 10
-115.2228450494431
 20
27.70753303251607
 30
0.0
 11
-115.0114655578189
 21
27.90372507337394
 31
0.0
  0
LINE
  5
21F
330
18
100
AcDbEntity
  8
ADP1DETAIL
100
AcDbLine
 10
-115.25304207827
 20
27.49624930387294
 30
0.0
 11
-114.9661699421195
 21
27.70753303251607
 31
0.0
  0
LWPOLYLINE
  5
220
330
18
100
AcDbEntity
  8
ADP1DETAIL
100
AcDbPolyline
 90
        3
 70
     0
 43
0.0
 10
-116.4609245356073
 20
28.64321807380028
 42
0.1699409547037569
 10
-116.4005304779536
 20
27.7528080958719
 42
0.6723675338995527
 10
-116.2646436308555
 20
27.88863338558867
 42
-1.166474759457963
  0
ARC
  5
225
330
18
100
AcDbEntity
  8
ADP1DETAIL
100
AcDbCircle
 10
-132.7887466433068
 20
34.17780224807873
 30
0.0
 40
17.86175123488966
100
AcDbArc
 50
336.5637719252903
 51
344.5783098615298
  0
LWPOLYLINE
  5
226
330
18
100
AcDbEntity
  8
ADP1DETAIL
100
AcDbPolyline
 90
        6
 70
     0
 43
0.0
 10
-115.2832391070969
 20
29.44307792501701
 42
0.103351655778276
 10
-116.14385537063
 20
26.6360226018658
 42
-0.20332841861006
 10
-115.4946185987211
 20
26.8171229549384
 42
-0.2913572096048012
 10
-115.8267862056527
 20
26.51528909958361
 42
0.0639870352478842
 10
-116.2193480151562
 20
26.39455549765212
 42
0.0100882425617707
 10
-116.2215851739443
 20
26.33941505806749
 42
-1.22385727777943
  0
LINE
  5
22E
330
18
100
AcDbEntity
  8
ADP1DETAIL
100
AcDbLine
 10
-116.6262898346929
 20
26.33941505806749
 30
0.0
 11
-116.2215851739443
 21
26.33941505806749
 31
0.0
  0
LWPOLYLINE
  5
22F
330
18
100
AcDbEntity
  8
ADP1DETAIL
100
AcDbPolyline
 90
        3
 70
     0
 43
0.0
 10
-115.8569833793977
 20
26.77184789158257
 10
-115.8569833793977
 20
26.95294824465516
 42
-0.1363071246589681
 10
-115.1812813425293
 20
27.34220043500534
  0
LWPOLYLINE
  5
234
330
18
100
AcDbEntity
  8
ADP1DETAIL
100
AcDbPolyline
 90
        2
 70
     0
 43
0.0
 10
-115.5097170406754
 20
26.80203126715312
 10
-115.1775494337438
 20
26.99822330801099
  0
LWPOLYLINE
  5
238
330
18
100
AcDbEntity
  8
ADP1DETAIL
100
AcDbPolyline
 90
        3
 70
     0
 43
0.0
 10
-112.4145183252651
 20
26.92276486908462
 42
0.0586476969483183
 10
-112.4447153540919
 20
27.37551570194144
 42
-0.1521293075591433
 10
-112.3541241226932
 20
28.28101746730439
 42
-0.6617192526564483
  0
LWPOLYLINE
  5
23D
330
18
100
AcDbEntity
  8
ADP1DETAIL
100
AcDbPolyline
 90
        4
 70
     0
 43
0.0
 10
-112.4598137960463
 20
28.77904336351704
 42
0.0869631449966305
 10
-112.3239270938664
 20
28.17537555315817
 42
-0.220136450136404
 10
-112.3390255358207
 20
27.78299147144244
 42
-0.0237647721032316
 10
-112.4598137960463
 20
27.57170774279931
 42
1.821959610348162
  0
ARC
  5
243
330
18
100
AcDbEntity
  8
ADP1DETAIL
100
AcDbCircle
 10
-108.7010367576178
 20
24.85877971571479
 30
0.0
 40
5.860469626202863
100
AcDbArc
 50
141.3063978939682
 51
157.6344438687248
  0
LINE
  5
244
330
18
100
AcDbEntity
  8
ADP1DETAIL
100
AcDbLine
 10
-113.6827948402561
 20
27.76789978365717
 30
0.0
 11
-113.1543463285727
 21
28.52248457151808
 31
0.0
  0
LWPOLYLINE
  5
245
330
18
100
AcDbEntity
  8
ADP1DETAIL
100
AcDbPolyline
 90
        2
 70
     0
 43
0.0
 10
-113.0486565103015
 20
27.54152436722876
 42
0.2358312406789808
 10
-112.8070799898504
 20
28.86959358987799
 42
-1.332599932570889
  0
LWPOLYLINE
  5
249
330
18
100
AcDbEntity
  8
ADP1DETAIL
100
AcDbPolyline
 90
        5
 70
     0
 43
0.0
 10
-114.9505079675608
 20
27.37882487353557
 42
0.0079195368240658
 10
-114.9359729132927
 20
27.34533232637089
 42
-0.0634165947427303
 10
-114.8151846530672
 20
26.95294824465516
 42
-0.0787747547729911
 10
-114.4528198723905
 20
27.46606582865309
 42
0.279890671666275
 10
-114.3632859635278
 20
27.82044510764478
 42
-0.2282471528368135
  0
LINE
  5
250
330
18
100
AcDbEntity
  8
ADP1DETAIL
100
AcDbLine
 10
-112.6258976719711
 20
27.43588245308254
 30
0.0
 11
-112.6409962588436
 21
27.08877343472263
 31
0.0
  0
LINE
  5
251
330
18
100
AcDbEntity
  8
ADP1DETAIL
100
AcDbLine
 10
-112.8372771635954
 20
27.07368174693736
 30
0.0
 11
-112.8372771635954
 21
27.40569907751199
 31
0.0
  0
LINE
  5
252
330
18
100
AcDbEntity
  8
ADP1DETAIL
100
AcDbLine
 10
-112.2333358624677
 20
27.45097414086781
 30
0.0
 11
-112.1276461891146
 21
27.93390844894449
 31
0.0
  0
LINE
  5
253
330
18
100
AcDbEntity
  8
ADP1DETAIL
100
AcDbLine
 10
-112.3843211515201
 20
27.43588245308254
 30
0.0
 11
-112.278631478167
 21
27.84335822258354
 31
0.0
  0
ARC
  5
254
330
18
100
AcDbEntity
  8
ADP1DETAIL
100
AcDbCircle
 10
-113.5997529747527
 20
27.33377078843426
 30
0.0
 40
1.707865307220741
100
AcDbArc
 50
85.18230537632902
 51
109.3611801840171
  0
ARC
  5
255
330
18
100
AcDbEntity
  8
ADP1DETAIL
100
AcDbCircle
 10
-112.6963931059144
 20
32.51947073838372
 30
0.0
 40
3.264018766959525
100
AcDbArc
 50
252.1316783684048
 51
261.3988622887783
  0
ARC
  5
256
330
18
100
AcDbEntity
  8
ADP1DETAIL
100
AcDbCircle
 10
-113.2559009503837
 20
30.69382521638099
 30
0.0
 40
1.507697025494643
100
AcDbArc
 50
251.7486648535745
 51
268.6951931910942
  0
ARC
  5
257
330
18
100
AcDbEntity
  8
ADP1DETAIL
100
AcDbCircle
 10
-113.477334182142
 20
27.59890691169241
 30
0.0
 40
1.332167706242992
100
AcDbArc
 50
92.34360827452043
 51
135.201308724609
  0
LINE
  5
258
330
18
100
AcDbEntity
  8
ADP1DETAIL
100
AcDbLine
 10
-114.4830170461355
 20
28.17537555315817
 30
0.0
 11
-114.2112434968576
 21
28.37156759401604
 31
0.0
  0
ARC
  5
259
330
18
100
AcDbEntity
  8
ADP1DETAIL
100
AcDbCircle
 10
-114.5085632066399
 20
29.75166533064781
 30
0.0
 40
0.339082579376554
100
AcDbArc
 50
223.4347689264871
 51
287.3361366605278
  0
ARC
  5
25A
330
18
100
AcDbEntity
  8
ADP1DETAIL
100
AcDbCircle
 10
-114.0177328100044
 20
28.38406337011199
 30
0.0
 40
0.5143071408138395
100
AcDbArc
 50
129.8267438053322
 51
159.073361455602
  0
ARC
  5
25B
330
18
100
AcDbEntity
  8
ADP1DETAIL
100
AcDbCircle
 10
-114.4242398267294
 20
30.34317495840592
 30
0.0
 40
0.6028070373676334
100
AcDbArc
 50
246.5424053249492
 51
284.6641557181022
  0
LWPOLYLINE
  5
25C
330
18
100
AcDbEntity
  8
ADP1DETAIL
100
AcDbPolyline
 90
        3
 70
     0
 43
0.0
 10
-114.060258062887
 20
29.14124406966223
 42
0.2784577485944994
 10
-114.6038053063611
 20
28.55266794708863
 42
0.2465540689196883
 10
-115.0114655578189
 20
28.06973363901195
 42
0.0891591773093337
  0
LINE
  5
261
330
18
100
AcDbEntity
  8
ADP1DETAIL
100
AcDbLine
 10
-114.4075244016093
 20
28.08482542644653
 30
0.0
 11
-114.2565389676388
 21
28.17537555315817
 31
0.0
  0
LINE
  5
262
330
18
100
AcDbEntity
  8
ADP1DETAIL
100
AcDbLine
 10
-112.8558546035822
 20
29.41119529100062
 30
0.0
 11
-112.931347372652
 21
29.59229571597416
 31
0.0
  0
LINE
  5
263
330
18
100
AcDbEntity
  8
ADP1DETAIL
100
AcDbLine
 10
-112.750164902977
 20
29.41119529100062
 30
0.0
 11
-112.7048693589301
 21
29.60738741805529
 31
0.0
  0
LINE
  5
264
330
18
100
AcDbEntity
  8
ADP1DETAIL
100
AcDbLine
 10
-112.5085884234874
 20
29.10936145118734
 30
0.0
 11
-112.6142781240926
 21
29.1395448553496
 31
0.0
  0
LINE
  5
265
330
18
100
AcDbEntity
  8
ADP1DETAIL
100
AcDbLine
 10
-112.6142781240926
 20
29.35082858358075
 30
0.0
 11
-112.4330958011614
 21
29.42628699308174
 31
0.0
  0
LINE
  5
266
330
18
100
AcDbEntity
  8
ADP1DETAIL
100
AcDbLine
 10
-112.7199678246978
 20
28.9282610262138
 30
0.0
 11
-112.7652635154885
 21
29.06408634494395
 31
0.0
  0
LINE
  5
267
330
18
100
AcDbEntity
  8
ADP1DETAIL
100
AcDbLine
 10
-112.931347372652
 20
29.32064517941849
 30
0.0
 11
-112.6444752023718
 21
29.32064517941849
 31
0.0
  0
LINE
  5
268
330
18
100
AcDbEntity
  8
ADP1DETAIL
100
AcDbLine
 10
-112.9011502943728
 20
29.18481986068833
 30
0.0
 11
-112.6595738148832
 21
29.19991156276946
 31
0.0
  0
CIRCLE
  5
269
330
18
100
AcDbEntity
  8
ADP1DETAIL
100
AcDbCircle
 10
-112.7768830335219
 20
29.24688592025857
 30
0.0
 40
0.1664674977689781
  0
LINE
  5
26A
330
18
100
AcDbEntity
  8
ADP1DETAIL
100
AcDbLine
 10
-112.8558546035822
 20
29.36592028566188
 30
0.0
 11
-112.8558546035822
 21
29.1395448553496
 31
0.0
  0
LINE
  5
26B
330
18
100
AcDbEntity
  8
ADP1DETAIL
100
AcDbLine
 10
-112.674672280651
 20
29.35082858358075
 30
0.0
 11
-112.7803619812562
 21
29.16972815860721
 31
0.0
  0
LINE
  5
26C
330
18
100
AcDbEntity
  8
ADP1DETAIL
100
AcDbLine
 10
-113.1578252396301
 20
29.21500326485059
 30
0.0
 11
-112.9766429166989
 21
29.24518666901285
 31
0.0
  0
LINE
  5
26D
330
18
100
AcDbEntity
  8
ADP1DETAIL
100
AcDbLine
 10
-113.1427267738624
 20
29.41119529100062
 30
0.0
 11
-112.9464458384197
 21
29.36592028566188
 31
0.0
  0
CIRCLE
  5
26E
330
18
100
AcDbEntity
  8
ADP1DETAIL
100
AcDbCircle
 10
-112.8052901438956
 20
29.28452441557091
 30
0.0
 40
0.3871741245739806
  0
ARC
  5
26F
330
18
100
AcDbEntity
  8
ADP1DETAIL
100
AcDbCircle
 10
-112.6637535317995
 20
28.19046724094345
 30
0.0
 40
0.250814251338801
100
AcDbArc
 50
105.6913070519342
 51
226.2239671674574
  0
LINE
  5
270
330
18
100
AcDbEntity
  8
ADP1DETAIL
100
AcDbLine
 10
-113.0521355390249
 20
29.01881123870057
 30
0.0
 11
-112.9011502943728
 21
29.10936145118734
 31
0.0
  0
LWPOLYLINE
  5
271
330
18
100
AcDbEntity
  8
ADP1DETAIL
100
AcDbPolyline
 90
        2
 70
     0
 43
0.0
 10
-114.4528199241813
 20
33.1556350438919
 42
0.2020786253183183
 10
-115.6456038558615
 20
31.70683224953143
  0
LWPOLYLINE
  5
275
330
18
100
AcDbEntity
  8
ADP1DETAIL
100
AcDbPolyline
 90
        6
 70
     0
 43
0.0
 10
-114.4830170024604
 20
33.18581844805416
 42
0.2235163308040519
 10
-115.8720817228396
 20
32.18976651431825
 42
-0.0836357024709985
 10
-116.1438552806083
 20
31.57100703170591
 42
0.1101374992835824
 10
-115.6607023216291
 20
31.66155724419269
 42
-0.1282747227824757
 10
-115.5852096993031
 20
31.11825617108135
 42
0.1181606913410218
 10
-114.9963670397188
 20
31.76719905785594
 42
-0.5920760366107267
  0
ARC
  5
27D
330
18
100
AcDbEntity
  8
ADP1DETAIL
100
AcDbCircle
 10
-115.5239592983959
 20
31.89276427120038
 30
0.0
 40
0.305254907524257
100
AcDbArc
 50
306.2094906437899
 51
350.5523095637331
  0
LWPOLYLINE
  5
27E
330
18
100
AcDbEntity
  8
ADP1DETAIL
100
AcDbPolyline
 90
        2
 70
     0
 43
0.0
 10
-115.7361951191722
 20
31.10316447824087
 42
0.164245226215259
 10
-115.5852096852016
 20
30.28821293923886
 42
0.5872750486175119
  0
LINE
  5
282
330
18
100
AcDbEntity
  8
ADP1DETAIL
100
AcDbLine
 10
-115.1171552060917
 20
33.17072674597302
 30
0.0
 11
-115.6607023216291
 21
33.01980982606639
 31
0.0
  0
ARC
  5
283
330
18
100
AcDbEntity
  8
ADP1DETAIL
100
AcDbCircle
 10
-114.0595540893657
 20
29.35865112928516
 30
0.0
 40
4.091039782864561
100
AcDbArc
 50
105.2010647964468
 51
113.5007178725892
  0
LINE
  5
284
330
18
100
AcDbEntity
  8
ADP1DETAIL
100
AcDbLine
 10
-115.7361949439552
 20
33.47256068669095
 30
0.0
 11
-115.7663920222344
 21
33.24618525637867
 31
0.0
  0
ARC
  5
285
330
18
100
AcDbEntity
  8
ADP1DETAIL
100
AcDbCircle
 10
-115.5324361634594
 20
31.59349026676094
 30
0.0
 40
0.3548737454761824
100
AcDbArc
 50
113.8277319013274
 51
141.8971142053308
  0
ARC
  5
286
330
18
100
AcDbEntity
  8
ADP1DETAIL
100
AcDbCircle
 10
-115.099222238278
 20
31.73281376280993
 30
0.0
 40
0.3360082201480757
100
AcDbArc
 50
114.3840473061471
 51
184.4347679461681
  0
ARC
  5
287
330
18
100
AcDbEntity
  8
ADP1DETAIL
100
AcDbCircle
 10
-116.0448793809841
 20
32.20765431647666
 30
0.0
 40
0.3700931833327814
100
AcDbArc
 50
295.2207101820559
 51
4.243830273235422
  0
ARC
  5
288
330
18
100
AcDbEntity
  8
ADP1DETAIL
100
AcDbCircle
 10
201724.275016165
 20
-157025.6843428825
 30
0.0
 40
255747.5759651087
100
AcDbArc
 50
142.1123801719821
 51
142.1124572845142
  0
ARC
  5
289
330
18
100
AcDbEntity
  8
ADP1DETAIL
100
AcDbCircle
 10
-116.9812903146433
 20
32.98214867959613
 30
0.0
 40
0.8472154803013729
100
AcDbArc
 50
320.7687228025187
 51
346.0804174837589
  0
ARC
  5
28A
330
18
100
AcDbEntity
  8
ADP1DETAIL
100
AcDbCircle
 10
-110.4754002656678
 20
29.69121394945227
 30
0.0
 40
3.000451605323717
100
AcDbArc
 50
133.356213193751
 51
140.0893074668489
  0
LWPOLYLINE
  5
28B
330
18
100
AcDbEntity
  8
ADP1DETAIL
100
AcDbPolyline
 90
        3
 70
     0
 43
0.0
 10
-112.9356096998044
 20
31.63229052431097
 42
0.0021864856288306
 10
-112.8674741924222
 20
31.67664891302919
 42
0.1306516619195875
 10
-112.5698976194084
 20
31.99443773030076
  0
ARC
  5
290
330
18
100
AcDbEntity
  8
ADP1DETAIL
100
AcDbCircle
 10
-113.5138424841639
 20
31.56848751166403
 30
0.0
 40
0.452113627520701
100
AcDbArc
 50
354.5735305794801
 51
37.33098350149675
  0
ARC
  5
291
330
18
100
AcDbEntity
  8
ADP1DETAIL
100
AcDbCircle
 10
-113.4786887870839
 20
31.41756876678316
 30
0.0
 40
0.3706717928973963
100
AcDbArc
 50
355.720219117148
 51
41.16526476870149
  0
LWPOLYLINE
  5
292
330
18
100
AcDbEntity
  8
ADP1DETAIL
100
AcDbPolyline
 90
        5
 70
     0
 43
0.0
 10
-114.9963670397188
 20
31.76719905785594
 42
0.0531153252251551
 10
-114.6943964036708
 20
31.28426479306912
 42
-0.1840961819375856
 10
-114.543411012275
 20
31.82756586618046
 42
0.196880137624704
 10
-114.2112434446917
 20
32.56705896544182
 42
-0.3627042586492349
 10
-114.1055537440865
 20
31.88793267450497
 42
1.768433457522479
  0
LWPOLYLINE
  5
299
330
18
100
AcDbEntity
  8
ADP1DETAIL
100
AcDbPolyline
 90
       14
 70
     0
 43
0.0
 10
-112.4669619195447
 20
31.96357105361562
 42
-0.5125087325312313
 10
-112.6258976421261
 20
32.09921640273613
 42
0.3178719892909955
 10
-112.7164888769636
 20
32.29540842888615
 42
-0.1382935264723801
 10
-113.3204300023157
 20
32.91416791149849
 42
0.2665076661373309
 10
-113.7129918732011
 20
33.1556350438919
 42
-0.1412395196056145
 10
-113.4110212371532
 20
32.47650875295505
 42
0.2705344015505381
 10
-113.2449373799896
 20
32.2652250247239
 42
-0.2267744242699753
 10
-113.0486565912907
 20
32.05394129649274
 42
-0.0254049295078658
 10
-112.9127698124063
 20
31.52573192546253
 42
-0.2875107357410744
 10
-113.0033609005
 20
31.28426479306912
 42
-0.5066372336605636
 10
-113.2600359925011
 20
31.35972330347476
 42
0.226032946444451
 10
-113.4110212371532
 20
31.87284097242384
 42
-0.2206626964878961
 10
-113.6525977166428
 20
32.59724236960407
 42
0.20008373573775
 10
-113.8035831080386
 20
33.18581844805416
 42
7.491471087488463
  0
ARC
  5
2A9
330
18
100
AcDbEntity
  8
ADP1DETAIL
100
AcDbCircle
 10
-113.7353757825243
 20
32.60357495133701
 30
0.0
 40
1.493284349755789
100
AcDbArc
 50
299.8583053266533
 51
325.5010907190829
  0
ARC
  5
2AA
330
18
100
AcDbEntity
  8
ADP1DETAIL
100
AcDbCircle
 10
-114.8350223792109
 20
30.70732235531239
 30
0.0
 40
1.034453863902662
100
AcDbArc
 50
349.2622059134062
 51
14.55780485988138
  0
ARC
  5
2AB
330
18
100
AcDbEntity
  8
ADP1DETAIL
100
AcDbCircle
 10
-114.238272206965
 20
29.73799801628405
 30
0.0
 40
0.7234558990499492
100
AcDbArc
 50
108.507543628671
 51
149.3221687624763
  0
ARC
  5
2AC
330
18
100
AcDbEntity
  8
ADP1DETAIL
100
AcDbCircle
 10
-116.1089848013858
 20
32.52311123674942
 30
0.0
 40
2.489836415430054
100
AcDbArc
 50
296.9316879752634
 51
308.515159372447
  0
ARC
  5
2AD
330
18
100
AcDbEntity
  8
ADP1DETAIL
100
AcDbCircle
 10
-112.12855534424
 20
28.23460142188558
 30
0.0
 40
3.204099386681313
100
AcDbArc
 50
128.098956202966
 51
136.8960905034107
  0
LWPOLYLINE
  5
2AE
330
18
100
AcDbEntity
  8
ADP1DETAIL
100
AcDbPolyline
 90
        3
 70
     0
 43
0.0
 10
-114.065308927429
 20
30.61399261591954
 42
-0.0597328946242547
 10
-114.7698890373678
 20
30.0316540475906
 42
0.0020536554779249
 10
-114.7795532845686
 20
30.02538461648511
 42
0.103351655778276
  0
ARC
  5
2B3
330
18
100
AcDbEntity
  8
ADP1DETAIL
100
AcDbCircle
 10
-111.6459725805637
 20
31.04598050487493
 30
0.0
 40
0.6386649940173129
100
AcDbArc
 50
138.9544878130166
 51
165.2295494205333
  0
ARC
  5
2B4
330
18
100
AcDbEntity
  8
ADP1DETAIL
100
AcDbCircle
 10
-112.6554072887134
 20
31.50834892292996
 30
0.0
 40
0.3394591966108034
100
AcDbArc
 50
315.2044678351625
 51
21.24855147899452
  0
ARC
  5
2B5
330
18
100
AcDbEntity
  8
ADP1DETAIL
100
AcDbCircle
 10
-112.1281401336282
 20
30.1523876495221
 30
0.0
 40
0.5632293865659683
100
AcDbArc
 50
172.3006691005444
 51
200.3854593101024
  0
LWPOLYLINE
  5
2B6
330
18
100
AcDbEntity
  8
ADP1DETAIL
100
AcDbPolyline
 90
        3
 70
     0
 43
0.0
 10
-113.2600360019257
 20
30.39385475373578
 10
-113.2147403862264
 20
30.45422160452618
 10
-113.0335580683471
 20
30.43912991674091
  0
ARC
  5
2BB
330
18
100
AcDbEntity
  8
ADP1DETAIL
100
AcDbCircle
 10
-111.1368780304098
 20
31.04399250757317
 30
0.0
 40
2.440428870630748
100
AcDbArc
 50
180.736711150054
 51
191.0808899192946
  0
ARC
  5
2BC
330
18
100
AcDbEntity
  8
ADP1DETAIL
100
AcDbCircle
 10
-104.2838395496904
 20
16.07433374521466
 30
0.0
 40
17.57884867398082
100
AcDbArc
 50
120.2883533152461
 51
120.9902556706066
  0
LWPOLYLINE
  5
2BD
330
18
100
AcDbEntity
  8
ADP1DETAIL
100
AcDbPolyline
 90
        2
 70
     0
 43
0.0
 10
-113.4081455576757
 20
31.34708453951546
 42
0.0048284825787282
 10
-113.2526061347088
 20
31.43676167007732
 42
0.124207973491984
  0
ARC
  5
2C1
330
18
100
AcDbEntity
  8
ADP1DETAIL
100
AcDbCircle
 10
-113.0888721779669
 20
32.60038700665723
 30
0.0
 40
0.4588332201180493
100
AcDbArc
 50
176.621636744169
 51
248.096685243543
  0
LINE
  5
2C2
330
18
100
AcDbEntity
  8
ADP1DETAIL
100
AcDbLine
 10
-114.2112434446917
 20
33.35182707004193
 30
0.0
 11
-113.9696669652021
 21
33.36691877212305
 31
0.0
  0
LINE
  5
2C3
330
18
100
AcDbEntity
  8
ADP1DETAIL
100
AcDbLine
 10
-114.2414405229709
 20
33.48765238877208
 30
0.0
 11
-113.9545683526907
 21
33.48765238877208
 31
0.0
  0
ARC
  5
2C4
330
18
100
AcDbEntity
  8
ADP1DETAIL
100
AcDbCircle
 10
-116.1194929772954
 20
32.71043008476022
 30
0.0
 40
1.913627852153325
100
AcDbArc
 50
355.7033106173025
 51
8.389340146909246
  0
LINE
  5
2C5
330
18
100
AcDbEntity
  8
ADP1DETAIL
100
AcDbLine
 10
-114.2112434446917
 20
32.98962642190413
 30
0.0
 11
-114.2112434446917
 21
32.56705896544182
 31
0.0
  0
LINE
  5
2C6
330
18
100
AcDbEntity
  8
ADP1DETAIL
100
AcDbLine
 10
-114.3622286893438
 20
33.18581844805416
 30
0.0
 11
-114.2112434446917
 21
33.27636866054092
 31
0.0
  0
ARC
  5
2C7
330
18
100
AcDbEntity
  8
ADP1DETAIL
100
AcDbCircle
 10
-118.7062639273041
 20
32.12688087104743
 30
0.0
 40
4.8819799690526
100
AcDbArc
 50
3.574255750679986
 51
11.62181424755413
  0
LINE
  5
2C8
330
18
100
AcDbEntity
  8
ADP1DETAIL
100
AcDbLine
 10
-113.9998638967375
 20
32.55196726336069
 30
0.0
 11
-113.9243712744115
 21
32.34068353512954
 31
0.0
  0
ARC
  5
2C9
330
18
100
AcDbEntity
  8
ADP1DETAIL
100
AcDbCircle
 10
-113.0596959573723
 20
32.4795857185094
 30
0.0
 40
0.7755928805431119
100
AcDbArc
 50
183.5742557506798
 51
214.6287739269933
  0
LINE
  5
2CA
330
18
100
AcDbEntity
  8
ADP1DETAIL
100
AcDbLine
 10
-113.8186815738063
 20
33.27636866054092
 30
0.0
 11
-113.9243712744115
 21
33.30655206470318
 31
0.0
  0
LINE
  5
2CB
330
18
100
AcDbEntity
  8
ADP1DETAIL
100
AcDbLine
 10
-114.0300609750167
 20
33.09526823556739
 30
0.0
 11
-114.0753566658073
 21
33.23109355429754
 31
0.0
  0
LINE
  5
2CC
330
18
100
AcDbEntity
  8
ADP1DETAIL
100
AcDbLine
 10
-114.8302831825552
 20
32.68779248118621
 30
0.0
 11
-114.4830170024604
 21
32.974534719823
 31
0.0
  0
LINE
  5
2CD
330
18
100
AcDbEntity
  8
ADP1DETAIL
100
AcDbLine
 10
-114.3924257676229
 20
32.92925961357962
 30
0.0
 11
-114.6943964036708
 21
32.68779248118621
 31
0.0
  0
ARC
  5
2CE
330
18
100
AcDbEntity
  8
ADP1DETAIL
100
AcDbCircle
 10
-116.4132920611987
 20
32.78531274343849
 30
0.0
 40
2.006111900719577
100
AcDbArc
 50
345.8650916494728
 51
358.9388140245453
  0
ARC
  5
2CF
330
18
100
AcDbEntity
  8
ADP1DETAIL
100
AcDbCircle
 10
-114.6421538165843
 20
32.24602482239721
 30
0.0
 40
0.1810986595329763
100
AcDbArc
 50
282.2252523114702
 51
15.82433894128916
  0
LINE
  5
2D0
330
18
100
AcDbEntity
  8
ADP1DETAIL
100
AcDbLine
 10
-114.467918389949
 20
33.38201047420418
 30
0.0
 11
-114.2867360670177
 21
33.41219387836643
 31
0.0
  0
LWPOLYLINE
  5
2D1
330
18
100
AcDbEntity
  8
ADP1DETAIL
100
AcDbPolyline
 90
        2
 70
     0
 43
0.0
 10
-114.2112434446917
 20
32.98962642190413
 42
0.1615178976491598
 10
-114.9359728831604
 20
31.7973824620182
 42
1.25591327806066
  0
ARC
  5
2D5
330
18
100
AcDbEntity
  8
ADP1DETAIL
100
AcDbCircle
 10
-114.5654565210824
 20
31.89204117475052
 30
0.0
 40
0.1810986595329758
100
AcDbArc
 50
102.2252523114703
 51
195.8243389412892
  0
ARC
  5
2D6
330
18
100
AcDbEntity
  8
ADP1DETAIL
100
AcDbCircle
 10
-115.026331805139
 20
32.34068348467722
 30
0.0
 40
0.4009385111920908
100
AcDbArc
 50
289.7759113857426
 51
19.80185159839137
  0
ARC
  5
2D7
330
18
100
AcDbEntity
  8
ADP1DETAIL
100
AcDbCircle
 10
-108.598477728643
 20
34.28773350170354
 30
0.0
 40
5.286793178645845
100
AcDbArc
 50
199.1669103187672
 51
204.453794486636
  0
LINE
  5
2D8
330
18
100
AcDbEntity
  8
ADP1DETAIL
100
AcDbLine
 10
-113.1090506011052
 20
33.0801766343909
 30
0.0
 11
-112.7164888769636
 21
32.71797588534846
 31
0.0
  0
LINE
  5
2D9
330
18
100
AcDbEntity
  8
ADP1DETAIL
100
AcDbLine
 10
-113.0939521353375
 20
32.91416791149849
 30
0.0
 11
-112.8674741216157
 21
32.70288418326734
 31
0.0
  0
LINE
  5
2DA
330
18
100
AcDbEntity
  8
ADP1DETAIL
100
AcDbLine
 10
-113.5016124719907
 20
33.32164376678432
 30
0.0
 11
-112.7013902644521
 21
32.94435131566074
 31
0.0
  0
ARC
  5
2DB
330
18
100
AcDbEntity
  8
ADP1DETAIL
100
AcDbCircle
 10
-114.645257142994
 20
36.08120679583325
 30
0.0
 40
1.37036233924534
100
AcDbArc
 50
117.6645767025874
 51
156.3522712437827
  0
LINE
  5
2DC
330
18
100
AcDbEntity
  8
ADP1DETAIL
100
AcDbLine
 10
-114.5265823314722
 20
37.06853505616291
 30
0.0
 11
-114.6322720048253
 21
37.55146936423959
 31
0.0
  0
LINE
  5
2DD
330
18
100
AcDbEntity
  8
ADP1DETAIL
100
AcDbLine
 10
-114.3755970424198
 20
37.05344336837764
 30
0.0
 11
-114.4812867157729
 21
37.46091913787864
 31
0.0
  0
ARC
  5
2DE
330
18
100
AcDbEntity
  8
ADP1DETAIL
100
AcDbCircle
 10
-114.9760004773576
 20
36.57363363651292
 30
0.0
 40
1.019346904517929
100
AcDbArc
 50
119.4895976771212
 51
162.0705790013247
  0
LWPOLYLINE
  5
2DF
330
18
100
AcDbEntity
  8
ADP1DETAIL
100
AcDbPolyline
 90
        2
 70
     0
 43
0.0
 10
-113.7112616836384
 20
37.15908528252386
 42
-0.2358312406789808
 10
-113.9528382040895
 20
38.48715450517309
 42
1.332599932570889
  0
LWPOLYLINE
  5
2E3
330
18
100
AcDbEntity
  8
ADP1DETAIL
100
AcDbPolyline
 90
        3
 70
     0
 43
0.0
 10
-114.3453998686748
 20
36.54032578437972
 42
-0.0586476969483183
 10
-114.315202839848
 20
36.99307661723655
 42
0.1521293075591433
 10
-114.4057940712467
 20
37.8985783825995
 42
0.6617192526564483
  0
LWPOLYLINE
  5
2E8
330
18
100
AcDbEntity
  8
ADP1DETAIL
100
AcDbPolyline
 90
        4
 70
     0
 43
0.0
 10
-114.3001043978936
 20
38.39660427881215
 42
-0.0869631449966305
 10
-114.4359911000735
 20
37.79293646845327
 42
0.220136450136404
 10
-114.4208926581192
 20
37.40055238673755
 42
0.0237647721032316
 10
-114.3001043978936
 20
37.18926865809441
 42
-1.821959610348162
  0
ARC
  5
2EE
330
18
100
AcDbEntity
  8
ADP1DETAIL
100
AcDbCircle
 10
-118.0588814363221
 20
34.4763406310099
 30
0.0
 40
5.860469626202863
100
AcDbArc
 50
22.3655561312751
 51
38.69360210603173
  0
ARC
  5
2EF
330
18
100
AcDbEntity
  8
ADP1DETAIL
100
AcDbCircle
 10
-115.307089254503
 20
32.73368348670018
 30
0.0
 40
1.191387849334604
100
AcDbArc
 50
64.00901244166021
 51
99.05624693441458
  0
ARC
  5
2F0
330
18
100
AcDbEntity
  8
ADP1DETAIL
100
AcDbCircle
 10
-115.349115968256
 20
33.78217705555698
 30
0.0
 40
0.7675976509466867
100
AcDbArc
 50
21.31032873316372
 51
72.41077929688389
  0
ARC
  5
2F1
330
18
100
AcDbEntity
  8
ADP1DETAIL
100
AcDbCircle
 10
-115.3042976913763
 20
32.36945146089487
 30
0.0
 40
1.468460706916971
100
AcDbArc
 50
71.16784812511316
 51
121.3535129384101
  0
ARC
  5
2F2
330
18
100
AcDbEntity
  8
ADP1DETAIL
100
AcDbCircle
 10
-115.1247045123474
 20
34.49007365337854
 30
0.0
 40
0.0249819395923204
100
AcDbArc
 50
72.4107792968842
 51
107.5892207031164
  0
ARC
  5
2F3
330
18
100
AcDbEntity
  8
ADP1DETAIL
100
AcDbCircle
 10
-114.777615200912
 20
35.45757078480756
 30
0.0
 40
1.002908430404689
100
AcDbArc
 50
213.3464506767779
 51
250.2111179672525
  0
LINE
  5
2F4
330
18
100
AcDbEntity
  8
ADP1DETAIL
100
AcDbLine
 10
-115.1473522843708
 20
34.25732879129105
 30
0.0
 11
-115.4040273763719
 21
34.07622846722216
 31
0.0
  0
ARC
  5
2F5
330
18
100
AcDbEntity
  8
ADP1DETAIL
100
AcDbCircle
 10
-109.8442718752643
 20
34.53652522933961
 30
0.0
 40
4.514533754723205
100
AcDbArc
 50
168.7225363722169
 51
184.1215523735357
  0
LWPOLYLINE
  5
2F6
330
18
100
AcDbEntity
  8
ADP1DETAIL
100
AcDbPolyline
 90
        5
 70
     0
 43
0.0
 10
-113.9998638967375
 20
33.95549495147777
 42
-0.1795988534698404
 10
-113.4714153937115
 20
35.81177350021943
 42
0.5923520751330336
 10
-113.5771050943167
 20
36.03814893053171
 42
0.0996796890678764
 10
-114.1357506756219
 20
35.96269042012606
 42
0.295891696675179
 10
-114.3320316110646
 20
33.864944738991
 42
0.6053754494244482
  0
LINE
  5
2FD
330
18
100
AcDbEntity
  8
ADP1DETAIL
100
AcDbLine
 10
-113.8035831080386
 20
33.84985303690987
 30
0.0
 11
-113.4563167812
 21
34.81572156648352
 31
0.0
  0
LINE
  5
2FE
330
18
100
AcDbEntity
  8
ADP1DETAIL
100
AcDbLine
 10
-113.6676963291542
 20
33.56311079827309
 30
0.0
 11
-113.380824158874
 21
33.69893611700324
 31
0.0
  0
LINE
  5
2FF
330
18
100
AcDbEntity
  8
ADP1DETAIL
100
AcDbLine
 10
-113.9243712744115
 20
33.864944738991
 30
0.0
 11
-113.7280903389688
 21
34.83081326856465
 31
0.0
  0
LINE
  5
300
330
18
100
AcDbEntity
  8
ADP1DETAIL
100
AcDbLine
 10
-114.1659477539011
 20
34.01586175980229
 30
0.0
 11
-114.1659477539011
 21
34.77044646024014
 31
0.0
  0
LINE
  5
301
330
18
100
AcDbEntity
  8
ADP1DETAIL
100
AcDbLine
 10
-113.8337801863178
 20
33.84985303690987
 30
0.0
 11
-113.6224006383636
 21
34.80062986440239
 31
0.0
  0
LINE
  5
302
330
18
100
AcDbEntity
  8
ADP1DETAIL
100
AcDbLine
 10
-114.1659477539011
 20
34.77044646024014
 30
0.0
 11
-114.0300609750167
 21
35.35902263959486
 31
0.0
  0
LINE
  5
303
330
18
100
AcDbEntity
  8
ADP1DETAIL
100
AcDbLine
 10
-114.1659477539011
 20
33.57820250035421
 30
0.0
 11
-114.2414405229709
 21
33.75930292532775
 31
0.0
  0
LINE
  5
304
330
18
100
AcDbEntity
  8
ADP1DETAIL
100
AcDbLine
 10
-114.4528199241813
 20
33.57820250035421
 30
0.0
 11
-114.2565389887386
 21
33.53292749501547
 31
0.0
  0
LINE
  5
305
330
18
100
AcDbEntity
  8
ADP1DETAIL
100
AcDbLine
 10
-114.0602580532958
 20
33.57820250035421
 30
0.0
 11
-114.014962509249
 21
33.77439462740888
 31
0.0
  0
LINE
  5
306
330
18
100
AcDbEntity
  8
ADP1DETAIL
100
AcDbLine
 10
-113.9243712744115
 20
33.51783579293434
 30
0.0
 11
-113.7431889514802
 21
33.59329420243533
 31
0.0
  0
LINE
  5
307
330
18
100
AcDbEntity
  8
ADP1DETAIL
100
AcDbLine
 10
-112.8825727341271
 20
34.03095336097877
 30
0.0
 11
-112.5957005638469
 21
34.30260389753444
 31
0.0
  0
LINE
  5
308
330
18
100
AcDbEntity
  8
ADP1DETAIL
100
AcDbLine
 10
-112.9429667439417
 20
34.66480464657688
 30
0.0
 11
-112.4296167066834
 21
35.20810561878358
 31
0.0
  0
LINE
  5
309
330
18
100
AcDbEntity
  8
ADP1DETAIL
100
AcDbLine
 10
-112.5655034855677
 20
33.71402781908436
 30
0.0
 11
-112.3994196284042
 21
33.75930292532775
 31
0.0
  0
LINE
  5
30A
330
18
100
AcDbEntity
  8
ADP1DETAIL
100
AcDbLine
 10
-113.4714153937115
 20
34.16677867970893
 30
0.0
 11
-113.1694447576636
 21
34.71007975282027
 31
0.0
  0
LINE
  5
30B
330
18
100
AcDbEntity
  8
ADP1DETAIL
100
AcDbLine
 10
-113.1694447576636
 20
34.71007975282027
 30
0.0
 11
-112.6560947204053
 21
35.23828902294583
 31
0.0
  0
LINE
  5
30C
330
18
100
AcDbEntity
  8
ADP1DETAIL
100
AcDbLine
 10
-114.1340205219687
 20
37.05344336837764
 30
0.0
 11
-114.1189219350962
 21
36.70633435001774
 31
0.0
  0
LINE
  5
30D
330
18
100
AcDbEntity
  8
ADP1DETAIL
100
AcDbLine
 10
-113.9226410303445
 20
36.69124266223247
 30
0.0
 11
-113.9226410303445
 21
37.02325999280709
 31
0.0
  0
ARC
  5
30E
330
18
100
AcDbEntity
  8
ADP1DETAIL
100
AcDbCircle
 10
-114.5795593837688
 20
40.64560983643239
 30
0.0
 40
0.732883541961281
100
AcDbArc
 50
221.2555626568405
 51
245.0295182635212
  0
ARC
  5
30F
330
18
100
AcDbEntity
  8
ADP1DETAIL
100
AcDbCircle
 10
-115.0153040287154
 20
40.81544368090116
 30
0.0
 40
0.2664289182287814
100
AcDbArc
 50
177.6502269889737
 51
258.1249117310423
  0
ARC
  5
310
330
18
100
AcDbEntity
  8
ADP1DETAIL
100
AcDbCircle
 10
-113.3054857234256
 20
42.60661761778074
 30
0.0
 40
3.954361161106873
100
AcDbArc
 50
240.0193619974746
 51
254.0717338364183
  0
ARC
  5
311
330
18
100
AcDbEntity
  8
ADP1DETAIL
100
AcDbCircle
 10
-114.8446701203501
 20
40.07124186380019
 30
0.0
 40
0.7704092166070686
100
AcDbArc
 50
210.5717700192652
 51
266.7052790192899
  0
ARC
  5
312
330
18
100
AcDbEntity
  8
ADP1DETAIL
100
AcDbCircle
 10
-114.9296929734773
 20
36.33754591573149
 30
0.0
 40
2.512648629537444
100
AcDbArc
 50
75.84424301660874
 51
115.3692601338855
  0
ARC
  5
313
330
18
100
AcDbEntity
  8
ADP1DETAIL
100
AcDbCircle
 10
-116.1793825036093
 20
38.02685777859898
 30
0.0
 40
0.5506590913592183
100
AcDbArc
 50
346.5288273940819
 51
13.47117260591802
  0
ARC
  5
314
330
18
100
AcDbEntity
  8
ADP1DETAIL
100
AcDbCircle
 10
-116.5076197255792
 20
38.01931193470634
 30
0.0
 40
0.7334701941727479
100
AcDbArc
 50
342.0229381734839
 51
7.091512319512004
  0
ARC
  5
315
330
18
100
AcDbEntity
  8
ADP1DETAIL
100
AcDbCircle
 10
-116.4916543704918
 20
38.19961727633852
 30
0.0
 40
1.014910715757332
100
AcDbArc
 50
331.6370151860944
 51
2.601731660023615
  0
ARC
  5
316
330
18
100
AcDbEntity
  8
ADP1DETAIL
100
AcDbCircle
 10
-115.5304497661652
 20
37.87742168873616
 30
0.0
 40
0.4496241948200027
100
AcDbArc
 50
157.4986425493789
 51
226.4641825009077
  0
ARC
  5
317
330
18
100
AcDbEntity
  8
ADP1DETAIL
100
AcDbCircle
 10
-115.7030281278309
 20
40.63554174444317
 30
0.0
 40
0.2734616893298754
100
AcDbArc
 50
8.391628778054935
 51
48.85107870092459
  0
ARC
  5
318
330
18
100
AcDbEntity
  8
ADP1DETAIL
100
AcDbCircle
 10
-117.7719421035296
 20
36.37124544397175
 30
0.0
 40
3.870347400081636
100
AcDbArc
 50
47.87327729006265
 51
55.83746787748967
  0
CIRCLE
  5
319
330
18
100
AcDbEntity
  8
ADP1DETAIL
100
AcDbCircle
 10
-113.9546280500443
 20
38.90208533086602
 30
0.0
 40
0.3871741245739806
  0
LINE
  5
31A
330
18
100
AcDbEntity
  8
ADP1DETAIL
100
AcDbLine
 10
-113.9040635903577
 20
39.02875620629572
 30
0.0
 11
-113.8285708212879
 21
39.20985663126927
 31
0.0
  0
LINE
  5
31B
330
18
100
AcDbEntity
  8
ADP1DETAIL
100
AcDbLine
 10
-114.0097532909629
 20
39.02875620629572
 30
0.0
 11
-114.0550488350098
 21
39.2249483333504
 31
0.0
  0
ARC
  5
31C
330
18
100
AcDbEntity
  8
ADP1DETAIL
100
AcDbCircle
 10
-114.1829044409675
 20
39.6425678830694
 30
0.0
 40
0.5493024818408795
100
AcDbArc
 50
201.872295247498
 51
257.6805869109108
  0
LINE
  5
31D
330
18
100
AcDbEntity
  8
ADP1DETAIL
100
AcDbLine
 10
-113.6020929543098
 20
38.8325641801457
 30
0.0
 11
-113.783275277241
 21
38.86274758430795
 31
0.0
  0
CIRCLE
  5
31E
330
18
100
AcDbEntity
  8
ADP1DETAIL
100
AcDbCircle
 10
-113.983035160418
 20
38.86444683555367
 30
0.0
 40
0.1664674977689781
  0
LINE
  5
31F
330
18
100
AcDbEntity
  8
ADP1DETAIL
100
AcDbLine
 10
-113.9040635903577
 20
38.98348120095699
 30
0.0
 11
-113.9040635903577
 21
38.7571057706447
 31
0.0
  0
LINE
  5
320
330
18
100
AcDbEntity
  8
ADP1DETAIL
100
AcDbLine
 10
-114.2513297704525
 20
38.72692236648244
 30
0.0
 11
-114.1456400698473
 21
38.7571057706447
 31
0.0
  0
ARC
  5
321
330
18
100
AcDbEntity
  8
ADP1DETAIL
100
AcDbCircle
 10
-114.0961646621404
 20
37.80802815623856
 30
0.0
 40
0.250814251338801
100
AcDbArc
 50
313.7760328325425
 51
74.30869294806573
  0
LINE
  5
322
330
18
100
AcDbEntity
  8
ADP1DETAIL
100
AcDbLine
 10
-113.707782654915
 20
38.63637215399568
 30
0.0
 11
-113.8587678995671
 21
38.72692236648244
 31
0.0
  0
LINE
  5
323
330
18
100
AcDbEntity
  8
ADP1DETAIL
100
AcDbLine
 10
-114.0399503692421
 20
38.5458219415089
 30
0.0
 11
-113.9946546784514
 21
38.68164726023906
 31
0.0
  0
LINE
  5
324
330
18
100
AcDbEntity
  8
ADP1DETAIL
100
AcDbLine
 10
-113.8285708212879
 20
38.9382060947136
 30
0.0
 11
-114.1154429915681
 21
38.9382060947136
 31
0.0
  0
LINE
  5
325
330
18
100
AcDbEntity
  8
ADP1DETAIL
100
AcDbLine
 10
-113.8587678995671
 20
38.80238077598344
 30
0.0
 11
-114.1003443790566
 21
38.81747247806457
 31
0.0
  0
LINE
  5
326
330
18
100
AcDbEntity
  8
ADP1DETAIL
100
AcDbLine
 10
-114.1456400698473
 20
38.96838949887586
 30
0.0
 11
-114.3268223927785
 21
39.04384790837685
 31
0.0
  0
LINE
  5
327
330
18
100
AcDbEntity
  8
ADP1DETAIL
100
AcDbLine
 10
-114.0852459132889
 20
38.96838949887586
 30
0.0
 11
-113.9795562126837
 21
38.78728907390231
 31
0.0
  0
LINE
  5
328
330
18
100
AcDbEntity
  8
ADP1DETAIL
100
AcDbLine
 10
-113.6171914200775
 20
39.02875620629572
 30
0.0
 11
-113.8134723555202
 21
38.98348120095699
 31
0.0
  0
ARC
  5
329
330
18
100
AcDbEntity
  8
ADP1DETAIL
100
AcDbCircle
 10
-114.70962686773
 20
37.46029413688916
 30
0.0
 40
1.256372862583035
100
AcDbArc
 50
80.2279992945966
 51
105.9573391427599
  0
ARC
  5
32A
330
18
100
AcDbEntity
  8
ADP1DETAIL
100
AcDbCircle
 10
-112.8724863376226
 20
36.56632183782356
 30
0.0
 40
2.501271647707596
100
AcDbArc
 50
138.7506369325026
 51
152.2080739370456
  0
ARC
  5
32B
330
18
100
AcDbEntity
  8
ADP1DETAIL
100
AcDbCircle
 10
-120.3432009207306
 20
40.87980781875411
 30
0.0
 40
6.293848814014786
100
AcDbArc
 50
329.5196122584056
 51
334.4999273778673
  0
ARC
  5
32C
330
18
100
AcDbEntity
  8
ADP1DETAIL
100
AcDbCircle
 10
-113.8094288826284
 20
37.55203108871612
 30
0.0
 40
0.9748543774481918
100
AcDbArc
 50
116.191969494533
 51
177.3711102101074
  0
ARC
  5
32D
330
18
100
AcDbEntity
  8
ADP1DETAIL
100
AcDbCircle
 10
-114.0449421353086
 20
29.30152714207312
 30
0.0
 40
9.312781428504953
100
AcDbArc
 50
92.12769532741694
 51
96.03984690035654
  0
ARC
  5
32E
330
18
100
AcDbEntity
  8
ADP1DETAIL
100
AcDbCircle
 10
-129.9955389947516
 20
88.47996857103174
 30
0.0
 40
52.28809876689872
100
AcDbArc
 50
286.9829451798972
 51
287.4852925006076
  0
ARC
  5
32F
330
18
100
AcDbEntity
  8
ADP1DETAIL
100
AcDbCircle
 10
-112.7421853839355
 20
38.00162428540709
 30
0.0
 40
0.5143071408138395
100
AcDbArc
 50
20.92663854439792
 51
50.17325619466777
  0
LINE
  5
330
330
18
100
AcDbEntity
  8
ADP1DETAIL
100
AcDbLine
 10
-112.2769011478044
 20
37.79293646845327
 30
0.0
 11
-112.5486746970823
 21
37.98912850931114
 31
0.0
  0
LINE
  5
331
330
18
100
AcDbEntity
  8
ADP1DETAIL
100
AcDbLine
 10
-112.3523937923305
 20
37.70238634174164
 30
0.0
 11
-112.5033792263011
 21
37.79293646845327
 31
0.0
  0
ARC
  5
332
330
18
100
AcDbEntity
  8
ADP1DETAIL
100
AcDbCircle
 10
-114.0635250880255
 20
42.13703165367883
 30
0.0
 40
3.264018766959525
100
AcDbArc
 50
278.6011377112216
 51
287.868321631595
  0
ARC
  5
333
330
18
100
AcDbEntity
  8
ADP1DETAIL
100
AcDbCircle
 10
-113.5040172435562
 20
40.3113861316761
 30
0.0
 40
1.507697025494643
100
AcDbArc
 50
271.3048068089057
 51
288.2513351464254
  0
LINE
  5
334
330
18
100
AcDbEntity
  8
ADP1DETAIL
100
AcDbLine
 10
-113.0771233536838
 20
37.38546069895228
 30
0.0
 11
-113.6055718653672
 21
38.14004548681319
 31
0.0
  0
ARC
  5
335
330
18
100
AcDbEntity
  8
ADP1DETAIL
100
AcDbCircle
 10
-113.2825840117979
 20
37.21646782698751
 30
0.0
 40
1.332167706242992
100
AcDbArc
 50
44.798691275391
 51
87.65639172547958
  0
ARC
  5
336
330
18
100
AcDbEntity
  8
ADP1DETAIL
100
AcDbCircle
 10
-113.1601652191872
 20
36.95133170372936
 30
0.0
 40
1.707865307220741
100
AcDbArc
 50
70.6388198159828
 51
94.81769462367097
  0
ARC
  5
337
330
18
100
AcDbEntity
  8
ADP1DETAIL
100
AcDbCircle
 10
-122.4760786442495
 20
25.69189466050977
 30
0.0
 40
17.57884867398082
100
AcDbArc
 50
59.00974432939332
 51
59.71164668475382
  0
LWPOLYLINE
  5
338
330
18
100
AcDbEntity
  8
ADP1DETAIL
100
AcDbPolyline
 90
        3
 70
     0
 43
0.0
 10
-113.4998821920141
 20
40.01141566903089
 10
-113.5451778077135
 20
40.07178251982129
 10
-113.7263601255927
 20
40.05669083203601
  0
ARC
  5
33D
330
18
100
AcDbEntity
  8
ADP1DETAIL
100
AcDbCircle
 10
-114.6317780603117
 20
39.7699485648172
 30
0.0
 40
0.5632293865659683
100
AcDbArc
 50
339.6145406898976
 51
7.699330899455526
  0
ARC
  5
33E
330
18
100
AcDbEntity
  8
ADP1DETAIL
100
AcDbCircle
 10
-115.1623956684769
 20
39.77509178023939
 30
0.0
 40
0.4786312765405252
100
AcDbArc
 50
27.53035215229733
 51
75.1753670182023
  0
ARC
  5
33F
330
18
100
AcDbEntity
  8
ADP1DETAIL
100
AcDbCircle
 10
-117.7165434931655
 20
39.88313632285606
 30
0.0
 40
3.75262234470032
100
AcDbArc
 50
352.2572848913883
 51
2.650810110399868
  0
ARC
  5
340
330
18
100
AcDbEntity
  8
ADP1DETAIL
100
AcDbCircle
 10
-114.6313628496999
 20
37.85216233718069
 30
0.0
 40
3.204099386681313
100
AcDbArc
 50
43.10390949658922
 51
51.90104379703399
  0
ARC
  5
341
330
18
100
AcDbEntity
  8
ADP1DETAIL
100
AcDbCircle
 10
-115.6230401635301
 20
40.66155342286827
 30
0.0
 40
2.440428870630748
100
AcDbArc
 50
348.9191100807053
 51
359.2632888499459
  0
ARC
  5
342
330
18
100
AcDbEntity
  8
ADP1DETAIL
100
AcDbCircle
 10
-111.924895814729
 20
40.32488327060749
 30
0.0
 40
1.034453863902662
100
AcDbArc
 50
165.4421951401186
 51
190.7377940865937
  0
LWPOLYLINE
  5
343
330
18
100
AcDbEntity
  8
ADP1DETAIL
100
AcDbPolyline
 90
        4
 70
     0
 43
0.0
 10
-110.6328915956269
 20
33.51783571967635
 42
-0.3353396434237497
 10
-110.9952563763035
 20
33.04999319903425
 42
0.1700969406066333
 10
-111.8558726398367
 20
32.23504166003223
 42
-0.0004538415616458
 10
-111.8630872632452
 20
32.22838524306213
 42
0.0332684508276471
  0
LWPOLYLINE
  5
349
330
18
100
AcDbEntity
  8
ADP1DETAIL
100
AcDbPolyline
 90
        7
 70
     0
 43
0.0
 10
-110.133628359247
 20
35.9569759733626
 42
-0.146035979991935
 10
-110.8291725003786
 20
34.27242050753726
 42
0.1201516312303487
 10
-111.387818185807
 20
33.08017657460479
 10
-111.1613402522284
 20
33.24618523989211
 42
-0.3648269446593022
 10
-110.5272019222738
 20
33.75930282389004
 42
-0.4027949543443356
 10
-110.4517092777477
 20
33.68384438496366
 42
-0.1692684999060809
 10
-111.1613402522284
 20
33.23109355210684
 42
8.561838145335967
  0
ARC
  5
352
330
18
100
AcDbEntity
  8
ADP1DETAIL
100
AcDbCircle
 10
-107.9616175280971
 20
32.05096357292545
 30
0.0
 40
3.802232813470845
100
AcDbArc
 50
143.687501928336
 51
169.8965227968589
  0
ARC
  5
353
330
18
100
AcDbEntity
  8
ADP1DETAIL
100
AcDbCircle
 10
-108.9879760904103
 20
26.75368452867664
 30
0.0
 40
3.870347400081636
100
AcDbArc
 50
124.1625321225103
 51
132.1267227099373
  0
ARC
  5
354
330
18
100
AcDbEntity
  8
ADP1DETAIL
100
AcDbCircle
 10
-111.9152480735898
 20
30.45368094850509
 30
0.0
 40
0.7704092166070686
100
AcDbArc
 50
273.2947209807101
 51
329.4282299807347
  0
ARC
  5
355
330
18
100
AcDbEntity
  8
ADP1DETAIL
100
AcDbCircle
 10
-111.2294684277747
 20
28.25986077344106
 30
0.0
 40
0.4496241948200027
100
AcDbArc
 50
313.5358174990922
 51
22.50135745062108
  0
ARC
  5
356
330
18
100
AcDbEntity
  8
ADP1DETAIL
100
AcDbCircle
 10
-111.7839177165823
 20
26.95607272121781
 30
0.0
 40
1.019346904517929
100
AcDbArc
 50
17.92942099867523
 51
60.51040232287878
  0
ARC
  5
357
330
18
100
AcDbEntity
  8
ADP1DETAIL
100
AcDbCircle
 10
-112.1146610509459
 20
26.46364588053815
 30
0.0
 40
1.37036233924534
100
AcDbArc
 50
23.64772875621729
 51
62.33542329741253
  0
ARC
  5
358
330
18
100
AcDbEntity
  8
ADP1DETAIL
100
AcDbCircle
 10
-110.5805356903306
 20
28.40929686330388
 30
0.0
 40
0.5506590913592183
100
AcDbArc
 50
166.5288273940819
 51
193.471172605918
  0
ARC
  5
359
330
18
100
AcDbEntity
  8
ADP1DETAIL
100
AcDbCircle
 10
-110.2522984683606
 20
28.40175101941124
 30
0.0
 40
0.7334701941727479
100
AcDbArc
 50
172.908487680488
 51
197.977061826516
  0
ARC
  5
35A
330
18
100
AcDbEntity
  8
ADP1DETAIL
100
AcDbCircle
 10
-106.4167172732093
 20
31.26224690345901
 30
0.0
 40
6.293848814014786
100
AcDbArc
 50
205.5000726221326
 51
210.4803877415943
  0
ARC
  5
35B
330
18
100
AcDbEntity
  8
ADP1DETAIL
100
AcDbCircle
 10
-110.2682638234481
 20
28.58205636104342
 30
0.0
 40
1.014910715757332
100
AcDbArc
 50
177.3982683399764
 51
208.3629848139055
  0
ARC
  5
35C
330
18
100
AcDbEntity
  8
ADP1DETAIL
100
AcDbCircle
 10
-113.8874318563173
 20
26.94876092252845
 30
0.0
 40
2.501271647707596
100
AcDbArc
 50
27.79192606295437
 51
41.24936306749731
  0
ARC
  5
35D
330
18
100
AcDbEntity
  8
ADP1DETAIL
100
AcDbCircle
 10
-111.056890066109
 20
31.01798082914806
 30
0.0
 40
0.2734616893298754
100
AcDbArc
 50
131.1489212990754
 51
171.608371221945
  0
ARC
  5
35E
330
18
100
AcDbEntity
  8
ADP1DETAIL
100
AcDbCircle
 10
-111.597522525463
 20
30.15753086494428
 30
0.0
 40
0.4786312765405252
100
AcDbArc
 50
104.8246329817977
 51
152.4696478477026
  0
ARC
  5
35F
330
18
100
AcDbEntity
  8
ADP1DETAIL
100
AcDbCircle
 10
-112.180358810171
 20
31.02804892113728
 30
0.0
 40
0.732883541961281
100
AcDbArc
 50
294.9704817364787
 51
318.7444373431595
  0
ARC
  5
360
330
18
100
AcDbEntity
  8
ADP1DETAIL
100
AcDbCircle
 10
-111.7446141652245
 20
31.19788276560606
 30
0.0
 40
0.2664289182287814
100
AcDbArc
 50
281.8750882689576
 51
2.349773011026295
  0
ARC
  5
361
330
18
100
AcDbEntity
  8
ADP1DETAIL
100
AcDbCircle
 10
-111.271762265883
 20
31.21728590464968
 30
0.0
 40
0.2068209106307735
100
AcDbArc
 50
101.3105985765997
 51
182.3497730110263
  0
LWPOLYLINE
  5
362
330
18
100
AcDbEntity
  8
ADP1DETAIL
100
AcDbPolyline
 90
        2
 70
     0
 43
0.0
 10
-111.4784092722876
 20
33.00471813567843
 10
-111.387818185807
 20
33.09526826239007
  0
ARC
  5
366
330
18
100
AcDbEntity
  8
ADP1DETAIL
100
AcDbCircle
 10
-110.4804861652055
 20
31.37415973615391
 30
0.0
 40
1.774435595615485
100
AcDbArc
 50
120.7528317976438
 51
141.5933127777422
  0
LINE
  5
367
330
18
100
AcDbEntity
  8
ADP1DETAIL
100
AcDbLine
 10
-111.5068761156699
 20
37.11381021916804
 30
0.0
 11
-111.7937482518203
 21
37.32509394781118
 31
0.0
  0
LWPOLYLINE
  5
368
330
18
100
AcDbEntity
  8
ADP1DETAIL
100
AcDbPolyline
 90
        6
 70
     0
 43
0.0
 10
-111.476679086843
 20
39.06063884031211
 42
-0.103351655778276
 10
-110.6160628233099
 20
36.25358351716091
 42
0.20332841861006
 10
-111.2652995952188
 20
36.4346838702335
 42
0.2913572096048012
 10
-110.9331319882872
 20
36.13285001487872
 42
-0.0639870352478842
 10
-110.5405701787837
 20
36.01211641294722
 42
-0.0100882425617707
 10
-110.5383330199956
 20
35.9569759733626
 42
1.22385727777943
  0
ARC
  5
370
330
18
100
AcDbEntity
  8
ADP1DETAIL
100
AcDbCircle
 10
-93.97117155063311
 20
43.79536316337384
 30
0.0
 40
17.86175123488966
100
AcDbArc
 50
195.4216901384701
 51
203.4362280747096
  0
LWPOLYLINE
  5
371
330
18
100
AcDbEntity
  8
ADP1DETAIL
100
AcDbPolyline
 90
        2
 70
     0
 43
0.0
 10
-111.2008400603917
 20
34.93207977903246
 42
-0.2953142483015141
 10
-112.0039169834687
 20
35.49423362518631
 42
-1.246660299219361
  0
ARC
  5
375
330
18
100
AcDbEntity
  8
ADP1DETAIL
100
AcDbCircle
 10
-113.9832086580422
 20
36.67567895230454
 30
0.0
 40
3.789797977905909
100
AcDbArc
 50
320.9383121743572
 51
349.6203804625693
  0
LWPOLYLINE
  5
376
330
18
100
AcDbEntity
  8
ADP1DETAIL
100
AcDbPolyline
 90
        2
 70
     0
 43
0.0
 10
-111.2502011532644
 20
36.41959218244823
 10
-111.5823687601961
 20
36.61578422330609
  0
LWPOLYLINE
  5
37A
330
18
100
AcDbEntity
  8
ADP1DETAIL
100
AcDbPolyline
 90
        3
 70
     0
 43
0.0
 10
-110.9029348145422
 20
36.38940880687768
 10
-110.9029348145422
 20
36.57050915995027
 42
0.1363071246589681
 10
-111.5786368514106
 20
36.95976135030045
  0
LWPOLYLINE
  5
37F
330
18
100
AcDbEntity
  8
ADP1DETAIL
100
AcDbPolyline
 90
        4
 70
     0
 43
0.0
 10
-111.8087851167776
 20
36.99299763209822
 42
0.1281789543279362
 10
-111.7937482518203
 20
36.962893241666
 42
0.3626156110589968
 10
-111.4011864423168
 20
36.55541747216499
 42
0.0876420245222814
 10
-110.9482304302415
 20
36.58560084773554
 42
8.245580757386617
  0
LINE
  5
385
330
18
100
AcDbEntity
  8
ADP1DETAIL
100
AcDbLine
 10
-111.5370731444967
 20
37.32509394781118
 30
0.0
 11
-111.748452636121
 21
37.52128598866905
 31
0.0
  0
LWPOLYLINE
  5
386
330
18
100
AcDbEntity
  8
ADP1DETAIL
100
AcDbPolyline
 90
        3
 70
     0
 43
0.0
 10
-110.2989936583326
 20
38.26077898909538
 42
-0.1699409547037569
 10
-110.3593877159863
 20
37.370369011167
 42
-0.6723675338995527
 10
-110.4952745630843
 20
37.50619430088377
 42
1.166474759457963
  0
LWPOLYLINE
  5
38B
330
18
100
AcDbEntity
  8
ADP1DETAIL
100
AcDbPolyline
 90
        2
 70
     0
 43
0.0
 10
-111.0237230747677
 20
40.72072539353597
 42
-0.164245226215259
 10
-111.1747085087383
 20
39.90577385453397
 42
-0.5872750486175119
  0
LWPOLYLINE
  5
38F
330
18
100
AcDbEntity
  8
ADP1DETAIL
100
AcDbPolyline
 90
       10
 70
     0
 43
0.0
 10
-110.4819062582553
 20
55.31482451221577
 42
-0.2101213486027817
 10
-111.1009459961188
 20
53.89620512201755
 42
-0.0402726163631541
 10
-111.206635696724
 20
54.22822246689773
 42
0.5353856733642265
 10
-111.1915372309563
 20
54.42441449304777
 42
0.2052209923854696
 10
-111.8709711253782
 20
54.92244045991571
 42
0.4143462292137647
 10
-111.9615623602157
 20
54.65078992336004
 42
0.2448766463257162
 10
-111.4784092544928
 20
54.10748885024871
 42
-0.2884344840188844
 10
-111.2821284657938
 20
53.45854596347411
 42
0.0421861268981448
 10
-111.9615623602157
 20
51.7531843346391
 42
-0.038395806507377
 10
-112.1276460706355
 20
51.66263422305698
 42
-2.979949493228208
  0
ARC
  5
39B
330
18
100
AcDbEntity
  8
ADP1DETAIL
100
AcDbCircle
 10
-112.9504893113115
 20
47.22623745718619
 30
0.0
 40
0.9748543774481918
100
AcDbArc
 50
2.628889789892559
 51
63.80803050546692
  0
ARC
  5
39C
330
18
100
AcDbEntity
  8
ADP1DETAIL
100
AcDbCircle
 10
-96.76437919918837
 20
98.15417493950182
 30
0.0
 40
52.28809876689872
100
AcDbArc
 50
252.5147074993923
 51
253.0170548201027
  0
ARC
  5
39D
330
18
100
AcDbEntity
  8
ADP1DETAIL
100
AcDbCircle
 10
-112.0502913262099
 20
47.13450050535924
 30
0.0
 40
1.256372862583035
100
AcDbArc
 50
74.04266085724007
 51
99.77200070540341
  0
ARC
  5
39E
330
18
100
AcDbEntity
  8
ADP1DETAIL
100
AcDbCircle
 10
-112.7149760586312
 20
38.9757335105432
 30
0.0
 40
9.312781428504953
100
AcDbArc
 50
83.96015309964345
 51
87.87230467258305
  0
ARC
  5
39F
330
18
100
AcDbEntity
  8
ADP1DETAIL
100
AcDbCircle
 10
-111.8302252204626
 20
46.01175228420157
 30
0.0
 40
2.512648629537444
100
AcDbArc
 50
64.63073986611451
 51
104.1557569833912
  0
ARC
  5
3A0
330
18
100
AcDbEntity
  8
ADP1DETAIL
100
AcDbCircle
 10
-111.4108022256839
 20
43.39973797085209
 30
0.0
 40
0.7675976509466867
100
AcDbArc
 50
107.5892207031161
 51
158.6896712668362
  0
LWPOLYLINE
  5
3A1
330
18
100
AcDbEntity
  8
ADP1DETAIL
100
AcDbPolyline
 90
        2
 70
     0
 43
0.0
 10
-112.5486747492482
 20
42.60718733719923
 42
-0.1615178976491598
 10
-111.8239453107795
 20
41.4149433773133
 42
-1.25591327806066
  0
ARC
  5
3A5
330
18
100
AcDbEntity
  8
ADP1DETAIL
100
AcDbCircle
 10
-111.7335863888009
 20
41.95824439997233
 30
0.0
 40
0.4009385111920908
100
AcDbArc
 50
160.1981484016086
 51
250.2240886142573
  0
ARC
  5
3A6
330
18
100
AcDbEntity
  8
ADP1DETAIL
100
AcDbCircle
 10
-112.1944616728575
 20
41.50960209004562
 30
0.0
 40
0.1810986595329758
100
AcDbArc
 50
344.1756610587108
 51
77.77474768852961
  0
LINE
  5
3A7
330
18
100
AcDbEntity
  8
ADP1DETAIL
100
AcDbLine
 10
-111.9296350113847
 20
42.3053533964813
 30
0.0
 11
-112.2769011914795
 21
42.59209563511811
 31
0.0
  0
LINE
  5
3A8
330
18
100
AcDbEntity
  8
ADP1DETAIL
100
AcDbLine
 10
-112.367492426317
 20
42.54682052887472
 30
0.0
 11
-112.065521790269
 21
42.3053533964813
 31
0.0
  0
LWPOLYLINE
  5
3A9
330
18
100
AcDbEntity
  8
ADP1DETAIL
100
AcDbPolyline
 90
        2
 70
     0
 43
0.0
 10
-112.3070982697586
 20
42.773195959187
 42
-0.2020786253183183
 10
-111.1143143380784
 20
41.32439316482653
  0
LWPOLYLINE
  5
3AD
330
18
100
AcDbEntity
  8
ADP1DETAIL
100
AcDbPolyline
 90
       17
 70
     0
 43
0.0
 10
-112.2467041132003
 20
43.93525651491067
 42
-0.1246418500037349
 10
-111.355890817568
 20
44.73511642249656
 42
-0.3608294370343628
 10
-110.8576393928212
 20
44.62947450792865
 42
-0.3722361983668172
 10
-111.1143143380784
 20
44.22199875354747
 10
-111.8692408548263
 20
43.69378938251727
 42
0.2000000637628336
 10
-112.1863101033857
 20
43.40704714388047
 42
-0.1808474252388663
 10
-111.6427629878482
 20
43.67869768043614
 42
-0.1029933663822761
 10
-110.7368510797045
 20
43.58814756885401
 42
-0.2118820127149557
 10
-110.1782054983993
 20
42.8788378737549
 42
-0.6012979517806824
 10
-110.3442893555628
 20
42.72792085294362
 42
0.0445015033640751
 10
-111.2200040386836
 20
43.19576341564931
 42
0.1756446430288846
 10
-111.7786497667326
 20
43.22594681981157
 42
0.0555384044771777
 10
-112.2014085691534
 20
43.04484649574267
 42
-0.1817483594849633
 10
-111.0539201815201
 20
42.90902127791716
 42
-0.1741293448803862
 10
-110.268796586493
 20
42.0638862640879
 42
-0.242143810223065
 10
-110.3140922772837
 20
41.43003507939443
 42
0.2033953906531774
 10
-111.4917775964524
 20
42.54682052887472
 42
0.180702155386139
  0
ARC
  5
3C0
330
18
100
AcDbEntity
  8
ADP1DETAIL
100
AcDbCircle
 10
-113.4544324705142
 20
52.28082398625082
 30
0.0
 40
3.954361161106873
100
AcDbArc
 50
285.9282661635816
 51
299.9806380025253
  0
ARC
  5
3C1
330
18
100
AcDbEntity
  8
ADP1DETAIL
100
AcDbCircle
 10
-112.5770137529724
 20
49.31677425153949
 30
0.0
 40
0.5493024818408795
100
AcDbArc
 50
282.3194130890891
 51
338.1277047525019
  0
LWPOLYLINE
  5
3C2
330
18
100
AcDbEntity
  8
ADP1DETAIL
100
AcDbPolyline
 90
       44
 70
     0
 43
0.0
 10
-113.6978934271286
 20
47.66333487778122
 42
0.1310118121381794
 10
-114.3773272278643
 20
46.00324842420666
 42
0.5949959421906702
 10
-114.1055536785864
 20
45.80705638334879
 42
0.2332662224560772
 10
-113.8337801293085
 20
46.1541653020594
 42
-0.0143897503138128
 10
-113.169444770527
 20
47.60296812664012
 42
0.1374184187926911
 10
-113.063755097174
 20
46.83329165099394
 42
0.1720612423993288
 10
-112.8221785767229
 20
45.71650615698785
 42
0.6131619820768744
 10
-112.6409962588436
 20
45.73159784477312
 42
0.1687189708976209
 10
-112.4145183252651
 20
46.19944046506453
 10
-112.2182374205133
 20
45.9730649489868
 42
0.3253029177161147
 10
-112.0974491602878
 20
46.50127432041931
 42
-0.2997060209127507
 10
-111.9615623131897
 20
47.25585910828022
 42
0.236756490144638
 10
-111.3576211569802
 20
46.48618263263403
 42
-0.0617568163624932
 10
-110.6177930087544
 20
46.01834011199193
 42
0.2111694314029125
 10
-110.9197637317773
 20
47.19549235713913
 42
0.2483234662458026
 10
-111.3425225701077
 20
47.48223452470862
 42
-0.1790153870993848
 10
-111.5840990905587
 20
47.60296812664012
 42
-0.0290534828431313
 10
-112.0370549577159
 20
48.14626908620859
 42
-0.0231201439419183
 10
-110.7234828270256
 20
47.72370162892232
 42
-0.0024618999582475
 10
-110.2856254018228
 20
47.557692963635
 42
0.4087681647655698
 10
-110.7687784427249
 20
48.26700268814009
 42
0.4008995341299145
 10
-110.9952563763035
 20
48.79521205957259
 42
0.1575640358150971
 10
-111.4935078591601
 20
48.84048712292841
 42
-0.1526546912880003
 10
-110.7838768846793
 20
49.17250445350305
 42
0.1327459952538064
 10
-110.4517092777477
 20
49.44415493328728
 42
-0.0268173975931865
 10
-110.3309210175221
 20
49.59507191078933
 42
0.2515829545323085
 10
-110.2403297861234
 20
49.97236430471978
 42
0.0324670463860186
 10
-110.9348621737317
 20
49.74598888829136
 42
0.1380467785660767
 10
-111.5840990905587
 20
49.24796289242941
 42
-0.355898334140447
 10
-112.0068579288891
 20
49.1423210779325
 42
0.3596597345502192
 10
-111.1009460496566
 20
51.43625871743648
 42
-0.0149699837728204
 10
-111.5388034748594
 20
50.68167392957557
 42
0.2868650884060827
 10
-111.7350843796111
 20
50.33456501086496
 42
-0.3271180437731093
 10
-111.9766609000622
 20
49.97236430471978
 42
0.0626298370710538
 10
-112.4296167672194
 20
49.30832964357051
 42
0.0531538518405519
 10
-112.5806020562718
 20
48.91594556185478
 42
-0.2102531511263231
 10
-112.2484344493402
 20
50.09309780700196
 42
0.1096465086181778
 10
-111.8256756110099
 20
50.92314113343856
 42
0.192157014870864
 10
-111.9162666974904
 20
51.63245075829434
 42
0.013328745155158
 10
-112.4900109697913
 20
51.24006667657861
 42
-0.1180988850258277
 10
-112.5806020562718
 20
50.71185730514611
 42
-0.1623569451287376
 10
-112.8221785767229
 20
50.44020682536189
 42
0.2744736753520484
 10
-112.9731638657753
 20
49.38378818214619
 42
-0.074491354087762
 10
-112.8674741924222
 20
48.96122072485991
 42
0.907985711502777
  0
LWPOLYLINE
  5
3F0
330
18
100
AcDbEntity
  8
ADP1DETAIL
100
AcDbPolyline
 90
        9
 70
     0
 43
0.0
 10
-113.7280903389688
 20
52.94542829452503
 42
-0.14674972949424
 10
-113.1543462918959
 20
53.33781234682509
 42
0.09565842942823
 10
-112.6560947204053
 20
53.60946288338076
 42
-0.09565842942823
 10
-112.1578431489146
 20
53.88111341993642
 42
-0.4155941535846527
 10
-111.7803798905407
 20
53.6849213937864
 42
0.0030628590973929
 10
-111.6595917241678
 20
53.30762904356747
 42
0.1812652890665091
 10
-112.1880402271938
 20
53.45854596347411
 42
0.2973950514116313
 10
-112.6560947204053
 20
53.09634521443168
 42
-0.2373728486470764
 10
-113.5771050943167
 20
52.71905286421276
 42
-25.85334327674754
  0
LWPOLYLINE
  5
3FB
330
18
100
AcDbEntity
  8
ADP1DETAIL
100
AcDbPolyline
 90
       10
 70
     0
 43
0.0
 10
-113.9545683526907
 20
54.03203033984306
 42
-0.2418754287312255
 10
-113.4714153937115
 20
54.12258055232983
 42
-0.1197108150568948
 10
-112.6107991763584
 20
54.81679854534782
 42
-0.4175447583946147
 10
-111.9917592917511
 20
54.59042311503553
 10
-112.3541240843573
 20
54.31877257847986
 10
-112.5202079415209
 20
53.98675533450433
 42
-0.205279527264941
 10
-112.7164888769636
 20
53.8207466116119
 10
-112.9882624347323
 20
53.66982969170527
 42
0.1101986120770639
 10
-113.1241492136167
 20
53.54909607505624
 42
-0.0004163809489557
 10
-113.3204300023157
 20
53.27744563940521
 42
1.958285606046534
  0
LWPOLYLINE
  5
407
330
18
100
AcDbEntity
  8
ADP1DETAIL
100
AcDbPolyline
 90
        6
 70
     0
 43
0.0
 10
-112.6560947204053
 20
53.08125351235054
 42
-0.5202431589547293
 10
-111.9766608259834
 20
52.50776913598159
 42
0.2722019086531191
 10
-112.5202079415209
 20
52.65868605588824
 42
-0.1611025229001096
 10
-113.0335579787792
 20
52.5681359443061
 42
-0.1247246730333917
 10
-112.1729417614261
 20
51.76827603672023
 42
-0.190412803361524
 10
-112.1276460706355
 20
51.54190060640795
 42
1.196976243778081
  0
CIRCLE
  5
40F
330
18
100
AcDbEntity
  8
ADP1DETAIL
100
AcDbCircle
 10
-112.7768830335219
 20
48.53865320402376
 30
0.0
 40
0.1664674977689781
  0
LWPOLYLINE
  5
410
330
18
100
AcDbEntity
  8
ADP1DETAIL
100
AcDbPolyline
 90
        3
 70
     0
 43
0.0
 10
-114.060258062887
 20
48.43301135342741
 42
0.2784577485944994
 10
-114.6038053063611
 20
47.84443523085381
 42
0.2465540689196883
 10
-115.0114655578189
 20
47.36150092277713
 42
0.0891591773093337
  0
LWPOLYLINE
  5
415
330
18
100
AcDbEntity
  8
ADP1DETAIL
100
AcDbPolyline
 90
        6
 70
     0
 43
0.0
 10
-115.2832391070969
 20
48.73484520878219
 42
0.103351655778276
 10
-116.14385537063
 20
45.92778988563098
 42
-0.20332841861006
 10
-115.4946185987211
 20
46.10889023870358
 42
-0.2913572096048012
 10
-115.8267862056527
 20
45.80705638334879
 42
0.0639870352478842
 10
-116.2193480151562
 20
45.6863227814173
 42
0.0100882425617707
 10
-116.2215851739443
 20
45.63118234183267
 42
-1.22385727777943
  0
ARC
  5
41D
330
18
100
AcDbEntity
  8
ADP1DETAIL
100
AcDbCircle
 10
-132.7887466433068
 20
53.46956953184392
 30
0.0
 40
17.86175123488966
100
AcDbArc
 50
336.5637719252903
 51
344.5783098615298
  0
LWPOLYLINE
  5
41E
330
18
100
AcDbEntity
  8
ADP1DETAIL
100
AcDbPolyline
 90
       14
 70
     0
 43
0.0
 10
-116.6262898346929
 20
45.63118234183267
 42
-0.1168749269485353
 10
-116.551515767006
 20
46.10889023870358
 42
0.2200157427603418
 10
-116.5062201513066
 20
46.71255804906245
 42
-0.199871856094036
 10
-116.4760231224798
 20
47.93498535756546
 42
-0.4405527348923565
 10
-116.4307275067804
 20
47.95007704535072
 42
-0.2131068167803701
 10
-116.279742217728
 20
47.19549235713913
 42
0.0769509402455244
 10
-115.7512935611265
 20
48.71975352099692
 42
0.1346347879686963
 10
-115.8267862056527
 20
49.57998022300404
 42
-0.217938967594208
 10
-115.766392147999
 20
50.39493176200605
 42
-0.7511063278494851
 10
-115.4795200118486
 20
50.24401478450402
 42
-0.1455673941997827
 10
-115.4493229830217
 20
49.62525528635987
 42
-0.4295905871305504
 10
-115.5550126563748
 20
49.56488853521878
 42
0.1272654766803499
 10
-115.4644215698942
 20
49.24796289242941
 42
-0.1052502924215235
 10
-114.0662520523483
 20
50.30159421684413
 42
0.0367630702413711
  0
LWPOLYLINE
  5
42E
330
18
100
AcDbEntity
  8
ADP1DETAIL
100
AcDbPolyline
 90
       13
 70
     0
 43
0.0
 10
-113.1392477417002
 20
48.78012037178732
 42
0.0380136708070005
 10
-114.739692008541
 20
49.30832964357051
 42
0.3252805431109151
 10
-115.630505300901
 20
48.94612903707463
 42
-0.0088862582188574
 10
-114.9661699421195
 20
48.52356148013905
 42
-0.0113289011370281
 10
-113.2600360019257
 20
48.35755291450104
 42
-0.2271234732483414
 10
-113.8035831004816
 20
48.05571895949696
 42
0.0243697145651082
 10
-114.1659478811582
 20
47.85952691863909
 42
-0.1130919986642323
 10
-114.5585096906617
 20
47.64824318999595
 42
0.0371319130061632
 10
-115.1926480206163
 20
47.24076742049494
 42
0.5644162919714582
 10
-115.1322538180444
 20
46.65219129792134
 42
0.2905104653767691
 10
-114.4528198723905
 20
47.04457537963707
 42
0.0194078600158273
 10
-114.1508492942857
 20
47.28604248385076
 42
-0.0036777137736698
 10
-113.1241491548277
 20
48.16136087364317
 42
-0.3642468310892509
  0
CIRCLE
  5
43D
330
18
100
AcDbEntity
  8
ADP1DETAIL
100
AcDbCircle
 10
-112.8052901438956
 20
48.57629169933609
 30
0.0
 40
0.3871741245739806
  0
LINE
  5
43E
330
18
100
AcDbEntity
  8
ADP1DETAIL
100
AcDbLine
 10
-113.0521355390249
 20
48.31057852246575
 30
0.0
 11
-112.9011502943728
 21
48.40112873495252
 31
0.0
  0
LINE
  5
43F
330
18
100
AcDbEntity
  8
ADP1DETAIL
100
AcDbLine
 10
-112.5939704400388
 20
44.38800737553524
 30
0.0
 11
-112.7298572189232
 21
44.97658355488996
 31
0.0
  0
ARC
  5
440
330
18
100
AcDbEntity
  8
ADP1DETAIL
100
AcDbCircle
 10
-116.9156463186756
 20
44.15408614463472
 30
0.0
 40
4.514533754723205
100
AcDbArc
 50
355.8784476264642
 51
11.27746362778311
  0
LINE
  5
441
330
18
100
AcDbEntity
  8
ADP1DETAIL
100
AcDbLine
 10
-113.5904734362763
 20
44.32764066811538
 30
0.0
 11
-114.1038234735346
 21
44.85584993824093
 31
0.0
  0
LINE
  5
442
330
18
100
AcDbEntity
  8
ADP1DETAIL
100
AcDbLine
 10
-113.8169514499982
 20
44.28236556187199
 30
0.0
 11
-114.3303014872565
 21
44.82566653407867
 31
0.0
  0
LWPOLYLINE
  5
443
330
18
100
AcDbEntity
  8
ADP1DETAIL
100
AcDbPolyline
 90
       10
 70
     0
 43
0.0
 10
-116.2780119356846
 20
45.64061814374568
 42
0.2101213486027837
 10
-115.6589721978211
 20
44.22199875354747
 42
0.0402726163631541
 10
-115.5532824972159
 20
44.55401609842765
 42
-0.5353856733642265
 10
-115.5683809629836
 20
44.75020812457768
 42
-0.2052209923854696
 10
-114.8889470685617
 20
45.24823409144564
 42
-0.4143462292137647
 10
-114.7983558337242
 20
44.97658355488996
 42
-0.2448766463257162
 10
-115.2815089394471
 20
44.43328248177863
 42
0.2884344840188844
 10
-115.4777897281461
 20
43.78433959500404
 42
-0.0421861268981448
 10
-114.7983558337242
 20
42.07897796616903
 42
0.038395806507377
 10
-114.6322721233044
 20
41.9884278545869
 42
2.979949493228208
  0
LWPOLYLINE
  5
44F
330
18
100
AcDbEntity
  8
ADP1DETAIL
100
AcDbPolyline
 90
        2
 70
     0
 43
0.0
 10
-115.5590781335481
 20
44.54964069432756
 42
0.2953142483015141
 10
-114.7560012104712
 20
45.11179454048141
 42
1.246660299219361
  0
LWPOLYLINE
  5
453
330
18
100
AcDbEntity
  8
ADP1DETAIL
100
AcDbPolyline
 90
        7
 70
     0
 43
0.0
 10
-116.640376668042
 20
45.64061810276787
 42
0.1471627524480911
 10
-115.9307456935612
 20
43.88998142283236
 42
-0.1201516312303487
 10
-115.3721000081329
 20
42.69773748989989
 10
-115.5985779417115
 20
42.86374615518721
 42
0.3648269446593022
 10
-116.232716271666
 20
43.37686373918514
 42
0.4027949543443356
 10
-116.3082089161922
 20
43.30140530025876
 42
0.1692684999060809
 10
-115.5985779417115
 20
42.84865446740194
 42
-8.561838145335967
  0
ARC
  5
45C
330
18
100
AcDbEntity
  8
ADP1DETAIL
100
AcDbCircle
 10
-112.7767095358977
 20
46.29323986759965
 30
0.0
 40
3.789797977905909
100
AcDbArc
 50
190.3796195374306
 51
219.0616878256427
  0
LWPOLYLINE
  5
45D
330
18
100
AcDbEntity
  8
ADP1DETAIL
100
AcDbPolyline
 90
       10
 70
     0
 43
0.0
 10
-112.8053498412492
 20
44.35782397137298
 42
0.2418754287312255
 10
-113.2885028002284
 20
44.44837418385975
 42
0.1197108150568948
 10
-114.1491190175815
 20
45.14259217687774
 42
0.4175447583946147
 10
-114.7681589021888
 20
44.91621674656545
 10
-114.4057941095825
 20
44.64456621000978
 10
-114.239710252419
 20
44.31254896603424
 42
0.205279527264941
 10
-114.0434293169763
 20
44.14654024314184
 10
-113.7716557592076
 20
43.99562332323519
 42
-0.1101986120770639
 10
-113.6357689803232
 20
43.87488970658616
 42
0.0004163809489557
 10
-113.4394881916242
 20
43.60323927093514
 42
-1.958285606046534
  0
LWPOLYLINE
  5
469
330
18
100
AcDbEntity
  8
ADP1DETAIL
100
AcDbPolyline
 90
        5
 70
     0
 43
0.0
 10
-112.7600542972024
 20
43.57305586677288
 42
0.1795988534698404
 10
-113.2885028002284
 20
45.42933441551453
 42
-0.5923520751330336
 10
-113.1828130996232
 20
45.65570984582682
 42
-0.0996796890678764
 10
-112.624167518318
 20
45.58025133542117
 42
-0.295891696675179
 10
-112.4278865828753
 20
43.48250565428611
 42
-0.6053754494244482
  0
ARC
  5
470
330
18
100
AcDbEntity
  8
ADP1DETAIL
100
AcDbCircle
 10
-116.2794320287344
 20
40.99172065144901
 30
0.0
 40
1.774435595615485
100
AcDbArc
 50
38.40668722225778
 51
59.24716820235618
  0
LWPOLYLINE
  5
471
330
18
100
AcDbEntity
  8
ADP1DETAIL
100
AcDbPolyline
 90
        9
 70
     0
 43
0.0
 10
-113.0318278549711
 20
43.27122192605496
 42
0.14674972949424
 10
-113.605571902044
 20
43.66360597835501
 42
-0.09565842942823
 10
-114.1038234735346
 20
43.93525651491067
 42
0.09565842942823
 10
-114.6020750450253
 20
44.20690705146634
 42
0.4155941535846527
 10
-114.9795383033992
 20
44.01071502531632
 42
-0.0030628590973929
 10
-115.1003264697721
 20
43.63342267509739
 42
-0.1812652890665091
 10
-114.5718779667461
 20
43.78433959500404
 42
-0.2973950514116313
 10
-114.1038234735346
 20
43.42213884596159
 42
0.2373728486470764
 10
-113.1828130996232
 20
43.04484649574267
 42
25.85334327674754
  0
ARC
  5
47C
330
18
100
AcDbEntity
  8
ADP1DETAIL
100
AcDbCircle
 10
-118.7983006658428
 20
41.66852448822055
 30
0.0
 40
3.802232813470845
100
AcDbArc
 50
10.103477203141
 51
36.31249807166396
  0
LWPOLYLINE
  5
47D
330
18
100
AcDbEntity
  8
ADP1DETAIL
100
AcDbPolyline
 90
        4
 70
     0
 43
0.0
 10
-116.127026598313
 20
43.13539663497145
 42
0.3353396434237497
 10
-115.7646618176364
 20
42.66755411432934
 42
-0.1700969406066333
 10
-114.9040455541032
 20
41.85260257532735
 42
0.0004538415616458
 10
-114.8968309306947
 20
41.84594615835724
 42
-0.0332684508276471
  0
LWPOLYLINE
  5
483
330
18
100
AcDbEntity
  8
ADP1DETAIL
100
AcDbPolyline
 90
        2
 70
     0
 43
0.0
 10
-115.2815089216523
 20
42.62227905097353
 10
-115.3721000081329
 20
42.71282917768518
  0
LINE
  5
487
330
18
100
AcDbEntity
  8
ADP1DETAIL
100
AcDbLine
 10
-112.7298572189232
 20
42.71282915086248
 30
0.0
 11
-112.6845615281325
 21
42.84865446959265
 31
0.0
  0
LINE
  5
488
330
18
100
AcDbEntity
  8
ADP1DETAIL
100
AcDbLine
 10
-112.3976895045961
 20
42.80337936334926
 30
0.0
 11
-112.5486747492482
 21
42.89392957583603
 31
0.0
  0
LINE
  5
489
330
18
100
AcDbEntity
  8
ADP1DETAIL
100
AcDbLine
 10
-113.2583057219492
 20
42.93920468207942
 30
0.0
 11
-114.0585279294878
 21
42.56191223095585
 31
0.0
  0
LWPOLYLINE
  5
48A
330
18
100
AcDbEntity
  8
ADP1DETAIL
100
AcDbPolyline
 90
        6
 70
     0
 43
0.0
 10
-114.1038234735346
 20
43.40704714388047
 42
0.5202431589547293
 10
-114.7832573679565
 20
42.83356276751152
 42
-0.2722019086531191
 10
-114.239710252419
 20
42.98447968741816
 42
0.1611025229001096
 10
-113.7263602151607
 20
42.89392957583603
 42
0.1247246730333917
 10
-114.5869764325138
 20
42.09406966825016
 42
0.190412803361524
 10
-114.6322721233044
 20
41.86769423793786
 42
-1.196976243778081
  0
CIRCLE
  5
492
330
18
100
AcDbEntity
  8
ADP1DETAIL
100
AcDbCircle
 10
-112.6445348997254
 20
43.06909254021961
 30
0.0
 40
0.3871741245739806
  0
ARC
  5
493
330
18
100
AcDbEntity
  8
ADP1DETAIL
100
AcDbCircle
 10
-113.281229406856
 20
41.03512968207827
 30
0.0
 40
0.3706717928973963
100
AcDbArc
 50
138.8347352312985
 51
184.2797808828519
  0
ARC
  5
494
330
18
100
AcDbEntity
  8
ADP1DETAIL
100
AcDbCircle
 10
-113.246075709776
 20
41.18604842695914
 30
0.0
 40
0.452113627520701
100
AcDbArc
 50
142.6690164985032
 51
185.4264694205198
  0
LINE
  5
495
330
18
100
AcDbEntity
  8
ADP1DETAIL
100
AcDbLine
 10
-113.6508675928346
 20
42.69773754968601
 30
0.0
 11
-114.0434293169763
 21
42.33553680064356
 31
0.0
  0
LINE
  5
496
330
18
100
AcDbEntity
  8
ADP1DETAIL
100
AcDbLine
 10
-113.6659660586023
 20
42.5317288267936
 30
0.0
 11
-113.8924440723242
 21
42.32044509856244
 31
0.0
  0
ARC
  5
497
330
18
100
AcDbEntity
  8
ADP1DETAIL
100
AcDbCircle
 10
-116.2845179282721
 20
39.30877486474738
 30
0.0
 40
3.000451605323717
100
AcDbArc
 50
39.91069253315106
 51
46.64378680624895
  0
LWPOLYLINE
  5
498
330
18
100
AcDbEntity
  8
ADP1DETAIL
100
AcDbPolyline
 90
        3
 70
     0
 43
0.0
 10
-113.8243084941355
 20
41.24985143960608
 42
-0.0021864856288306
 10
-113.8924440015176
 20
41.2942098283243
 42
-0.1306516619195875
 10
-114.1900205745315
 20
41.61199864559587
  0
ARC
  5
49D
330
18
100
AcDbEntity
  8
ADP1DETAIL
100
AcDbCircle
 10
-108.0536542666358
 20
41.74444178634254
 30
0.0
 40
4.8819799690526
100
AcDbArc
 50
168.3781857524458
 51
176.42574424932
  0
ARC
  5
49E
330
18
100
AcDbEntity
  8
ADP1DETAIL
100
AcDbCircle
 10
-110.3466261327411
 20
42.40287365873359
 30
0.0
 40
2.006111900719577
100
AcDbArc
 50
181.0611859754546
 51
194.1349083505271
  0
ARC
  5
49F
330
18
100
AcDbEntity
  8
ADP1DETAIL
100
AcDbCircle
 10
-110.6404252166445
 20
42.32799100005533
 30
0.0
 40
1.913627852153325
100
AcDbArc
 50
171.6106598530907
 51
184.2966893826974
  0
LINE
  5
4A0
330
18
100
AcDbEntity
  8
ADP1DETAIL
100
AcDbLine
 10
-112.5486747492482
 20
42.60718733719923
 30
0.0
 11
-112.5486747492482
 21
42.18461988073693
 31
0.0
  0
LINE
  5
4A1
330
18
100
AcDbEntity
  8
ADP1DETAIL
100
AcDbLine
 10
-112.7600542972024
 20
42.16952817865579
 30
0.0
 11
-112.8355469195284
 21
41.95824445042464
 31
0.0
  0
ARC
  5
4A2
330
18
100
AcDbEntity
  8
ADP1DETAIL
100
AcDbCircle
 10
-112.1177643773556
 20
41.86358573769232
 30
0.0
 40
0.1810986595329763
100
AcDbArc
 50
164.1756610587108
 51
257.7747476885297
  0
ARC
  5
4A3
330
18
100
AcDbEntity
  8
ADP1DETAIL
100
AcDbCircle
 10
-113.671046015973
 20
42.21794792195234
 30
0.0
 40
0.4588332201180493
100
AcDbArc
 50
291.9033147564569
 51
3.378363255830984
  0
ARC
  5
4A4
330
18
100
AcDbEntity
  8
ADP1DETAIL
100
AcDbCircle
 10
-118.1614404652969
 20
43.90529441699864
 30
0.0
 40
5.286793178645845
100
AcDbArc
 50
335.5462055133639
 51
340.8330896812326
  0
ARC
  5
4A5
330
18
100
AcDbEntity
  8
ADP1DETAIL
100
AcDbCircle
 10
-113.7002222365676
 20
42.0971466338045
 30
0.0
 40
0.7755928805431119
100
AcDbArc
 50
325.3712260730067
 51
356.42574424932
  0
LWPOLYLINE
  5
4A6
330
18
100
AcDbEntity
  8
ADP1DETAIL
100
AcDbPolyline
 90
        2
 70
     0
 43
0.0
 10
-113.3517726362642
 20
40.96464545481056
 42
-0.0048284825787282
 10
-113.5073120592311
 20
41.05432258537243
 42
-0.124207973491984
  0
LINE
  5
4AA
330
18
100
AcDbEntity
  8
ADP1DETAIL
100
AcDbLine
 10
-114.1944147083721
 20
43.33158873437947
 30
0.0
 11
-114.3604985655357
 21
43.37686384062286
 31
0.0
  0
LINE
  5
4AB
330
18
100
AcDbEntity
  8
ADP1DETAIL
100
AcDbLine
 10
-113.8773454598128
 20
43.64851427627388
 30
0.0
 11
-114.164217630093
 21
43.92016481282955
 31
0.0
  0
LINE
  5
4AC
330
18
100
AcDbEntity
  8
ADP1DETAIL
100
AcDbLine
 10
-113.8924440723242
 20
43.12030500614831
 30
0.0
 11
-114.315202874745
 21
43.25613022397383
 31
0.0
  0
LINE
  5
4AD
330
18
100
AcDbEntity
  8
ADP1DETAIL
100
AcDbLine
 10
-112.699660140644
 20
43.19576341564931
 30
0.0
 11
-112.7449556846909
 21
43.39195554270398
 31
0.0
  0
LINE
  5
4AE
330
18
100
AcDbEntity
  8
ADP1DETAIL
100
AcDbLine
 10
-112.5939704400388
 20
43.19576341564931
 30
0.0
 11
-112.518477670969
 21
43.37686384062286
 31
0.0
  0
LINE
  5
4AF
330
18
100
AcDbEntity
  8
ADP1DETAIL
100
AcDbLine
 10
-112.5939704400388
 20
43.63342267509739
 30
0.0
 11
-112.5939704400388
 21
44.38800737553524
 31
0.0
  0
LINE
  5
4B0
330
18
100
AcDbEntity
  8
ADP1DETAIL
100
AcDbLine
 10
-112.5486747492482
 20
42.96938798533703
 30
0.0
 11
-112.7902512287378
 21
42.98447968741816
 31
0.0
  0
LINE
  5
4B1
330
18
100
AcDbEntity
  8
ADP1DETAIL
100
AcDbLine
 10
-112.518477670969
 20
43.10521330406719
 30
0.0
 11
-112.8053498412492
 21
43.10521330406719
 31
0.0
  0
LINE
  5
4B2
330
18
100
AcDbEntity
  8
ADP1DETAIL
100
AcDbLine
 10
-112.9412366201336
 20
42.89392957583603
 30
0.0
 11
-112.8355469195284
 21
42.92411297999829
 31
0.0
  0
LINE
  5
4B3
330
18
100
AcDbEntity
  8
ADP1DETAIL
100
AcDbLine
 10
-112.7751527629701
 20
43.13539670822945
 30
0.0
 11
-112.6694630623649
 21
42.9542962832559
 31
0.0
  0
LINE
  5
4B4
330
18
100
AcDbEntity
  8
ADP1DETAIL
100
AcDbLine
 10
-112.5939704400388
 20
43.15048841031057
 30
0.0
 11
-112.5939704400388
 21
42.92411297999829
 31
0.0
  0
LINE
  5
4B5
330
18
100
AcDbEntity
  8
ADP1DETAIL
100
AcDbLine
 10
-112.2919998039909
 20
42.99957138949929
 30
0.0
 11
-112.4731821269221
 21
43.02975479366154
 31
0.0
  0
CIRCLE
  5
4B6
330
18
100
AcDbEntity
  8
ADP1DETAIL
100
AcDbCircle
 10
-112.6729420100991
 20
43.03145404490726
 30
0.0
 40
0.1664674977689781
  0
LINE
  5
4B7
330
18
100
AcDbEntity
  8
ADP1DETAIL
100
AcDbLine
 10
-112.3070982697586
 20
43.19576341564931
 30
0.0
 11
-112.5033792052013
 21
43.15048841031057
 31
0.0
  0
LINE
  5
4B8
330
18
100
AcDbEntity
  8
ADP1DETAIL
100
AcDbLine
 10
-112.9563350859013
 20
43.46741395220498
 30
0.0
 11
-113.3036014127399
 21
44.43328248177863
 31
0.0
  0
LINE
  5
4B9
330
18
100
AcDbEntity
  8
ADP1DETAIL
100
AcDbLine
 10
-113.2885028002284
 20
43.78433959500404
 30
0.0
 11
-113.5904734362763
 21
44.32764066811538
 31
0.0
  0
LINE
  5
4BA
330
18
100
AcDbEntity
  8
ADP1DETAIL
100
AcDbLine
 10
-113.0922218647857
 20
43.18067171356818
 30
0.0
 11
-113.3790940350659
 21
43.31649703229834
 31
0.0
  0
LINE
  5
4BB
330
18
100
AcDbEntity
  8
ADP1DETAIL
100
AcDbLine
 10
-112.9261380076221
 20
43.46741395220498
 30
0.0
 11
-113.1375175555763
 21
44.4181907796975
 31
0.0
  0
LINE
  5
4BC
330
18
100
AcDbEntity
  8
ADP1DETAIL
100
AcDbLine
 10
-112.8355469195284
 20
43.13539670822945
 30
0.0
 11
-113.0167292424596
 21
43.21085511773044
 31
0.0
  0
LINE
  5
4BD
330
18
100
AcDbEntity
  8
ADP1DETAIL
100
AcDbLine
 10
-112.8355469195284
 20
43.48250565428611
 30
0.0
 11
-113.0318278549711
 21
44.44837418385975
 31
0.0
  0
LINE
  5
4BE
330
18
100
AcDbEntity
  8
ADP1DETAIL
100
AcDbLine
 10
-115.2228450494431
 20
46.99930031628126
 30
0.0
 11
-115.0114655578189
 21
47.19549235713913
 31
0.0
  0
LWPOLYLINE
  5
4BF
330
18
100
AcDbEntity
  8
ADP1DETAIL
100
AcDbPolyline
 90
        4
 70
     0
 43
0.0
 10
-114.9511330771623
 20
46.6672040005683
 42
-0.1281789543279362
 10
-114.9661699421195
 20
46.63709961013608
 42
-0.3626156110589968
 10
-115.358731751623
 20
46.22962384063507
 42
-0.0876420245222814
 10
-115.8116877636984
 20
46.25980721620562
 42
-8.245580757386617
  0
LINE
  5
4C5
330
18
100
AcDbEntity
  8
ADP1DETAIL
100
AcDbLine
 10
-115.25304207827
 20
46.78801658763812
 30
0.0
 11
-114.9661699421195
 21
46.99930031628126
 31
0.0
  0
LWPOLYLINE
  5
4C6
330
18
100
AcDbEntity
  8
ADP1DETAIL
100
AcDbPolyline
 90
        3
 70
     0
 43
0.0
 10
-115.8569833793977
 20
46.06361517534776
 10
-115.8569833793977
 20
46.24471552842035
 42
-0.1363071246589681
 10
-115.1812813425293
 20
46.63396771877052
  0
LWPOLYLINE
  5
4CB
330
18
100
AcDbEntity
  8
ADP1DETAIL
100
AcDbPolyline
 90
        2
 70
     0
 43
0.0
 10
-115.5097170406754
 20
46.0937985509183
 10
-115.1775494337438
 20
46.28999059177617
  0
LWPOLYLINE
  5
4CF
330
18
100
AcDbEntity
  8
ADP1DETAIL
100
AcDbPolyline
 90
        3
 70
     0
 43
0.0
 10
-116.4609245356073
 20
47.93498535756546
 42
0.1699409547037569
 10
-116.4005304779536
 20
47.04457537963707
 42
0.6723675338995527
 10
-116.2646436308555
 20
47.18040066935385
 42
-1.166474759457963
  0
LINE
  5
4D4
330
18
100
AcDbEntity
  8
ADP1DETAIL
100
AcDbLine
 10
-112.8372771635954
 20
46.36544903070254
 30
0.0
 11
-112.8372771635954
 21
46.69746636127718
 31
0.0
  0
LINE
  5
4D5
330
18
100
AcDbEntity
  8
ADP1DETAIL
100
AcDbLine
 10
-112.6258976719711
 20
46.72764973684772
 30
0.0
 11
-112.6409962588436
 21
46.38054071848781
 31
0.0
  0
LWPOLYLINE
  5
4D6
330
18
100
AcDbEntity
  8
ADP1DETAIL
100
AcDbPolyline
 90
        3
 70
     0
 43
0.0
 10
-112.4145183252651
 20
46.21453215284979
 42
0.0586476969483183
 10
-112.4447153540919
 20
46.66728298570663
 42
-0.1521293075591433
 10
-112.3541241226932
 20
47.57278475106957
 42
-0.6617192526564483
  0
ARC
  5
4DB
330
18
100
AcDbEntity
  8
ADP1DETAIL
100
AcDbCircle
 10
-108.7010367576178
 20
44.15054699947997
 30
0.0
 40
5.860469626202863
100
AcDbArc
 50
141.3063978939682
 51
157.6344438687248
  0
LWPOLYLINE
  5
4DC
330
18
100
AcDbEntity
  8
ADP1DETAIL
100
AcDbPolyline
 90
        5
 70
     0
 43
0.0
 10
-114.9505079675608
 20
46.67059215730076
 42
0.0079195368240658
 10
-114.9359729132927
 20
46.63709961013608
 42
-0.0634165947427303
 10
-114.8151846530672
 20
46.24471552842035
 42
-0.0787747547729911
 10
-114.4528198723905
 20
46.75783311241827
 42
0.279890671666275
 10
-114.3632859635278
 20
47.11221239140995
 42
-0.2282471528368135
  0
LINE
  5
4E3
330
18
100
AcDbEntity
  8
ADP1DETAIL
100
AcDbLine
 10
-113.6827948402561
 20
47.05966706742235
 30
0.0
 11
-113.1543463285727
 21
47.81425185528326
 31
0.0
  0
ARC
  5
4E4
330
18
100
AcDbEntity
  8
ADP1DETAIL
100
AcDbCircle
 10
-113.5997529747527
 20
46.62553807219945
 30
0.0
 40
1.707865307220741
100
AcDbArc
 50
85.18230537632902
 51
109.3611801840171
  0
ARC
  5
4E5
330
18
100
AcDbEntity
  8
ADP1DETAIL
100
AcDbCircle
 10
-113.477334182142
 20
46.89067419545759
 30
0.0
 40
1.332167706242992
100
AcDbArc
 50
92.34360827452043
 51
135.201308724609
  0
LINE
  5
4E6
330
18
100
AcDbEntity
  8
ADP1DETAIL
100
AcDbLine
 10
-114.4075244016093
 20
47.37659271021171
 30
0.0
 11
-114.2565389676388
 21
47.46714283692336
 31
0.0
  0
ARC
  5
4E7
330
18
100
AcDbEntity
  8
ADP1DETAIL
100
AcDbCircle
 10
-114.0177328100044
 20
47.67583065387717
 30
0.0
 40
0.5143071408138395
100
AcDbArc
 50
129.8267438053322
 51
159.073361455602
  0
LINE
  5
4E8
330
18
100
AcDbEntity
  8
ADP1DETAIL
100
AcDbLine
 10
-114.4830170461355
 20
47.46714283692336
 30
0.0
 11
-114.2112434968576
 21
47.66333487778122
 31
0.0
  0
LINE
  5
4E9
330
18
100
AcDbEntity
  8
ADP1DETAIL
100
AcDbLine
 10
-112.7199678246978
 20
48.22002830997899
 30
0.0
 11
-112.7652635154885
 21
48.35585362870914
 31
0.0
  0
LWPOLYLINE
  5
4EA
330
18
100
AcDbEntity
  8
ADP1DETAIL
100
AcDbPolyline
 90
        4
 70
     0
 43
0.0
 10
-112.4598137960463
 20
48.07081064728222
 42
0.0869631449966305
 10
-112.3239270938664
 20
47.46714283692336
 42
-0.220136450136404
 10
-112.3390255358207
 20
47.07475875520763
 42
-0.0237647721032316
 10
-112.4598137960463
 20
46.86347502656448
 42
1.821959610348162
  0
LINE
  5
4F0
330
18
100
AcDbEntity
  8
ADP1DETAIL
100
AcDbLine
 10
-112.2333358624677
 20
46.74274142463299
 30
0.0
 11
-112.1276461891146
 21
47.22567573270967
 31
0.0
  0
LINE
  5
4F1
330
18
100
AcDbEntity
  8
ADP1DETAIL
100
AcDbLine
 10
-112.3843211515201
 20
46.72764973684772
 30
0.0
 11
-112.278631478167
 21
47.13512550634873
 31
0.0
  0
LWPOLYLINE
  5
4F2
330
18
100
AcDbEntity
  8
ADP1DETAIL
100
AcDbPolyline
 90
        2
 70
     0
 43
0.0
 10
-113.0486565103015
 20
46.83329165099394
 42
0.2358312406789808
 10
-112.8070799898504
 20
48.16136087364317
 42
-1.332599932570889
  0
ARC
  5
4F6
330
18
100
AcDbEntity
  8
ADP1DETAIL
100
AcDbCircle
 10
-112.6637535317995
 20
47.48223452470862
 30
0.0
 40
0.250814251338801
100
AcDbArc
 50
105.6913070519342
 51
226.2239671674574
  0
ARC
  5
4F7
330
18
100
AcDbEntity
  8
ADP1DETAIL
100
AcDbCircle
 10
-116.1194929772954
 20
52.00219736852541
 30
0.0
 40
1.913627852153325
100
AcDbArc
 50
355.7033106173025
 51
8.389340146909246
  0
LINE
  5
4F8
330
18
100
AcDbEntity
  8
ADP1DETAIL
100
AcDbLine
 10
-114.2112434446917
 20
52.28139370566932
 30
0.0
 11
-114.2112434446917
 21
51.85882624920701
 31
0.0
  0
ARC
  5
4F9
330
18
100
AcDbEntity
  8
ADP1DETAIL
100
AcDbCircle
 10
-118.7062639273041
 20
51.41864815481262
 30
0.0
 40
4.8819799690526
100
AcDbArc
 50
3.574255750679986
 51
11.62181424755413
  0
LINE
  5
4FA
330
18
100
AcDbEntity
  8
ADP1DETAIL
100
AcDbLine
 10
-114.8302831825552
 20
51.97955976495139
 30
0.0
 11
-114.4830170024604
 21
52.26630200358819
 31
0.0
  0
LWPOLYLINE
  5
4FB
330
18
100
AcDbEntity
  8
ADP1DETAIL
100
AcDbPolyline
 90
        2
 70
     0
 43
0.0
 10
-114.4528199241813
 20
52.44740232765709
 42
0.2020786253183183
 10
-115.6456038558615
 20
50.99859953329661
  0
LWPOLYLINE
  5
4FF
330
18
100
AcDbEntity
  8
ADP1DETAIL
100
AcDbPolyline
 90
        2
 70
     0
 43
0.0
 10
-114.2112434446917
 20
52.28139370566932
 42
0.1615178976491598
 10
-114.9359728831604
 20
51.08914974578339
 42
1.25591327806066
  0
LINE
  5
503
330
18
100
AcDbEntity
  8
ADP1DETAIL
100
AcDbLine
 10
-114.3924257676229
 20
52.2210268973448
 30
0.0
 11
-114.6943964036708
 21
51.97955976495139
 31
0.0
  0
LWPOLYLINE
  5
504
330
18
100
AcDbEntity
  8
ADP1DETAIL
100
AcDbPolyline
 90
        6
 70
     0
 43
0.0
 10
-114.4830170024604
 20
52.47758573181934
 42
0.2235163308040519
 10
-115.8720817228396
 20
51.48153379808343
 42
-0.0836357024709985
 10
-116.1438552806083
 20
50.86277431547109
 42
0.1101374992835824
 10
-115.6607023216291
 20
50.95332452795787
 42
-0.1282747227824757
 10
-115.5852096993031
 20
50.41002345484653
 42
0.1181606913410218
 10
-114.9963670397188
 20
51.05896634162113
 42
-0.5920760366107267
  0
LWPOLYLINE
  5
50C
330
18
100
AcDbEntity
  8
ADP1DETAIL
100
AcDbPolyline
 90
       17
 70
     0
 43
0.0
 10
-114.5132140807396
 20
53.60946288338076
 42
0.1246418500037349
 10
-115.4040273763719
 20
54.40932279096664
 42
0.3608294370343628
 10
-115.9022788011187
 20
54.30368087639873
 42
0.3722361983668172
 10
-115.6456038558615
 20
53.89620512201755
 10
-114.8906773391136
 20
53.36799575098734
 42
-0.2000000637628336
 10
-114.5736080905542
 20
53.08125351235054
 42
0.1808474252388663
 10
-115.1171552060917
 20
53.35290404890621
 42
0.1029933663822761
 10
-116.0230671142354
 20
53.26235393732409
 42
0.2118820127149557
 10
-116.5817126955406
 20
52.55304424222498
 42
0.6012979517806824
 10
-116.4156288383771
 20
52.4021272214137
 42
-0.0445015033640751
 10
-115.5399141552563
 20
52.86996978411939
 42
-0.1756446430288846
 10
-114.9812684272073
 20
52.90015318828165
 42
-0.0555384044771777
 10
-114.5585096247865
 20
52.71905286421276
 42
0.1817483594849633
 10
-115.7059980124198
 20
52.58322764638724
 42
0.1741293448803862
 10
-116.4911216074469
 20
51.73809263255797
 42
0.242143810223065
 10
-116.4458259166562
 20
51.10424144786451
 42
-0.2033953906531774
 10
-115.2681405974875
 20
52.2210268973448
 42
-0.180702155386139
  0
LWPOLYLINE
  5
51F
330
18
100
AcDbEntity
  8
ADP1DETAIL
100
AcDbPolyline
 90
       14
 70
     0
 43
0.0
 10
-112.4669619195447
 20
51.25533833738081
 42
-0.5125087325312313
 10
-112.6258976421261
 20
51.39098368650131
 42
0.3178719892909955
 10
-112.7164888769636
 20
51.58717571265134
 42
-0.1382935264723801
 10
-113.3204300023157
 20
52.20593519526367
 42
0.2665076661373309
 10
-113.7129918732011
 20
52.44740232765709
 42
-0.1412395196056145
 10
-113.4110212371532
 20
51.76827603672023
 42
0.2705344015505381
 10
-113.2449373799896
 20
51.55699230848908
 42
-0.2267744242699753
 10
-113.0486565912907
 20
51.34570858025792
 42
-0.0254049295078658
 10
-112.9127698124063
 20
50.81749920922772
 42
-0.2875107357410744
 10
-113.0033609005
 20
50.57603207683431
 42
-0.5066372336605636
 10
-113.2600359925011
 20
50.65149058723995
 42
0.226032946444451
 10
-113.4110212371532
 20
51.16460825618903
 42
-0.2206626964878961
 10
-113.6525977166428
 20
51.88900965336926
 42
0.20008373573775
 10
-113.8035831080386
 20
52.47758573181934
 42
7.491471087488463
  0
LINE
  5
52F
330
18
100
AcDbEntity
  8
ADP1DETAIL
100
AcDbLine
 10
-113.1090506011052
 20
52.37194391815608
 30
0.0
 11
-112.7164888769636
 21
52.00974316911365
 31
0.0
  0
LINE
  5
530
330
18
100
AcDbEntity
  8
ADP1DETAIL
100
AcDbLine
 10
-113.0939521353375
 20
52.20593519526367
 30
0.0
 11
-112.8674741216157
 21
51.99465146703252
 31
0.0
  0
LWPOLYLINE
  5
531
330
18
100
AcDbEntity
  8
ADP1DETAIL
100
AcDbPolyline
 90
        2
 70
     0
 43
0.0
 10
-115.7361951191722
 20
50.39493176200605
 42
0.164245226215259
 10
-115.5852096852016
 20
49.57998022300404
 42
0.5872750486175119
  0
ARC
  5
535
330
18
100
AcDbEntity
  8
ADP1DETAIL
100
AcDbCircle
 10
-116.0448793809841
 20
51.49942160024185
 30
0.0
 40
0.3700931833327814
100
AcDbArc
 50
295.2207101820559
 51
4.243830273235422
  0
ARC
  5
536
330
18
100
AcDbEntity
  8
ADP1DETAIL
100
AcDbCircle
 10
-115.5324361634594
 20
50.88525755052612
 30
0.0
 40
0.3548737454761824
100
AcDbArc
 50
113.8277319013274
 51
141.8971142053308
  0
ARC
  5
537
330
18
100
AcDbEntity
  8
ADP1DETAIL
100
AcDbCircle
 10
-115.099222238278
 20
51.02458104657512
 30
0.0
 40
0.3360082201480757
100
AcDbArc
 50
114.3840473061471
 51
184.4347679461681
  0
ARC
  5
538
330
18
100
AcDbEntity
  8
ADP1DETAIL
100
AcDbCircle
 10
-115.5239592983959
 20
51.18453155496556
 30
0.0
 40
0.305254907524257
100
AcDbArc
 50
306.2094906437899
 51
350.5523095637331
  0
ARC
  5
539
330
18
100
AcDbEntity
  8
ADP1DETAIL
100
AcDbCircle
 10
201724.275016165
 20
-157006.3925755987
 30
0.0
 40
255747.5759651087
100
AcDbArc
 50
142.1123801719821
 51
142.1124572845142
  0
ARC
  5
53A
330
18
100
AcDbEntity
  8
ADP1DETAIL
100
AcDbCircle
 10
-116.9812903146433
 20
52.27391596336131
 30
0.0
 40
0.8472154803013729
100
AcDbArc
 50
320.7687228025187
 51
346.0804174837589
  0
ARC
  5
53B
330
18
100
AcDbEntity
  8
ADP1DETAIL
100
AcDbCircle
 10
-111.1368780304098
 20
50.33575979133835
 30
0.0
 40
2.440428870630748
100
AcDbArc
 50
180.736711150054
 51
191.0808899192946
  0
ARC
  5
53C
330
18
100
AcDbEntity
  8
ADP1DETAIL
100
AcDbCircle
 10
-114.8350223792109
 20
49.99908963907758
 30
0.0
 40
1.034453863902662
100
AcDbArc
 50
349.2622059134062
 51
14.55780485988138
  0
LWPOLYLINE
  5
53D
330
18
100
AcDbEntity
  8
ADP1DETAIL
100
AcDbPolyline
 90
        8
 70
     0
 43
0.0
 10
-113.0033608946021
 20
49.0819542271421
 42
-0.201995579819041
 10
-113.2902330307526
 20
50.3043815356451
 42
0.0918464555481521
 10
-113.3959227041056
 20
50.60621549064919
 42
0.283671338926924
 10
-114.1055536785864
 20
51.17969992543752
 42
0.2044695122298694
 10
-114.2263419388119
 20
50.93823282122382
 42
0.103848899833127
 10
-114.060258062887
 20
50.28928984785983
 42
0.2663446065142395
 10
-113.6827948402561
 20
49.21777951685887
 42
-0.0470756413898142
 10
-113.3204300595794
 20
48.84048712292841
 42
0.4828448284182766
  0
ARC
  5
547
330
18
100
AcDbEntity
  8
ADP1DETAIL
100
AcDbCircle
 10
-113.2559009503837
 20
49.98559250014618
 30
0.0
 40
1.507697025494643
100
AcDbArc
 50
251.7486648535745
 51
268.6951931910942
  0
ARC
  5
548
330
18
100
AcDbEntity
  8
ADP1DETAIL
100
AcDbCircle
 10
-112.6963931059144
 20
51.81123802214891
 30
0.0
 40
3.264018766959525
100
AcDbArc
 50
252.1316783684048
 51
261.3988622887783
  0
ARC
  5
549
330
18
100
AcDbEntity
  8
ADP1DETAIL
100
AcDbCircle
 10
-114.238272206965
 20
49.02976530004924
 30
0.0
 40
0.7234558990499492
100
AcDbArc
 50
108.507543628671
 51
149.3221687624763
  0
ARC
  5
54A
330
18
100
AcDbEntity
  8
ADP1DETAIL
100
AcDbCircle
 10
-116.1089848013858
 20
51.81487852051461
 30
0.0
 40
2.489836415430054
100
AcDbArc
 50
296.9316879752634
 51
308.515159372447
  0
LWPOLYLINE
  5
54B
330
18
100
AcDbEntity
  8
ADP1DETAIL
100
AcDbPolyline
 90
        3
 70
     0
 43
0.0
 10
-114.065308927429
 20
49.90575989968473
 42
-0.0597328946242547
 10
-114.7698890373678
 20
49.32342133135579
 42
0.0020536554779249
 10
-114.7795532845686
 20
49.3171519002503
 42
0.103351655778276
  0
ARC
  5
550
330
18
100
AcDbEntity
  8
ADP1DETAIL
100
AcDbCircle
 10
-114.4242398267294
 20
49.63494224217111
 30
0.0
 40
0.6028070373676334
100
AcDbArc
 50
246.5424053249492
 51
284.6641557181022
  0
ARC
  5
551
330
18
100
AcDbEntity
  8
ADP1DETAIL
100
AcDbCircle
 10
-112.12855534424
 20
47.52636870565076
 30
0.0
 40
3.204099386681313
100
AcDbArc
 50
128.098956202966
 51
136.8960905034107
  0
ARC
  5
552
330
18
100
AcDbEntity
  8
ADP1DETAIL
100
AcDbCircle
 10
-114.5085632066399
 20
49.04343261441299
 30
0.0
 40
0.339082579376554
100
AcDbArc
 50
223.4347689264871
 51
287.3361366605278
  0
ARC
  5
553
330
18
100
AcDbEntity
  8
ADP1DETAIL
100
AcDbCircle
 10
-109.0433747007744
 20
49.55734269132614
 30
0.0
 40
3.75262234470032
100
AcDbArc
 50
177.3491898896001
 51
187.7427151086116
  0
ARC
  5
554
330
18
100
AcDbEntity
  8
ADP1DETAIL
100
AcDbCircle
 10
-112.1281401336282
 20
49.44415493328728
 30
0.0
 40
0.5632293865659683
100
AcDbArc
 50
172.3006691005444
 51
200.3854593101024
  0
LINE
  5
555
330
18
100
AcDbEntity
  8
ADP1DETAIL
100
AcDbLine
 10
-112.5085884234874
 20
48.40112873495252
 30
0.0
 11
-112.6142781240926
 21
48.43131213911478
 31
0.0
  0
LINE
  5
556
330
18
100
AcDbEntity
  8
ADP1DETAIL
100
AcDbLine
 10
-112.6142781240926
 20
48.64259586734593
 30
0.0
 11
-112.4330958011614
 21
48.71805427684693
 31
0.0
  0
LINE
  5
557
330
18
100
AcDbEntity
  8
ADP1DETAIL
100
AcDbLine
 10
-112.8558546035822
 20
48.65768756942706
 30
0.0
 11
-112.8558546035822
 21
48.43131213911478
 31
0.0
  0
LINE
  5
558
330
18
100
AcDbEntity
  8
ADP1DETAIL
100
AcDbLine
 10
-112.674672280651
 20
48.64259586734593
 30
0.0
 11
-112.7803619812562
 21
48.46149544237239
 31
0.0
  0
LINE
  5
559
330
18
100
AcDbEntity
  8
ADP1DETAIL
100
AcDbLine
 10
-112.9011502943728
 20
48.47658714445351
 30
0.0
 11
-112.6595738148832
 21
48.49167884653465
 31
0.0
  0
LINE
  5
55A
330
18
100
AcDbEntity
  8
ADP1DETAIL
100
AcDbLine
 10
-112.931347372652
 20
48.61241246318368
 30
0.0
 11
-112.6444752023718
 21
48.61241246318368
 31
0.0
  0
LINE
  5
55B
330
18
100
AcDbEntity
  8
ADP1DETAIL
100
AcDbLine
 10
-112.8558546035822
 20
48.70296257476581
 30
0.0
 11
-112.931347372652
 21
48.88406299973934
 31
0.0
  0
LINE
  5
55C
330
18
100
AcDbEntity
  8
ADP1DETAIL
100
AcDbLine
 10
-112.750164902977
 20
48.70296257476581
 30
0.0
 11
-112.7048693589301
 21
48.89915470182048
 31
0.0
  0
LWPOLYLINE
  5
55D
330
18
100
AcDbEntity
  8
ADP1DETAIL
100
AcDbPolyline
 90
        3
 70
     0
 43
0.0
 10
-113.2600360019257
 20
49.68562203750096
 10
-113.2147403862264
 20
49.74598888829136
 10
-113.0335580683471
 20
49.73089720050609
  0
LINE
  5
562
330
18
100
AcDbEntity
  8
ADP1DETAIL
100
AcDbLine
 10
-113.1578252396301
 20
48.50677054861577
 30
0.0
 11
-112.9766429166989
 21
48.53695395277803
 31
0.0
  0
LINE
  5
563
330
18
100
AcDbEntity
  8
ADP1DETAIL
100
AcDbLine
 10
-113.1427267738624
 20
48.70296257476581
 30
0.0
 11
-112.9464458384197
 21
48.65768756942706
 31
0.0
  0
ARC
  5
564
330
18
100
AcDbEntity
  8
ADP1DETAIL
100
AcDbCircle
 10
-113.0888721779669
 20
51.89215429042242
 30
0.0
 40
0.4588332201180493
100
AcDbArc
 50
176.621636744169
 51
248.096685243543
  0
ARC
  5
565
330
18
100
AcDbEntity
  8
ADP1DETAIL
100
AcDbCircle
 10
-113.0596959573723
 20
51.77135300227458
 30
0.0
 40
0.7755928805431119
100
AcDbArc
 50
183.5742557506798
 51
214.6287739269933
  0
LINE
  5
566
330
18
100
AcDbEntity
  8
ADP1DETAIL
100
AcDbLine
 10
-113.9998638967375
 20
51.84373454712588
 30
0.0
 11
-113.9243712744115
 21
51.63245081889472
 31
0.0
  0
ARC
  5
567
330
18
100
AcDbEntity
  8
ADP1DETAIL
100
AcDbCircle
 10
-115.026331805139
 20
51.63245076844241
 30
0.0
 40
0.4009385111920908
100
AcDbArc
 50
289.7759113857426
 51
19.80185159839137
  0
ARC
  5
568
330
18
100
AcDbEntity
  8
ADP1DETAIL
100
AcDbCircle
 10
-114.5654565210824
 20
51.1838084585157
 30
0.0
 40
0.1810986595329758
100
AcDbArc
 50
102.2252523114703
 51
195.8243389412892
  0
ARC
  5
569
330
18
100
AcDbEntity
  8
ADP1DETAIL
100
AcDbCircle
 10
-114.6421538165843
 20
51.5377921061624
 30
0.0
 40
0.1810986595329763
100
AcDbArc
 50
282.2252523114702
 51
15.82433894128916
  0
ARC
  5
56A
330
18
100
AcDbEntity
  8
ADP1DETAIL
100
AcDbCircle
 10
-116.4132920611987
 20
52.07708002720368
 30
0.0
 40
2.006111900719577
100
AcDbArc
 50
345.8650916494728
 51
358.9388140245453
  0
LWPOLYLINE
  5
56B
330
18
100
AcDbEntity
  8
ADP1DETAIL
100
AcDbPolyline
 90
        5
 70
     0
 43
0.0
 10
-114.9963670397188
 20
51.05896634162113
 42
0.0531153252251551
 10
-114.6943964036708
 20
50.57603207683431
 42
-0.1840961819375856
 10
-114.543411012275
 20
51.11933314994565
 42
0.196880137624704
 10
-114.2112434446917
 20
51.85882624920701
 42
-0.3627042586492349
 10
-114.1055537440865
 20
51.17969995827015
 42
1.768433457522479
  0
LWPOLYLINE
  5
572
330
18
100
AcDbEntity
  8
ADP1DETAIL
100
AcDbPolyline
 90
        3
 70
     0
 43
0.0
 10
-112.9356096998044
 20
50.92405780807616
 42
0.0021864856288306
 10
-112.8674741924222
 20
50.96841619679437
 42
0.1306516619195875
 10
-112.5698976194084
 20
51.28620501406594
  0
ARC
  5
577
330
18
100
AcDbEntity
  8
ADP1DETAIL
100
AcDbCircle
 10
-110.4754002656678
 20
48.98298123321746
 30
0.0
 40
3.000451605323717
100
AcDbArc
 50
133.356213193751
 51
140.0893074668489
  0
ARC
  5
578
330
18
100
AcDbEntity
  8
ADP1DETAIL
100
AcDbCircle
 10
-112.6554072887134
 20
50.80011620669515
 30
0.0
 40
0.3394591966108034
100
AcDbArc
 50
315.2044678351625
 51
21.24855147899452
  0
ARC
  5
579
330
18
100
AcDbEntity
  8
ADP1DETAIL
100
AcDbCircle
 10
-111.6459725805637
 20
50.33774778864011
 30
0.0
 40
0.6386649940173129
100
AcDbArc
 50
138.9544878130166
 51
165.2295494205333
  0
ARC
  5
57A
330
18
100
AcDbEntity
  8
ADP1DETAIL
100
AcDbCircle
 10
-113.5138424841639
 20
50.86025479542922
 30
0.0
 40
0.452113627520701
100
AcDbArc
 50
354.5735305794801
 51
37.33098350149675
  0
ARC
  5
57B
330
18
100
AcDbEntity
  8
ADP1DETAIL
100
AcDbCircle
 10
-108.598477728643
 20
53.57950078546872
 30
0.0
 40
5.286793178645845
100
AcDbArc
 50
199.1669103187672
 51
204.453794486636
  0
ARC
  5
57C
330
18
100
AcDbEntity
  8
ADP1DETAIL
100
AcDbCircle
 10
-104.2838395496904
 20
35.36610102897984
 30
0.0
 40
17.57884867398082
100
AcDbArc
 50
120.2883533152461
 51
120.9902556706066
  0
ARC
  5
57D
330
18
100
AcDbEntity
  8
ADP1DETAIL
100
AcDbCircle
 10
-113.4786887870839
 20
50.70933605054834
 30
0.0
 40
0.3706717928973963
100
AcDbArc
 50
355.720219117148
 51
41.16526476870149
  0
LWPOLYLINE
  5
57E
330
18
100
AcDbEntity
  8
ADP1DETAIL
100
AcDbPolyline
 90
        2
 70
     0
 43
0.0
 10
-113.4081455576757
 20
50.63885182328064
 42
0.0048284825787282
 10
-113.2526061347088
 20
50.72852895384251
 42
0.124207973491984
  0
ARC
  5
582
330
18
100
AcDbEntity
  8
ADP1DETAIL
100
AcDbCircle
 10
-113.7353757825243
 20
51.89534223510219
 30
0.0
 40
1.493284349755789
100
AcDbArc
 50
299.8583053266533
 51
325.5010907190829
  0
ARC
  5
583
330
18
100
AcDbEntity
  8
ADP1DETAIL
100
AcDbCircle
 10
-115.307089254503
 20
52.02545077046536
 30
0.0
 40
1.191387849334604
100
AcDbArc
 50
64.00901244166021
 51
99.05624693441458
  0
ARC
  5
584
330
18
100
AcDbEntity
  8
ADP1DETAIL
100
AcDbCircle
 10
-115.349115968256
 20
53.07394433932216
 30
0.0
 40
0.7675976509466867
100
AcDbArc
 50
21.31032873316372
 51
72.41077929688389
  0
ARC
  5
585
330
18
100
AcDbEntity
  8
ADP1DETAIL
100
AcDbCircle
 10
-115.3042976913763
 20
51.66121874466005
 30
0.0
 40
1.468460706916971
100
AcDbArc
 50
71.16784812511316
 51
121.3535129384101
  0
ARC
  5
586
330
18
100
AcDbEntity
  8
ADP1DETAIL
100
AcDbCircle
 10
-114.777615200912
 20
54.74933806857274
 30
0.0
 40
1.002908430404689
100
AcDbArc
 50
213.3464506767779
 51
250.2111179672525
  0
ARC
  5
587
330
18
100
AcDbEntity
  8
ADP1DETAIL
100
AcDbCircle
 10
-115.1247045123474
 20
53.78184093714373
 30
0.0
 40
0.0249819395923204
100
AcDbArc
 50
72.4107792968842
 51
107.5892207031164
  0
LINE
  5
588
330
18
100
AcDbEntity
  8
ADP1DETAIL
100
AcDbLine
 10
-115.3587316855812
 20
52.91524489036278
 30
0.0
 11
-115.4191258421396
 21
52.70396116213162
 31
0.0
  0
LINE
  5
589
330
18
100
AcDbEntity
  8
ADP1DETAIL
100
AcDbLine
 10
-115.1473522843708
 20
53.54909607505624
 30
0.0
 11
-115.4040273763719
 21
53.36799575098734
 31
0.0
  0
LINE
  5
58A
330
18
100
AcDbEntity
  8
ADP1DETAIL
100
AcDbLine
 10
-115.1171552060917
 20
52.46249402973821
 30
0.0
 11
-115.6607023216291
 21
52.31157710983158
 31
0.0
  0
ARC
  5
58B
330
18
100
AcDbEntity
  8
ADP1DETAIL
100
AcDbCircle
 10
-114.0595540893657
 20
48.65041841305035
 30
0.0
 40
4.091039782864561
100
AcDbArc
 50
105.2010647964468
 51
113.5007178725892
  0
LINE
  5
58C
330
18
100
AcDbEntity
  8
ADP1DETAIL
100
AcDbLine
 10
-115.7361949439552
 20
52.76432797045614
 30
0.0
 11
-115.7663920222344
 21
52.53795254014385
 31
0.0
  0
LINE
  5
58D
330
18
100
AcDbEntity
  8
ADP1DETAIL
100
AcDbLine
 10
-114.1659477539011
 20
53.30762904356747
 30
0.0
 11
-114.1659477539011
 21
54.06221374400532
 31
0.0
  0
LINE
  5
58E
330
18
100
AcDbEntity
  8
ADP1DETAIL
100
AcDbLine
 10
-113.8035831080386
 20
53.14162032067506
 30
0.0
 11
-113.4563167812
 21
54.10748885024871
 31
0.0
  0
LINE
  5
58F
330
18
100
AcDbEntity
  8
ADP1DETAIL
100
AcDbLine
 10
-113.8337801863178
 20
53.14162032067506
 30
0.0
 11
-113.6224006383636
 21
54.09239714816758
 31
0.0
  0
LINE
  5
590
330
18
100
AcDbEntity
  8
ADP1DETAIL
100
AcDbLine
 10
-113.9243712744115
 20
53.15671202275619
 30
0.0
 11
-113.7280903389688
 21
54.12258055232983
 31
0.0
  0
LINE
  5
591
330
18
100
AcDbEntity
  8
ADP1DETAIL
100
AcDbLine
 10
-113.4714153937115
 20
53.45854596347411
 30
0.0
 11
-113.1694447576636
 21
54.00184703658545
 31
0.0
  0
LWPOLYLINE
  5
592
330
18
100
AcDbEntity
  8
ADP1DETAIL
100
AcDbPolyline
 90
        5
 70
     0
 43
0.0
 10
-113.9998638967375
 20
53.24726223524296
 42
-0.1795988534698404
 10
-113.4714153937115
 20
55.10354078398461
 42
0.5923520751330336
 10
-113.5771050943167
 20
55.32991621429689
 42
0.0996796890678764
 10
-114.1357506756219
 20
55.25445770389125
 42
0.295891696675179
 10
-114.3320316110646
 20
53.15671202275619
 42
0.6053754494244482
  0
ARC
  5
599
330
18
100
AcDbEntity
  8
ADP1DETAIL
100
AcDbCircle
 10
-109.8442718752643
 20
53.8282925131048
 30
0.0
 40
4.514533754723205
100
AcDbArc
 50
168.7225363722169
 51
184.1215523735357
  0
LINE
  5
59A
330
18
100
AcDbEntity
  8
ADP1DETAIL
100
AcDbLine
 10
-113.6676963291542
 20
52.85487808203827
 30
0.0
 11
-113.380824158874
 21
52.99070340076842
 31
0.0
  0
LINE
  5
59B
330
18
100
AcDbEntity
  8
ADP1DETAIL
100
AcDbLine
 10
-114.1659477539011
 20
52.82469477878065
 30
0.0
 11
-114.1659477539011
 21
52.59831934846836
 31
0.0
  0
LINE
  5
59C
330
18
100
AcDbEntity
  8
ADP1DETAIL
100
AcDbLine
 10
-114.2112434446917
 20
52.64359435380711
 30
0.0
 11
-113.9696669652021
 21
52.65868605588824
 31
0.0
  0
LINE
  5
59D
330
18
100
AcDbEntity
  8
ADP1DETAIL
100
AcDbLine
 10
-114.2414405229709
 20
52.77941967253727
 30
0.0
 11
-113.9545683526907
 21
52.77941967253727
 31
0.0
  0
LINE
  5
59E
330
18
100
AcDbEntity
  8
ADP1DETAIL
100
AcDbLine
 10
-114.4528199241813
 20
52.86996978411939
 30
0.0
 11
-114.2565389887386
 21
52.82469477878065
 31
0.0
  0
LINE
  5
59F
330
18
100
AcDbEntity
  8
ADP1DETAIL
100
AcDbLine
 10
-114.1659477539011
 20
52.86996978411939
 30
0.0
 11
-114.2414405229709
 21
53.05107020909293
 31
0.0
  0
LINE
  5
5A0
330
18
100
AcDbEntity
  8
ADP1DETAIL
100
AcDbLine
 10
-113.9243712744115
 20
52.80960307669952
 30
0.0
 11
-113.7431889514802
 21
52.88506148620052
 31
0.0
  0
LINE
  5
5A1
330
18
100
AcDbEntity
  8
ADP1DETAIL
100
AcDbLine
 10
-113.9847654309698
 20
52.80960307669952
 30
0.0
 11
-114.090455131575
 21
52.62850265172598
 31
0.0
  0
LINE
  5
5A2
330
18
100
AcDbEntity
  8
ADP1DETAIL
100
AcDbLine
 10
-114.0602580532958
 20
52.86996978411939
 30
0.0
 11
-114.014962509249
 21
53.06616191117406
 31
0.0
  0
LINE
  5
5A3
330
18
100
AcDbEntity
  8
ADP1DETAIL
100
AcDbLine
 10
-114.467918389949
 20
52.67377775796937
 30
0.0
 11
-114.2867360670177
 21
52.70396116213162
 31
0.0
  0
LINE
  5
5A4
330
18
100
AcDbEntity
  8
ADP1DETAIL
100
AcDbLine
 10
-114.3622286893438
 20
52.47758573181934
 30
0.0
 11
-114.2112434446917
 21
52.5681359443061
 31
0.0
  0
LINE
  5
5A5
330
18
100
AcDbEntity
  8
ADP1DETAIL
100
AcDbLine
 10
-114.0300609750167
 20
52.38703551933257
 30
0.0
 11
-114.0753566658073
 21
52.52286083806272
 31
0.0
  0
CIRCLE
  5
5A6
330
18
100
AcDbEntity
  8
ADP1DETAIL
100
AcDbCircle
 10
-114.0869761838408
 20
52.70566041337734
 30
0.0
 40
0.1664674977689781
  0
CIRCLE
  5
5A7
330
18
100
AcDbEntity
  8
ADP1DETAIL
100
AcDbCircle
 10
-114.1153832942145
 20
52.74329890868969
 30
0.0
 40
0.3871741245739806
  0
LINE
  5
5A8
330
18
100
AcDbEntity
  8
ADP1DETAIL
100
AcDbLine
 10
-113.8186815738063
 20
52.5681359443061
 30
0.0
 11
-113.9243712744115
 21
52.59831934846836
 31
0.0
  0
LINE
  5
5A9
330
18
100
AcDbEntity
  8
ADP1DETAIL
100
AcDbLine
 10
-112.5655034855677
 20
53.00579510284954
 30
0.0
 11
-112.3994196284042
 21
53.05107020909293
 31
0.0
  0
LINE
  5
5AA
330
18
100
AcDbEntity
  8
ADP1DETAIL
100
AcDbLine
 10
-112.8674741216157
 20
52.7945113746184
 30
0.0
 11
-112.4447153191949
 21
52.9303365924439
 31
0.0
  0
LINE
  5
5AB
330
18
100
AcDbEntity
  8
ADP1DETAIL
100
AcDbLine
 10
-112.8825727341271
 20
53.32272064474396
 30
0.0
 11
-112.5957005638469
 21
53.59437118129963
 31
0.0
  0
LINE
  5
5AC
330
18
100
AcDbEntity
  8
ADP1DETAIL
100
AcDbLine
 10
-113.5016124719907
 20
52.6134110505495
 30
0.0
 11
-112.7013902644521
 21
52.23611859942593
 31
0.0
  0
LINE
  5
5AD
330
18
100
AcDbEntity
  8
ADP1DETAIL
100
AcDbLine
 10
-114.1659477539011
 20
54.06221374400532
 30
0.0
 11
-114.0300609750167
 21
54.65078992336004
 31
0.0
  0
LINE
  5
5AE
330
18
100
AcDbEntity
  8
ADP1DETAIL
100
AcDbLine
 10
-112.9429667439417
 20
53.95657193034207
 30
0.0
 11
-112.4296167066834
 21
54.49987290254876
 31
0.0
  0
LINE
  5
5AF
330
18
100
AcDbEntity
  8
ADP1DETAIL
100
AcDbLine
 10
-113.1694447576636
 20
54.00184703658545
 30
0.0
 11
-112.6560947204053
 21
54.53005630671102
 31
0.0
  0
ARC
  5
5B0
330
18
100
AcDbEntity
  8
ADP1DETAIL
100
AcDbCircle
 10
-112.7003641045742
 20
38.97621204458026
 30
0.0
 40
4.091039782864561
100
AcDbArc
 50
66.49928212741071
 51
74.79893520355313
  0
ARC
  5
5B1
330
18
100
AcDbEntity
  8
ADP1DETAIL
100
AcDbCircle
 10
-201951.0349343591
 20
-157016.0667819672
 30
0.0
 40
255747.5759651087
100
AcDbArc
 50
37.88754271548571
 51
37.88761982801788
  0
ARC
  5
5B2
330
18
100
AcDbEntity
  8
ADP1DETAIL
100
AcDbCircle
 10
-111.2274820304805
 20
41.21105118205604
 30
0.0
 40
0.3548737454761824
100
AcDbArc
 50
38.10288579466912
 51
66.17226809867254
  0
ARC
  5
5B3
330
18
100
AcDbEntity
  8
ADP1DETAIL
100
AcDbCircle
 10
-110.7150388129558
 20
41.82521523177177
 30
0.0
 40
0.3700931833327814
100
AcDbArc
 50
175.7561697267645
 51
244.779289817944
  0
ARC
  5
5B4
330
18
100
AcDbEntity
  8
ADP1DETAIL
100
AcDbCircle
 10
-111.6606959556619
 20
41.35037467810504
 30
0.0
 40
0.3360082201480757
100
AcDbArc
 50
355.5652320538319
 51
65.6159526938529
  0
LINE
  5
5B5
330
18
100
AcDbEntity
  8
ADP1DETAIL
100
AcDbLine
 10
-111.6427629878482
 20
42.78828766126813
 30
0.0
 11
-111.0992158723107
 21
42.63737074136149
 31
0.0
  0
ARC
  5
5B6
330
18
100
AcDbEntity
  8
ADP1DETAIL
100
AcDbCircle
 10
-111.235958895544
 20
41.51032518649549
 30
0.0
 40
0.305254907524257
100
AcDbArc
 50
189.4476904362668
 51
233.7905093562101
  0
ARC
  5
5B7
330
18
100
AcDbEntity
  8
ADP1DETAIL
100
AcDbCircle
 10
-109.7786278792965
 20
42.59970959489123
 30
0.0
 40
0.8472154803013729
100
AcDbArc
 50
193.919582516241
 51
219.2312771974813
  0
ARC
  5
5B8
330
18
100
AcDbEntity
  8
ADP1DETAIL
100
AcDbCircle
 10
-111.6352136815925
 20
44.10763456867364
 30
0.0
 40
0.0249819395923204
100
AcDbArc
 50
72.41077929688358
 51
107.5892207031158
  0
ARC
  5
5B9
330
18
100
AcDbEntity
  8
ADP1DETAIL
100
AcDbCircle
 10
-111.4556205025636
 20
41.98701237618998
 30
0.0
 40
1.468460706916971
100
AcDbArc
 50
58.64648706158988
 51
108.8321518748868
  0
ARC
  5
5BA
330
18
100
AcDbEntity
  8
ADP1DETAIL
100
AcDbCircle
 10
-111.9823029930278
 20
45.07513170010265
 30
0.0
 40
1.002908430404689
100
AcDbArc
 50
289.7888820327473
 51
326.6535493232221
  0
ARC
  5
5BB
330
18
100
AcDbEntity
  8
ADP1DETAIL
100
AcDbCircle
 10
-111.4528289394369
 20
42.35124440199529
 30
0.0
 40
1.191387849334604
100
AcDbArc
 50
80.94375306558543
 51
115.9909875583397
  0
LINE
  5
5BC
330
18
100
AcDbEntity
  8
ADP1DETAIL
100
AcDbLine
 10
-111.612565909569
 20
43.87488970658616
 30
0.0
 11
-111.355890817568
 21
43.69378938251727
 31
0.0
  0
LINE
  5
5BD
330
18
100
AcDbEntity
  8
ADP1DETAIL
100
AcDbLine
 10
-111.0237232499847
 20
43.09012160198605
 30
0.0
 11
-110.9935261717055
 21
42.86374617167377
 31
0.0
  0
LINE
  5
5BE
330
18
100
AcDbEntity
  8
ADP1DETAIL
100
AcDbLine
 10
-111.4011865083586
 20
43.2410385218927
 30
0.0
 11
-111.3407923518003
 21
43.02975479366154
 31
0.0
  0
ARC
  5
5BF
330
18
100
AcDbEntity
  8
ADP1DETAIL
100
AcDbCircle
 10
-112.1146610509459
 20
45.75541316430333
 30
0.0
 40
1.37036233924534
100
AcDbArc
 50
23.64772875621729
 51
62.33542329741253
  0
ARC
  5
5C0
330
18
100
AcDbEntity
  8
ADP1DETAIL
100
AcDbCircle
 10
-110.2682638234481
 20
47.87382364480859
 30
0.0
 40
1.014910715757332
100
AcDbArc
 50
177.3982683399764
 51
208.3629848139055
  0
ARC
  5
5C1
330
18
100
AcDbEntity
  8
ADP1DETAIL
100
AcDbCircle
 10
-110.5805356903306
 20
47.70106414706906
 30
0.0
 40
0.5506590913592183
100
AcDbArc
 50
166.5288273940819
 51
193.471172605918
  0
ARC
  5
5C2
330
18
100
AcDbEntity
  8
ADP1DETAIL
100
AcDbCircle
 10
-111.2294684277747
 20
47.55162805720624
 30
0.0
 40
0.4496241948200027
100
AcDbArc
 50
313.5358174990922
 51
22.50135745062108
  0
ARC
  5
5C3
330
18
100
AcDbEntity
  8
ADP1DETAIL
100
AcDbCircle
 10
-110.2522984683606
 20
47.69351830317641
 30
0.0
 40
0.7334701941727479
100
AcDbArc
 50
172.908487680488
 51
197.977061826516
  0
ARC
  5
5C4
330
18
100
AcDbEntity
  8
ADP1DETAIL
100
AcDbCircle
 10
-106.4167172732093
 20
50.55401418722419
 30
0.0
 40
6.293848814014786
100
AcDbArc
 50
205.5000726221326
 51
210.4803877415943
  0
ARC
  5
5C5
330
18
100
AcDbEntity
  8
ADP1DETAIL
100
AcDbCircle
 10
-113.8874318563173
 20
46.24052820629363
 30
0.0
 40
2.501271647707596
100
AcDbArc
 50
27.79192606295437
 51
41.24936306749731
  0
ARC
  5
5C6
330
18
100
AcDbEntity
  8
ADP1DETAIL
100
AcDbCircle
 10
-111.7839177165823
 20
46.247840004983
 30
0.0
 40
1.019346904517929
100
AcDbArc
 50
17.92942099867523
 51
60.51040232287878
  0
ARC
  5
5C7
330
18
100
AcDbEntity
  8
ADP1DETAIL
100
AcDbCircle
 10
-110.4804861652055
 20
50.66592701991909
 30
0.0
 40
1.774435595615485
100
AcDbArc
 50
120.7528317976438
 51
141.5933127777422
  0
LWPOLYLINE
  5
5C8
330
18
100
AcDbEntity
  8
ADP1DETAIL
100
AcDbPolyline
 90
        4
 70
     0
 43
0.0
 10
-110.6328915956269
 20
52.80960300344153
 42
-0.3353396434237497
 10
-110.9952563763035
 20
52.34176048279943
 42
0.1700969406066333
 10
-111.8558726398367
 20
51.52680894379741
 42
-0.0004538415616458
 10
-111.8630872632452
 20
51.52015252682732
 42
0.0332684508276471
  0
ARC
  5
5CE
330
18
100
AcDbEntity
  8
ADP1DETAIL
100
AcDbCircle
 10
-107.9616175280971
 20
51.34273085669063
 30
0.0
 40
3.802232813470845
100
AcDbArc
 50
143.687501928336
 51
169.8965227968589
  0
ARC
  5
5CF
330
18
100
AcDbEntity
  8
ADP1DETAIL
100
AcDbCircle
 10
-111.7446141652245
 20
50.48965004937125
 30
0.0
 40
0.2664289182287814
100
AcDbArc
 50
281.8750882689576
 51
2.349773011026295
  0
ARC
  5
5D0
330
18
100
AcDbEntity
  8
ADP1DETAIL
100
AcDbCircle
 10
-111.597522525463
 20
49.44929814870946
 30
0.0
 40
0.4786312765405252
100
AcDbArc
 50
104.8246329817977
 51
152.4696478477026
  0
ARC
  5
5D1
330
18
100
AcDbEntity
  8
ADP1DETAIL
100
AcDbCircle
 10
-112.180358810171
 20
50.31981620490246
 30
0.0
 40
0.732883541961281
100
AcDbArc
 50
294.9704817364787
 51
318.7444373431595
  0
ARC
  5
5D2
330
18
100
AcDbEntity
  8
ADP1DETAIL
100
AcDbCircle
 10
-108.9879760904103
 20
46.04545181244183
 30
0.0
 40
3.870347400081636
100
AcDbArc
 50
124.1625321225103
 51
132.1267227099373
  0
ARC
  5
5D3
330
18
100
AcDbEntity
  8
ADP1DETAIL
100
AcDbCircle
 10
-111.9152480735898
 20
49.74544823227027
 30
0.0
 40
0.7704092166070686
100
AcDbArc
 50
273.2947209807101
 51
329.4282299807347
  0
ARC
  5
5D4
330
18
100
AcDbEntity
  8
ADP1DETAIL
100
AcDbCircle
 10
-111.056890066109
 20
50.30974811291325
 30
0.0
 40
0.2734616893298754
100
AcDbArc
 50
131.1489212990754
 51
171.608371221945
  0
ARC
  5
5D5
330
18
100
AcDbEntity
  8
ADP1DETAIL
100
AcDbCircle
 10
-111.271762265883
 20
50.50905318841486
 30
0.0
 40
0.2068209106307735
100
AcDbArc
 50
101.3105985765997
 51
182.3497730110263
  0
ARC
  5
5D6
330
18
100
AcDbEntity
  8
ADP1DETAIL
100
AcDbCircle
 10
-113.9832086580422
 20
55.96744623606973
 30
0.0
 40
3.789797977905909
100
AcDbArc
 50
320.9383121743572
 51
349.6203804625693
  0
LWPOLYLINE
  5
5D7
330
18
100
AcDbEntity
  8
ADP1DETAIL
100
AcDbPolyline
 90
        7
 70
     0
 43
0.0
 10
-110.1195415258979
 20
55.31482447123795
 42
-0.1471627524480909
 10
-110.8291725003786
 20
53.56418779130244
 42
0.1201516312303487
 10
-111.387818185807
 20
52.37194385836997
 10
-111.1613402522284
 20
52.5379525236573
 42
-0.3648269446593022
 10
-110.5272019222738
 20
53.05107010765522
 42
-0.4027949543443356
 10
-110.4517092777477
 20
52.97561166872885
 42
-0.1692684999060809
 10
-111.1613402522284
 20
52.52286083587202
 42
8.561838145335967
  0
LWPOLYLINE
  5
5E0
330
18
100
AcDbEntity
  8
ADP1DETAIL
100
AcDbPolyline
 90
        2
 70
     0
 43
0.0
 10
-111.4784092722876
 20
52.29648541944361
 10
-111.387818185807
 20
52.38703554615526
  0
LWPOLYLINE
  5
5E4
330
18
100
AcDbEntity
  8
ADP1DETAIL
100
AcDbPolyline
 90
        2
 70
     0
 43
0.0
 10
-111.2008400603917
 20
54.22384706279764
 42
-0.2953142483015141
 10
-112.0039169834687
 20
54.78600090895149
 42
-1.246660299219361
  0
LWPOLYLINE
  5
5E8
330
18
100
AcDbEntity
  8
ADP1DETAIL
100
AcDbPolyline
 90
        2
 70
     0
 43
0.0
 10
-110.4780708296225
 20
55.3080009089515
 10
-110.1166862142379
 20
55.3080009089515
 42
-0.2591260281973986
  0
TEXT
  5
5F9
330
18
100
AcDbEntity
  8
ADPDIM
100
AcDbText
 10
-138.9362614723359
 20
23.79522218478784
 30
0.0
 40
0.5
  1
J U L I U S  B L U M  &  C O . ,  I N C .      ( 8 0 0 )  5 2 6 - 6 2 9 3        W W W . J U L I U S B L U M . C O M        P A R T  N o .  5 8 4
 41
1.25
  7
ARIAL_WIDE
 72
     1
 11
-113.1974313222677
 21
24.29522218478784
 31
0.0
100
AcDbText
 73
     3
  0
ENDSEC
  0
SECTION
  2
OBJECTS
  0
DICTIONARY
  5
C
330
0
100
AcDbDictionary
  3
ACAD_GROUP
350
D
  3
ACAD_LAYOUT
350
5F2
  3
ACAD_MLINESTYLE
350
E
  3
ACAD_PLOTSETTINGS
350
5F3
  3
ACAD_PLOTSTYLENAME
350
5F0
  3
ACDBHEADERROUNDTRIPXREC
350
73D
  3
ACDBVARIABLEDICTIONARY
350
653
  0
DICTIONARY
  5
64D
330
18
100
AcDbDictionary
280
     1
  3
ACAD_LAYOUTSELFREF
360
75E
  0
DICTIONARY
  5
64B
330
15
100
AcDbDictionary
280
     1
  3
ACAD_LAYOUTSELFREF
360
75D
  0
DICTIONARY
  5
D
102
{ACAD_REACTORS
330
C
102
}
330
C
100
AcDbDictionary
  0
DICTIONARY
  5
5F2
102
{ACAD_REACTORS
330
C
102
}
330
C
100
AcDbDictionary
  0
DICTIONARY
  5
E
102
{ACAD_REACTORS
330
C
102
}
330
C
100
AcDbDictionary
  3
STANDARD
350
1B
  0
DICTIONARY
  5
5F3
102
{ACAD_REACTORS
330
C
102
}
330
C
100
AcDbDictionary
  0
ACDBDICTIONARYWDFLT
  5
5F0
102
{ACAD_REACTORS
330
C
102
}
330
C
100
AcDbDictionary
281
     1
  3
Normal
350
5F1
100
AcDbDictionaryWithDefault
340
5F1
  0
DICTIONARY
  5
73D
102
{ACAD_REACTORS
330
C
102
}
330
C
100
AcDbDictionary
  3
CEPSNTYPE
350
747
  3
FINGERPRINTGUID
350
748
  3
HYPERLINKBASE
350
740
  3
INSUNITS
350
746
  3
LAYOUTDICT
350
742
  3
LWETCUNION
350
745
  3
PLOTSETDICT
350
743
  3
PLOTSTYLNAMDICT
350
744
  3
PSVPSCALE
350
74A
  3
PUCSBASE
350
74D
  3
PUCSORGBACK
350
753
  3
PUCSORGBOTTOM
350
74F
  3
PUCSORGFRONT
350
752
  3
PUCSORGLEFT
350
750
  3
PUCSORGRIGHT
350
751
  3
PUCSORGTOP
350
74E
  3
PUCSORTHOREF
350
74B
  3
PUCSORTHOVIEW
350
74C
  3
STYLESHEET
350
741
  3
TSTACKALIGN
350
73E
  3
TSTACKSIZE
350
73F
  3
UCSBASE
350
756
  3
UCSORGBACK
350
75C
  3
UCSORGBOTTOM
350
758
  3
UCSORGFRONT
350
75B
  3
UCSORGLEFT
350
759
  3
UCSORGRIGHT
350
75A
  3
UCSORGTOP
350
757
  3
UCSORTHOREF
350
754
  3
UCSORTHOVIEW
350
755
  3
VERSIONGUID
350
749
  0
DICTIONARY
  5
653
102
{ACAD_REACTORS
330
C
102
}
330
C
100
AcDbDictionary
  3
DIMASSOC
350
654
  0
XRECORD
  5
75E
102
{ACAD_REACTORS
330
64D
102
}
330
64D
100
AcDbXrecord
340
18
  0
XRECORD
  5
75D
102
{ACAD_REACTORS
330
64B
102
}
330
64B
100
AcDbXrecord
340
15
  0
MLINESTYLE
  5
1B
102
{ACAD_REACTORS
330
E
102
}
330
E
100
AcDbMlineStyle
  2
STANDARD
 70
     0
  3

 62
     0
 51
90.0
 52
90.0
 71
     2
 49
0.5
 62
   256
  6
BYLAYER
 49
-0.5
 62
   256
  6
BYLAYER
  0
ACDBPLACEHOLDER
  5
5F1
102
{ACAD_REACTORS
330
5F0
102
}
330
5F0
100
AcDbPlaceHolder
280
     0
  0
XRECORD
  5
747
102
{ACAD_REACTORS
330
73D
102
}
330
73D
100
AcDbXrecord
 90
        0
  0
XRECORD
  5
748
102
{ACAD_REACTORS
330
73D
102
}
330
73D
100
AcDbXrecord
  1
{9F266D42-5CBC-4218-BDD1-A6D914E6813D}
  0
XRECORD
  5
740
102
{ACAD_REACTORS
330
73D
102
}
330
73D
100
AcDbXrecord
  1

  0
XRECORD
  5
746
102
{ACAD_REACTORS
330
73D
102
}
330
73D
100
AcDbXrecord
 90
        0
  0
XRECORD
  5
742
102
{ACAD_REACTORS
330
73D
102
}
330
73D
100
AcDbXrecord
340
5F2
  0
XRECORD
  5
745
102
{ACAD_REACTORS
330
73D
102
}
330
73D
100
AcDbXrecord
 90
    14877
  0
XRECORD
  5
743
102
{ACAD_REACTORS
330
73D
102
}
330
73D
100
AcDbXrecord
340
5F3
  0
XRECORD
  5
744
102
{ACAD_REACTORS
330
73D
102
}
330
73D
100
AcDbXrecord
340
5F0
  0
XRECORD
  5
74A
102
{ACAD_REACTORS
330
73D
102
}
330
73D
100
AcDbXrecord
 40
0.0
  0
XRECORD
  5
74D
102
{ACAD_REACTORS
330
73D
102
}
330
73D
100
AcDbXrecord
340
0
  0
XRECORD
  5
753
102
{ACAD_REACTORS
330
73D
102
}
330
73D
100
AcDbXrecord
 10
0.0
 20
0.0
 30
0.0
  0
XRECORD
  5
74F
102
{ACAD_REACTORS
330
73D
102
}
330
73D
100
AcDbXrecord
 10
0.0
 20
0.0
 30
0.0
  0
XRECORD
  5
752
102
{ACAD_REACTORS
330
73D
102
}
330
73D
100
AcDbXrecord
 10
0.0
 20
0.0
 30
0.0
  0
XRECORD
  5
750
102
{ACAD_REACTORS
330
73D
102
}
330
73D
100
AcDbXrecord
 10
0.0
 20
0.0
 30
0.0
  0
XRECORD
  5
751
102
{ACAD_REACTORS
330
73D
102
}
330
73D
100
AcDbXrecord
 10
0.0
 20
0.0
 30
0.0
  0
XRECORD
  5
74E
102
{ACAD_REACTORS
330
73D
102
}
330
73D
100
AcDbXrecord
 10
0.0
 20
0.0
 30
0.0
  0
XRECORD
  5
74B
102
{ACAD_REACTORS
330
73D
102
}
330
73D
100
AcDbXrecord
340
0
  0
XRECORD
  5
74C
102
{ACAD_REACTORS
330
73D
102
}
330
73D
100
AcDbXrecord
 70
     0
  0
XRECORD
  5
741
102
{ACAD_REACTORS
330
73D
102
}
330
73D
100
AcDbXrecord
  1

  0
XRECORD
  5
73E
102
{ACAD_REACTORS
330
73D
102
}
330
73D
100
AcDbXrecord
 90
        1
  0
XRECORD
  5
73F
102
{ACAD_REACTORS
330
73D
102
}
330
73D
100
AcDbXrecord
 90
       70
  0
XRECORD
  5
756
102
{ACAD_REACTORS
330
73D
102
}
330
73D
100
AcDbXrecord
340
0
  0
XRECORD
  5
75C
102
{ACAD_REACTORS
330
73D
102
}
330
73D
100
AcDbXrecord
 10
0.0
 20
0.0
 30
0.0
  0
XRECORD
  5
758
102
{ACAD_REACTORS
330
73D
102
}
330
73D
100
AcDbXrecord
 10
0.0
 20
0.0
 30
0.0
  0
XRECORD
  5
75B
102
{ACAD_REACTORS
330
73D
102
}
330
73D
100
AcDbXrecord
 10
0.0
 20
0.0
 30
0.0
  0
XRECORD
  5
759
102
{ACAD_REACTORS
330
73D
102
}
330
73D
100
AcDbXrecord
 10
0.0
 20
0.0
 30
0.0
  0
XRECORD
  5
75A
102
{ACAD_REACTORS
330
73D
102
}
330
73D
100
AcDbXrecord
 10
0.0
 20
0.0
 30
0.0
  0
XRECORD
  5
757
102
{ACAD_REACTORS
330
73D
102
}
330
73D
100
AcDbXrecord
 10
0.0
 20
0.0
 30
0.0
  0
XRECORD
  5
754
102
{ACAD_REACTORS
330
73D
102
}
330
73D
100
AcDbXrecord
340
0
  0
XRECORD
  5
755
102
{ACAD_REACTORS
330
73D
102
}
330
73D
100
AcDbXrecord
 70
     0
  0
XRECORD
  5
749
102
{ACAD_REACTORS
330
73D
102
}
330
73D
100
AcDbXrecord
  1
{08046CF7-1AA1-4319-AB00-65245C12D782}
  0
DICTIONARYVAR
  5
654
102
{ACAD_REACTORS
330
653
102
}
330
653
100
DictionaryVariables
280
     0
  1
1
  0
ENDSEC
  0
EOF
