  0
SECTION
  2
HEADER
  9
$ACADVER
  1
AC1014
  9
$ACADMAINTVER
 70
     9
  9
$DWGCODEPAGE
  3
ANSI_1252
  9
$INSBASE
 10
-86.52333934722264
 20
60.60715315735485
 30
0.0
  9
$EXTMIN
 10
-96.66597419007041
 20
59.05933391747659
 30
0.0
  9
$EXTMAX
 10
-58.05772896496809
 20
75.27233778364578
 30
0.0
  9
$LIMMIN
 10
0.0
 20
0.0
  9
$LIMMAX
 10
36.0
 20
36.0
  9
$ORTHOMODE
 70
     1
  9
$REGENMODE
 70
     1
  9
$FILLMODE
 70
     1
  9
$QTEXTMODE
 70
     0
  9
$MIRRTEXT
 70
     1
  9
$DRAGMODE
 70
     0
  9
$LTSCALE
 40
1.0
  9
$OSMODE
 70
    37
  9
$ATTMODE
 70
     1
  9
$TEXTSIZE
 40
0.2
  9
$TRACEWID
 40
0.05
  9
$TEXTSTYLE
  7
STANDARD
  9
$CLAYER
  8
ADPDIM
  9
$CELTYPE
  6
BYLAYER
  9
$CECOLOR
 62
   256
  9
$CELTSCALE
 40
1.0
  9
$DELOBJ
 70
     1
  9
$DISPSILH
 70
     0
  9
$DIMSCALE
 40
1.0
  9
$DIMASZ
 40
0.125
  9
$DIMEXO
 40
0.0625
  9
$DIMDLI
 40
0.38
  9
$DIMRND
 40
0.0
  9
$DIMDLE
 40
0.0
  9
$DIMEXE
 40
0.18
  9
$DIMTP
 40
0.0
  9
$DIMTM
 40
0.0
  9
$DIMTXT
 40
0.125
  9
$DIMCEN
 40
0.1875
  9
$DIMTSZ
 40
0.125
  9
$DIMTOL
 70
     0
  9
$DIMLIM
 70
     0
  9
$DIMTIH
 70
     0
  9
$DIMTOH
 70
     0
  9
$DIMSE1
 70
     0
  9
$DIMSE2
 70
     0
  9
$DIMTAD
 70
     0
  9
$DIMZIN
 70
     3
  9
$DIMBLK
  1

  9
$DIMASO
 70
     1
  9
$DIMSHO
 70
     1
  9
$DIMPOST
  1

  9
$DIMAPOST
  1

  9
$DIMALT
 70
     0
  9
$DIMALTD
 70
     1
  9
$DIMALTF
 40
25.4
  9
$DIMLFAC
 40
1.0
  9
$DIMTOFL
 70
     0
  9
$DIMTVP
 40
0.0
  9
$DIMTIX
 70
     0
  9
$DIMSOXD
 70
     0
  9
$DIMSAH
 70
     0
  9
$DIMBLK1
  1

  9
$DIMBLK2
  1

  9
$DIMSTYLE
  2
STANDARD
  9
$DIMCLRD
 70
     0
  9
$DIMCLRE
 70
     0
  9
$DIMCLRT
 70
     0
  9
$DIMTFAC
 40
1.0
  9
$DIMGAP
 40
0.125
  9
$DIMJUST
 70
     0
  9
$DIMSD1
 70
     0
  9
$DIMSD2
 70
     0
  9
$DIMTOLJ
 70
     1
  9
$DIMTZIN
 70
     0
  9
$DIMALTZ
 70
     0
  9
$DIMALTTZ
 70
     0
  9
$DIMFIT
 70
     3
  9
$DIMUPT
 70
     0
  9
$DIMUNIT
 70
     2
  9
$DIMDEC
 70
     4
  9
$DIMTDEC
 70
     4
  9
$DIMALTU
 70
     2
  9
$DIMALTTD
 70
     2
  9
$DIMTXSTY
  7
STANDARD
  9
$DIMAUNIT
 70
     0
  9
$LUNITS
 70
     5
  9
$LUPREC
 70
     5
  9
$SKETCHINC
 40
0.1
  9
$FILLETRAD
 40
0.062
  9
$AUNITS
 70
     0
  9
$AUPREC
 70
     0
  9
$MENU
  1
acad
  9
$ELEVATION
 40
0.0
  9
$PELEVATION
 40
0.0
  9
$THICKNESS
 40
0.0
  9
$LIMCHECK
 70
     0
  9
$BLIPMODE
 70
     0
  9
$CHAMFERA
 40
0.0
  9
$CHAMFERB
 40
0.0
  9
$CHAMFERC
 40
0.0
  9
$CHAMFERD
 40
0.0
  9
$SKPOLY
 70
     0
  9
$TDCREATE
 40
2450409.480814421
  9
$TDUPDATE
 40
2452297.073483426
  9
$TDINDWG
 40
0.0093163310
  9
$TDUSRTIMER
 40
0.0093163310
  9
$USRTIMER
 70
     1
  9
$ANGBASE
 50
0.0
  9
$ANGDIR
 70
     0
  9
$PDMODE
 70
     0
  9
$PDSIZE
 40
0.0
  9
$PLINEWID
 40
0.0
  9
$COORDS
 70
     2
  9
$SPLFRAME
 70
     0
  9
$SPLINETYPE
 70
     6
  9
$SPLINESEGS
 70
     8
  9
$ATTDIA
 70
     0
  9
$ATTREQ
 70
     1
  9
$HANDLING
 70
 22529
  9
$HANDSEED
  5
54B
  9
$SURFTAB1
 70
     6
  9
$SURFTAB2
 70
     6
  9
$SURFTYPE
 70
     6
  9
$SURFU
 70
     6
  9
$SURFV
 70
     6
  9
$UCSNAME
  2

  9
$UCSORG
 10
0.0
 20
0.0
 30
0.0
  9
$UCSXDIR
 10
1.0
 20
0.0
 30
0.0
  9
$UCSYDIR
 10
0.0
 20
1.0
 30
0.0
  9
$PUCSNAME
  2

  9
$PUCSORG
 10
0.0
 20
0.0
 30
0.0
  9
$PUCSXDIR
 10
1.0
 20
0.0
 30
0.0
  9
$PUCSYDIR
 10
0.0
 20
1.0
 30
0.0
  9
$USERI1
 70
     0
  9
$USERI2
 70
     0
  9
$USERI3
 70
     0
  9
$USERI4
 70
     0
  9
$USERI5
 70
     0
  9
$USERR1
 40
0.0
  9
$USERR2
 40
0.0
  9
$USERR3
 40
0.0
  9
$USERR4
 40
0.0
  9
$USERR5
 40
0.0
  9
$WORLDVIEW
 70
     1
  9
$SHADEDGE
 70
     3
  9
$SHADEDIF
 70
    70
  9
$TILEMODE
 70
     1
  9
$MAXACTVP
 70
    15
  9
$PINSBASE
 10
0.0058594681322575
 20
8.002266177471257
 30
0.0
  9
$PLIMCHECK
 70
     0
  9
$PEXTMIN
 10
1.000000000000000E+20
 20
1.000000000000000E+20
 30
1.000000000000000E+20
  9
$PEXTMAX
 10
-1.000000000000000E+20
 20
-1.000000000000000E+20
 30
-1.000000000000000E+20
  9
$PLIMMIN
 10
0.0
 20
0.0
  9
$PLIMMAX
 10
12.0
 20
9.0
  9
$UNITMODE
 70
     0
  9
$VISRETAIN
 70
     0
  9
$PLINEGEN
 70
     0
  9
$PSLTSCALE
 70
     1
  9
$TREEDEPTH
 70
  3020
  9
$PICKSTYLE
 70
     1
  9
$CMLSTYLE
  2
STANDARD
  9
$CMLJUST
 70
     0
  9
$CMLSCALE
 40
1.0
  9
$PROXYGRAPHICS
 70
     1
  9
$MEASUREMENT
 70
     0
  0
ENDSEC
  0
SECTION
  2
CLASSES
  0
CLASS
  1
ACDBDICTIONARYWDFLT
  2
AcDbDictionaryWithDefault
  3
AutoCAD 2000
 90
        0
280
     0
281
     0
  0
CLASS
  1
ACDBPLACEHOLDER
  2
AcDbPlaceHolder
  3
AutoCAD 2000
 90
        0
280
     0
281
     0
  0
CLASS
  1
LAYOUT
  2
AcDbLayout
  3
AutoCAD 2000
 90
        0
280
     0
281
     0
  0
CLASS
  1
DICTIONARYVAR
  2
AcDbDictionaryVar
  3
AutoCAD 2000
 90
        0
280
     0
281
     0
  0
CLASS
  1
LONG_TRANSACTION
  2
AcDbLongTransaction
  3
AutoCAD 2000
 90
        0
280
     0
281
     0
  0
CLASS
  1
LWPOLYLINE
  2
AcDbPolyline
  3
AutoCAD 2000
 90
        0
280
     0
281
     1
  0
CLASS
  1
HATCH
  2
AcDbHatch
  3
AutoCAD 2000
 90
        0
280
     0
281
     1
  0
CLASS
  1
XRECORD
  2
AcDbXrecord
  3
AutoCAD 2000
 90
        0
280
     0
281
     0
  0
CLASS
  1
LONG_TRANSACTION
  2
AcDbLongTransaction
  3
AutoCAD 2000
 90
        0
280
     0
281
     0
  0
CLASS
  1
LWPOLYLINE
  2
AcDbPolyline
  3
AutoCAD 2000
 90
        0
280
     0
281
     1
  0
CLASS
  1
HATCH
  2
AcDbHatch
  3
AutoCAD 2000
 90
        0
280
     0
281
     1
  0
CLASS
  1
XRECORD
  2
AcDbXrecord
  3
AutoCAD 2000
 90
        0
280
     0
281
     0
  0
CLASS
  1
LONG_TRANSACTION
  2
AcDbLongTransaction
  3
AutoCAD 2000
 90
        0
280
     0
281
     0
  0
CLASS
  1
LWPOLYLINE
  2
AcDbPolyline
  3
AutoCAD 2000
 90
        0
280
     0
281
     1
  0
CLASS
  1
HATCH
  2
AcDbHatch
  3
AutoCAD 2000
 90
        0
280
     0
281
     1
  0
CLASS
  1
XRECORD
  2
AcDbXrecord
  3
AutoCAD 2000
 90
        0
280
     0
281
     0
  0
CLASS
  1
LONG_TRANSACTION
  2
AcDbLongTransaction
  3
AutoCAD 2000
 90
        0
280
     0
281
     0
  0
CLASS
  1
LWPOLYLINE
  2
AcDbPolyline
  3
AutoCAD 2000
 90
        0
280
     0
281
     1
  0
CLASS
  1
HATCH
  2
AcDbHatch
  3
AutoCAD 2000
 90
        0
280
     0
281
     1
  0
CLASS
  1
XRECORD
  2
AcDbXrecord
  3
AutoCAD 2000
 90
        0
280
     0
281
     0
  0
CLASS
  1
LONG_TRANSACTION
  2
AcDbLongTransaction
  3
AutoCAD 2000
 90
        0
280
     0
281
     0
  0
CLASS
  1
LWPOLYLINE
  2
AcDbPolyline
  3
AutoCAD 2000
 90
        0
280
     0
281
     1
  0
CLASS
  1
HATCH
  2
AcDbHatch
  3
AutoCAD 2000
 90
        0
280
     0
281
     1
  0
CLASS
  1
XRECORD
  2
AcDbXrecord
  3
AutoCAD 2000
 90
        0
280
     0
281
     0
  0
ENDSEC
  0
SECTION
  2
TABLES
  0
TABLE
  2
VPORT
  5
8
330
0
100
AcDbSymbolTable
 70
     2
  0
VPORT
  5
528
330
8
100
AcDbSymbolTableRecord
100
AcDbViewportTableRecord
  2
*ACTIVE
 70
     0
 10
0.0
 20
0.0
 11
1.0
 21
1.0
 12
-77.32890465461122
 22
67.16785490579126
 13
0.0
 23
0.0
 14
0.5740882589684922
 24
0.5740882589684922
 15
0.5
 25
0.5
 16
0.0
 26
0.0
 36
1.0
 17
0.0
 27
0.0
 37
0.0
 40
24.74617149413717
 41
1.570528967254407
 42
50.0
 43
0.0
 44
0.0
 50
0.0
 51
0.0
 71
     0
 72
   100
 73
     1
 74
     0
 75
     0
 76
     0
 77
     0
 78
     0
  0
ENDTAB
  0
TABLE
  2
LTYPE
  5
5
330
0
100
AcDbSymbolTable
 70
     1
  0
LTYPE
  5
12
330
5
100
AcDbSymbolTableRecord
100
AcDbLinetypeTableRecord
  2
BYBLOCK
 70
     0
  3

 72
    65
 73
     0
 40
0.0
  0
LTYPE
  5
13
330
5
100
AcDbSymbolTableRecord
100
AcDbLinetypeTableRecord
  2
BYLAYER
 70
     0
  3

 72
    65
 73
     0
 40
0.0
  0
LTYPE
  5
14
330
5
100
AcDbSymbolTableRecord
100
AcDbLinetypeTableRecord
  2
CONTINUOUS
 70
     0
  3
Solid line
 72
    65
 73
     0
 40
0.0
  0
ENDTAB
  0
TABLE
  2
LAYER
  5
2
330
0
100
AcDbSymbolTable
 70
     4
  0
LAYER
  5
F
330
2
100
AcDbSymbolTableRecord
100
AcDbLayerTableRecord
  2
0
 70
     0
 62
     7
  6
CONTINUOUS
  0
LAYER
  5
9D
330
2
100
AcDbSymbolTableRecord
100
AcDbLayerTableRecord
  2
DEFPOINTS
 70
     0
 62
     7
  6
CONTINUOUS
  0
LAYER
  5
A0
330
2
100
AcDbSymbolTableRecord
100
AcDbLayerTableRecord
  2
ADP1DETAIL
 70
     0
 62
     7
  6
CONTINUOUS
  0
LAYER
  5
A3
330
2
100
AcDbSymbolTableRecord
100
AcDbLayerTableRecord
  2
ADPDIM
 70
     0
 62
     3
  6
CONTINUOUS
  0
ENDTAB
  0
TABLE
  2
STYLE
  5
3
330
0
100
AcDbSymbolTable
 70
     2
  0
STYLE
  5
10
330
3
100
AcDbSymbolTableRecord
100
AcDbTextStyleTableRecord
  2
STANDARD
 70
     0
 40
0.0
 41
1.0
 50
0.0
 71
     0
 42
0.2
  3
txt
  4

  0
STYLE
  5
3E4
330
3
100
AcDbSymbolTableRecord
100
AcDbTextStyleTableRecord
  2
ARIAL_WIDE
 70
     0
 40
0.0
 41
1.25
 50
0.0
 71
     0
 42
0.2
  3
ARIAL.TTF
  4

1001
ACAD
1000
Arial
1071
       34
  0
ENDTAB
  0
TABLE
  2
VIEW
  5
6
330
0
100
AcDbSymbolTable
 70
     0
  0
ENDTAB
  0
TABLE
  2
UCS
  5
7
330
0
100
AcDbSymbolTable
 70
     0
  0
ENDTAB
  0
TABLE
  2
APPID
  5
9
330
0
100
AcDbSymbolTable
 70
     1
  0
APPID
  5
11
330
9
100
AcDbSymbolTableRecord
100
AcDbRegAppTableRecord
  2
ACAD
 70
     0
  0
ENDTAB
  0
TABLE
  2
DIMSTYLE
  5
A
330
0
100
AcDbSymbolTable
 70
     1
  0
DIMSTYLE
105
3D8
330
A
100
AcDbSymbolTableRecord
100
AcDbDimStyleTableRecord
  2
STANDARD
 70
     0
  3

  4

  5

  6

  7

 40
1.0
 41
0.18
 42
0.0625
 43
0.38
 44
0.18
 45
0.0
 46
0.0
 47
0.0
 48
0.0
140
0.18
141
0.09
142
0.0
143
25.4
144
1.0
145
0.0
146
1.0
147
0.09
 71
     0
 72
     0
 73
     1
 74
     1
 75
     0
 76
     0
 77
     0
 78
     0
170
     0
171
     2
172
     0
173
     0
174
     0
175
     0
176
     0
177
     0
178
     0
270
     2
271
     4
272
     4
273
     2
274
     2
340
10
275
     0
280
     0
281
     0
282
     0
283
     1
284
     0
285
     0
286
     0
287
     3
288
     0
  0
ENDTAB
  0
TABLE
  2
BLOCK_RECORD
  5
1
330
0
100
AcDbSymbolTable
 70
     2
  0
BLOCK_RECORD
  5
18
102
{ACAD_XDICTIONARY
360
439
102
}
330
1
100
AcDbSymbolTableRecord
100
AcDbBlockTableRecord
  2
*MODEL_SPACE
  0
BLOCK_RECORD
  5
15
102
{ACAD_XDICTIONARY
360
437
102
}
330
1
100
AcDbSymbolTableRecord
100
AcDbBlockTableRecord
  2
*PAPER_SPACE
  0
BLOCK_RECORD
  5
96
330
1
100
AcDbSymbolTableRecord
100
AcDbBlockTableRecord
  2
*D0
  0
BLOCK_RECORD
  5
97
330
1
100
AcDbSymbolTableRecord
100
AcDbBlockTableRecord
  2
*D1
  0
ENDTAB
  0
ENDSEC
  0
SECTION
  2
BLOCKS
  0
BLOCK
  5
A6
330
18
100
AcDbEntity
  8
0
100
AcDbBlockBegin
  2
*MODEL_SPACE
 70
     0
 10
0.0
 20
0.0
 30
0.0
  3
*MODEL_SPACE
  1

  0
ENDBLK
  5
A7
330
18
100
AcDbEntity
  8
0
100
AcDbBlockEnd
  0
BLOCK
  5
A4
330
15
100
AcDbEntity
 67
     1
  8
0
100
AcDbBlockBegin
  2
*PAPER_SPACE
 70
     0
 10
0.0
 20
0.0
 30
0.0
  3
*PAPER_SPACE
  1

  0
ENDBLK
  5
A5
330
15
100
AcDbEntity
 67
     1
  8
0
100
AcDbBlockEnd
  0
BLOCK
  5
A9
330
96
100
AcDbEntity
  8
0
100
AcDbBlockBegin
  2
*D0
 70
     1
 10
0.0
 20
0.0
 30
0.0
  3
*D0
  1

  0
LINE
  5
AA
330
96
100
AcDbEntity
  8
0
  6
BYBLOCK
 62
     0
100
AcDbLine
 10
-86.63469766891694
 20
74.66226688337946
 30
0.0
 11
-86.63469766891694
 21
75.27233778364578
 31
0.0
  0
LINE
  5
AB
330
96
100
AcDbEntity
  8
0
  6
BYBLOCK
 62
     0
100
AcDbLine
 10
-67.63469766891694
 20
74.66226688337946
 30
0.0
 11
-67.63469766891694
 21
75.27233778364578
 31
0.0
  0
LINE
  5
AC
330
96
100
AcDbEntity
  8
0
  6
BYBLOCK
 62
     0
100
AcDbLine
 10
-86.63469766891694
 20
75.09233778364578
 30
0.0
 11
-77.34303100225027
 21
75.09233778364578
 31
0.0
  0
LINE
  5
AD
330
96
100
AcDbEntity
  8
0
  6
BYBLOCK
 62
     0
100
AcDbLine
 10
-67.63469766891694
 20
75.09233778364578
 30
0.0
 11
-76.92636433558361
 21
75.09233778364578
 31
0.0
  0
LINE
  5
AE
330
96
100
AcDbEntity
  8
0
  6
BYBLOCK
 62
     0
100
AcDbLine
 10
-86.75969766891695
 20
74.96733778364577
 30
0.0
 11
-86.50969766891694
 21
75.21733778364577
 31
0.0
  0
LINE
  5
AF
330
96
100
AcDbEntity
  8
0
  6
BYBLOCK
 62
     0
100
AcDbLine
 10
-67.75969766891694
 20
74.96733778364577
 30
0.0
 11
-67.50969766891694
 21
75.21733778364577
 31
0.0
  0
TEXT
  5
B0
330
96
100
AcDbEntity
  8
0
  6
BYBLOCK
 62
     0
100
AcDbText
 10
-77.21803100225027
 20
75.02983778364577
 30
0.0
 40
0.125
  1
19
 72
     1
 11
-77.13469766891694
 21
75.09233778364578
 31
0.0
100
AcDbText
 73
     2
  0
POINT
  5
B1
330
96
100
AcDbEntity
  8
DEFPOINTS
  6
BYBLOCK
 62
     0
100
AcDbPoint
 10
-86.63469766891694
 20
74.59976688337945
 30
0.0
  0
POINT
  5
B2
330
96
100
AcDbEntity
  8
DEFPOINTS
  6
BYBLOCK
 62
     0
100
AcDbPoint
 10
-67.63469766891694
 20
74.59976688337945
 30
0.0
  0
POINT
  5
B3
330
96
100
AcDbEntity
  8
DEFPOINTS
  6
BYBLOCK
 62
     0
100
AcDbPoint
 10
-67.63469766891694
 20
75.09233778364578
 30
0.0
  0
ENDBLK
  5
B4
330
96
100
AcDbEntity
  8
0
100
AcDbBlockEnd
  0
BLOCK
  5
B5
330
97
100
AcDbEntity
  8
0
100
AcDbBlockBegin
  2
*D1
 70
     1
 10
0.0
 20
0.0
 30
0.0
  3
*D1
  1

  0
LINE
  5
B6
330
97
100
AcDbEntity
  8
0
  6
BYBLOCK
 62
     0
100
AcDbLine
 10
-86.66434353338052
 20
74.50125272948412
 30
0.0
 11
-87.40607359836152
 21
74.50125272948412
 31
0.0
  0
LINE
  5
B7
330
97
100
AcDbEntity
  8
0
  6
BYBLOCK
 62
     0
100
AcDbLine
 10
-86.66434353338052
 20
60.50125272948411
 30
0.0
 11
-87.40607359836152
 21
60.50125272948411
 31
0.0
  0
LINE
  5
B8
330
97
100
AcDbEntity
  8
0
  6
BYBLOCK
 62
     0
100
AcDbLine
 10
-87.22607359836151
 20
74.50125272948412
 30
0.0
 11
-87.22607359836151
 21
67.70958606281745
 31
0.0
  0
LINE
  5
B9
330
97
100
AcDbEntity
  8
0
  6
BYBLOCK
 62
     0
100
AcDbLine
 10
-87.22607359836151
 20
60.50125272948411
 30
0.0
 11
-87.22607359836151
 21
67.29291939615079
 31
0.0
  0
LINE
  5
BA
330
97
100
AcDbEntity
  8
0
  6
BYBLOCK
 62
     0
100
AcDbLine
 10
-87.10107359836152
 20
74.37625272948412
 30
0.0
 11
-87.35107359836153
 21
74.62625272948412
 31
0.0
  0
LINE
  5
BB
330
97
100
AcDbEntity
  8
0
  6
BYBLOCK
 62
     0
100
AcDbLine
 10
-87.10107359836152
 20
60.37625272948411
 30
0.0
 11
-87.35107359836153
 21
60.62625272948412
 31
0.0
  0
TEXT
  5
BC
330
97
100
AcDbEntity
  8
0
  6
BYBLOCK
 62
     0
100
AcDbText
 10
-87.16357359836152
 20
67.4179193961508
 30
0.0
 40
0.125
  1
14
 50
90.0
 72
     1
 11
-87.22607359836151
 21
67.50125272948412
 31
0.0
100
AcDbText
 73
     2
  0
POINT
  5
BD
330
97
100
AcDbEntity
  8
DEFPOINTS
  6
BYBLOCK
 62
     0
100
AcDbPoint
 10
-86.60184353338053
 20
74.50125272948412
 30
0.0
  0
POINT
  5
BE
330
97
100
AcDbEntity
  8
DEFPOINTS
  6
BYBLOCK
 62
     0
100
AcDbPoint
 10
-86.60184353338053
 20
60.50125272948411
 30
0.0
  0
POINT
  5
BF
330
97
100
AcDbEntity
  8
DEFPOINTS
  6
BYBLOCK
 62
     0
100
AcDbPoint
 10
-87.22607359836151
 20
60.50125272948411
 30
0.0
  0
ENDBLK
  5
C0
330
97
100
AcDbEntity
  8
0
100
AcDbBlockEnd
  0
ENDSEC
  0
SECTION
  2
ENTITIES
  0
DIMENSION
  5
C1
330
18
100
AcDbEntity
  8
ADPDIM
100
AcDbDimension
  2
*D1
 10
-87.22607359836151
 20
60.50125272948411
 30
0.0
 11
-87.22607359836151
 21
67.50125272948412
 31
0.0
100
AcDbAlignedDimension
 13
-86.60184353338053
 23
74.50125272948412
 33
0.0
 14
-86.60184353338053
 24
60.50125272948411
 34
0.0
 50
90.0
100
AcDbRotatedDimension
  0
ARC
  5
C2
330
18
100
AcDbEntity
  8
ADP1DETAIL
100
AcDbCircle
 10
-80.24706421647634
 20
70.56074638451571
 30
0.0
 40
2.653778351453681
100
AcDbArc
 50
354.7317568653862
 51
15.9891943294707
  0
ARC
  5
C3
330
18
100
AcDbEntity
  8
ADP1DETAIL
100
AcDbCircle
 10
-78.78709836291034
 20
70.8859050482411
 30
0.0
 40
1.312291918554606
100
AcDbArc
 50
334.3127049641984
 51
13.86475868815398
  0
LINE
  5
C4
330
18
100
AcDbEntity
  8
ADP1DETAIL
100
AcDbLine
 10
-77.83313303016551
 20
70.66735045942035
 30
0.0
 11
-77.65022350761701
 21
70.81964200221424
 31
0.0
  0
LINE
  5
C5
330
18
100
AcDbEntity
  8
ADP1DETAIL
100
AcDbLine
 10
-77.23867690673223
 20
70.66735045942035
 30
0.0
 11
-77.45207144052435
 21
70.85010028046646
 31
0.0
  0
ARC
  5
C6
330
18
100
AcDbEntity
  8
ADP1DETAIL
100
AcDbCircle
 10
-82.98171660480148
 20
75.79468592471235
 30
0.0
 40
5.639271322217424
100
AcDbArc
 50
287.993836749948
 51
300.8563618964724
  0
LWPOLYLINE
  5
C7
330
18
100
AcDbEntity
  8
ADP1DETAIL
100
AcDbPolyline
 90
        4
 70
     0
 43
0.0
 10
-86.55132488237988
 20
69.58523150806371
 10
-86.61921097998854
 20
69.62762326573844
 10
-86.61921097998854
 20
71.16022981708946
 10
-86.47007735496762
 20
71.20280222690597
  0
LWPOLYLINE
  5
CD
330
18
100
AcDbEntity
  8
ADP1DETAIL
100
AcDbPolyline
 90
       21
 70
     0
 43
0.0
 10
-72.35130209212059
 20
73.9834716320901
 42
0.1253352276020019
 10
-75.76722114446358
 20
72.033222865683
 42
0.0678733977779627
 10
-77.44032434903854
 20
69.90884474154729
 42
-0.0808110470967064
 10
-79.81055383083836
 20
67.15760094966525
 42
-0.5176396842021001
 10
-85.94526558094655
 20
68.37650640357378
 42
-0.0793289767466101
 10
-86.32868504115549
 20
70.01332233610773
 42
-0.3648362994221912
 10
-85.84069661615691
 20
70.77949147999857
 42
0.0784506342957096
 10
-84.62072551498399
 20
71.7894417447862
 42
0.2574039065145437
 10
-84.41158766275773
 20
72.72974024640567
 42
0.1738176206440699
 10
-84.96928873094939
 20
73.49590944048832
 42
0.1927387305192681
 10
-84.89957608775631
 20
73.9834716320901
 42
0.1072902353955582
 10
-85.91040925935001
 20
74.43620794210779
 42
-0.468060541745536
 10
-86.43325400594511
 20
74.54068553666823
 42
1.916084407968083
 10
-86.50296664913819
 20
74.4013820605237
 42
-0.012612374292687
 10
-86.29382871955895
 20
73.67003879821694
 42
0.3631044030020212
 10
-85.80584029456039
 20
73.04317308027883
 42
0.3002235349693944
 10
-85.17842658317567
 20
73.28695420117561
 42
-0.4277381220958501
 10
-84.65558183658053
 20
72.41630741253252
 42
-0.3699940416023395
 10
-85.21328290477219
 20
71.5804865054735
 42
0.1485437719086669
 10
-86.29382871955895
 20
70.57053629087767
 42
-0.1674718019320846
 10
-85.0913480285777
 20
73.27535747303717
 42
-0.2394286988596092
  0
LWPOLYLINE
  5
E4
330
18
100
AcDbEntity
  8
ADP1DETAIL
100
AcDbPolyline
 90
        7
 70
     0
 43
0.0
 10
-82.2493652961555
 20
68.67150132619224
 42
-0.1940121491803239
 10
-81.86707649562228
 20
69.83919297837911
 42
-0.167083608173536
 10
-81.16995021839741
 20
70.25710345700452
 42
0.2191018653491923
 10
-79.91512279562797
 20
70.9187949561431
 42
-0.1760754602054757
 10
-81.37908807062371
 20
68.89889447675964
 42
-0.3714811031377792
 10
-84.06302444679235
 20
69.56058602609004
 42
-0.4520474106967994
 10
-83.67960498658339
 20
71.3715313163526
 42
-0.2623006352607711
  0
LWPOLYLINE
  5
ED
330
18
100
AcDbEntity
  8
ADP1DETAIL
100
AcDbPolyline
 90
       15
 70
     0
 43
0.0
 10
-83.66258136406594
 20
66.47577057436333
 42
-0.0539653722843499
 10
-83.50532337860071
 20
66.73969047103984
 42
-0.0178800688299825
 10
-82.91276598881252
 20
67.4710337835384
 42
-0.0466933413164462
 10
-81.23966286159051
 20
68.51580987971832
 42
0.1489005037090119
 10
-79.77569750924181
 20
70.0829740992759
 42
0.1488962593854312
 10
-79.63627230020861
 20
69.76954126540274
 42
0.5269047118290383
 10
-79.70598486604874
 20
69.0033720713201
 42
0.406361865823947
 10
-77.99802541723019
 20
69.4212825499455
 42
-0.4573189313232329
 10
-78.48601384222877
 20
69.6302377390664
 42
0.336738778646348
 10
-79.18314011945362
 20
70.15262581225226
 42
0.5837589019034452
 10
-79.35742172743632
 20
69.83919297837911
 42
-0.2592359378422062
 10
-79.63627230020861
 20
70.2919292883968
 42
-0.0742399551169003
 10
-79.63627230020861
 20
71.23222784020807
 42
0.0742399551169005
 10
-79.63627230020861
 20
72.17252634182753
 42
0.3332615162987325
 10
-78.90428962403428
 20
71.75461586320212
 42
-0.0623817560263305
  0
LWPOLYLINE
  5
FE
330
18
100
AcDbEntity
  8
ADP1DETAIL
100
AcDbPolyline
 90
        5
 70
     0
 43
0.0
 10
-75.86481898258838
 20
71.44515979811989
 42
0.0333671304762274
 10
-77.26604274105586
 20
69.6302377390664
 42
-0.0460248719935284
 10
-79.07857123201697
 20
67.40138202037023
 42
-0.2018121692314124
 10
-82.80819710137583
 20
65.83421785100447
 42
-0.057662765998895
 10
-83.778469882247
 20
66.0791798807717
 42
-0.1864031088709795
  0
LWPOLYLINE
  5
105
330
18
100
AcDbEntity
  8
ADP1DETAIL
100
AcDbPolyline
 90
        4
 70
     0
 43
0.0
 10
-85.68279592685561
 20
67.49215498630654
 42
-0.1268620641339602
 10
-86.53782297073473
 20
69.49093426292186
 42
-0.1864031088709795
 10
-85.77098397296385
 20
72.97352136730245
 42
-0.0050012306928717
 10
-85.73148063129773
 20
73.03184807525801
 42
0.3647792318638345
  0
LWPOLYLINE
  5
10B
330
18
100
AcDbEntity
  8
ADP1DETAIL
100
AcDbPolyline
 90
        6
 70
     0
 43
0.0
 10
-82.95364740893123
 20
72.57285503444567
 42
-0.4438693614072732
 10
-81.52476370731847
 20
72.41532279999181
 42
-0.3854151108947584
 10
-81.20942381485098
 20
71.15506512512817
 42
-0.528665108718942
 10
-82.38209389734494
 20
70.23940914098163
 42
-0.4270114257419201
 10
-83.53505529940896
 20
70.93845834667195
 42
-0.4470643559292136
 10
-82.98321054560558
 20
72.56300926038133
 42
-0.2040196558643667
  0
LWPOLYLINE
  5
113
330
18
100
AcDbEntity
  8
ADP1DETAIL
100
AcDbPolyline
 90
       11
 70
     0
 43
0.0
 10
-82.50034636668937
 20
71.53904991210258
 10
-83.53505529940896
 20
70.95814984460881
 10
-82.41165703401929
 20
71.34213463158322
 42
-0.0561907423469314
 10
-82.41165703401929
 20
70.23940914098163
 42
0.1060309298068731
 10
-82.29340456467486
 20
71.36182612952007
 42
0.0460833533221414
 10
-81.20942381485098
 20
71.14521935106385
 42
0.0354991155441984
 10
-82.29340456467486
 20
71.4405922718429
 42
0.2838422249493983
 10
-81.54447238774841
 20
72.40547707611928
 42
-0.1763116258305096
 10
-82.38209389734494
 20
71.60797023016929
 42
-0.0464871328956186
 10
-82.94379303003978
 20
72.54331776244447
 42
-0.0778185510561004
 10
-82.52005512447226
 20
71.51935836397392
 42
0.7871841227227894
  0
LWPOLYLINE
  5
120
330
18
100
AcDbEntity
  8
ADP1DETAIL
100
AcDbPolyline
 90
        4
 70
     0
 43
0.0
 10
-83.64474866498685
 20
71.75461586320212
 42
0.3389906654009152
 10
-84.58586919338747
 20
70.43123276454133
 42
0.4612454780714887
 10
-82.04135810360495
 20
68.41133228515786
 42
0.0189857465034494
 10
-83.18682817508108
 20
67.9353983621816
 42
0.2292858862471007
  0
LWPOLYLINE
  5
126
330
18
100
AcDbEntity
  8
ADP1DETAIL
100
AcDbPolyline
 90
       11
 70
     0
 43
0.0
 10
-77.75692069666833
 20
71.36789146535258
 42
-0.0888910388383903
 10
-78.16846729755311
 20
71.29174571921109
 42
0.3138897291690636
 10
-78.18370976425254
 20
70.75872539519885
 42
-0.1229341589749704
 10
-77.7874056300672
 20
70.04295519962958
 42
0.3198177416431809
 10
-77.2234344400328
 20
70.45414230961108
 42
0.1008188416944922
 10
-77.10149470643731
 20
71.09376670852795
 42
0.4797280090920867
 10
-77.45207144052435
 20
71.36789146535258
 42
-0.4905719746952284
 10
-76.49179603845986
 20
71.73339115795574
 42
1.253480414291345
 10
-76.30888643806663
 20
71.91614097900185
 42
0.2658802539656059
 10
-77.34537417362829
 20
71.88568265023872
 42
0.1863193641904046
 10
-77.7416782299689
 20
71.36789146535258
 42
1.334806337238038
  0
LWPOLYLINE
  5
133
330
18
100
AcDbEntity
  8
ADP1DETAIL
100
AcDbPolyline
 90
        4
 70
     0
 43
0.0
 10
-84.16759341158195
 20
62.9436705327861
 42
-0.2190622530891048
 10
-84.23730605477505
 20
62.00337203116664
 42
-0.4827664451160011
 10
-85.17842658317567
 20
61.83719385719567
 42
-0.1798795173644627
 10
-86.1778815489694
 20
63.25141279423974
 42
-0.2013812249484109
  0
LWPOLYLINE
  5
139
330
18
100
AcDbEntity
  8
ADP1DETAIL
100
AcDbPolyline
 90
        4
 70
     0
 43
0.0
 10
-85.41939019836068
 20
62.00087094498661
 42
0.1816765278986036
 10
-85.27700788773186
 20
62.23554758028215
 42
0.251015706543497
 10
-85.31961752824271
 20
62.63297743402226
 42
-0.0303205721144935
 10
-86.26768165984694
 20
63.32477899251887
 42
-2.585862399800819
  0
LWPOLYLINE
  5
13F
330
18
100
AcDbEntity
  8
ADP1DETAIL
100
AcDbPolyline
 90
        5
 70
     0
 43
0.0
 10
-85.43693320757322
 20
66.52072016959344
 42
0.1528842547512486
 10
-86.43325400594511
 20
64.4411829891755
 42
0.3308059115309967
 10
-85.38756451275489
 20
61.66306454965885
 42
0.3152380868141303
 10
-83.78417395137301
 20
61.93372031819027
 42
0.0594702734524754
 10
-83.54017970019723
 20
63.18745165368288
 42
-0.9291572932875599
  0
LWPOLYLINE
  5
146
330
18
100
AcDbEntity
  8
ADP1DETAIL
100
AcDbPolyline
 90
        4
 70
     0
 43
0.0
 10
-86.26559593745975
 20
63.8761453750676
 42
0.1103835479860604
 10
-85.84158541042777
 20
63.28220658270235
 42
0.0481965099005558
 10
-85.23439832506573
 20
62.83519633013981
 42
-0.4017313601614818
 10
-85.21084548277327
 20
61.85658325693171
 42
-0.0261222648932323
  0
LWPOLYLINE
  5
14C
330
18
100
AcDbEntity
  8
ADP1DETAIL
100
AcDbPolyline
 90
        4
 70
     0
 43
0.0
 10
-83.87995825119785
 20
64.79391454689016
 10
-83.87995825119785
 20
64.32131794391221
 10
-83.81097767631066
 20
63.87825856274363
 10
-83.60403587429614
 20
63.12998058711527
  0
LWPOLYLINE
  5
152
330
18
100
AcDbEntity
  8
ADP1DETAIL
100
AcDbPolyline
 90
        3
 70
     0
 43
0.0
 10
-83.72228834364056
 20
62.85429921446488
 42
0.0801003928457826
 10
-83.84054073563204
 20
63.42535345770253
 42
-0.1286289372466239
 10
-83.97850196275937
 20
64.69545695682228
 42
-0.8622632815591748
  0
LWPOLYLINE
  5
157
330
18
100
AcDbEntity
  8
ADP1DETAIL
100
AcDbPolyline
 90
        2
 70
     0
 43
0.0
 10
-83.95879320497646
 20
63.14967213524393
 42
0.1626269807759261
 10
-84.58947291255851
 20
64.43946708210875
 42
0.1626269807759261
  0
LWPOLYLINE
  5
15B
330
18
100
AcDbEntity
  8
ADP1DETAIL
100
AcDbPolyline
 90
        3
 70
     0
 43
0.0
 10
-84.10660881099525
 20
62.89368226053039
 42
0.1428104985033888
 10
-84.84568660903025
 20
63.85856706480677
 42
0.0662018636454756
 10
-85.45665755882938
 20
64.19332303165134
 42
-5.358043328911939
  0
LWPOLYLINE
  5
160
330
18
100
AcDbEntity
  8
ADP1DETAIL
100
AcDbPolyline
 90
        7
 70
     0
 43
0.0
 10
-85.33699768275802
 20
61.63483234471109
 42
0.0206881909753876
 10
-85.15983147363289
 20
61.42667194530102
 42
-0.2814414379101317
 10
-85.41548916100861
 20
60.95837548783023
 42
0.1245043335114365
 10
-86.41681528486785
 20
60.62843936226312
 42
-1.241468692976885
 10
-86.52333934722264
 20
60.60715315735485
 42
-0.1550640836811862
 10
-86.45942492537873
 20
61.52245981687729
 42
-0.3122945484331089
 10
-85.79423723093423
 20
61.96592340521205
 42
0.2997101745682371
  0
LINE
  5
169
330
18
100
AcDbEntity
  8
ADP1DETAIL
100
AcDbLine
 10
-85.61788485612929
 20
61.6395339438727
 30
0.0
 11
-85.61788485612929
 21
61.19252369131017
 31
0.0
  0
LINE
  5
16A
330
18
100
AcDbEntity
  8
ADP1DETAIL
100
AcDbLine
 10
-85.9161522618606
 20
61.096735769223
 30
0.0
 11
-85.88419505093865
 21
61.41602884284689
 31
0.0
  0
LWPOLYLINE
  5
16B
330
18
100
AcDbEntity
  8
ADP1DETAIL
100
AcDbPolyline
 90
        3
 70
     0
 43
0.0
 10
-85.56462286387427
 20
61.84175283999026
 42
0.1362318771368439
 10
-86.3955105035348
 20
60.97966169273849
 42
-0.055020707572376
 10
-85.47940366069727
 20
61.73532186595988
 42
-0.2982964503063385
  0
LINE
  5
170
330
18
100
AcDbEntity
  8
ADP1DETAIL
100
AcDbLine
 10
-86.09724317564822
 20
61.04352030746326
 30
0.0
 11
-86.08659074605933
 21
61.27766851094321
 31
0.0
  0
LINE
  5
171
330
18
100
AcDbEntity
  8
ADP1DETAIL
100
AcDbLine
 10
-86.38485807394589
 20
61.39474263793863
 30
0.0
 11
-86.11854795698128
 21
61.43731504775515
 31
0.0
  0
LINE
  5
172
330
18
100
AcDbEntity
  8
ADP1DETAIL
100
AcDbLine
 10
-86.03332867595955
 20
61.83110973753613
 30
0.0
 11
-85.68179935581795
 21
61.79918043017375
 31
0.0
  0
LINE
  5
173
330
18
100
AcDbEntity
  8
ADP1DETAIL
100
AcDbLine
 10
-86.1931148084141
 20
61.68210635368923
 30
0.0
 11
-85.9054998322717
 21
61.62889084141858
 31
0.0
  0
LWPOLYLINE
  5
174
330
18
100
AcDbEntity
  8
ADP1DETAIL
100
AcDbPolyline
 90
        8
 70
     0
 43
0.0
 10
-83.55476405719185
 20
63.18905518130944
 10
-83.65330769140044
 20
63.05121449498424
 10
-83.72228834364056
 20
62.85429921446488
 10
-83.84054073563204
 20
63.09059754104976
 10
-83.96864758386792
 20
63.15951785911646
 10
-83.92923014565509
 20
62.84445344040054
 10
-83.95879320497646
 20
62.71645852813968
 10
-84.18544376477388
 20
62.95275685472456
  0
ARC
  5
17E
330
18
100
AcDbEntity
  8
ADP1DETAIL
100
AcDbCircle
 10
-84.62809092102082
 20
62.5984334582424
 30
0.0
 40
0.8467321922434825
100
AcDbArc
 50
336.7030262118941
 51
35.53859191811375
  0
ARC
  5
17F
330
18
100
AcDbEntity
  8
ADP1DETAIL
100
AcDbCircle
 10
-80.7233390277487
 20
68.84156958159834
 30
0.0
 40
1.671412377780412
100
AcDbArc
 50
107.9938367499476
 51
175.6430620595747
  0
LWPOLYLINE
  5
180
330
18
100
AcDbEntity
  8
ADP1DETAIL
100
AcDbPolyline
 90
       10
 70
     0
 43
0.0
 10
-82.26510791816421
 20
67.92764026580394
 42
0.205749829249188
 10
-81.23966286159051
 20
66.98347159193663
 42
0.616989592272613
 10
-79.91512279562797
 20
67.81929249899565
 42
0.3700572388538777
 10
-79.56655965701554
 20
68.3416805219897
 42
-0.22876821326965
 10
-79.63627230020861
 20
69.0033720713201
 42
0.1621524007366915
 10
-80.54253650701269
 20
68.75959100061511
 42
0.3571609588285715
 10
-80.22882961264386
 20
67.81929249899565
 42
-0.5002621718014013
 10
-80.50768018541615
 20
67.22725266264162
 42
-0.3774629110428
 10
-81.76250760818561
 20
67.61033725968293
 42
-0.0824975286308845
 10
-82.07921210610413
 20
68.04580763581353
 42
-0.167083608173536
  0
LWPOLYLINE
  5
18C
330
18
100
AcDbEntity
  8
ADP1DETAIL
100
AcDbPolyline
 90
        3
 70
     0
 43
0.0
 10
-80.91030884135779
 20
66.86627069662415
 42
-0.0684252110412252
 10
-82.35506492062086
 20
66.3914317555826
 42
-0.1232780927202193
 10
-83.66258136406594
 20
66.47577057436333
 42
-0.1390930902874514
  0
LWPOLYLINE
  5
191
330
18
100
AcDbEntity
  8
ADP1DETAIL
100
AcDbPolyline
 90
       12
 70
     0
 43
0.0
 10
-83.78559615781776
 20
64.89668770638798
 42
0.0003339100109334
 10
-83.78417395137301
 20
64.89391934938499
 42
0.2753297005886671
 10
-82.66877181498969
 20
64.19740191847052
 42
0.2273812792696118
 10
-81.90193281721882
 20
64.54566063392775
 42
0.4887465708524938
 10
-81.06538125360781
 20
64.75461582304865
 42
0.1232100324401749
 10
-81.13509389680087
 20
65.34665565940269
 42
-0.1653887403703253
 10
-80.9608122888182
 20
66.04317304012536
 42
0.2325084625698916
 10
-82.14592706839457
 20
65.59043673010767
 42
0.2878818955200338
 10
-82.28535235478073
 20
64.8590934678009
 42
0.2098057684963463
 10
-82.11107074679805
 20
64.68496411007229
 42
-0.42914689598822
 10
-83.08704759679519
 20
64.6501382284882
 42
-0.1375415340206265
 10
-83.62187718964355
 20
65.20507232608544
 42
-0.0178800688299825
  0
LWPOLYLINE
  5
19F
330
18
100
AcDbEntity
  8
ADP1DETAIL
100
AcDbPolyline
 90
        3
 70
     0
 43
0.0
 10
-84.38365480780934
 20
66.83249630037734
 42
-0.0436248392140688
 10
-83.64474866498685
 20
67.2620785442257
 42
0.0800775409527996
 10
-83.95596399220085
 20
66.58890525390781
 42
0.2753297005886671
  0
ARC
  5
1A4
330
18
100
AcDbEntity
  8
ADP1DETAIL
100
AcDbCircle
 10
-84.96537532600527
 20
66.60572724271003
 30
0.0
 40
0.277518009358974
100
AcDbArc
 50
351.1980691662271
 51
118.0596221243624
  0
LINE
  5
1A5
330
18
100
AcDbEntity
  8
ADP1DETAIL
100
AcDbLine
 10
-85.76701855899495
 20
66.95067052439952
 30
0.0
 11
-85.76701855899495
 21
67.32317905978316
 31
0.0
  0
LWPOLYLINE
  5
1A6
330
18
100
AcDbEntity
  8
ADP1DETAIL
100
AcDbPolyline
 90
        2
 70
     0
 43
0.0
 10
-85.08182414689988
 20
66.85636464967524
 42
-0.0139237636831579
 10
-85.26070833776927
 20
67.01994196179519
 42
-0.1864031088709795
  0
LINE
  5
1AA
330
18
100
AcDbEntity
  8
ADP1DETAIL
100
AcDbLine
 10
-85.56462286387427
 20
66.81231024300675
 30
0.0
 11
-85.58592764520733
 21
67.17417567593625
 31
0.0
  0
ARC
  5
1AB
330
18
100
AcDbEntity
  8
ADP1DETAIL
100
AcDbCircle
 10
-84.41333313642978
 20
67.13596242061175
 30
0.0
 40
0.3005883604254925
100
AcDbArc
 50
185.7092350199449
 51
280.0455791332392
  0
LINE
  5
1AC
330
18
100
AcDbEntity
  8
ADP1DETAIL
100
AcDbLine
 10
-86.31029122251307
 20
67.02517224157844
 30
0.0
 11
-86.07593831647042
 21
66.91874126754806
 31
0.0
  0
ARC
  5
1AD
330
18
100
AcDbEntity
  8
ADP1DETAIL
100
AcDbCircle
 10
-85.05646980425787
 20
67.96558351695042
 30
0.0
 40
1.285062648021286
100
AcDbArc
 50
205.6990374028692
 51
251.2871186606894
  0
ARC
  5
1AE
330
18
100
AcDbEntity
  8
ADP1DETAIL
100
AcDbCircle
 10
-96.6989503993876
 20
60.21467916505931
 30
0.0
 40
12.71510560611644
100
AcDbArc
 50
30.14171328585407
 51
34.45479172033926
  0
LWPOLYLINE
  5
1AF
330
18
100
AcDbEntity
  8
ADP1DETAIL
100
AcDbPolyline
 90
       12
 70
     0
 43
0.0
 10
-85.43693320757322
 20
66.52072016959344
 10
-85.53266565295229
 20
66.5419754709784
 42
-0.2240864833867254
 10
-85.75636612940604
 20
66.35039967731498
 42
-0.3103065944328778
 10
-86.24637680066914
 20
66.52068926607014
 42
-0.1318542959419367
 10
-86.41681528486785
 20
66.95705641617855
 42
0.0670883299219096
 10
-86.57660141732241
 20
67.64247213340704
 42
-0.5786636996754677
 10
-86.48072970671178
 20
67.75954620989157
 42
0.1788993665633338
 10
-86.12920038657019
 20
67.62118592849879
 42
0.0027451609998549
 10
-85.64984214489598
 20
67.48282559659511
 42
-0.2844171830015321
 10
-85.30896509865382
 20
67.11031706121147
 42
-0.494324007423398
 10
-85.39418437967555
 20
66.72716542337372
 42
0.1326288335805252
 10
-85.3082765363534
 20
66.65232711071737
 42
0.049894621459113
  0
LWPOLYLINE
  5
1BD
330
18
100
AcDbEntity
  8
ADP1DETAIL
100
AcDbPolyline
 90
        2
 70
     0
 43
0.0
 10
-85.08182414689988
 20
66.85636464967524
 42
0.0197558304918342
 10
-85.3082765363534
 20
66.65232711071737
 42
0.3450520307239229
  0
ARC
  5
1C1
330
18
100
AcDbEntity
  8
ADP1DETAIL
100
AcDbCircle
 10
-84.17779581852473
 20
65.98956712772853
 30
0.0
 40
1.728908740840235
100
AcDbArc
 50
216.0902437562802
 51
235.3403692879264
  0
ARC
  5
1C2
330
18
100
AcDbEntity
  8
ADP1DETAIL
100
AcDbCircle
 10
-79.75886033655758
 20
72.60964697303771
 30
0.0
 40
9.600690031448154
100
AcDbArc
 50
232.7139312478116
 51
236.4667402058947
  0
ARC
  5
1C3
330
18
100
AcDbEntity
  8
ADP1DETAIL
100
AcDbCircle
 10
-85.5596189818206
 20
66.51212905363789
 30
0.0
 40
2.030515943948833
100
AcDbArc
 50
262.5963357991242
 51
318.5521626651976
  0
LWPOLYLINE
  5
1C4
330
18
100
AcDbEntity
  8
ADP1DETAIL
100
AcDbPolyline
 90
        5
 70
     0
 43
0.0
 10
-85.86068678396694
 20
64.22286030365253
 42
0.0033918238577793
 10
-85.17088080303624
 20
64.2523975756537
 42
0.2713960352305832
 10
-84.88510404724308
 20
64.43946708210875
 42
-0.2671076065290314
 10
-84.61903604923284
 20
64.61669081449946
 42
0.3079873480881026
 10
-83.65330769140044
 20
65.26651120005993
 42
-0.6766972280686076
  0
LWPOLYLINE
  5
1CB
330
18
100
AcDbEntity
  8
ADP1DETAIL
100
AcDbPolyline
 90
        2
 70
     0
 43
0.0
 10
-86.08492812431702
 20
64.71325356502328
 42
-0.1192964836306882
 10
-84.71844257411158
 20
66.57432729821213
 42
0.2735586103165583
  0
LWPOLYLINE
  5
1CF
330
18
100
AcDbEntity
  8
ADP1DETAIL
100
AcDbPolyline
 90
       13
 70
     0
 43
0.0
 10
-85.61788485612929
 20
65.07322753435215
 10
-85.61788485612929
 20
65.22223096870996
 42
-0.1796023892819231
 10
-84.64851602103674
 20
65.62666881145599
 42
0.0353729289252832
 10
-84.16915777936255
 20
65.67988432372664
 42
-0.1824745198553579
 10
-83.81762838137621
 20
65.61602570900186
 42
-0.2245190188558939
 10
-83.75371395953228
 20
65.52023778691469
 42
-0.385592523969372
 10
-83.66849467851055
 20
65.07322753435215
 42
-0.27979583928084
 10
-84.54199195868195
 20
64.5410725126675
 42
0.4997379348889156
 10
-84.63786359144783
 20
64.49850010285098
 42
-0.2146905908454744
 10
-85.45809880151947
 20
64.18985018219213
 42
-0.0060459498817567
 10
-86.01202389462649
 20
64.21113638710038
 42
-0.747430879178502
 10
-86.22507201933608
 20
64.48785700039684
 42
-0.182604290530941
 10
-85.6285372857182
 20
65.06258443189803
 42
-0.0625553297480268
  0
LWPOLYLINE
  5
1DE
330
18
100
AcDbEntity
  8
ADP1DETAIL
100
AcDbPolyline
 90
        2
 70
     0
 43
0.0
 10
-86.26559593745975
 20
63.8761453750676
 42
-0.0458275348572277
 10
-86.2270353573686
 20
64.27679739337751
 42
-0.2013812249484109
  0
LWPOLYLINE
  5
1E2
330
18
100
AcDbEntity
  8
ADP1DETAIL
100
AcDbPolyline
 90
        4
 70
     0
 43
0.0
 10
-86.46869494328344
 20
64.30697249125806
 10
-86.61921097998854
 20
64.29330116431194
 10
-86.61921097998854
 20
63.67600132299424
 10
-86.51954722527701
 20
63.58264815008746
  0
LINE
  5
1E8
330
18
100
AcDbEntity
  8
ADP1DETAIL
100
AcDbLine
 10
-86.11854795698128
 20
66.67394991110306
 30
0.0
 11
-85.78832341817275
 21
66.70587921846546
 31
0.0
  0
LINE
  5
1E9
330
18
100
AcDbEntity
  8
ADP1DETAIL
100
AcDbLine
 10
-86.07593831647042
 20
66.91874126754806
 30
0.0
 11
-85.92680461360476
 21
66.90809816509392
 31
0.0
  0
ARC
  5
1EA
330
18
100
AcDbEntity
  8
ADP1DETAIL
100
AcDbCircle
 10
-78.56179511107481
 20
64.65499064822129
 30
0.0
 40
6.058414326231076
100
AcDbArc
 50
173.3638639456154
 51
178.8723197110934
  0
ARC
  5
1EB
330
18
100
AcDbEntity
  8
ADP1DETAIL
100
AcDbCircle
 10
-81.93235554162361
 20
65.66493152843769
 30
0.0
 40
2.665329741754774
100
AcDbArc
 50
186.674946612845
 51
198.4038716130215
  0
ARC
  5
1EC
330
18
100
AcDbEntity
  8
ADP1DETAIL
100
AcDbCircle
 10
-83.77475487083168
 20
66.58903653210242
 30
0.0
 40
0.1707613590102838
100
AcDbArc
 50
181.5062564695078
 51
324.0391562440091
  0
ARC
  5
1ED
330
18
100
AcDbEntity
  8
ADP1DETAIL
100
AcDbCircle
 10
-83.92817901306813
 20
66.07312188248393
 30
0.0
 40
0.1641951510542305
100
AcDbArc
 50
3.91136832336425
 51
128.6265665161498
  0
LWPOLYLINE
  5
1EE
330
18
100
AcDbEntity
  8
ADP1DETAIL
100
AcDbPolyline
 90
        2
 70
     0
 43
0.0
 10
-83.74374857333078
 20
65.51242265096639
 42
-0.1004557330250161
 10
-83.778469882247
 20
66.0791798807717
 42
-0.0178800688299825
  0
LWPOLYLINE
  5
1F2
330
18
100
AcDbEntity
  8
ADP1DETAIL
100
AcDbPolyline
 90
        2
 70
     0
 43
0.0
 10
-83.95596399220085
 20
66.58890525390781
 42
-0.0457120253776282
 10
-84.38365480780934
 20
66.83249630037734
 42
-0.1390930902874514
  0
LWPOLYLINE
  5
1F6
330
18
100
AcDbEntity
  8
ADP1DETAIL
100
AcDbPolyline
 90
        2
 70
     0
 43
0.0
 10
-84.03158509380077
 20
66.18440600036726
 42
-0.0454533020590779
 10
-84.71844257411158
 20
66.57432729821213
 42
-0.1864031088709795
  0
LWPOLYLINE
  5
1FA
330
18
100
AcDbEntity
  8
ADP1DETAIL
100
AcDbPolyline
 90
        2
 70
     0
 43
0.0
 10
-84.03158509380077
 20
66.18440600036726
 42
0.0536821329870202
 10
-84.02616759339698
 20
65.68551251056843
 42
0.2753297005886671
  0
ARC
  5
1FE
330
18
100
AcDbEntity
  8
ADP1DETAIL
100
AcDbCircle
 10
-84.98978757262142
 20
68.58364502638832
 30
0.0
 40
1.19606674603338
100
AcDbArc
 50
70.73977018373778
 51
129.1985766287637
  0
ARC
  5
1FF
330
18
100
AcDbEntity
  8
ADP1DETAIL
100
AcDbCircle
 10
-79.17033478973678
 20
66.4118411784209
 30
0.0
 40
6.949510162971987
100
AcDbArc
 50
148.5023791728317
 51
150.9411692162339
  0
ARC
  5
200
330
18
100
AcDbEntity
  8
ADP1DETAIL
100
AcDbCircle
 10
-84.87638390178608
 20
68.54784975575397
 30
0.0
 40
1.198360865492207
100
AcDbArc
 50
76.43222559355391
 51
132.9207951050585
  0
ARC
  5
201
330
18
100
AcDbEntity
  8
ADP1DETAIL
100
AcDbCircle
 10
-84.9203013890491
 20
70.07935736073452
 30
0.0
 40
0.6771228659453436
100
AcDbArc
 50
225.5852007089203
 51
254.9681659576787
  0
LWPOLYLINE
  5
202
330
18
100
AcDbEntity
  8
ADP1DETAIL
100
AcDbPolyline
 90
        7
 70
     0
 43
0.0
 10
-85.80962819950581
 20
69.28704403771719
 42
0.2119531382867399
 10
-85.33026995783162
 20
69.04225273178312
 42
0.2744575653894654
 10
-84.86156414574633
 20
69.28704403771719
 42
-0.2365591290026287
 10
-84.36090104489434
 20
69.59569395837604
 42
0.1847117736974734
 10
-85.02135020035614
 20
70.26620931196439
 42
0.6478790513305074
 10
-85.83093298083886
 20
69.55312154855952
 42
0.1925711983455863
 10
-86.15297744954728
 20
68.98710013807861
 42
1.005068891937237
  0
LWPOLYLINE
  5
20B
330
18
100
AcDbEntity
  8
ADP1DETAIL
100
AcDbPolyline
 90
        4
 70
     0
 43
0.0
 10
-84.72809078420404
 20
67.11799571626293
 42
-0.0184090979636344
 10
-84.86471976615977
 20
67.2620785442257
 42
-0.1390930902874514
 10
-85.87555293775347
 20
68.62028752447057
 42
-0.2385566729954161
 10
-85.80584029456039
 20
69.28197907380097
 42
-0.544660264226585
  0
LINE
  5
211
330
18
100
AcDbEntity
  8
ADP1DETAIL
100
AcDbLine
 10
-85.88419505093865
 20
66.99324293421605
 30
0.0
 11
-85.9161522618606
 21
67.42961008432445
 31
0.0
  0
LINE
  5
212
330
18
100
AcDbEntity
  8
ADP1DETAIL
100
AcDbLine
 10
-86.35290086302394
 20
67.25932049556928
 30
0.0
 11
-86.10789552739239
 21
67.11031706121147
 31
0.0
  0
ARC
  5
213
330
18
100
AcDbEntity
  8
ADP1DETAIL
100
AcDbCircle
 10
-84.43448344452097
 20
69.42192577961278
 30
0.0
 40
1.234494913062469
100
AcDbArc
 50
146.9092047258456
 51
167.3876642414115
  0
ARC
  5
214
330
18
100
AcDbEntity
  8
ADP1DETAIL
100
AcDbCircle
 10
-84.51114107045039
 20
69.37727296340075
 30
0.0
 40
1.015740939266636
100
AcDbArc
 50
139.8612438796872
 51
158.7934928882392
  0
ARC
  5
215
330
18
100
AcDbEntity
  8
ADP1DETAIL
100
AcDbCircle
 10
-85.39053606967724
 20
69.47639484854987
 30
0.0
 40
0.2060560186426065
100
AcDbArc
 50
179.3812969006988
 51
283.9324419466196
  0
ARC
  5
216
330
18
100
AcDbEntity
  8
ADP1DETAIL
100
AcDbCircle
 10
-80.65372203736501
 20
68.64879494945525
 30
0.0
 40
1.76539755709334
100
AcDbArc
 50
169.5649162235158
 51
179.2709334222679
  0
LWPOLYLINE
  5
217
330
18
100
AcDbEntity
  8
ADP1DETAIL
100
AcDbPolyline
 90
        3
 70
     0
 43
0.0
 10
-83.95993938925485
 20
68.99520135279977
 42
0.2392118933786103
 10
-84.01791947832517
 20
68.40770341801752
 42
0.2654048150861052
 10
-83.47482086369785
 20
67.79928726283768
 42
0.0821388550192804
  0
LWPOLYLINE
  5
21C
330
18
100
AcDbEntity
  8
ADP1DETAIL
100
AcDbPolyline
 90
        3
 70
     0
 43
0.0
 10
-83.18682817508108
 20
67.9353983621816
 42
-0.1508895747612881
 10
-83.67301644918333
 20
68.24032545969114
 42
-0.2944442586904349
 10
-83.75288892015136
 20
68.81371612683821
 42
-0.0028084258158696
  0
LWPOLYLINE
  5
221
330
18
100
AcDbEntity
  8
ADP1DETAIL
100
AcDbPolyline
 90
        3
 70
     0
 43
0.0
 10
-83.47482086369785
 20
67.79928726283768
 42
0.0186543833260216
 10
-84.55101287179093
 20
67.22725266264162
 42
0.0134828295185954
 10
-84.72809078420404
 20
67.11799571626293
 42
0.3450520307239229
  0
LWPOLYLINE
  5
226
330
18
100
AcDbEntity
  8
ADP1DETAIL
100
AcDbPolyline
 90
        2
 70
     0
 43
0.0
 10
-82.39732118151582
 20
68.37222568307201
 42
0.0131376143849164
 10
-82.38038817557507
 20
68.28102792843518
 42
0.616989592272613
  0
LWPOLYLINE
  5
22A
330
18
100
AcDbEntity
  8
ADP1DETAIL
100
AcDbPolyline
 90
        9
 70
     0
 43
0.0
 10
-83.578607831238
 20
69.07185052450562
 42
-0.001120773414722
 10
-83.49563778384316
 20
69.18551871583886
 42
0.1621431862249034
 10
-82.92408427225689
 20
69.08706107557918
 42
0.3394369938716722
 10
-82.68757941092097
 20
69.33320517622838
 42
0.0071624201169831
 10
-82.26384150535347
 20
70.02240860785438
 42
0.0985455979882776
 10
-83.15073483205429
 20
70.05194587985556
 42
0.3404936913980381
 10
-83.60403587429614
 20
69.82549332733501
 42
0.318358608937352
 10
-83.52520092051751
 20
69.35289667416525
 42
0.0512245128336393
 10
-83.75140786416384
 20
69.21131909039302
 42
0.2982008783548732
  0
ARC
  5
235
330
18
100
AcDbEntity
  8
ADP1DETAIL
100
AcDbCircle
 10
-84.81784570406958
 20
69.84765882193518
 30
0.0
 40
0.2995135866447201
100
AcDbArc
 50
206.7671686828688
 51
259.5410914245925
  0
ARC
  5
236
330
18
100
AcDbEntity
  8
ADP1DETAIL
100
AcDbCircle
 10
-84.08690829229383
 20
69.53348543286614
 30
0.0
 40
0.9302078700309042
100
AcDbArc
 50
147.589394196207
 51
163.4849567610379
  0
LINE
  5
237
330
18
100
AcDbEntity
  8
ADP1DETAIL
100
AcDbLine
 10
-82.84524931847824
 20
69.71718991301099
 30
0.0
 11
-82.63830751646374
 21
69.66796109288115
 31
0.0
  0
LINE
  5
238
330
18
100
AcDbEntity
  8
ADP1DETAIL
100
AcDbLine
 10
-82.88466683404404
 20
69.82549332733501
 30
0.0
 11
-82.77626874359105
 21
70.02240860785438
 31
0.0
  0
LINE
  5
239
330
18
100
AcDbEntity
  8
ADP1DETAIL
100
AcDbLine
 10
-83.20986102805003
 20
69.6482695949443
 30
0.0
 11
-83.16058921094574
 21
69.95348823959588
 31
0.0
  0
LINE
  5
23A
330
18
100
AcDbEntity
  8
ADP1DETAIL
100
AcDbLine
 10
-83.05219112049275
 20
69.75657300926831
 30
0.0
 11
-82.93393865114834
 21
70.01256283379004
 31
0.0
  0
LINE
  5
23B
330
18
100
AcDbEntity
  8
ADP1DETAIL
100
AcDbLine
 10
-83.26898730139872
 20
69.38243399635823
 30
0.0
 11
-82.93393865114834
 21
69.39227977042256
 31
0.0
  0
LINE
  5
23C
330
18
100
AcDbEntity
  8
ADP1DETAIL
100
AcDbLine
 10
-83.46607472452177
 20
69.4415085403606
 30
0.0
 11
-83.3576766340688
 21
69.77626450720517
 31
0.0
  0
ARC
  5
23D
330
18
100
AcDbEntity
  8
ADP1DETAIL
100
AcDbCircle
 10
-81.37645309104874
 20
67.49097155873805
 30
0.0
 40
2.692007860688754
100
AcDbArc
 50
116.3029136032657
 51
137.388819660005
  0
LINE
  5
23E
330
18
100
AcDbEntity
  8
ADP1DETAIL
100
AcDbLine
 10
-82.98321054560558
 20
69.59904077481446
 30
0.0
 11
-82.74670560691673
 21
69.53996618062028
 31
0.0
  0
ARC
  5
23F
330
18
100
AcDbEntity
  8
ADP1DETAIL
100
AcDbCircle
 10
-82.09653538994558
 20
68.00635257186943
 30
0.0
 40
1.955909571899405
100
AcDbArc
 50
103.9883528266393
 51
133.6403479122403
  0
ARC
  5
240
330
18
100
AcDbEntity
  8
ADP1DETAIL
100
AcDbCircle
 10
-89.78115340395287
 20
60.72492823596284
 30
0.0
 40
8.836456624560172
100
AcDbArc
 50
27.85026342388801
 51
29.96526359009469
  0
ARC
  5
241
330
18
100
AcDbEntity
  8
ADP1DETAIL
100
AcDbCircle
 10
-80.94167442122042
 20
65.4460892226654
 30
0.0
 40
1.009025287067232
100
AcDbArc
 50
176.2174145672616
 51
203.118939741728
  0
ARC
  5
242
330
18
100
AcDbEntity
  8
ADP1DETAIL
100
AcDbCircle
 10
-81.67431303576993
 20
65.4090693248427
 30
0.0
 40
0.3530233277256121
100
AcDbArc
 50
278.3073132779532
 51
316.9435105337424
  0
ARC
  5
243
330
18
100
AcDbEntity
  8
ADP1DETAIL
100
AcDbCircle
 10
-76.13322015449672
 20
62.64896143195752
 30
0.0
 40
6.174168061417573
100
AcDbArc
 50
149.0127026400911
 51
160.6425281279605
  0
ARC
  5
244
330
18
100
AcDbEntity
  8
ADP1DETAIL
100
AcDbCircle
 10
-92.53985487857553
 20
68.84398136700579
 30
0.0
 40
11.51567257862311
100
AcDbArc
 50
338.5690156418084
 51
344.8155856896353
  0
ARC
  5
245
330
18
100
AcDbEntity
  8
ADP1DETAIL
100
AcDbCircle
 10
-86.31573852827202
 20
80.32085564608419
 30
0.0
 40
16.2405954897488
100
AcDbArc
 50
286.3225326608215
 51
287.6311466314326
  0
ARC
  5
246
330
18
100
AcDbEntity
  8
ADP1DETAIL
100
AcDbCircle
 10
-81.63146750914853
 20
66.0182603380483
 30
0.0
 40
0.5456766865925504
100
AcDbArc
 50
281.2765042848547
 51
305.084426819441
  0
ARC
  5
247
330
18
100
AcDbEntity
  8
ADP1DETAIL
100
AcDbCircle
 10
-82.87274687199916
 20
65.49296372748457
 30
0.0
 40
1.192306866450672
100
AcDbArc
 50
356.6862162144293
 51
10.94858822098736
  0
LINE
  5
248
330
18
100
AcDbEntity
  8
ADP1DETAIL
100
AcDbLine
 10
-79.32689476671026
 20
69.7231429749157
 30
0.0
 11
-78.85437829902773
 21
69.7992887715681
 31
0.0
  0
ARC
  5
249
330
18
100
AcDbEntity
  8
ADP1DETAIL
100
AcDbCircle
 10
-78.84485987730975
 20
69.34241419369735
 30
0.0
 40
0.449142131187273
100
AcDbArc
 50
166.2697872152081
 51
228.2414879038143
  0
ARC
  5
24A
330
18
100
AcDbEntity
  8
ADP1DETAIL
100
AcDbCircle
 10
-78.34500316613738
 20
70.52505090794894
 30
0.0
 40
1.260718382527801
100
AcDbArc
 50
217.7279333459777
 51
273.1755755750399
  0
ARC
  5
24B
330
18
100
AcDbEntity
  8
ADP1DETAIL
100
AcDbCircle
 10
-78.5783117762482
 20
70.37332943127994
 30
0.0
 40
1.14781634660906
100
AcDbArc
 50
218.2815919123808
 51
285.3139428939488
  0
LWPOLYLINE
  5
24C
330
18
100
AcDbEntity
  8
ADP1DETAIL
100
AcDbPolyline
 90
        3
 70
     0
 43
0.0
 10
-78.65021732233592
 20
68.89996998752346
 42
-0.0044635656690741
 10
-79.53170333541899
 20
67.81929249899565
 42
-0.0249410690443505
 10
-79.95535866148012
 20
67.45832870237021
 42
-0.1232780927202193
  0
ARC
  5
251
330
18
100
AcDbEntity
  8
ADP1DETAIL
100
AcDbCircle
 10
-78.72692620941006
 20
68.14922122269144
 30
0.0
 40
1.453250467117029
100
AcDbArc
 50
147.4450577229532
 51
188.2244394859308
  0
ARC
  5
252
330
18
100
AcDbEntity
  8
ADP1DETAIL
100
AcDbCircle
 10
-78.68171316410286
 20
68.39650478663111
 30
0.0
 40
1.378092777270852
100
AcDbArc
 50
157.1688833914016
 51
197.2858489789003
  0
LINE
  5
253
330
18
100
AcDbEntity
  8
ADP1DETAIL
100
AcDbLine
 10
-80.16523043517924
 20
68.62664399812807
 30
0.0
 11
-80.13474550178036
 21
68.83985214793733
 31
0.0
  0
LWPOLYLINE
  5
254
330
18
100
AcDbEntity
  8
ADP1DETAIL
100
AcDbPolyline
 90
        2
 70
     0
 43
0.0
 10
-82.19620082534836
 20
68.35289206487775
 42
-0.0051831042947085
 10
-82.20474078547477
 20
68.3858632238187
 42
-0.167083608173536
  0
ARC
  5
258
330
18
100
AcDbEntity
  8
ADP1DETAIL
100
AcDbCircle
 10
-79.48800557699026
 20
68.88567268592601
 30
0.0
 40
0.8647291656585016
100
AcDbArc
 50
196.3758692622579
 51
216.7942971143085
  0
LINE
  5
259
330
18
100
AcDbEntity
  8
ADP1DETAIL
100
AcDbLine
 10
-80.37862496897133
 20
68.18499860989435
 30
0.0
 11
-80.22620030197698
 21
68.01747792797434
 31
0.0
  0
ARC
  5
25A
330
18
100
AcDbEntity
  8
ADP1DETAIL
100
AcDbCircle
 10
-80.07181810352177
 20
68.44755983663117
 30
0.0
 40
0.2292335595219661
100
AcDbArc
 50
288.9005440370132
 51
351.4390741544799
  0
LINE
  5
25B
330
18
100
AcDbEntity
  8
ADP1DETAIL
100
AcDbLine
 10
-79.99756330148544
 20
68.48958164497121
 30
0.0
 11
-79.82989616779164
 21
68.67233146601734
 31
0.0
  0
LINE
  5
25C
330
18
100
AcDbEntity
  8
ADP1DETAIL
100
AcDbLine
 10
-79.96707836808656
 20
68.01747792797434
 30
0.0
 11
-79.81465370109219
 21
68.1545402811312
 31
0.0
  0
ARC
  5
25D
330
18
100
AcDbEntity
  8
ADP1DETAIL
100
AcDbCircle
 10
-78.48230387445352
 20
69.29954495527318
 30
0.0
 40
0.9665347345686047
100
AcDbArc
 50
165.570572905816
 51
200.4602603206272
  0
LINE
  5
25E
330
18
100
AcDbEntity
  8
ADP1DETAIL
100
AcDbLine
 10
-77.7874056300672
 20
70.40845484172184
 30
0.0
 11
-77.60449610751871
 21
70.62166299153108
 31
0.0
  0
LWPOLYLINE
  5
25F
330
18
100
AcDbEntity
  8
ADP1DETAIL
100
AcDbPolyline
 90
        2
 70
     0
 43
0.0
 10
-77.75094723228739
 20
70.04446004986849
 42
-0.0026121304480247
 10
-78.25255562070231
 20
69.40066262210783
 42
-0.0249410690443505
  0
LINE
  5
263
330
18
100
AcDbEntity
  8
ADP1DETAIL
100
AcDbLine
 10
-79.11350023291814
 20
69.60130976088496
 30
0.0
 11
-78.73243856543223
 21
69.67745555753734
 31
0.0
  0
ARC
  5
264
330
18
100
AcDbEntity
  8
ADP1DETAIL
100
AcDbCircle
 10
-79.29955511965289
 20
69.00926646525902
 30
0.0
 40
0.4463508162950522
100
AcDbArc
 50
355.843498443656
 51
37.58255751636827
  0
LINE
  5
265
330
18
100
AcDbEntity
  8
ADP1DETAIL
100
AcDbLine
 10
-78.68671116533393
 20
69.22058097966659
 30
0.0
 11
-78.59525636513732
 21
69.11397690476197
 31
0.0
  0
LINE
  5
266
330
18
100
AcDbEntity
  8
ADP1DETAIL
100
AcDbLine
 10
-78.93059063252491
 20
69.44901826860197
 30
0.0
 11
-78.56477143173845
 21
69.50993487561735
 31
0.0
  0
LINE
  5
267
330
18
100
AcDbEntity
  8
ADP1DETAIL
100
AcDbLine
 10
-77.29964677352999
 20
70.49982977750033
 30
0.0
 11
-77.49779884062265
 21
70.66735045942035
 31
0.0
  0
DIMENSION
  5
268
330
18
100
AcDbEntity
  8
ADPDIM
100
AcDbDimension
  2
*D0
 10
-67.63469766891694
 20
75.09233778364578
 30
0.0
 11
-77.13469766891694
 21
75.09233778364578
 31
0.0
100
AcDbAlignedDimension
 13
-86.63469766891694
 23
74.59976688337945
 33
0.0
 14
-67.63469766891694
 24
74.59976688337945
 34
0.0
100
AcDbRotatedDimension
  0
ARC
  5
269
330
18
100
AcDbEntity
  8
ADP1DETAIL
100
AcDbCircle
 10
-75.31435958683144
 20
71.87394832140528
 30
0.0
 40
2.163714219843898
100
AcDbArc
 50
115.3588119868521
 51
134.1863196744792
  0
ARC
  5
26A
330
18
100
AcDbEntity
  8
ADP1DETAIL
100
AcDbCircle
 10
-78.37262629747502
 20
75.21374466627491
 30
0.0
 40
2.541783566815992
100
AcDbArc
 50
310.7320051876809
 51
326.994202080388
  0
LWPOLYLINE
  5
26B
330
18
100
AcDbEntity
  8
ADP1DETAIL
100
AcDbPolyline
 90
        2
 70
     0
 43
0.0
 10
-75.87714793567328
 20
72.37298944820858
 42
0.0242530059050895
 10
-76.31623244305001
 20
71.92002514377006
 42
-0.0148578288953074
  0
ARC
  5
26F
330
18
100
AcDbEntity
  8
ADP1DETAIL
100
AcDbCircle
 10
-75.89469670452271
 20
71.31154906812961
 30
0.0
 40
1.863715659124572
100
AcDbArc
 50
85.49560830454439
 51
110.1490407043837
  0
ARC
  5
270
330
18
100
AcDbEntity
  8
ADP1DETAIL
100
AcDbCircle
 10
-80.95844522223265
 20
91.2539722159151
 30
0.0
 40
18.82001986604941
100
AcDbArc
 50
283.8666313658546
 51
286.0716394188611
  0
LWPOLYLINE
  5
271
330
18
100
AcDbEntity
  8
ADP1DETAIL
100
AcDbPolyline
 90
        6
 70
     0
 43
0.0
 10
-78.41886328340041
 20
72.0175539895575
 10
-77.96556224115855
 20
72.04709131175049
 10
-78.25133891959875
 20
71.89940485136097
 10
-77.96556224115855
 20
71.90925062542529
 10
-77.27575626022783
 20
72.21446927007687
 42
-0.2083234457118907
 10
-75.92570751239371
 20
72.39169300246757
 42
0.1410473746310116
  0
LWPOLYLINE
  5
279
330
18
100
AcDbEntity
  8
ADP1DETAIL
100
AcDbPolyline
 90
        5
 70
     0
 43
0.0
 10
-77.02939702000048
 20
74.44945752328121
 42
0.2308108225508674
 10
-77.16735816977487
 20
74.09501005849979
 42
0.1401763382034954
 10
-76.34944541796122
 20
72.8839811535742
 42
0.1308606475341606
 10
-75.7187657103792
 20
72.58860828298695
 42
0.3562625305430203
 10
-75.63007637770912
 20
72.63783710311679
 42
-0.6777067072604052
  0
LWPOLYLINE
  5
280
330
18
100
AcDbEntity
  8
ADP1DETAIL
100
AcDbPolyline
 90
        7
 70
     0
 43
0.0
 10
-77.30531939690218
 20
73.65195067733122
 42
0.1281245121589656
 10
-75.93556181393221
 20
72.39169300246757
 42
0.5098091325563915
 10
-75.46255209126041
 20
72.67722014918231
 42
0.2304380881610278
 10
-75.96512495060655
 20
73.96701509604712
 42
0.151965540922183
 10
-76.88158141398172
 20
74.60698970754326
 42
0.4973944944116753
 10
-77.46298930445945
 20
74.30177106289169
 42
0.1038895676790772
 10
-77.30531939690218
 20
73.66179645139554
 42
0.6284840566521407
  0
ARC
  5
289
330
18
100
AcDbEntity
  8
ADP1DETAIL
100
AcDbCircle
 10
-85.5888897171294
 20
77.91283609297682
 30
0.0
 40
5.341668359111813
100
AcDbArc
 50
307.9587864004112
 51
311.1113982036383
  0
ARC
  5
28A
330
18
100
AcDbEntity
  8
ADP1DETAIL
100
AcDbCircle
 10
-82.53296090280437
 20
74.35753024212783
 30
0.0
 40
0.8484059530318122
100
AcDbArc
 50
286.4011380064048
 51
308.2577487346393
  0
LWPOLYLINE
  5
28B
330
18
100
AcDbEntity
  8
ADP1DETAIL
100
AcDbPolyline
 90
       10
 70
     0
 43
0.0
 10
-82.31744926464058
 20
74.30177106289169
 10
-82.18934241640472
 20
74.05562696224248
 42
0.2405100462612552
 10
-82.5046823088722
 20
73.77994558959208
 42
0.3003538878184691
 10
-82.435701733985
 20
73.44518967293932
 42
-0.052905586363432
 10
-82.1597793570833
 20
72.96274724570523
 42
-0.1085463753782605
 10
-82.12036184151752
 20
72.76583201537765
 42
0.0281223295983465
 10
-81.62764336106283
 20
73.43534389887499
 42
0.3611723307709939
 10
-81.68676955705855
 20
73.94732359811027
 42
0.2364550469042483
 10
-81.94298317617736
 20
74.02608969024129
 42
-0.1650118822956713
 10
-82.02938417978515
 20
74.20556425544295
 42
-1.001508866002158
  0
LWPOLYLINE
  5
297
330
18
100
AcDbEntity
  8
ADP1DETAIL
100
AcDbPolyline
 90
        2
 70
     0
 43
0.0
 10
-84.88404526640742
 20
73.89249765672215
 42
-0.3516593319327524
 10
-80.48254236955887
 20
73.64788522641235
 42
0.3647792318638345
  0
LWPOLYLINE
  5
29B
330
18
100
AcDbEntity
  8
ADP1DETAIL
100
AcDbPolyline
 90
        5
 70
     0
 43
0.0
 10
-82.18659545385474
 20
73.02182110003252
 42
-0.1158857382047958
 10
-82.77334077977931
 20
73.5307352718806
 42
0.2347266039267582
 10
-83.43561073540762
 20
73.87899398733785
 42
-0.0629578105446273
 10
-84.13273708998543
 20
73.9834716320901
 42
-0.1482663468951564
 10
-82.2937205861368
 20
74.2561788536512
 42
-0.0027446248801128
  0
LWPOLYLINE
  5
2A2
330
18
100
AcDbEntity
  8
ADP1DETAIL
100
AcDbPolyline
 90
        4
 70
     0
 43
0.0
 10
-83.2437601069072
 20
74.45930324715374
 10
-83.18463391091146
 20
74.56760666147776
 10
-81.81487640529443
 20
74.56760666147776
 10
-81.76560451083719
 20
74.3411541089572
  0
ARC
  5
2A8
330
18
100
AcDbEntity
  8
ADP1DETAIL
100
AcDbCircle
 10
-85.80463096390515
 20
74.00489637772441
 30
0.0
 40
0.8292635696937646
100
AcDbArc
 50
272.6601140128437
 51
314.0738503727754
  0
ARC
  5
2A9
330
18
100
AcDbEntity
  8
ADP1DETAIL
100
AcDbCircle
 10
-84.55179173419686
 20
75.52733939787813
 30
0.0
 40
2.121974277250584
100
AcDbArc
 50
218.9245422453703
 51
253.6197952226847
  0
ARC
  5
2AA
330
18
100
AcDbEntity
  8
ADP1DETAIL
100
AcDbCircle
 10
-84.7446502264391
 20
75.00689241779607
 30
0.0
 40
1.669229512955784
100
AcDbArc
 50
209.1383615746932
 51
253.1750054929578
  0
LINE
  5
2AB
330
18
100
AcDbEntity
  8
ADP1DETAIL
100
AcDbLine
 10
-85.2666067121904
 20
73.57871443512161
 30
0.0
 11
-85.31025560715113
 21
73.89368103419176
 31
0.0
  0
ARC
  5
2AC
330
18
100
AcDbEntity
  8
ADP1DETAIL
100
AcDbCircle
 10
-85.9228809732212
 20
74.13700320820499
 30
0.0
 40
0.8007324130287818
100
AcDbArc
 50
271.1514330758296
 51
305.6884328946054
  0
LINE
  5
2AD
330
18
100
AcDbEntity
  8
ADP1DETAIL
100
AcDbLine
 10
-85.74674440223489
 20
73.77254005768751
 30
0.0
 11
-85.74189453360167
 21
74.16988247866919
 31
0.0
  0
LINE
  5
2AE
330
18
100
AcDbEntity
  8
ADP1DETAIL
100
AcDbLine
 10
-85.53819974195945
 20
73.65139903105069
 30
0.0
 11
-85.53334987332624
 21
74.00997639770477
 31
0.0
  0
ARC
  5
2AF
330
18
100
AcDbEntity
  8
ADP1DETAIL
100
AcDbCircle
 10
-86.1356517965423
 20
73.97279539885954
 30
0.0
 40
0.2024924601550975
100
AcDbArc
 50
235.2294489298501
 51
307.1067988790939
  0
LINE
  5
2B0
330
18
100
AcDbEntity
  8
ADP1DETAIL
100
AcDbLine
 10
-85.95043919387709
 20
73.92275486253687
 30
0.0
 11
-85.94073945661063
 21
74.28617784218221
 31
0.0
  0
LINE
  5
2B1
330
18
100
AcDbEntity
  8
ADP1DETAIL
100
AcDbLine
 10
-86.17838332868542
 20
73.61747958971432
 30
0.0
 11
-85.80009303446205
 21
73.61263392659053
 31
0.0
  0
CIRCLE
  5
2B2
330
18
100
AcDbEntity
  8
ADP1DETAIL
100
AcDbCircle
 10
-82.40180265512783
 20
71.46028376977975
 30
0.0
 40
0.1371511210186238
  0
LWPOLYLINE
  5
2B3
330
18
100
AcDbEntity
  8
ADP1DETAIL
100
AcDbPolyline
 90
        4
 70
     0
 43
0.0
 10
-84.9359921223141
 20
73.43409199072208
 42
-0.01061008373654
 10
-84.79500712296669
 20
73.56556115346468
 42
-0.2394286988596092
 10
-83.05219127519865
 20
73.49590944048832
 42
0.1068038519816905
 10
-82.27931475961241
 20
72.81654441191747
 42
0.5078556544817179
  0
LWPOLYLINE
  5
2B9
330
18
100
AcDbEntity
  8
ADP1DETAIL
100
AcDbPolyline
 90
        7
 70
     0
 43
0.0
 10
-80.48847808944683
 20
73.67164222545987
 42
-0.3995280243691557
 10
-80.30124512256817
 20
74.27223379089049
 42
-0.1279342272592637
 10
-79.54245856675027
 20
74.46914902121807
 42
-0.1757345133992743
 10
-78.67527392047938
 20
74.15408460250216
 42
0.2545583267087829
 10
-78.93148753959818
 20
73.9965524182401
 42
0.0840645811825773
 10
-79.26653618984857
 20
73.51410999100602
 42
-0.1448997688763862
 10
-79.50304105118447
 20
73.24827439241994
 42
3.504481900070683
  0
ARC
  5
2C2
330
18
100
AcDbEntity
  8
ADP1DETAIL
100
AcDbCircle
 10
-79.62273208883044
 20
73.55348728235196
 30
0.0
 40
0.4956105774646315
100
AcDbArc
 50
44.05264999977946
 51
72.47318495490903
  0
LWPOLYLINE
  5
2C3
330
18
100
AcDbEntity
  8
ADP1DETAIL
100
AcDbPolyline
 90
        6
 70
     0
 43
0.0
 10
-78.1431379244589
 20
72.26369809020671
 10
-78.18255536267173
 20
72.40153877653191
 42
-0.3161838973653992
 10
-78.83294382803666
 20
72.09632008168853
 42
-0.3155174171420043
 10
-78.862506964711
 20
72.12585740388151
 42
-0.1520887307196075
 10
-79.33551676473576
 20
72.22431504414119
 42
-0.0661547189064549
 10
-80.05488580498786
 20
73.13012525422341
 42
-1.763393954059024
  0
LWPOLYLINE
  5
2CB
330
18
100
AcDbEntity
  8
ADP1DETAIL
100
AcDbPolyline
 90
        3
 70
     0
 43
0.0
 10
-77.47756359960319
 20
73.16988007783223
 42
-0.0486076445746131
 10
-78.48601384222877
 20
72.93869548571837
 42
-0.0641941416310143
 10
-79.98483543882105
 20
73.07799896186292
 42
-9.01751279148682
  0
LWPOLYLINE
  5
2D0
330
18
100
AcDbEntity
  8
ADP1DETAIL
100
AcDbPolyline
 90
        5
 70
     0
 43
0.0
 10
-80.2291120740926
 20
73.39587423962155
 42
-0.0037410021926531
 10
-80.19397329104732
 20
73.35660596434379
 42
0.3647792318638345
 10
-79.49684701382246
 20
73.25212831959153
 42
0.2083342510536928
 10
-77.7191748444579
 20
73.39143179573607
 42
-0.0112772199972739
 10
-77.2796940589394
 20
73.61270949712599
 42
-0.1646433841340257
  0
ARC
  5
2D7
330
18
100
AcDbEntity
  8
ADP1DETAIL
100
AcDbCircle
 10
-78.73425082241763
 20
72.01897942292418
 30
0.0
 40
2.15861033439831
100
AcDbArc
 50
93.40629623348414
 51
133.9453007273993
  0
ARC
  5
2D8
330
18
100
AcDbEntity
  8
ADP1DETAIL
100
AcDbCircle
 10
-79.10609404076082
 20
72.51296066009158
 30
0.0
 40
1.678583556822121
100
AcDbArc
 50
81.65608125968043
 51
133.9784529325911
  0
LWPOLYLINE
  5
2D9
330
18
100
AcDbEntity
  8
ADP1DETAIL
100
AcDbPolyline
 90
        2
 70
     0
 43
0.0
 10
-81.6350398868442
 20
72.54294159710614
 42
0.3504307813680449
 10
-80.2291120740926
 20
73.39587423962155
 42
-1.000000062645858
  0
ARC
  5
2DD
330
18
100
AcDbEntity
  8
ADP1DETAIL
100
AcDbCircle
 10
-82.07396569179108
 20
71.84805109218515
 30
0.0
 40
2.176807062335577
100
AcDbArc
 50
335.7391867616572
 51
37.79308808874958
  0
LWPOLYLINE
  5
2DE
330
18
100
AcDbEntity
  8
ADP1DETAIL
100
AcDbPolyline
 90
        3
 70
     0
 43
0.0
 10
-82.02938417978515
 20
74.20556425544295
 42
-0.1269302748100689
 10
-80.61224915020577
 20
73.46108355890423
 42
-0.0027446248801128
 10
-80.59462896139278
 20
73.44493926132175
 42
-0.0561823541757628
  0
LWPOLYLINE
  5
2E3
330
18
100
AcDbEntity
  8
ADP1DETAIL
100
AcDbPolyline
 90
        3
 70
     0
 43
0.0
 10
-80.47282386381963
 20
73.67003879821694
 42
-0.2594012628209403
 10
-81.55336967860639
 20
72.83421789115791
 42
-0.0656759634475516
 10
-81.98649930335809
 20
72.93265772638161
 42
0.2347266039267582
  0
ARC
  5
2E8
330
18
100
AcDbEntity
  8
ADP1DETAIL
100
AcDbCircle
 10
-82.06675404355392
 20
73.13962655592871
 30
0.0
 40
0.2189562102191436
100
AcDbArc
 50
82.24032119188597
 51
125.8086128325019
  0
ARC
  5
2E9
330
18
100
AcDbEntity
  8
ADP1DETAIL
100
AcDbCircle
 10
-80.80132013901
 20
74.54385241122203
 30
0.0
 40
1.393032625190688
100
AcDbArc
 50
219.2859557748003
 51
230.7641100950389
  0
ARC
  5
2EA
330
18
100
AcDbEntity
  8
ADP1DETAIL
100
AcDbCircle
 10
-81.98954646988809
 20
73.24728786493423
 30
0.0
 40
0.2265307340072386
100
AcDbArc
 50
15.37494726460427
 51
66.50335586566065
  0
ARC
  5
2EB
330
18
100
AcDbEntity
  8
ADP1DETAIL
100
AcDbCircle
 10
-48597.38413558817
 20
-194158.4645187533
 30
0.0
 40
200199.6953581111
100
AcDbArc
 50
75.9755168631986
 51
75.97557500122308
  0
ARC
  5
2EC
330
18
100
AcDbEntity
  8
ADP1DETAIL
100
AcDbCircle
 10
-83.44261385322424
 20
73.53530401326249
 30
0.0
 40
1.464572868687872
100
AcDbArc
 50
341.1124681785087
 51
16.33924461465661
  0
ARC
  5
2ED
330
18
100
AcDbEntity
  8
ADP1DETAIL
100
AcDbCircle
 10
-83.45100739626348
 20
73.68428500193534
 30
0.0
 40
1.527011817370465
100
AcDbArc
 50
335.9183034048265
 51
12.17764651618653
  0
ARC
  5
2EE
330
18
100
AcDbEntity
  8
ADP1DETAIL
100
AcDbCircle
 10
-79.09501534155649
 20
73.90621985442118
 30
0.0
 40
0.7097072247708607
100
AcDbArc
 50
144.1906360716525
 51
167.8472104463144
  0
ARC
  5
2EF
330
18
100
AcDbEntity
  8
ADP1DETAIL
100
AcDbCircle
 10
-141388.1569584
 20
64361.59879568573
 30
0.0
 40
155244.9712295965
100
AcDbArc
 50
335.5371324529783
 51
335.5372202795471
  0
ARC
  5
2F0
330
18
100
AcDbEntity
  8
ADP1DETAIL
100
AcDbCircle
 10
-78.37490597688111
 20
77.9167489909553
 30
0.0
 40
4.27269497664305
100
AcDbArc
 50
250.5353994124513
 51
255.5109212952948
  0
ARC
  5
2F1
330
18
100
AcDbEntity
  8
ADP1DETAIL
100
AcDbCircle
 10
-78.98825123941302
 20
73.81884946003589
 30
0.0
 40
1.073211062758268
100
AcDbArc
 50
154.4289535581501
 51
173.6537905177569
  0
ARC
  5
2F2
330
18
100
AcDbEntity
  8
ADP1DETAIL
100
AcDbCircle
 10
-76.17125845169704
 20
73.47808439208282
 30
0.0
 40
4.107604961399759
100
AcDbArc
 50
169.6911258346102
 51
176.6114650385332
  0
ARC
  5
2F3
330
18
100
AcDbEntity
  8
ADP1DETAIL
100
AcDbCircle
 10
-79.60809659247877
 20
74.19269067345031
 30
0.0
 40
0.8863798882745099
100
AcDbArc
 50
225.2369477943847
 51
257.5842134090382
  0
ARC
  5
2F4
330
18
100
AcDbEntity
  8
ADP1DETAIL
100
AcDbCircle
 10
-83.84327146038955
 20
61.26095643686986
 30
0.0
 40
13.06575765721709
100
AcDbArc
 50
71.10182699399529
 51
72.91927853972817
  0
LWPOLYLINE
  5
2F5
330
18
100
AcDbEntity
  8
ADP1DETAIL
100
AcDbPolyline
 90
        2
 70
     0
 43
0.0
 10
-78.41886328340041
 20
72.0175539895575
 42
0.1718673704635406
 10
-77.31517377579362
 20
73.62241340533003
 42
-0.7671471222210294
  0
LWPOLYLINE
  5
2F9
330
18
100
AcDbEntity
  8
ADP1DETAIL
100
AcDbPolyline
 90
        4
 70
     0
 43
0.0
 10
-77.19692130644921
 20
72.69691164711916
 10
-76.65493093153727
 20
72.78552351331452
 42
0.1250174249304958
 10
-77.31517377579362
 20
72.45076759666175
 42
-0.0539724598002955
 10
-77.96556224115855
 20
72.03724553768616
 42
4.285430190984851
  0
LINE
  5
2FF
330
18
100
AcDbEntity
  8
ADP1DETAIL
100
AcDbLine
 10
-78.00080016385931
 20
71.06330843027572
 30
0.0
 11
-77.6807084410159
 21
71.15468331554334
 31
0.0
  0
LINE
  5
300
330
18
100
AcDbEntity
  8
ADP1DETAIL
100
AcDbLine
 10
-77.98555769715986
 20
70.92624602660795
 30
0.0
 11
-77.61973857421813
 21
71.03285010151258
 31
0.0
  0
LWPOLYLINE
  5
301
330
18
100
AcDbEntity
  8
ADP1DETAIL
100
AcDbPolyline
 90
        2
 70
     0
 43
0.0
 10
-78.69498267826227
 20
71.99786249162065
 10
-78.44862343803493
 20
72.00770821549318
  0
LWPOLYLINE
  5
305
330
18
100
AcDbEntity
  8
ADP1DETAIL
100
AcDbPolyline
 90
       11
 70
     0
 43
0.0
 10
-78.8427982069281
 20
72.09632008168853
 10
-79.01032249337681
 20
72.05693703562302
 10
-78.93148753959818
 20
71.98801671755632
 10
-79.00046819183832
 20
71.94863367149079
 10
-78.88221572249389
 20
71.84033025716679
 10
-78.99061381294687
 20
71.80094721110127
 10
-78.90192448027679
 20
71.7418726169071
 42
-0.2789662470201684
 10
-78.65556516269649
 20
71.73202684284278
 42
0.0477051892958917
 10
-78.30080783201616
 20
71.78125566297262
 42
-0.1413128578891664
 10
-77.8869243053401
 20
71.76156416503577
 42
0.2166879020216794
 10
-77.97561363801017
 20
71.89940485136097
 42
-3.398866353282973
  0
LINE
  5
312
330
18
100
AcDbEntity
  8
ADP1DETAIL
100
AcDbLine
 10
-77.20819197333335
 20
71.03285010151258
 30
0.0
 11
-77.49779884062265
 21
71.18514164430647
 31
0.0
  0
LINE
  5
313
330
18
100
AcDbEntity
  8
ADP1DETAIL
100
AcDbLine
 10
-77.20819197333335
 20
70.81964200221424
 30
0.0
 11
-77.46731390722378
 21
70.98716268413423
 31
0.0
  0
LWPOLYLINE
  5
314
330
18
100
AcDbEntity
  8
ADP1DETAIL
100
AcDbPolyline
 90
        3
 70
     0
 43
0.0
 10
-76.48364397048613
 20
71.7218333551978
 42
0.011935501591948
 10
-76.67348535126766
 20
71.47600891091305
 42
-0.0023566950577631
 10
-77.11229936947273
 20
70.88471494762095
 42
-0.144655027657463
  0
ARC
  5
319
330
18
100
AcDbEntity
  8
ADP1DETAIL
100
AcDbCircle
 10
-80.49728050127727
 20
74.97383435441006
 30
0.0
 40
3.630111934781582
100
AcDbArc
 50
341.7833271211903
 51
350.1206262642256
  0
ARC
  5
31A
330
18
100
AcDbEntity
  8
ADP1DETAIL
100
AcDbCircle
 10
-77.93737236047722
 20
74.12852976834248
 30
0.0
 40
1.040436400278824
100
AcDbArc
 50
336.9325107096141
 51
12.34653420304138
  0
LWPOLYLINE
  5
31B
330
18
100
AcDbEntity
  8
ADP1DETAIL
100
AcDbPolyline
 90
        8
 70
     0
 43
0.0
 10
-70.26570822767749
 20
73.56806477064072
 42
-0.4401614861124207
 10
-70.38396069702193
 20
73.95204955761513
 42
-0.1870491101915814
 10
-69.76313536833135
 20
74.44433770872175
 42
-0.2381372503752029
 10
-68.94522261651771
 20
74.30649702239655
 42
-0.8425181703685813
 10
-68.994494433622
 20
74.20803938213687
 42
0.2017948405970451
 10
-69.33939738541088
 20
73.68621390883726
 42
-0.2453287095119991
 10
-69.82226156432708
 20
73.25300035192481
 42
-0.3891401492400015
 10
-70.22629078946465
 20
73.46960713038104
 42
-1.40915361367562
  0
LWPOLYLINE
  5
325
330
18
100
AcDbEntity
  8
ADP1DETAIL
100
AcDbPolyline
 90
        3
 70
     0
 43
0.0
 10
-70.23189369559318
 20
73.46108355890423
 42
-0.4716769155840012
 10
-70.6333320854487
 20
73.04317308027883
 42
-0.1807146287699667
 10
-72.00273895350815
 20
73.46108355890423
 42
-4.15510680249983
  0
LWPOLYLINE
  5
32A
330
18
100
AcDbEntity
  8
ADP1DETAIL
100
AcDbPolyline
 90
        2
 70
     0
 43
0.0
 10
-71.41276749334851
 20
73.37350971714123
 42
0.3203991756444652
 10
-70.26675001718972
 20
73.56556115346468
 42
-2.271441226496127
  0
LWPOLYLINE
  5
32E
330
18
100
AcDbEntity
  8
ADP1DETAIL
100
AcDbPolyline
 90
        3
 70
     0
 43
0.0
 10
-70.26833737851589
 20
74.11356933909629
 42
0.0856740846751603
 10
-70.91218258086804
 20
74.22725270279508
 42
0.0134891794350891
 10
-71.32051627707183
 20
74.17119958666734
 42
0.0540647390727941
  0
LWPOLYLINE
  5
333
330
18
100
AcDbEntity
  8
ADP1DETAIL
100
AcDbPolyline
 90
        4
 70
     0
 43
0.0
 10
-71.16239910323208
 20
74.45358830807108
 10
-71.16239910323208
 20
74.49356652885159
 10
-70.18687327389887
 20
74.49356652885159
 10
-70.10803832012022
 20
74.3261885203334
  0
LWPOLYLINE
  5
339
330
18
100
AcDbEntity
  8
ADP1DETAIL
100
AcDbPolyline
 90
        2
 70
     0
 43
0.0
 10
-71.16239910323208
 20
74.45358830807108
 42
0.0295161099130516
 10
-71.64344440930801
 20
74.37738041261178
 42
0.043190360857784
  0
LWPOLYLINE
  5
33D
330
18
100
AcDbEntity
  8
ADP1DETAIL
100
AcDbPolyline
 90
        5
 70
     0
 43
0.0
 10
-71.61343494508469
 20
74.35572584252639
 10
-71.79081361042484
 20
74.48372075478727
 42
0.8860473177516738
 10
-71.92877476019922
 20
74.35572584252639
 42
0.2541593943095544
 10
-71.70212427775476
 20
74.24742242820238
 42
0.4676460741015477
 10
-71.61343494508469
 20
74.36557156639892
 42
-1.262409507956341
  0
LWPOLYLINE
  5
344
330
18
100
AcDbEntity
  8
ADP1DETAIL
100
AcDbPolyline
 90
        4
 70
     0
 43
0.0
 10
-73.6586446699676
 20
74.45236323380822
 42
-0.0711133979849192
 10
-72.66500890913647
 20
74.15760098981872
 42
-0.0408465364329675
 10
-71.54960685010613
 20
73.5307352718806
 42
0.0178420053439074
 10
-71.62801686545375
 20
73.47688363341602
 42
-1.934853255870981
  0
LWPOLYLINE
  5
34A
330
18
100
AcDbEntity
  8
ADP1DETAIL
100
AcDbPolyline
 90
        4
 70
     0
 43
0.0
 10
-75.22013460258964
 20
74.35572584252637
 10
-75.18071708702383
 20
74.49356652885157
 10
-73.69270711206238
 20
74.5034122527241
 10
-73.65328967384954
 20
74.45418343259426
  0
ARC
  5
350
330
18
100
AcDbEntity
  8
ADP1DETAIL
100
AcDbCircle
 10
-72.78622103143902
 20
73.77672569305106
 30
0.0
 40
1.367043083527896
100
AcDbArc
 50
223.2829652968041
 51
258.7818294802608
  0
ARC
  5
351
330
18
100
AcDbEntity
  8
ADP1DETAIL
100
AcDbCircle
 10
-72.54684642062404
 20
75.10480860131834
 30
0.0
 40
2.57989053411999
100
AcDbArc
 50
241.4106883523231
 51
260.0404291252655
  0
LINE
  5
352
330
18
100
AcDbEntity
  8
ADP1DETAIL
100
AcDbLine
 10
-73.40693035626924
 20
72.93793593320889
 30
0.0
 11
-73.21969731203762
 21
72.62287151449299
 31
0.0
  0
LINE
  5
353
330
18
100
AcDbEntity
  8
ADP1DETAIL
100
AcDbLine
 10
-73.32809540249062
 20
72.21919522958171
 30
0.0
 11
-73.10144492004616
 21
72.43580200803794
 31
0.0
  0
LWPOLYLINE
  5
354
330
18
100
AcDbEntity
  8
ADP1DETAIL
100
AcDbPolyline
 90
        3
 70
     0
 43
0.0
 10
-73.07237706488442
 20
73.99405890984621
 42
0.1334438765775377
 10
-75.03523846828923
 20
74.12277510823463
 42
0.0003536549205417
 10
-75.04026230086527
 20
74.1222386489208
 42
-0.0879944691462547
  0
LWPOLYLINE
  5
359
330
18
100
AcDbEntity
  8
ADP1DETAIL
100
AcDbPolyline
 90
        6
 70
     0
 43
0.0
 10
-72.28158944892752
 20
73.77451639277738
 42
-0.4144695023766749
 10
-71.96788263191162
 20
73.18247660661516
 42
-0.5946692084353245
 10
-72.83929051711917
 20
72.41630741253252
 42
-0.2079724743902892
 10
-73.1878536557316
 20
72.06804869707529
 42
-0.3629621479986772
 10
-73.60612951489004
 20
72.20735222341161
 42
0.1137067068975859
 10
-74.0349849048465
 20
72.77230258762834
 42
-0.6661935903903121
  0
LWPOLYLINE
  5
361
330
18
100
AcDbEntity
  8
ADP1DETAIL
100
AcDbPolyline
 90
        8
 70
     0
 43
0.0
 10
-74.15057513252254
 20
73.03610416380426
 42
-0.0592614159781867
 10
-74.12897426148515
 20
73.04317308027883
 42
0.0989347385373278
 10
-73.39699158531082
 20
73.112824843447
 42
-0.228120003181982
 10
-72.73472155232955
 20
73.00834724888654
 42
0.0623117558661863
 10
-72.7695778739261
 20
72.59043677026113
 42
0.356765766511853
 10
-72.14216416254136
 20
72.90386960413428
 42
0.274437298628092
 10
-72.56044002169982
 20
73.77451639277738
 42
0.0021356044205498
 10
-72.58893135350786
 20
73.78917500003345
 42
0.1270830861861744
  0
LWPOLYLINE
  5
36B
330
18
100
AcDbEntity
  8
ADP1DETAIL
100
AcDbPolyline
 90
        2
 70
     0
 43
0.0
 10
-73.0723770648844
 20
73.99405890984621
 42
0.0288414060791095
 10
-74.37296843530797
 20
73.42625767732016
 42
0.0953259623592994
  0
LWPOLYLINE
  5
36F
330
18
100
AcDbEntity
  8
ADP1DETAIL
100
AcDbPolyline
 90
        2
 70
     0
 43
0.0
 10
-72.58893135350786
 20
73.78917500003345
 42
0.0547080852241364
 10
-74.07730530691819
 20
73.03858662014471
 42
0.005075595286992
  0
LWPOLYLINE
  5
373
330
18
100
AcDbEntity
  8
ADP1DETAIL
100
AcDbPolyline
 90
        3
 70
     0
 43
0.0
 10
-74.29420055933412
 20
72.89225696714616
 42
0.0501882010710682
 10
-75.45351425009474
 20
71.89391938953846
 42
0.005075595286992
 10
-75.69136802545938
 20
71.63830585230437
 42
-0.0460248719935284
  0
LWPOLYLINE
  5
378
330
18
100
AcDbEntity
  8
ADP1DETAIL
100
AcDbPolyline
 90
        8
 70
     0
 43
0.0
 10
-75.58080448325188
 20
71.60403193058191
 10
-75.68920257370486
 20
71.63356925277489
 42
1.511405642902364
 10
-75.86658123904502
 20
71.44649974631986
 42
0.3266109370166294
 10
-74.35886258365363
 20
71.41696242412686
 42
0.3236985480052653
 10
-74.14206640274767
 20
73.03166761396372
 42
0.768105517869823
 10
-74.28988193141349
 20
72.8839811535742
 42
-0.1422750049025873
 10
-74.2209013565263
 20
71.97817094349199
 42
-0.3798428147015581
 10
-75.57095010436043
 20
71.60403193058191
 42
-4.312893674905431
  0
LINE
  5
382
330
18
100
AcDbEntity
  8
ADP1DETAIL
100
AcDbLine
 10
-73.53503720450511
 20
72.33734436777826
 30
0.0
 11
-73.30838672206066
 21
72.50472232610464
 31
0.0
  0
LWPOLYLINE
  5
383
330
18
100
AcDbEntity
  8
ADP1DETAIL
100
AcDbPolyline
 90
        4
 70
     0
 43
0.0
 10
-75.04026230086527
 20
74.1222386489208
 42
-0.192161634625185
 10
-74.30959068919638
 20
73.44518967293932
 42
-1.271847245370675
 10
-74.47711497564509
 20
73.36642358080829
 42
0.2481353121007144
 10
-75.65195895728532
 20
74.00175424205965
 42
23.27671126568654
  0
LWPOLYLINE
  5
389
330
18
100
AcDbEntity
  8
ADP1DETAIL
100
AcDbPolyline
 90
        2
 70
     0
 43
0.0
 10
-74.48000133346825
 20
73.37073043685325
 42
0.0449956024183548
 10
-75.45901771146877
 20
72.73243914451239
 42
-0.0148578288953074
  0
LWPOLYLINE
  5
38D
330
18
100
AcDbEntity
  8
ADP1DETAIL
100
AcDbPolyline
 90
        2
 70
     0
 43
0.0
 10
-75.65195895728532
 20
74.00175424205965
 42
0.019182904856507
 10
-75.91198264909383
 20
73.91551871717067
 42
-0.0879944691462547
  0
LWPOLYLINE
  5
391
330
18
100
AcDbEntity
  8
ADP1DETAIL
100
AcDbPolyline
 90
        2
 70
     0
 43
0.0
 10
-76.07759631017362
 20
74.09901565342746
 42
-0.0207030863377415
 10
-75.21061889996862
 20
74.35165709317558
 42
-0.1646433841340257
  0
LINE
  5
395
330
18
100
AcDbEntity
  8
ADP1DETAIL
100
AcDbLine
 10
-73.73212462762818
 20
72.57364269436314
 30
0.0
 11
-73.6040177793923
 21
72.65240878649416
 31
0.0
  0
LINE
  5
396
330
18
100
AcDbEntity
  8
ADP1DETAIL
100
AcDbLine
 10
-73.76168776430252
 20
72.95762743114574
 30
0.0
 11
-73.70256149095382
 21
72.80009524688368
 31
0.0
  0
LINE
  5
397
330
18
100
AcDbEntity
  8
ADP1DETAIL
100
AcDbLine
 10
-73.57445472007092
 20
72.9773189792744
 30
0.0
 11
-73.37736729694785
 21
72.65240878649416
 31
0.0
  0
LWPOLYLINE
  5
398
330
18
100
AcDbEntity
  8
ADP1DETAIL
100
AcDbPolyline
 90
        2
 70
     0
 43
0.0
 10
-71.63523990910888
 20
74.11251392673418
 42
0.0310971842183301
 10
-72.19718534243037
 20
73.92364941984029
 42
0.0064243780969921
  0
ARC
  5
39C
330
18
100
AcDbEntity
  8
ADP1DETAIL
100
AcDbCircle
 10
-72.95952821463167
 20
74.31284015212115
 30
0.0
 40
0.3749703459083765
100
AcDbArc
 50
249.3784278427347
 51
328.9485339930942
  0
LWPOLYLINE
  5
39D
330
18
100
AcDbEntity
  8
ADP1DETAIL
100
AcDbPolyline
 90
        2
 70
     0
 43
0.0
 10
-71.90696602955712
 20
74.32942229534735
 42
0.0255933423255429
 10
-72.63530894730012
 20
74.14389166371387
 42
0.0323724262892821
  0
ARC
  5
3A1
330
18
100
AcDbEntity
  8
ADP1DETAIL
100
AcDbCircle
 10
-72.39191989513614
 20
73.77466565789799
 30
0.0
 40
0.2170372365196524
100
AcDbArc
 50
39.48226124041484
 51
177.3576026811292
  0
LINE
  5
3A2
330
18
100
AcDbEntity
  8
ADP1DETAIL
100
AcDbLine
 10
-72.99304682959316
 20
72.57364269436314
 30
0.0
 11
-73.140862358259
 21
72.80009524688368
 31
0.0
  0
LWPOLYLINE
  5
3A3
330
18
100
AcDbEntity
  8
ADP1DETAIL
100
AcDbPolyline
 90
        7
 70
     0
 43
0.0
 10
-71.4678846168081
 20
73.36130376624883
 42
0.3900448767533872
 10
-71.13283604391068
 20
73.77482577503262
 42
0.2033116965115237
 10
-71.33977776857223
 20
74.18834783400821
 42
0.4258764922750201
 10
-71.63540890325683
 20
74.15881056200703
 42
0.5385381878820285
 10
-71.61570014547393
 20
74.09973596781286
 42
-0.2685059871845773
 10
-71.37919528413803
 20
73.76498005116009
 42
-0.7205311023744077
 10
-71.55982718579756
 20
73.48929867850969
 42
-11.53235628744477
  0
LINE
  5
3AC
330
18
100
AcDbEntity
  8
ADP1DETAIL
100
AcDbLine
 10
-69.58575670299118
 20
74.41480038652876
 30
0.0
 11
-69.64488289898692
 21
74.17850211013568
 31
0.0
  0
LWPOLYLINE
  5
3AD
330
18
100
AcDbEntity
  8
ADP1DETAIL
100
AcDbPolyline
 90
        9
 70
     0
 43
0.0
 10
-68.54783248271857
 20
73.5976020426419
 42
-0.345440842085589
 10
-68.72521114805874
 20
73.97174105555198
 42
-0.2481935279590836
 10
-68.54783248271857
 20
74.17850211013568
 42
-0.1026255778770776
 10
-67.9072983962451
 20
74.34588006846206
 42
0.4042744779855886
 10
-67.76933716911777
 20
74.49356652885159
 42
-0.8826864595556596
 10
-67.65108469977334
 20
74.41480038652876
 42
-0.0925034742789472
 10
-67.75948279022633
 20
73.57791054470505
 42
-0.1956375465767841
 10
-68.31132754402972
 20
73.26284612598914
 42
-0.5287967382325761
 10
-68.47885183047843
 20
73.44991563244419
 42
-0.7827702852357029
  0
LWPOLYLINE
  5
3B8
330
18
100
AcDbEntity
  8
ADP1DETAIL
100
AcDbPolyline
 90
        3
 70
     0
 43
0.0
 10
-68.50191113123148
 20
73.42625767732015
 42
-0.5007694945469435
 10
-68.90735362963065
 20
73.49590944048832
 42
0.0305283552127934
 10
-69.32396079413959
 20
73.75270279439582
 42
0.0187224463198888
  0
LWPOLYLINE
  5
3BD
330
18
100
AcDbEntity
  8
ADP1DETAIL
100
AcDbPolyline
 90
        3
 70
     0
 43
0.0
 10
-68.53676745282803
 20
73.60038703504876
 42
-0.2977875633358853
 10
-68.80278466484104
 20
73.70486462960922
 42
0.035088949248059
 10
-69.21650870244196
 20
73.98656367123287
 42
0.1120530486450221
  0
LINE
  5
3C2
330
18
100
AcDbEntity
  8
ADP1DETAIL
100
AcDbLine
 10
-70.07847518344589
 20
73.57791054470505
 30
0.0
 11
-69.67444603566126
 21
73.62713936483489
 31
0.0
  0
LWPOLYLINE
  5
3C3
330
18
100
AcDbEntity
  8
ADP1DETAIL
100
AcDbPolyline
 90
        2
 70
     0
 43
0.0
 10
-70.01522412372731
 20
74.32954437378118
 42
0.0078716135446263
 10
-70.12363102742753
 20
74.35929409306997
 42
0.0788876985664169
  0
LINE
  5
3C7
330
18
100
AcDbEntity
  8
ADP1DETAIL
100
AcDbLine
 10
-70.22629078946465
 20
73.68621390883726
 30
0.0
 11
-70.29527136435184
 21
73.97174105555198
 31
0.0
  0
LINE
  5
3C8
330
18
100
AcDbEntity
  8
ADP1DETAIL
100
AcDbLine
 10
-69.82226156432708
 20
74.38526311452758
 30
0.0
 11
-69.84197032210999
 21
74.08989019374853
 31
0.0
  0
LINE
  5
3C9
330
18
100
AcDbEntity
  8
ADP1DETAIL
100
AcDbLine
 10
-69.93065965478007
 20
73.76498005116009
 30
0.0
 11
-69.61531976231258
 21
73.74528850303143
 31
0.0
  0
LINE
  5
3CA
330
18
100
AcDbEntity
  8
ADP1DETAIL
100
AcDbLine
 10
-69.82226156432708
 20
73.93235800948648
 30
0.0
 11
-69.44779547586385
 21
73.92251223542214
 31
0.0
  0
LINE
  5
3CB
330
18
100
AcDbEntity
  8
ADP1DETAIL
100
AcDbLine
 10
-70.07847518344589
 20
74.17850211013568
 30
0.0
 11
-70.06862080455444
 21
73.95204955761513
 31
0.0
  0
ARC
  5
3CC
330
18
100
AcDbEntity
  8
ADP1DETAIL
100
AcDbCircle
 10
-69.06561620488537
 20
72.856447322779
 30
0.0
 40
1.432520298829627
100
AcDbArc
 50
97.42377826474349
 51
144.1186590826859
  0
ARC
  5
3CD
330
18
100
AcDbEntity
  8
ADP1DETAIL
100
AcDbCircle
 10
-68.60461280286253
 20
72.66423242833474
 30
0.0
 40
1.737333682786561
100
AcDbArc
 50
111.8321627823046
 51
148.651576297397
  0
LINE
  5
3CE
330
18
100
AcDbEntity
  8
ADP1DETAIL
100
AcDbLine
 10
-69.59561100452969
 20
74.08989019374853
 30
0.0
 11
-69.29997994719804
 21
74.10958174187718
 31
0.0
  0
ARC
  5
3CF
330
18
100
AcDbEntity
  8
ADP1DETAIL
100
AcDbCircle
 10
-68.02556686112986
 20
73.77016418475865
 30
0.0
 40
0.244689678498018
100
AcDbArc
 50
207.6327132753203
 51
288.7989950840641
  0
LINE
  5
3D0
330
18
100
AcDbEntity
  8
ADP1DETAIL
100
AcDbLine
 10
-68.33103630181262
 20
73.57791054470505
 30
0.0
 11
-68.17336639425533
 21
73.4203783102512
 31
0.0
  0
LINE
  5
3D1
330
18
100
AcDbEntity
  8
ADP1DETAIL
100
AcDbLine
 10
-68.37045381737841
 20
73.75513427709576
 30
0.0
 11
-68.37045381737841
 21
74.07019869581167
 31
0.0
  0
LINE
  5
3D2
330
18
100
AcDbEntity
  8
ADP1DETAIL
100
AcDbLine
 10
-68.00584210780662
 20
74.02096987568183
 30
0.0
 11
-68.04525954601946
 21
74.25726820226671
 31
0.0
  0
ARC
  5
3D3
330
18
100
AcDbEntity
  8
ADP1DETAIL
100
AcDbCircle
 10
-70.07693364166977
 20
73.92743512245431
 30
0.0
 40
1.86524802338714
100
AcDbArc
 50
358.033770664102
 51
6.212130255956189
  0
LINE
  5
3D4
330
18
100
AcDbEntity
  8
ADP1DETAIL
100
AcDbLine
 10
-68.08467706158527
 20
73.77482577503262
 30
0.0
 11
-67.81860906357501
 21
73.77482577503262
 31
0.0
  0
ARC
  5
3D5
330
18
100
AcDbEntity
  8
ADP1DETAIL
100
AcDbCircle
 10
-69.31897320456117
 20
75.3515054658032
 30
0.0
 40
1.874590425255882
100
AcDbArc
 50
297.981721199775
 51
325.7564525749825
  0
ARC
  5
3D6
330
18
100
AcDbEntity
  8
ADP1DETAIL
100
AcDbCircle
 10
-68.89744285320954
 20
74.6918569689949
 30
0.0
 40
1.195328405135859
100
AcDbArc
 50
292.5298918541954
 51
340.6932716260255
  0
ARC
  5
3D7
330
18
100
AcDbEntity
  8
ADP1DETAIL
100
AcDbCircle
 10
-67.88758959978572
 20
74.16896631810487
 30
0.0
 40
0.2032867923922619
100
AcDbArc
 50
255.9731789524971
 51
309.0632364197819
  0
TEXT
  5
3E5
330
18
100
AcDbEntity
  8
ADPDIM
100
AcDbText
 10
-96.66597419007041
 20
59.17035028855434
 30
0.0
 40
0.375
  1
J U L I U S  B L U M  &  C O . ,  I N C .      ( 8 0 0 )  5 2 6 - 6 2 9 3        W W W . J U L I U S B L U M . C O M        P A R T  N o .  5 8 2
 41
1.25
  7
ARIAL_WIDE
 72
     1
 11
-77.36185157751925
 21
59.54535028855435
 31
0.0
100
AcDbText
 73
     3
  0
ENDSEC
  0
SECTION
  2
OBJECTS
  0
DICTIONARY
  5
C
330
0
100
AcDbDictionary
  3
ACAD_GROUP
350
D
  3
ACAD_LAYOUT
350
3DE
  3
ACAD_MLINESTYLE
350
E
  3
ACAD_PLOTSETTINGS
350
3DF
  3
ACAD_PLOTSTYLENAME
350
3DC
  3
ACDBHEADERROUNDTRIPXREC
350
529
  3
ACDBVARIABLEDICTIONARY
350
43F
  0
DICTIONARY
  5
439
330
18
100
AcDbDictionary
280
     1
  3
ACAD_LAYOUTSELFREF
360
54A
  0
DICTIONARY
  5
437
330
15
100
AcDbDictionary
280
     1
  3
ACAD_LAYOUTSELFREF
360
549
  0
DICTIONARY
  5
D
102
{ACAD_REACTORS
330
C
102
}
330
C
100
AcDbDictionary
  0
DICTIONARY
  5
3DE
102
{ACAD_REACTORS
330
C
102
}
330
C
100
AcDbDictionary
  0
DICTIONARY
  5
E
102
{ACAD_REACTORS
330
C
102
}
330
C
100
AcDbDictionary
  3
STANDARD
350
1B
  0
DICTIONARY
  5
3DF
102
{ACAD_REACTORS
330
C
102
}
330
C
100
AcDbDictionary
  0
ACDBDICTIONARYWDFLT
  5
3DC
102
{ACAD_REACTORS
330
C
102
}
330
C
100
AcDbDictionary
281
     1
  3
Normal
350
3DD
100
AcDbDictionaryWithDefault
340
3DD
  0
DICTIONARY
  5
529
102
{ACAD_REACTORS
330
C
102
}
330
C
100
AcDbDictionary
  3
CEPSNTYPE
350
533
  3
FINGERPRINTGUID
350
534
  3
HYPERLINKBASE
350
52C
  3
INSUNITS
350
532
  3
LAYOUTDICT
350
52E
  3
LWETCUNION
350
531
  3
PLOTSETDICT
350
52F
  3
PLOTSTYLNAMDICT
350
530
  3
PSVPSCALE
350
536
  3
PUCSBASE
350
539
  3
PUCSORGBACK
350
53F
  3
PUCSORGBOTTOM
350
53B
  3
PUCSORGFRONT
350
53E
  3
PUCSORGLEFT
350
53C
  3
PUCSORGRIGHT
350
53D
  3
PUCSORGTOP
350
53A
  3
PUCSORTHOREF
350
537
  3
PUCSORTHOVIEW
350
538
  3
STYLESHEET
350
52D
  3
TSTACKALIGN
350
52A
  3
TSTACKSIZE
350
52B
  3
UCSBASE
350
542
  3
UCSORGBACK
350
548
  3
UCSORGBOTTOM
350
544
  3
UCSORGFRONT
350
547
  3
UCSORGLEFT
350
545
  3
UCSORGRIGHT
350
546
  3
UCSORGTOP
350
543
  3
UCSORTHOREF
350
540
  3
UCSORTHOVIEW
350
541
  3
VERSIONGUID
350
535
  0
DICTIONARY
  5
43F
102
{ACAD_REACTORS
330
C
102
}
330
C
100
AcDbDictionary
  3
DIMASSOC
350
440
  0
XRECORD
  5
54A
102
{ACAD_REACTORS
330
439
102
}
330
439
100
AcDbXrecord
340
18
  0
XRECORD
  5
549
102
{ACAD_REACTORS
330
437
102
}
330
437
100
AcDbXrecord
340
15
  0
MLINESTYLE
  5
1B
102
{ACAD_REACTORS
330
E
102
}
330
E
100
AcDbMlineStyle
  2
STANDARD
 70
     0
  3

 62
     0
 51
90.0
 52
90.0
 71
     2
 49
0.5
 62
   256
  6
BYLAYER
 49
-0.5
 62
   256
  6
BYLAYER
  0
ACDBPLACEHOLDER
  5
3DD
102
{ACAD_REACTORS
330
3DC
102
}
330
3DC
100
AcDbPlaceHolder
280
     0
  0
XRECORD
  5
533
102
{ACAD_REACTORS
330
529
102
}
330
529
100
AcDbXrecord
 90
        0
  0
XRECORD
  5
534
102
{ACAD_REACTORS
330
529
102
}
330
529
100
AcDbXrecord
  1
{947013F0-F5F6-4CE6-8FD1-AA50A6B1802D}
  0
XRECORD
  5
52C
102
{ACAD_REACTORS
330
529
102
}
330
529
100
AcDbXrecord
  1

  0
XRECORD
  5
532
102
{ACAD_REACTORS
330
529
102
}
330
529
100
AcDbXrecord
 90
        0
  0
XRECORD
  5
52E
102
{ACAD_REACTORS
330
529
102
}
330
529
100
AcDbXrecord
340
3DE
  0
XRECORD
  5
531
102
{ACAD_REACTORS
330
529
102
}
330
529
100
AcDbXrecord
 90
    14877
  0
XRECORD
  5
52F
102
{ACAD_REACTORS
330
529
102
}
330
529
100
AcDbXrecord
340
3DF
  0
XRECORD
  5
530
102
{ACAD_REACTORS
330
529
102
}
330
529
100
AcDbXrecord
340
3DC
  0
XRECORD
  5
536
102
{ACAD_REACTORS
330
529
102
}
330
529
100
AcDbXrecord
 40
0.0
  0
XRECORD
  5
539
102
{ACAD_REACTORS
330
529
102
}
330
529
100
AcDbXrecord
340
0
  0
XRECORD
  5
53F
102
{ACAD_REACTORS
330
529
102
}
330
529
100
AcDbXrecord
 10
0.0
 20
0.0
 30
0.0
  0
XRECORD
  5
53B
102
{ACAD_REACTORS
330
529
102
}
330
529
100
AcDbXrecord
 10
0.0
 20
0.0
 30
0.0
  0
XRECORD
  5
53E
102
{ACAD_REACTORS
330
529
102
}
330
529
100
AcDbXrecord
 10
0.0
 20
0.0
 30
0.0
  0
XRECORD
  5
53C
102
{ACAD_REACTORS
330
529
102
}
330
529
100
AcDbXrecord
 10
0.0
 20
0.0
 30
0.0
  0
XRECORD
  5
53D
102
{ACAD_REACTORS
330
529
102
}
330
529
100
AcDbXrecord
 10
0.0
 20
0.0
 30
0.0
  0
XRECORD
  5
53A
102
{ACAD_REACTORS
330
529
102
}
330
529
100
AcDbXrecord
 10
0.0
 20
0.0
 30
0.0
  0
XRECORD
  5
537
102
{ACAD_REACTORS
330
529
102
}
330
529
100
AcDbXrecord
340
0
  0
XRECORD
  5
538
102
{ACAD_REACTORS
330
529
102
}
330
529
100
AcDbXrecord
 70
     0
  0
XRECORD
  5
52D
102
{ACAD_REACTORS
330
529
102
}
330
529
100
AcDbXrecord
  1

  0
XRECORD
  5
52A
102
{ACAD_REACTORS
330
529
102
}
330
529
100
AcDbXrecord
 90
        1
  0
XRECORD
  5
52B
102
{ACAD_REACTORS
330
529
102
}
330
529
100
AcDbXrecord
 90
       70
  0
XRECORD
  5
542
102
{ACAD_REACTORS
330
529
102
}
330
529
100
AcDbXrecord
340
0
  0
XRECORD
  5
548
102
{ACAD_REACTORS
330
529
102
}
330
529
100
AcDbXrecord
 10
0.0
 20
0.0
 30
0.0
  0
XRECORD
  5
544
102
{ACAD_REACTORS
330
529
102
}
330
529
100
AcDbXrecord
 10
0.0
 20
0.0
 30
0.0
  0
XRECORD
  5
547
102
{ACAD_REACTORS
330
529
102
}
330
529
100
AcDbXrecord
 10
0.0
 20
0.0
 30
0.0
  0
XRECORD
  5
545
102
{ACAD_REACTORS
330
529
102
}
330
529
100
AcDbXrecord
 10
0.0
 20
0.0
 30
0.0
  0
XRECORD
  5
546
102
{ACAD_REACTORS
330
529
102
}
330
529
100
AcDbXrecord
 10
0.0
 20
0.0
 30
0.0
  0
XRECORD
  5
543
102
{ACAD_REACTORS
330
529
102
}
330
529
100
AcDbXrecord
 10
0.0
 20
0.0
 30
0.0
  0
XRECORD
  5
540
102
{ACAD_REACTORS
330
529
102
}
330
529
100
AcDbXrecord
340
0
  0
XRECORD
  5
541
102
{ACAD_REACTORS
330
529
102
}
330
529
100
AcDbXrecord
 70
     0
  0
XRECORD
  5
535
102
{ACAD_REACTORS
330
529
102
}
330
529
100
AcDbXrecord
  1
{E6A82FC2-B560-438E-90B1-7AE705C5CA58}
  0
DICTIONARYVAR
  5
440
102
{ACAD_REACTORS
330
43F
102
}
330
43F
100
DictionaryVariables
280
     0
  1
1
  0
ENDSEC
  0
EOF
