  0
SECTION
  2
HEADER
  9
$ACADVER
  1
AC1014
  9
$ACADMAINTVER
 70
     9
  9
$DWGCODEPAGE
  3
ANSI_1252
  9
$INSBASE
 10
-96.63278587302981
 20
60.56522939071275
 30
0.0
  9
$EXTMIN
 10
-109.4798421371341
 20
58.9565795398887
 30
0.0
  9
$EXTMAX
 10
-83.74101198706599
 20
70.77951873683736
 30
0.0
  9
$LIMMIN
 10
0.0
 20
0.0
  9
$LIMMAX
 10
36.0
 20
36.0
  9
$ORTHOMODE
 70
     1
  9
$REGENMODE
 70
     1
  9
$FILLMODE
 70
     1
  9
$QTEXTMODE
 70
     0
  9
$MIRRTEXT
 70
     1
  9
$DRAGMODE
 70
     0
  9
$LTSCALE
 40
1.0
  9
$OSMODE
 70
    37
  9
$ATTMODE
 70
     1
  9
$TEXTSIZE
 40
0.2
  9
$TRACEWID
 40
0.05
  9
$TEXTSTYLE
  7
STANDARD
  9
$CLAYER
  8
ADPDIM
  9
$CELTYPE
  6
BYLAYER
  9
$CECOLOR
 62
   256
  9
$CELTSCALE
 40
1.0
  9
$DELOBJ
 70
     1
  9
$DISPSILH
 70
     0
  9
$DIMSCALE
 40
1.0
  9
$DIMASZ
 40
0.125
  9
$DIMEXO
 40
0.0625
  9
$DIMDLI
 40
0.38
  9
$DIMRND
 40
0.0
  9
$DIMDLE
 40
0.0
  9
$DIMEXE
 40
0.18
  9
$DIMTP
 40
0.0
  9
$DIMTM
 40
0.0
  9
$DIMTXT
 40
0.125
  9
$DIMCEN
 40
0.1875
  9
$DIMTSZ
 40
0.125
  9
$DIMTOL
 70
     0
  9
$DIMLIM
 70
     0
  9
$DIMTIH
 70
     0
  9
$DIMTOH
 70
     0
  9
$DIMSE1
 70
     0
  9
$DIMSE2
 70
     0
  9
$DIMTAD
 70
     0
  9
$DIMZIN
 70
     3
  9
$DIMBLK
  1

  9
$DIMASO
 70
     1
  9
$DIMSHO
 70
     1
  9
$DIMPOST
  1

  9
$DIMAPOST
  1

  9
$DIMALT
 70
     0
  9
$DIMALTD
 70
     1
  9
$DIMALTF
 40
25.4
  9
$DIMLFAC
 40
1.0
  9
$DIMTOFL
 70
     0
  9
$DIMTVP
 40
0.0
  9
$DIMTIX
 70
     0
  9
$DIMSOXD
 70
     0
  9
$DIMSAH
 70
     0
  9
$DIMBLK1
  1

  9
$DIMBLK2
  1

  9
$DIMSTYLE
  2
STANDARD
  9
$DIMCLRD
 70
     0
  9
$DIMCLRE
 70
     0
  9
$DIMCLRT
 70
     0
  9
$DIMTFAC
 40
1.0
  9
$DIMGAP
 40
0.125
  9
$DIMJUST
 70
     0
  9
$DIMSD1
 70
     0
  9
$DIMSD2
 70
     0
  9
$DIMTOLJ
 70
     1
  9
$DIMTZIN
 70
     0
  9
$DIMALTZ
 70
     0
  9
$DIMALTTZ
 70
     0
  9
$DIMFIT
 70
     3
  9
$DIMUPT
 70
     0
  9
$DIMUNIT
 70
     2
  9
$DIMDEC
 70
     4
  9
$DIMTDEC
 70
     4
  9
$DIMALTU
 70
     2
  9
$DIMALTTD
 70
     2
  9
$DIMTXSTY
  7
STANDARD
  9
$DIMAUNIT
 70
     0
  9
$LUNITS
 70
     5
  9
$LUPREC
 70
     5
  9
$SKETCHINC
 40
0.1
  9
$FILLETRAD
 40
0.062
  9
$AUNITS
 70
     0
  9
$AUPREC
 70
     0
  9
$MENU
  1
acad
  9
$ELEVATION
 40
0.0
  9
$PELEVATION
 40
0.0
  9
$THICKNESS
 40
0.0
  9
$LIMCHECK
 70
     0
  9
$BLIPMODE
 70
     0
  9
$CHAMFERA
 40
0.0
  9
$CHAMFERB
 40
0.0
  9
$CHAMFERC
 40
0.0
  9
$CHAMFERD
 40
0.0
  9
$SKPOLY
 70
     0
  9
$TDCREATE
 40
2450409.477683252
  9
$TDUPDATE
 40
2452297.073459560
  9
$TDINDWG
 40
0.0098358333
  9
$TDUSRTIMER
 40
0.0098358333
  9
$USRTIMER
 70
     1
  9
$ANGBASE
 50
0.0
  9
$ANGDIR
 70
     0
  9
$PDMODE
 70
     0
  9
$PDSIZE
 40
0.0
  9
$PLINEWID
 40
0.0
  9
$COORDS
 70
     2
  9
$SPLFRAME
 70
     0
  9
$SPLINETYPE
 70
     6
  9
$SPLINESEGS
 70
     8
  9
$ATTDIA
 70
     0
  9
$ATTREQ
 70
     1
  9
$HANDLING
 70
 22529
  9
$HANDSEED
  5
3D5
  9
$SURFTAB1
 70
     6
  9
$SURFTAB2
 70
     6
  9
$SURFTYPE
 70
     6
  9
$SURFU
 70
     6
  9
$SURFV
 70
     6
  9
$UCSNAME
  2

  9
$UCSORG
 10
0.0
 20
0.0
 30
0.0
  9
$UCSXDIR
 10
1.0
 20
0.0
 30
0.0
  9
$UCSYDIR
 10
0.0
 20
1.0
 30
0.0
  9
$PUCSNAME
  2

  9
$PUCSORG
 10
0.0
 20
0.0
 30
0.0
  9
$PUCSXDIR
 10
1.0
 20
0.0
 30
0.0
  9
$PUCSYDIR
 10
0.0
 20
1.0
 30
0.0
  9
$USERI1
 70
     0
  9
$USERI2
 70
     0
  9
$USERI3
 70
     0
  9
$USERI4
 70
     0
  9
$USERI5
 70
     0
  9
$USERR1
 40
0.0
  9
$USERR2
 40
0.0
  9
$USERR3
 40
0.0
  9
$USERR4
 40
0.0
  9
$USERR5
 40
0.0
  9
$WORLDVIEW
 70
     1
  9
$SHADEDGE
 70
     3
  9
$SHADEDIF
 70
    70
  9
$TILEMODE
 70
     1
  9
$MAXACTVP
 70
    15
  9
$PINSBASE
 10
0.0058594681322575
 20
8.002266177471257
 30
0.0
  9
$PLIMCHECK
 70
     0
  9
$PEXTMIN
 10
1.000000000000000E+20
 20
1.000000000000000E+20
 30
1.000000000000000E+20
  9
$PEXTMAX
 10
-1.000000000000000E+20
 20
-1.000000000000000E+20
 30
-1.000000000000000E+20
  9
$PLIMMIN
 10
0.0
 20
0.0
  9
$PLIMMAX
 10
12.0
 20
9.0
  9
$UNITMODE
 70
     0
  9
$VISRETAIN
 70
     0
  9
$PLINEGEN
 70
     0
  9
$PSLTSCALE
 70
     1
  9
$TREEDEPTH
 70
  3020
  9
$PICKSTYLE
 70
     1
  9
$CMLSTYLE
  2
STANDARD
  9
$CMLJUST
 70
     0
  9
$CMLSCALE
 40
1.0
  9
$PROXYGRAPHICS
 70
     1
  9
$MEASUREMENT
 70
     0
  0
ENDSEC
  0
SECTION
  2
CLASSES
  0
CLASS
  1
ACDBDICTIONARYWDFLT
  2
AcDbDictionaryWithDefault
  3
AutoCAD 2000
 90
        0
280
     0
281
     0
  0
CLASS
  1
ACDBPLACEHOLDER
  2
AcDbPlaceHolder
  3
AutoCAD 2000
 90
        0
280
     0
281
     0
  0
CLASS
  1
LAYOUT
  2
AcDbLayout
  3
AutoCAD 2000
 90
        0
280
     0
281
     0
  0
CLASS
  1
DICTIONARYVAR
  2
AcDbDictionaryVar
  3
AutoCAD 2000
 90
        0
280
     0
281
     0
  0
CLASS
  1
LONG_TRANSACTION
  2
AcDbLongTransaction
  3
AutoCAD 2000
 90
        0
280
     0
281
     0
  0
CLASS
  1
LWPOLYLINE
  2
AcDbPolyline
  3
AutoCAD 2000
 90
        0
280
     0
281
     1
  0
CLASS
  1
HATCH
  2
AcDbHatch
  3
AutoCAD 2000
 90
        0
280
     0
281
     1
  0
CLASS
  1
XRECORD
  2
AcDbXrecord
  3
AutoCAD 2000
 90
        0
280
     0
281
     0
  0
CLASS
  1
LONG_TRANSACTION
  2
AcDbLongTransaction
  3
AutoCAD 2000
 90
        0
280
     0
281
     0
  0
CLASS
  1
LWPOLYLINE
  2
AcDbPolyline
  3
AutoCAD 2000
 90
        0
280
     0
281
     1
  0
CLASS
  1
HATCH
  2
AcDbHatch
  3
AutoCAD 2000
 90
        0
280
     0
281
     1
  0
CLASS
  1
XRECORD
  2
AcDbXrecord
  3
AutoCAD 2000
 90
        0
280
     0
281
     0
  0
CLASS
  1
LONG_TRANSACTION
  2
AcDbLongTransaction
  3
AutoCAD 2000
 90
        0
280
     0
281
     0
  0
CLASS
  1
LWPOLYLINE
  2
AcDbPolyline
  3
AutoCAD 2000
 90
        0
280
     0
281
     1
  0
CLASS
  1
HATCH
  2
AcDbHatch
  3
AutoCAD 2000
 90
        0
280
     0
281
     1
  0
CLASS
  1
XRECORD
  2
AcDbXrecord
  3
AutoCAD 2000
 90
        0
280
     0
281
     0
  0
CLASS
  1
LONG_TRANSACTION
  2
AcDbLongTransaction
  3
AutoCAD 2000
 90
        0
280
     0
281
     0
  0
CLASS
  1
LWPOLYLINE
  2
AcDbPolyline
  3
AutoCAD 2000
 90
        0
280
     0
281
     1
  0
CLASS
  1
HATCH
  2
AcDbHatch
  3
AutoCAD 2000
 90
        0
280
     0
281
     1
  0
CLASS
  1
XRECORD
  2
AcDbXrecord
  3
AutoCAD 2000
 90
        0
280
     0
281
     0
  0
CLASS
  1
LONG_TRANSACTION
  2
AcDbLongTransaction
  3
AutoCAD 2000
 90
        0
280
     0
281
     0
  0
CLASS
  1
LWPOLYLINE
  2
AcDbPolyline
  3
AutoCAD 2000
 90
        0
280
     0
281
     1
  0
CLASS
  1
HATCH
  2
AcDbHatch
  3
AutoCAD 2000
 90
        0
280
     0
281
     1
  0
CLASS
  1
XRECORD
  2
AcDbXrecord
  3
AutoCAD 2000
 90
        0
280
     0
281
     0
  0
ENDSEC
  0
SECTION
  2
TABLES
  0
TABLE
  2
VPORT
  5
8
330
0
100
AcDbSymbolTable
 70
     2
  0
VPORT
  5
3B2
330
8
100
AcDbSymbolTableRecord
100
AcDbViewportTableRecord
  2
*ACTIVE
 70
     0
 10
0.0
 20
0.0
 11
1.0
 21
1.0
 12
-96.58983996514294
 22
64.86794311380705
 13
0.0
 23
0.0
 14
0.5740882589684922
 24
0.5740882589684922
 15
0.5
 25
0.5
 16
0.0
 26
0.0
 36
1.0
 17
0.0
 27
0.0
 37
0.0
 40
16.5014501827207
 41
1.570528967254408
 42
50.0
 43
0.0
 44
0.0
 50
0.0
 51
0.0
 71
     0
 72
   100
 73
     1
 74
     0
 75
     0
 76
     0
 77
     0
 78
     0
  0
ENDTAB
  0
TABLE
  2
LTYPE
  5
5
330
0
100
AcDbSymbolTable
 70
     1
  0
LTYPE
  5
12
330
5
100
AcDbSymbolTableRecord
100
AcDbLinetypeTableRecord
  2
BYBLOCK
 70
     0
  3

 72
    65
 73
     0
 40
0.0
  0
LTYPE
  5
13
330
5
100
AcDbSymbolTableRecord
100
AcDbLinetypeTableRecord
  2
BYLAYER
 70
     0
  3

 72
    65
 73
     0
 40
0.0
  0
LTYPE
  5
14
330
5
100
AcDbSymbolTableRecord
100
AcDbLinetypeTableRecord
  2
CONTINUOUS
 70
     0
  3
Solid line
 72
    65
 73
     0
 40
0.0
  0
ENDTAB
  0
TABLE
  2
LAYER
  5
2
330
0
100
AcDbSymbolTable
 70
     4
  0
LAYER
  5
F
330
2
100
AcDbSymbolTableRecord
100
AcDbLayerTableRecord
  2
0
 70
     0
 62
     7
  6
CONTINUOUS
  0
LAYER
  5
9F
330
2
100
AcDbSymbolTableRecord
100
AcDbLayerTableRecord
  2
DEFPOINTS
 70
     0
 62
     7
  6
CONTINUOUS
  0
LAYER
  5
A2
330
2
100
AcDbSymbolTableRecord
100
AcDbLayerTableRecord
  2
ADP1DETAIL
 70
     0
 62
     7
  6
CONTINUOUS
  0
LAYER
  5
A5
330
2
100
AcDbSymbolTableRecord
100
AcDbLayerTableRecord
  2
ADPDIM
 70
     0
 62
     3
  6
CONTINUOUS
  0
ENDTAB
  0
TABLE
  2
STYLE
  5
3
330
0
100
AcDbSymbolTable
 70
     2
  0
STYLE
  5
10
330
3
100
AcDbSymbolTableRecord
100
AcDbTextStyleTableRecord
  2
STANDARD
 70
     0
 40
0.0
 41
1.0
 50
0.0
 71
     0
 42
0.2
  3
txt
  4

  0
STYLE
  5
26E
330
3
100
AcDbSymbolTableRecord
100
AcDbTextStyleTableRecord
  2
ARIAL_WIDE
 70
     0
 40
0.0
 41
1.25
 50
0.0
 71
     0
 42
0.2
  3
ARIAL.TTF
  4

1001
ACAD
1000
Arial
1071
       34
  0
ENDTAB
  0
TABLE
  2
VIEW
  5
6
330
0
100
AcDbSymbolTable
 70
     0
  0
ENDTAB
  0
TABLE
  2
UCS
  5
7
330
0
100
AcDbSymbolTable
 70
     0
  0
ENDTAB
  0
TABLE
  2
APPID
  5
9
330
0
100
AcDbSymbolTable
 70
     1
  0
APPID
  5
11
330
9
100
AcDbSymbolTableRecord
100
AcDbRegAppTableRecord
  2
ACAD
 70
     0
  0
ENDTAB
  0
TABLE
  2
DIMSTYLE
  5
A
330
0
100
AcDbSymbolTable
 70
     1
  0
DIMSTYLE
105
262
330
A
100
AcDbSymbolTableRecord
100
AcDbDimStyleTableRecord
  2
STANDARD
 70
     0
  3

  4

  5

  6

  7

 40
1.0
 41
0.18
 42
0.0625
 43
0.38
 44
0.18
 45
0.0
 46
0.0
 47
0.0
 48
0.0
140
0.18
141
0.09
142
0.0
143
25.4
144
1.0
145
0.0
146
1.0
147
0.09
 71
     0
 72
     0
 73
     1
 74
     1
 75
     0
 76
     0
 77
     0
 78
     0
170
     0
171
     2
172
     0
173
     0
174
     0
175
     0
176
     0
177
     0
178
     0
270
     2
271
     4
272
     4
273
     2
274
     2
340
10
275
     0
280
     0
281
     0
282
     0
283
     1
284
     0
285
     0
286
     0
287
     3
288
     0
  0
ENDTAB
  0
TABLE
  2
BLOCK_RECORD
  5
1
330
0
100
AcDbSymbolTable
 70
     2
  0
BLOCK_RECORD
  5
18
102
{ACAD_XDICTIONARY
360
2C3
102
}
330
1
100
AcDbSymbolTableRecord
100
AcDbBlockTableRecord
  2
*MODEL_SPACE
  0
BLOCK_RECORD
  5
15
102
{ACAD_XDICTIONARY
360
2C1
102
}
330
1
100
AcDbSymbolTableRecord
100
AcDbBlockTableRecord
  2
*PAPER_SPACE
  0
BLOCK_RECORD
  5
98
330
1
100
AcDbSymbolTableRecord
100
AcDbBlockTableRecord
  2
*D0
  0
BLOCK_RECORD
  5
99
330
1
100
AcDbSymbolTableRecord
100
AcDbBlockTableRecord
  2
*D1
  0
ENDTAB
  0
ENDSEC
  0
SECTION
  2
BLOCKS
  0
BLOCK
  5
A8
330
18
100
AcDbEntity
  8
0
100
AcDbBlockBegin
  2
*MODEL_SPACE
 70
     0
 10
0.0
 20
0.0
 30
0.0
  3
*MODEL_SPACE
  1

  0
ENDBLK
  5
A9
330
18
100
AcDbEntity
  8
0
100
AcDbBlockEnd
  0
BLOCK
  5
A6
330
15
100
AcDbEntity
 67
     1
  8
0
100
AcDbBlockBegin
  2
*PAPER_SPACE
 70
     0
 10
0.0
 20
0.0
 30
0.0
  3
*PAPER_SPACE
  1

  0
ENDBLK
  5
A7
330
15
100
AcDbEntity
 67
     1
  8
0
100
AcDbBlockEnd
  0
BLOCK
  5
AB
330
98
100
AcDbEntity
  8
0
100
AcDbBlockBegin
  2
*D0
 70
     1
 10
0.0
 20
0.0
 30
0.0
  3
*D0
  1

  0
LINE
  5
AC
330
98
100
AcDbEntity
  8
0
  6
BYBLOCK
 62
     0
100
AcDbLine
 10
-101.27749600897
 20
65.95746298705417
 30
0.0
 11
-101.27749600897
 21
70.77951873683736
 31
0.0
  0
LINE
  5
AD
330
98
100
AcDbEntity
  8
0
  6
BYBLOCK
 62
     0
100
AcDbLine
 10
-92.27749600897004
 20
65.7091326452483
 30
0.0
 11
-92.27749600897004
 21
70.77951873683736
 31
0.0
  0
LINE
  5
AE
330
98
100
AcDbEntity
  8
0
  6
BYBLOCK
 62
     0
100
AcDbLine
 10
-101.27749600897
 20
70.59951873683735
 30
0.0
 11
-96.94416267563672
 21
70.59951873683735
 31
0.0
  0
LINE
  5
AF
330
98
100
AcDbEntity
  8
0
  6
BYBLOCK
 62
     0
100
AcDbLine
 10
-92.27749600897004
 20
70.59951873683735
 30
0.0
 11
-96.61082934230337
 21
70.59951873683735
 31
0.0
  0
LINE
  5
B0
330
98
100
AcDbEntity
  8
0
  6
BYBLOCK
 62
     0
100
AcDbLine
 10
-101.40249600897
 20
70.47451873683735
 30
0.0
 11
-101.15249600897
 21
70.72451873683736
 31
0.0
  0
LINE
  5
B1
330
98
100
AcDbEntity
  8
0
  6
BYBLOCK
 62
     0
100
AcDbLine
 10
-92.40249600897005
 20
70.47451873683735
 30
0.0
 11
-92.15249600897005
 21
70.72451873683736
 31
0.0
  0
TEXT
  5
B2
330
98
100
AcDbEntity
  8
0
  6
BYBLOCK
 62
     0
100
AcDbText
 10
-96.81916267563671
 20
70.53701873683735
 30
0.0
 40
0.125
  1
9
 72
     1
 11
-96.77749600897005
 21
70.59951873683735
 31
0.0
100
AcDbText
 73
     2
  0
POINT
  5
B3
330
98
100
AcDbEntity
  8
DEFPOINTS
  6
BYBLOCK
 62
     0
100
AcDbPoint
 10
-101.27749600897
 20
65.89496298705417
 30
0.0
  0
POINT
  5
B4
330
98
100
AcDbEntity
  8
DEFPOINTS
  6
BYBLOCK
 62
     0
100
AcDbPoint
 10
-92.27749600897004
 20
65.6466326452483
 30
0.0
  0
POINT
  5
B5
330
98
100
AcDbEntity
  8
DEFPOINTS
  6
BYBLOCK
 62
     0
100
AcDbPoint
 10
-92.27749600897004
 20
70.59951873683735
 30
0.0
  0
ENDBLK
  5
B6
330
98
100
AcDbEntity
  8
0
100
AcDbBlockEnd
  0
BLOCK
  5
B7
330
99
100
AcDbEntity
  8
0
100
AcDbBlockBegin
  2
*D1
 70
     1
 10
0.0
 20
0.0
 30
0.0
  3
*D1
  1

  0
LINE
  5
B8
330
99
100
AcDbEntity
  8
0
  6
BYBLOCK
 62
     0
100
AcDbLine
 10
-95.99976719545237
 20
69.52440618094261
 30
0.0
 11
-91.50567970782976
 21
69.52440618094261
 31
0.0
  0
LINE
  5
B9
330
99
100
AcDbEntity
  8
0
  6
BYBLOCK
 62
     0
100
AcDbLine
 10
-95.99976719545237
 20
60.52440618094261
 30
0.0
 11
-91.50567970782976
 21
60.52440618094261
 31
0.0
  0
LINE
  5
BA
330
99
100
AcDbEntity
  8
0
  6
BYBLOCK
 62
     0
100
AcDbLine
 10
-91.68567970782975
 20
69.52440618094261
 30
0.0
 11
-91.68567970782975
 21
65.19107284760927
 31
0.0
  0
LINE
  5
BB
330
99
100
AcDbEntity
  8
0
  6
BYBLOCK
 62
     0
100
AcDbLine
 10
-91.68567970782975
 20
60.52440618094261
 30
0.0
 11
-91.68567970782975
 21
64.85773951427593
 31
0.0
  0
LINE
  5
BC
330
99
100
AcDbEntity
  8
0
  6
BYBLOCK
 62
     0
100
AcDbLine
 10
-91.56067970782975
 20
69.39940618094261
 30
0.0
 11
-91.81067970782974
 21
69.6494061809426
 31
0.0
  0
LINE
  5
BD
330
99
100
AcDbEntity
  8
0
  6
BYBLOCK
 62
     0
100
AcDbLine
 10
-91.56067970782975
 20
60.39940618094261
 30
0.0
 11
-91.81067970782974
 21
60.64940618094261
 31
0.0
  0
TEXT
  5
BE
330
99
100
AcDbEntity
  8
0
  6
BYBLOCK
 62
     0
100
AcDbText
 10
-91.62317970782975
 20
64.98273951427593
 30
0.0
 40
0.125
  1
9
 50
90.0
 72
     1
 11
-91.68567970782975
 21
65.02440618094261
 31
0.0
100
AcDbText
 73
     2
  0
POINT
  5
BF
330
99
100
AcDbEntity
  8
DEFPOINTS
  6
BYBLOCK
 62
     0
100
AcDbPoint
 10
-96.06226719545237
 20
69.52440618094261
 30
0.0
  0
POINT
  5
C0
330
99
100
AcDbEntity
  8
DEFPOINTS
  6
BYBLOCK
 62
     0
100
AcDbPoint
 10
-96.06226719545237
 20
60.52440618094261
 30
0.0
  0
POINT
  5
C1
330
99
100
AcDbEntity
  8
DEFPOINTS
  6
BYBLOCK
 62
     0
100
AcDbPoint
 10
-91.68567970782975
 20
60.52440618094261
 30
0.0
  0
ENDBLK
  5
C2
330
99
100
AcDbEntity
  8
0
100
AcDbBlockEnd
  0
ENDSEC
  0
SECTION
  2
ENTITIES
  0
DIMENSION
  5
C3
330
18
100
AcDbEntity
  8
ADPDIM
100
AcDbDimension
  2
*D0
 10
-92.27749600897004
 20
70.59951873683735
 30
0.0
 11
-96.77749600897005
 21
70.59951873683735
 31
0.0
100
AcDbAlignedDimension
 13
-101.27749600897
 23
65.89496298705417
 33
0.0
 14
-92.27749600897004
 24
65.6466326452483
 34
0.0
100
AcDbRotatedDimension
  0
ARC
  5
C4
330
18
100
AcDbEntity
  8
ADP1DETAIL
100
AcDbCircle
 10
-124.3105790879507
 20
46.0713790755863
 30
0.0
 40
32.98705293038787
100
AcDbArc
 50
42.36513458989691
 51
43.66570225327333
  0
ARC
  5
C5
330
18
100
AcDbEntity
  8
ADP1DETAIL
100
AcDbCircle
 10
-99.21738125525521
 20
69.13900594455812
 30
0.0
 40
1.274139229627557
100
AcDbArc
 50
193.2360961482362
 51
227.0099714684045
  0
LINE
  5
C6
330
18
100
AcDbEntity
  8
ADP1DETAIL
100
AcDbLine
 10
-100.3075861220327
 20
65.82041318024443
 30
0.0
 11
-99.93188769019056
 21
65.93771639224732
 31
0.0
  0
ARC
  5
C7
330
18
100
AcDbEntity
  8
ADP1DETAIL
100
AcDbCircle
 10
-99.79548673373518
 20
66.17477027505072
 30
0.0
 40
0.8246645922966695
100
AcDbArc
 50
214.8857578438464
 51
267.047536448385
  0
LWPOLYLINE
  5
C8
330
18
100
AcDbEntity
  8
ADP1DETAIL
100
AcDbPolyline
 90
       10
 70
     0
 43
0.0
 10
-100.2565813011875
 20
67.46794460965357
 42
0.0476275083585453
 10
-100.612841088134
 20
66.80576014078162
 42
0.2484104360315981
 10
-100.4719542087614
 20
65.98463769057329
 42
-0.2863950469039583
 10
-99.83796306920268
 20
66.26616537909306
 42
-0.1009981455717023
 10
-99.25093429224705
 20
65.70310996824153
 42
-0.152738287452057
 10
-99.13352851601224
 20
64.95236943171014
 42
0.1458866549374091
 10
-99.67359503458318
 20
64.97583008087312
 42
-0.480362500712943
 10
-100.589359932887
 20
65.32773971688182
 42
-0.1875328182062485
 10
-100.5658787776401
 20
65.70310996824153
 42
-0.0773925678026918
 10
-100.8639896126074
 20
66.22646297763235
 42
-1.37956565655635
  0
ARC
  5
D4
330
18
100
AcDbEntity
  8
ADP1DETAIL
100
AcDbCircle
 10
-99.59422112345814
 20
66.36602603653106
 30
0.0
 40
0.9877050088250022
100
AcDbArc
 50
215.1807228277642
 51
258.5081111153939
  0
ARC
  5
D5
330
18
100
AcDbEntity
  8
ADP1DETAIL
100
AcDbCircle
 10
-650.4830929099699
 20
-1137.236842289517
 30
0.0
 40
1324.733342896408
100
AcDbArc
 50
65.37418801996294
 51
65.45811576750979
  0
ARC
  5
D6
330
18
100
AcDbEntity
  8
ADP1DETAIL
100
AcDbCircle
 10
-103.3644872474417
 20
58.33250074741386
 30
0.0
 40
9.984893830618556
100
AcDbArc
 50
60.89248163957965
 51
71.78917600355048
  0
LINE
  5
D7
330
18
100
AcDbEntity
  8
ADP1DETAIL
100
AcDbLine
 10
-100.4249918982675
 20
61.90248598725865
 30
0.0
 11
-99.97885000068448
 21
61.73826147692979
 31
0.0
  0
LWPOLYLINE
  5
D8
330
18
100
AcDbEntity
  8
ADP1DETAIL
100
AcDbPolyline
 90
        7
 70
     0
 43
0.0
 10
-99.44997277707429
 20
61.40644557611189
 42
-0.0633343816782907
 10
-99.53270810310138
 20
61.22212736440421
 42
-0.1986372296000186
 10
-100.3075861220327
 20
60.77637516555558
 42
0.1037819586171702
 10
-100.9650583647292
 20
60.65907195355268
 42
-0.5752211389206363
 10
-101.1763887619519
 20
60.82329646388153
 42
-0.0823724489283152
 10
-101.0120206752231
 20
61.73826147692979
 42
-0.2554516751922909
 10
-100.3821681019599
 20
62.3001925237636
 42
0.4063906363991674
  0
LWPOLYLINE
  5
E1
330
18
100
AcDbEntity
  8
ADP1DETAIL
100
AcDbPolyline
 90
        6
 70
     0
 43
0.0
 10
-100.6832845538749
 20
66.8292207899446
 42
0.0529905101154766
 10
-100.9885395199762
 20
65.56234610707566
 42
0.2089785995260481
 10
-100.6832845538749
 20
64.5066172328615
 42
0.0282643010751382
 10
-99.7205573450771
 20
63.63857348432722
 42
-0.3872017745895816
 10
-99.43878353422277
 20
61.83210403976971
 42
-0.0038893476101421
 10
-99.43588220511593
 20
61.81999011008158
 42
-0.1986372296000186
  0
LWPOLYLINE
  5
E9
330
18
100
AcDbEntity
  8
ADP1DETAIL
100
AcDbPolyline
 90
        6
 70
     0
 43
0.0
 10
-99.92561255801362
 20
62.28452172493746
 42
-0.0803057326214268
 10
-99.67359503458318
 20
62.16055302661544
 42
0.4063906363991674
 10
-99.46226468946974
 20
62.74706908662995
 42
0.1636988853435303
 10
-99.79100081081801
 20
63.4274277094844
 42
0.007386766408388
 10
-100.5658787776401
 20
63.99048312033593
 42
-0.080376351495703
 10
-101.1998699171989
 20
64.81160557054426
 42
-1.680219671708497
  0
LWPOLYLINE
  5
F1
330
18
100
AcDbEntity
  8
ADP1DETAIL
100
AcDbPolyline
 90
       13
 70
     0
 43
0.0
 10
-95.11004333706987
 20
62.59881175008881
 42
-0.2123027000417775
 10
-96.80889451132742
 20
61.36289122557009
 42
-0.1757381171292358
 10
-98.80479239466396
 20
61.43327313924704
 42
0.4126711968696718
 10
-98.02991437573261
 20
61.64441891408987
 42
-0.1130770534050434
 10
-97.34896097778912
 20
62.11363176210147
 42
0.543705352196052
 10
-96.71496989033956
 20
61.73826147692979
 42
-0.3103243764479642
 10
-96.03401649239607
 20
61.66787956325284
 42
0.2270215246640219
 10
-96.1514222686309
 20
62.53592331178713
 42
0.1751599086380635
 10
-96.62104526935172
 20
62.88783294779584
 42
0.5106052627639723
 10
-97.39592328828306
 20
62.30131688778133
 42
0.1298165251608034
 10
-98.12383899672047
 20
61.87902533809567
 42
-0.3707059849982119
 10
-99.39182122372884
 20
61.78518277525575
 42
-0.1869847550399854
 10
-100.8946149510976
 20
64.29547145801868
 42
-1.185956407218269
  0
LWPOLYLINE
  5
100
330
18
100
AcDbEntity
  8
ADP1DETAIL
100
AcDbPolyline
 90
       11
 70
     0
 43
0.0
 10
-94.24944895417295
 20
61.26904866273017
 42
-0.1365571686720208
 10
-95.82268614728262
 20
60.68253260271565
 10
-95.82268614728262
 20
60.56522939071275
 10
-97.44288559877698
 20
60.56522939071275
 10
-97.44288559877698
 20
60.68253260271565
 42
-0.3467627800004747
 10
-101.1763887619519
 20
64.17816824601579
 10
-101.2703133829398
 20
64.17816824601579
 10
-101.2703133829398
 20
65.89079509392139
 10
-101.1998699171989
 20
65.89079509392139
 42
-0.1210541344071962
 10
-100.5658787776401
 20
67.48611876363606
 42
-0.0014508737845042
 10
-100.5484417595166
 20
67.51043502530054
  0
ARC
  5
10D
330
18
100
AcDbEntity
  8
ADP1DETAIL
100
AcDbCircle
 10
-99.11297420765386
 20
58.90233292884959
 30
0.0
 40
2.801900032577846
100
AcDbArc
 50
104.0039122966857
 51
133.326225440823
  0
ARC
  5
10E
330
18
100
AcDbEntity
  8
ADP1DETAIL
100
AcDbCircle
 10
-99.32503121175223
 20
59.74484090776657
 30
0.0
 40
2.086995153091668
100
AcDbArc
 50
104.89369670775
 51
145.0433055722765
  0
LWPOLYLINE
  5
10F
330
18
100
AcDbEntity
  8
ADP1DETAIL
100
AcDbPolyline
 90
        3
 70
     0
 43
0.0
 10
-100.9963374079178
 20
67.46467155059867
 42
-0.0692776931093202
 10
-100.244064379391
 20
68.11421619507193
 42
0.153287193665931
 10
-99.25960834503115
 20
69.07925395257507
 42
-0.5991879007367952
  0
LWPOLYLINE
  5
114
330
18
100
AcDbEntity
  8
ADP1DETAIL
100
AcDbPolyline
 90
       14
 70
     0
 43
0.0
 10
-97.95009603997399
 20
66.70377639564427
 42
-0.0329503319003211
 10
-99.77969831561575
 20
67.2419705296364
 42
0.1539003094630627
 10
-100.5691206500883
 20
67.51106757972649
 42
0.1850025734185362
 10
-100.8291656353806
 20
67.41827548765886
 42
-0.380844257568445
 10
-101.0799233462957
 20
67.21413288511012
 42
-0.339337925826086
 10
-101.1542219060779
 20
67.88223594799692
 42
-0.1896466168623323
 10
-100.4762474373332
 20
68.84727370550006
 42
-0.1370404576182627
 10
-99.59395189010564
 20
69.38546783949219
 42
-0.1404607367145345
 10
-99.12029849984396
 20
69.3576302287779
 42
-0.3072938861521034
 10
-99.20388438611258
 20
68.85655293161281
 42
-0.107193383566065
 10
-100.2162024520409
 20
67.87295675569615
 10
-100.3555122451189
 20
67.91935278482397
 10
-100.3555122451189
 20
67.78944385592932
 42
0.1272355256406592
 10
-100.8198783088941
 20
67.41827548765886
 42
1.999673693338019
  0
LINE
  5
124
330
18
100
AcDbEntity
  8
ADP1DETAIL
100
AcDbLine
 10
-100.2371426562918
 20
61.15174545072726
 30
0.0
 11
-100.2606238115388
 21
61.36289122557009
 31
0.0
  0
LINE
  5
125
330
18
100
AcDbEntity
  8
ADP1DETAIL
100
AcDbLine
 10
-100.3075861220327
 20
61.03444223872436
 30
0.0
 11
-100.2371426562918
 21
61.15174545072726
 31
0.0
  0
LINE
  5
126
330
18
100
AcDbEntity
  8
ADP1DETAIL
100
AcDbLine
 10
-100.589359932887
 20
60.91713902672147
 30
0.0
 11
-100.4954353640084
 21
61.29250927808116
 31
0.0
  0
LINE
  5
127
330
18
100
AcDbEntity
  8
ADP1DETAIL
100
AcDbLine
 10
-100.7067657091218
 20
61.76172212609277
 30
0.0
 11
-100.3545484325266
 21
61.57403700041292
 31
0.0
  0
LINE
  5
128
330
18
100
AcDbEntity
  8
ADP1DETAIL
100
AcDbLine
 10
-100.8711337958506
 20
61.50365505292398
 30
0.0
 11
-100.5658787776401
 21
61.43327313924704
 31
0.0
  0
LINE
  5
129
330
18
100
AcDbEntity
  8
ADP1DETAIL
100
AcDbLine
 10
-100.3780295877736
 20
65.56234610707566
 30
0.0
 11
-100.2606238115388
 21
65.16351520655297
 31
0.0
  0
ARC
  5
12A
330
18
100
AcDbEntity
  8
ADP1DETAIL
100
AcDbCircle
 10
-101.231975653884
 20
66.7572987912711
 30
0.0
 40
1.128299497117837
100
AcDbArc
 50
63.9395711893559
 51
85.57560206564096
  0
ARC
  5
12B
330
18
100
AcDbEntity
  8
ADP1DETAIL
100
AcDbCircle
 10
-101.2878224289384
 20
66.89490927629361
 30
0.0
 40
0.9203096075940637
100
AcDbArc
 50
59.4384417102946
 51
82.82004935704241
  0
ARC
  5
12C
330
18
100
AcDbEntity
  8
ADP1DETAIL
100
AcDbCircle
 10
-100.4576727843604
 20
68.84727370550006
 30
0.0
 40
0.0
100
AcDbArc
 50
0.0
 51
206.4721922964724
  0
DIMENSION
  5
12D
330
18
100
AcDbEntity
  8
ADPDIM
100
AcDbDimension
  2
*D1
 10
-91.68567970782975
 20
60.52440618094261
 30
0.0
 11
-91.68567970782975
 21
65.02440618094261
 31
0.0
100
AcDbAlignedDimension
 13
-96.06226719545237
 23
69.52440618094261
 33
0.0
 14
-96.06226719545237
 24
60.52440618094261
 34
0.0
 50
90.0
100
AcDbRotatedDimension
  0
LINE
  5
12E
330
18
100
AcDbEntity
  8
ADP1DETAIL
100
AcDbLine
 10
-99.13352851601224
 20
63.07551807347568
 30
0.0
 11
-98.96916048139273
 21
63.40396706032142
 31
0.0
  0
ARC
  5
12F
330
18
100
AcDbEntity
  8
ADP1DETAIL
100
AcDbCircle
 10
-97.85076671659684
 20
63.9049397065688
 30
0.0
 40
1.190494703922474
100
AcDbArc
 50
196.4312139103363
 51
245.990260887316
  0
LWPOLYLINE
  5
130
330
18
100
AcDbEntity
  8
ADP1DETAIL
100
AcDbPolyline
 90
       12
 70
     0
 43
0.0
 10
-95.45265886877308
 20
62.87216092335519
 42
-0.1294116227491732
 10
-94.34449262119342
 20
61.57056904028568
 42
-0.2092769564039805
 10
-94.31911474154409
 20
60.85215793533538
 42
0.2899527769293957
 10
-94.2598997758778
 20
60.53943781087829
 42
0.232808121352106
 10
-93.37167492611868
 20
60.8268022596208
 42
0.249390098541262
 10
-92.47499081788262
 20
61.62128042552682
 42
0.2416246518645178
 10
-92.49190938694573
 20
61.76496263299208
 42
0.1269377865398432
 10
-92.25504942006208
 20
62.36504720619169
 42
0.5111474665817312
 10
-92.48345007635956
 20
62.72847871588993
 42
0.3082353283876389
 10
-92.66955433605387
 20
62.61860406477344
 42
-0.0500812475235154
 10
-93.50702347862364
 20
62.62705597921963
 42
-0.0715626211078848
 10
-95.10582817692453
 20
63.32856328908954
 42
-3.501603003615351
  0
LWPOLYLINE
  5
13E
330
18
100
AcDbEntity
  8
ADP1DETAIL
100
AcDbPolyline
 90
        9
 70
     0
 43
0.0
 10
-99.22932005444085
 20
62.7859003395036
 42
0.1231337389421453
 10
-99.03960394713362
 20
62.700147788304
 42
0.0135917135177475
 10
-98.21776361770833
 20
62.55938396095011
 42
0.1341453364014617
 10
-98.02991437573261
 20
62.58284461011308
 42
0.9333380604748239
 10
-98.07687668622655
 20
62.72360843746698
 42
-0.1458987312937923
 10
-98.07687668622655
 20
63.05205742431271
 42
0.1098450934417134
 10
-98.31168823869621
 20
63.70895539800417
 42
0.2524705917231384
 10
-98.82827354991093
 20
63.7793373454931
 42
-0.1127958111618693
 10
-98.83639336946977
 20
64.61721128789783
 42
-0.2760273459017991
  0
LWPOLYLINE
  5
149
330
18
100
AcDbEntity
  8
ADP1DETAIL
100
AcDbPolyline
 90
        4
 70
     0
 43
0.0
 10
-99.01784016624198
 20
64.87729364486667
 42
0.1638458657119053
 10
-99.01612279188665
 20
63.66203413349019
 42
0.1969965232147462
 10
-99.36834006848188
 20
63.26320319915553
 42
0.0207404667627395
 10
-99.37861531521638
 20
63.22913432090987
 42
0.0135917135177475
  0
LWPOLYLINE
  5
14F
330
18
100
AcDbEntity
  8
ADP1DETAIL
100
AcDbPolyline
 90
       15
 70
     0
 43
0.0
 10
-99.12156279735148
 20
65.06965056890908
 42
0.1785383638691991
 10
-97.95947096210097
 20
63.94356182200997
 42
0.0658095187686002
 10
-96.59756411410473
 20
63.5447309214873
 42
0.3641230109188177
 10
-96.17490342387785
 20
63.26320319915553
 42
0.0343194475358597
 10
-95.44698771544043
 20
62.84091164946989
 10
-95.82268614728262
 20
63.28666384831851
 10
-95.14173269722988
 20
63.12243937180165
 10
-95.25913847346471
 20
63.26320319915553
 10
-95.68179921580084
 20
63.47434897399836
 10
-95.09477043884521
 20
63.33358514664447
 42
0.1887016224868619
 10
-95.65831806055387
 20
63.52127027232431
 42
-0.149244389838521
 10
-95.84616725042035
 20
63.56819157065027
 42
0.169483568899454
 10
-96.52712070047309
 20
63.70895539800417
 42
-0.0910253577598704
 10
-96.94978139069997
 20
63.920101172847
 42
0.0740825071522426
 10
-96.35729176332219
 20
64.21136236214708
 42
0.1575545367130319
  0
LWPOLYLINE
  5
160
330
18
100
AcDbEntity
  8
ADP1DETAIL
100
AcDbPolyline
 90
       15
 70
     0
 43
0.0
 10
-95.80806283699875
 20
65.79990800962765
 42
-0.2266602720308437
 10
-94.64862854126211
 20
64.22508954434173
 42
0.2186977829060976
 10
-95.40002540494651
 20
64.48315658369853
 42
-0.0022656266676318
 10
-96.38623376899131
 20
64.43623531918456
 42
-0.2965469381485939
 10
-97.02022485644086
 20
64.67084174319037
 42
0.4530380131476691
 10
-96.73845104558651
 20
65.06967264371304
 42
0.2765810396958727
 10
-97.0671871669348
 20
65.58580675623862
 42
-0.1074608602727751
 10
-97.44288559877698
 20
66.0784802534132
 42
0.2730836931155853
 10
-97.53681021976484
 20
65.77349188191847
 42
0.1086185470999651
 10
-97.84206518586614
 20
65.06967264371304
 42
0.7142856080775152
 10
-97.20807409841658
 20
64.55353853118747
 42
0.2465249852079718
 10
-96.22186568226254
 20
64.22508954434173
 42
-0.1067322405654694
 10
-95.11825154198293
 20
64.20162889517875
 42
-0.4152740804971943
 10
-94.85995888637555
 20
63.19282128547859
 42
-0.000809901602094
 10
-94.8622343831879
 20
63.18476065223379
 42
-0.1757381171292358
  0
LWPOLYLINE
  5
171
330
18
100
AcDbEntity
  8
ADP1DETAIL
100
AcDbPolyline
 90
       12
 70
     0
 43
0.0
 10
-94.54924561018788
 20
63.02125488584023
 42
0.2141701931735098
 10
-94.78951542063466
 20
65.28081841855588
 42
-0.2918444534617742
 10
-94.76603426538769
 20
65.86733447857039
 42
0.3547397911266747
 10
-94.06159971219725
 20
65.91425574308435
 42
-0.0771786103305795
 10
-93.61545786672339
 20
66.57115371677583
 42
-0.2546235043324581
 10
-93.33368400375981
 20
66.66499627961574
 42
0.2792962109289363
 10
-94.27293010941992
 20
66.96998465111048
 42
0.0717726371675431
 10
-94.93040235211644
 20
66.71191757794169
 42
0.469949226915293
 10
-95.00084581785735
 20
66.31308667741902
 42
-0.0299570291303036
 10
-94.85995888637555
 20
66.12540151792718
 42
0.2467822209485754
 10
-95.04780812835127
 20
65.65618870372755
 42
-0.0231837300277358
 10
-95.99033948580368
 20
66.19857882958756
 42
-0.0511204706867373
  0
LWPOLYLINE
  5
17F
330
18
100
AcDbEntity
  8
ADP1DETAIL
100
AcDbPolyline
 90
        3
 70
     0
 43
0.0
 10
-92.32399448446805
 20
64.2720108088557
 42
-0.1179162849390285
 10
-93.02842903765853
 20
62.60630522546407
 42
-0.0001668604872059
 10
-93.03184521705823
 20
62.60167043837874
 42
-0.1365571686720208
  0
LWPOLYLINE
  5
184
330
18
100
AcDbEntity
  8
ADP1DETAIL
100
AcDbPolyline
 90
       11
 70
     0
 43
0.0
 10
-92.6057682953224
 20
63.49780962316135
 42
0.2324551440743149
 10
-93.12235365864639
 20
64.48315658369853
 42
0.2362525581595117
 10
-93.26324059012817
 20
65.09313329287602
 42
0.3903950727100461
 10
-93.77982590134292
 20
65.16351520655297
 42
-0.0622307185836008
 10
-94.39033583354548
 20
64.81160557054426
 42
0.4710858907026762
 10
-94.46077929928639
 20
64.57699914653847
 42
-0.0168522142225143
 10
-94.17900548843206
 20
64.22508954434173
 42
0.4606053997269785
 10
-93.38064631425373
 20
63.920101172847
 42
0.2995618842684854
 10
-93.19279712438726
 20
64.2720108088557
 42
-0.2492760551137952
 10
-92.91102331353295
 20
63.66203413349019
 42
-0.1737034121734391
 10
-93.35716515900678
 20
62.60630522546407
 42
2.2789709194617
  0
LWPOLYLINE
  5
191
330
18
100
AcDbEntity
  8
ADP1DETAIL
100
AcDbPolyline
 90
        9
 70
     0
 43
0.0
 10
-92.59342080132446
 20
62.66931545001458
 42
-0.519752753746309
 10
-92.41577580010709
 20
62.5509889182639
 42
-0.1588230679422128
 10
-92.53420578354891
 20
61.94245243061811
 42
-0.2572297754993322
 10
-92.6187986288645
 20
61.82412589886743
 42
0.0175149393775044
 10
-93.14327426982121
 20
61.24939703519438
 42
-0.0173440026466203
 10
-93.26170425326303
 20
61.0296477329614
 42
-0.9998424972547878
 10
-93.36321566764175
 20
60.94512879137148
 42
-0.0851065276127433
 10
-93.67620916925483
 20
60.89441740613033
 42
-0.2194101972004149
 10
-94.34449262119342
 20
60.80989846454041
 42
-6.481177367345239
  0
ARC
  5
19C
330
18
100
AcDbEntity
  8
ADP1DETAIL
100
AcDbCircle
 10
-78.78837983905521
 20
87.99211674339327
 30
0.0
 40
29.59452692833522
100
AcDbArc
 50
237.165091998933
 51
242.1203347971828
  0
ARC
  5
19D
330
18
100
AcDbEntity
  8
ADP1DETAIL
100
AcDbCircle
 10
-76.21297813143747
 20
96.40456896063799
 30
0.0
 40
38.13484650360384
100
AcDbArc
 50
240.7695310501881
 51
244.6179115319951
  0
ARC
  5
19E
330
18
100
AcDbEntity
  8
ADP1DETAIL
100
AcDbCircle
 10
-100.813479925563
 20
56.98170111743664
 30
0.0
 40
8.35066969464569
100
AcDbArc
 50
28.59873146167033
 51
47.19976900997539
  0
ARC
  5
19F
330
18
100
AcDbEntity
  8
ADP1DETAIL
100
AcDbCircle
 10
-99.20258957619466
 20
57.69545679068704
 30
0.0
 40
6.77352197140901
100
AcDbArc
 50
29.73454173460258
 51
53.05319082733176
  0
LWPOLYLINE
  5
1A0
330
18
100
AcDbEntity
  8
ADP1DETAIL
100
AcDbPolyline
 90
        3
 70
     0
 43
0.0
 10
-94.34337357516083
 20
61.55057635124993
 42
-0.2424401677761494
 10
-97.77162172012523
 20
60.9875209403984
 42
0.2669764499524762
 10
-94.85995888637555
 20
62.37169880145828
 42
0.2832891648493549
  0
LINE
  5
1A5
330
18
100
AcDbEntity
  8
ADP1DETAIL
100
AcDbLine
 10
-99.76751965557104
 20
61.33943057640711
 30
0.0
 11
-99.74403850032409
 21
61.62095826492688
 31
0.0
  0
LINE
  5
1A6
330
18
100
AcDbEntity
  8
ADP1DETAIL
100
AcDbLine
 10
-100.0023311559314
 20
61.38635184092109
 30
0.0
 11
-100.0023311559314
 21
61.45673378841001
 31
0.0
  0
LINE
  5
1A7
330
18
100
AcDbEntity
  8
ADP1DETAIL
100
AcDbLine
 10
-100.0258123111784
 20
61.17520606607826
 30
0.0
 11
-100.0023311559314
 21
61.38635184092109
 31
0.0
  0
LINE
  5
1A8
330
18
100
AcDbEntity
  8
ADP1DETAIL
100
AcDbLine
 10
-98.68738667053838
 20
63.23974258380455
 30
0.0
 11
-98.4056128075748
 21
63.21628193464157
 31
0.0
  0
LINE
  5
1A9
330
18
100
AcDbEntity
  8
ADP1DETAIL
100
AcDbLine
 10
-98.94567932614576
 20
62.86437229863286
 30
0.0
 11
-98.82827354991093
 21
63.19282128547859
 31
0.0
  0
LINE
  5
1AA
330
18
100
AcDbEntity
  8
ADP1DETAIL
100
AcDbLine
 10
-98.56998089430357
 20
62.72360843746698
 30
0.0
 11
-98.56998089430357
 21
62.91129359695881
 31
0.0
  0
LINE
  5
1AB
330
18
100
AcDbEntity
  8
ADP1DETAIL
100
AcDbLine
 10
-98.52301858380963
 20
63.00513615979873
 30
0.0
 11
-98.31168823869621
 21
63.00513615979873
 31
0.0
  0
LINE
  5
1AC
330
18
100
AcDbEntity
  8
ADP1DETAIL
100
AcDbLine
 10
-96.80889451132742
 20
62.2074743249414
 30
0.0
 11
-96.66800757984564
 21
62.04324981461255
 31
0.0
  0
LINE
  5
1AD
330
18
100
AcDbEntity
  8
ADP1DETAIL
100
AcDbLine
 10
-96.83237566657439
 20
62.37169880145827
 30
0.0
 11
-96.52712070047309
 21
62.60630522546407
 31
0.0
  0
LINE
  5
1AE
330
18
100
AcDbEntity
  8
ADP1DETAIL
100
AcDbLine
 10
-97.13763063267569
 20
62.34823818610728
 30
0.0
 11
-96.94978139069997
 21
62.60630522546407
 31
0.0
  0
LINE
  5
1AF
330
18
100
AcDbEntity
  8
ADP1DETAIL
100
AcDbLine
 10
-96.45667723473218
 20
62.3247775369443
 30
0.0
 11
-96.26882799275648
 21
62.46554139811019
 31
0.0
  0
ARC
  5
1B0
330
18
100
AcDbEntity
  8
ADP1DETAIL
100
AcDbCircle
 10
-96.95662675328197
 20
60.86494956798342
 30
0.0
 40
1.401186192088566
100
AcDbArc
 50
57.23851208562177
 51
97.42215444539517
  0
ARC
  5
1B1
330
18
100
AcDbEntity
  8
ADP1DETAIL
100
AcDbCircle
 10
-96.90281910626067
 20
61.47261540805152
 30
0.0
 40
0.9065603688599248
100
AcDbArc
 50
39.00955474792663
 51
105.0115447503933
  0
LINE
  5
1B2
330
18
100
AcDbEntity
  8
ADP1DETAIL
100
AcDbLine
 10
-96.45667723473218
 20
62.13709241126445
 30
0.0
 11
-96.36275261374432
 21
61.94940725177262
 31
0.0
  0
LINE
  5
1B3
330
18
100
AcDbEntity
  8
ADP1DETAIL
100
AcDbLine
 10
-97.11414947742872
 20
62.2074743249414
 30
0.0
 11
-96.9028191323153
 21
61.94940725177262
 31
0.0
  0
ARC
  5
1B4
330
18
100
AcDbEntity
  8
ADP1DETAIL
100
AcDbCircle
 10
-95.13120605657382
 20
63.10881398685657
 30
0.0
 40
0.0
100
AcDbArc
 50
0.0
 51
286.1063816546635
  0
LINE
  5
1B5
330
18
100
AcDbEntity
  8
ADP1DETAIL
100
AcDbLine
 10
-94.20248664367903
 20
66.57115371677583
 30
0.0
 11
-94.13204317793812
 21
66.8292207899446
 31
0.0
  0
LINE
  5
1B6
330
18
100
AcDbEntity
  8
ADP1DETAIL
100
AcDbLine
 10
-94.36685473040778
 20
66.38346859109597
 30
0.0
 11
-94.03811855695028
 21
66.33654729277001
 31
0.0
  0
ARC
  5
1B7
330
18
100
AcDbEntity
  8
ADP1DETAIL
100
AcDbCircle
 10
-93.39324766237243
 20
65.40907193802905
 30
0.0
 40
1.412204196208836
100
AcDbArc
 50
115.0485966806344
 51
154.901336766403
  0
ARC
  5
1B8
330
18
100
AcDbEntity
  8
ADP1DETAIL
100
AcDbCircle
 10
-93.2808554165339
 20
64.77038586222507
 30
0.0
 40
2.045366460897719
100
AcDbArc
 50
110.3206200476708
 51
138.5106649600008
  0
ARC
  5
1B9
330
18
100
AcDbEntity
  8
ADP1DETAIL
100
AcDbCircle
 10
-96.33438158307018
 20
54.73260254124426
 30
0.0
 40
10.10384837815232
100
AcDbArc
 50
72.4442545431258
 51
78.22749058002796
  0
ARC
  5
1BA
330
18
100
AcDbEntity
  8
ADP1DETAIL
100
AcDbCircle
 10
-94.07844620321963
 20
62.51540085171432
 30
0.0
 40
2.117469920558199
100
AcDbArc
 50
66.66667322023943
 51
95.26989014065511
  0
LWPOLYLINE
  5
1BB
330
18
100
AcDbEntity
  8
ADP1DETAIL
100
AcDbPolyline
 90
       14
 70
     0
 43
0.0
 10
-94.49068606588463
 20
66.90818762357721
 42
-0.0509040601878929
 10
-94.76603426538769
 20
67.36881555163314
 42
-0.2788499578327412
 10
-94.69559085175605
 20
68.02571352532462
 42
-0.1787432579740167
 10
-94.17900548843206
 20
68.35416251217033
 42
-0.2885591833504745
 10
-93.9207128328247
 20
69.08144239953876
 42
-0.2101252167754647
 10
-93.28672174537514
 20
69.24566690986761
 42
0.1869369457957929
 10
-92.51184372644379
 20
69.40989138638449
 42
-0.9202510735208143
 10
-92.34747563971504
 20
69.19874561154165
 42
0.1190612847413999
 10
-92.53532488169074
 20
68.65915084985309
 42
-0.3359397327835678
 10
-93.21627827963423
 20
67.7911071013188
 42
-0.3216062465635203
 10
-94.01463740170331
 20
68.09609543900157
 42
0.1155655932179109
 10
-94.48426045453336
 20
67.83802839964477
 42
0.4455004883827492
 10
-94.48426045453336
 20
67.39227620079613
 42
0.0696634504097579
 10
-94.25283907158926
 20
66.97447600969852
 42
-0.1759084714480504
  0
LWPOLYLINE
  5
1CB
330
18
100
AcDbEntity
  8
ADP1DETAIL
100
AcDbPolyline
 90
        4
 70
     0
 43
0.0
 10
-98.61648663580757
 20
67.65522930147144
 42
-0.0782876347946934
 10
-97.86554634111311
 20
68.65915084985309
 42
-0.2375157723149408
 10
-94.8364777311286
 20
68.82337536018195
 42
-0.0453684095462423
 10
-94.1897333348359
 20
68.41345454813737
 42
0.9080420257156362
  0
LWPOLYLINE
  5
1D1
330
18
100
AcDbEntity
  8
ADP1DETAIL
100
AcDbPolyline
 90
        6
 70
     0
 43
0.0
 10
-99.27826480077113
 20
68.74918042517991
 42
-0.085952053996178
 10
-97.67769709913739
 20
69.48027333387341
 10
-97.67769709913739
 20
69.52719459838738
 10
-96.1514222686309
 20
69.52719459838738
 10
-96.1514222686309
 20
69.45681268471043
 42
-0.1204622556436741
 10
-94.17918839070333
 20
68.67033515730343
 42
0.8684722592886389
  0
LWPOLYLINE
  5
1D9
330
18
100
AcDbEntity
  8
ADP1DETAIL
100
AcDbPolyline
 90
        3
 70
     0
 43
0.0
 10
-99.15476513678918
 20
67.02849519301366
 42
0.0011462460395542
 10
-99.15700967125919
 20
67.01690591562445
 42
0.1317858640107898
 10
-99.33722793306909
 20
65.81890626624122
 42
0.0658095187686002
  0
LWPOLYLINE
  5
1DE
330
18
100
AcDbEntity
  8
ADP1DETAIL
100
AcDbPolyline
 90
       14
 70
     0
 43
0.0
 10
-96.3102185967409
 20
66.41039648779155
 42
-0.0007514773348617
 10
-96.33927145849737
 20
66.43038985560995
 42
-0.0511204706867373
 10
-97.04370601168783
 20
66.75883884245566
 42
-0.2359755990193045
 10
-97.27851756415748
 20
66.89960270362154
 42
0.3025555888245419
 10
-97.58377253025876
 20
66.99344526646147
 10
-98.28820708344922
 20
67.41573681614713
 10
-97.81858403061917
 20
66.92306335278452
 10
-98.49953742856266
 20
67.04036656478741
 10
-97.81858403061917
 20
66.64153566426474
 42
0.2701451671490782
 10
-97.27851756415748
 20
66.47731115393589
 42
-0.2680104020787258
 10
-97.04370601168783
 20
66.40692924025895
 42
0.240577555591797
 10
-96.71496989033956
 20
66.28962602825604
 42
0.2778504771967484
 10
-98.78131123941699
 20
65.35120033223282
 42
0.0269171089248369
 10
-98.88815168314916
 20
65.17640925579884
 42
0.1969965232147462
  0
ARC
  5
1EE
330
18
100
AcDbEntity
  8
ADP1DETAIL
100
AcDbCircle
 10
-97.42071242275846
 20
68.90102126789269
 30
0.0
 40
1.917755620295278
100
AcDbArc
 50
186.8897506229441
 51
250.4787157151677
  0
LWPOLYLINE
  5
1EF
330
18
100
AcDbEntity
  8
ADP1DETAIL
100
AcDbPolyline
 90
       13
 70
     0
 43
0.0
 10
-96.06692550638856
 20
64.45044663713348
 42
0.0461680094478039
 10
-95.79920499203565
 20
64.76468430603029
 42
0.1575545367130319
 10
-95.82268614728262
 20
65.84387382940741
 42
-0.1118252167192258
 10
-96.24534683750951
 20
67.34535490247018
 42
0.4042396639602062
 10
-95.40002540494651
 20
67.65034324015292
 42
0.0623038098165534
 10
-95.23565731821774
 20
68.18993800184149
 42
-0.1345201384107687
 10
-94.88344004162252
 20
68.94067857218487
 42
0.0021913061527465
 10
-95.56439343956601
 20
68.72953279734203
 42
0.1711682156769112
 10
-96.59756411410473
 20
68.42454442584728
 42
0.6063402101411326
 10
-96.45667723473218
 20
67.46265811447307
 42
0.1676491387900198
 10
-96.03401649239607
 20
65.86733447857039
 42
-0.3467530084072444
 10
-96.36275261374432
 20
64.45969593453556
 42
-0.0068668142129281
 10
-96.39560547402055
 20
64.43419450738524
 42
-0.3532854719088537
  0
LINE
  5
1FE
330
18
100
AcDbEntity
  8
ADP1DETAIL
100
AcDbLine
 10
-97.2550364089105
 20
65.09313329287602
 30
0.0
 11
-97.09066832218177
 21
65.25735776939288
 31
0.0
  0
ARC
  5
1FF
330
18
100
AcDbEntity
  8
ADP1DETAIL
100
AcDbCircle
 10
-92.10931337175926
 20
66.61435438784103
 30
0.0
 40
5.404374804986098
100
AcDbArc
 50
190.7180727227384
 51
200.8104442702363
  0
LWPOLYLINE
  5
200
330
18
100
AcDbEntity
  8
ADP1DETAIL
100
AcDbPolyline
 90
        4
 70
     0
 43
0.0
 10
-96.70718545536342
 20
64.25287801258349
 42
-0.1817589703428471
 10
-97.77162172012523
 20
64.20162889517875
 42
-0.3532854719088537
 10
-99.06308510238057
 20
66.17232281625314
 42
-0.0495025969288706
 10
-98.90656991723204
 20
66.95242271829525
 42
-0.2375157723149408
  0
LWPOLYLINE
  5
206
330
18
100
AcDbEntity
  8
ADP1DETAIL
100
AcDbPolyline
 90
        3
 70
     0
 43
0.0
 10
-98.74161146039881
 20
64.9233433469131
 42
-0.0945679647632569
 10
-98.35865054919013
 20
65.51542484256167
 42
-0.2760273459017991
 10
-96.0671289131978
 20
65.91795847592476
 42
0.2186977829060976
  0
ARC
  5
20B
330
18
100
AcDbEntity
  8
ADP1DETAIL
100
AcDbCircle
 10
-95.48122713622564
 20
65.39881891774708
 30
0.0
 40
1.923805033377139
100
AcDbArc
 50
174.4222231980175
 51
204.5186628821089
  0
LINE
  5
20C
330
18
100
AcDbEntity
  8
ADP1DETAIL
100
AcDbLine
 10
-98.78131123941699
 20
63.5447309214873
 30
0.0
 11
-98.42909396282177
 21
63.49780962316135
 31
0.0
  0
LINE
  5
20D
330
18
100
AcDbEntity
  8
ADP1DETAIL
100
AcDbLine
 10
-97.34896097778912
 20
64.69430235854135
 30
0.0
 11
-97.70117825438434
 21
64.83506621970723
 31
0.0
  0
LINE
  5
20E
330
18
100
AcDbEntity
  8
ADP1DETAIL
100
AcDbLine
 10
-97.41940444353003
 20
64.90544813338418
 30
0.0
 11
-97.72465940963131
 21
65.06967264371304
 31
0.0
  0
LINE
  5
20F
330
18
100
AcDbEntity
  8
ADP1DETAIL
100
AcDbLine
 10
-99.83796306920268
 20
65.32773971688182
 30
0.0
 11
-99.76751965557104
 21
65.11659390822702
 31
0.0
  0
LINE
  5
210
330
18
100
AcDbEntity
  8
ADP1DETAIL
100
AcDbLine
 10
-100.0727746216723
 20
65.39812163055876
 30
0.0
 11
-100.0023311559314
 21
65.11659390822702
 31
0.0
  0
LINE
  5
211
330
18
100
AcDbEntity
  8
ADP1DETAIL
100
AcDbLine
 10
-99.90840653494359
 20
65.46850354423573
 30
0.0
 11
-99.50922694785443
 21
65.56234610707566
 31
0.0
  0
ARC
  5
212
330
18
100
AcDbEntity
  8
ADP1DETAIL
100
AcDbCircle
 10
-99.87312320630259
 20
64.81094923007408
 30
0.0
 40
0.541394023447436
100
AcDbArc
 50
40.63355874368388
 51
86.27637879741934
  0
ARC
  5
213
330
18
100
AcDbEntity
  8
ADP1DETAIL
100
AcDbCircle
 10
-99.77106905596823
 20
65.07843081915495
 30
0.0
 40
0.3203115510677439
100
AcDbArc
 50
15.4043964351864
 51
93.56760068919538
  0
LINE
  5
214
330
18
100
AcDbEntity
  8
ADP1DETAIL
100
AcDbLine
 10
-100.1432180874132
 20
65.6092674054016
 30
0.0
 11
-99.7205573450771
 21
65.77349188191847
 31
0.0
  0
LINE
  5
215
330
18
100
AcDbEntity
  8
ADP1DETAIL
100
AcDbLine
 10
-97.44288559877698
 20
65.18697585571594
 30
0.0
 11
-97.65421594389042
 21
65.37466098139579
 31
0.0
  0
LINE
  5
216
330
18
100
AcDbEntity
  8
ADP1DETAIL
100
AcDbLine
 10
-97.32547982254217
 20
65.30427906771885
 30
0.0
 11
-97.18459294316962
 21
65.44504289507274
 31
0.0
  0
LINE
  5
217
330
18
100
AcDbEntity
  8
ADP1DETAIL
100
AcDbLine
 10
-97.16111178792266
 20
64.8819875180332
 30
0.0
 11
-96.9028191323153
 21
65.04621199455006
 31
0.0
  0
LINE
  5
218
330
18
100
AcDbEntity
  8
ADP1DETAIL
100
AcDbLine
 10
-94.74255311014074
 20
66.19578346541612
 30
0.0
 11
-94.85995888637555
 21
66.45385050477291
 31
0.0
  0
LINE
  5
219
330
18
100
AcDbEntity
  8
ADP1DETAIL
100
AcDbLine
 10
-94.57818507552124
 20
66.36000794193297
 30
0.0
 11
-94.60166623076819
 21
66.66499627961574
 31
0.0
  0
LINE
  5
21A
330
18
100
AcDbEntity
  8
ADP1DETAIL
100
AcDbLine
 10
-94.41381698879245
 20
66.47731115393589
 30
0.0
 11
-94.39033583354548
 21
66.78229949161864
 31
0.0
  0
LINE
  5
21B
330
18
100
AcDbEntity
  8
ADP1DETAIL
100
AcDbLine
 10
-94.55470392027427
 20
66.14886216709016
 30
0.0
 11
-94.24944895417295
 21
66.12540151792718
 31
0.0
  0
LINE
  5
21C
330
18
100
AcDbEntity
  8
ADP1DETAIL
100
AcDbLine
 10
-94.64862854126211
 20
66.05501960425023
 30
0.0
 11
-94.36685473040778
 21
65.96117704141031
 31
0.0
  0
LWPOLYLINE
  5
21D
330
18
100
AcDbEntity
  8
ADP1DETAIL
100
AcDbPolyline
 90
        3
 70
     0
 43
0.0
 10
-96.12794111338393
 20
69.43335203554745
 42
0.249738352907156
 10
-98.80479239466396
 20
67.9084103133217
 42
0.00396239932443
 10
-98.82631513920136
 20
67.87374159230826
 42
0.4127683334960732
  0
LWPOLYLINE
  5
222
330
18
100
AcDbEntity
  8
ADP1DETAIL
100
AcDbPolyline
 90
        2
 70
     0
 43
0.0
 10
-97.16111178792266
 20
69.22220626070464
 42
0.1382725074238873
 10
-99.19636921775854
 20
68.53879725994652
 42
0.2484104360315981
  0
ARC
  5
226
330
18
100
AcDbEntity
  8
ADP1DETAIL
100
AcDbCircle
 10
-98.87260733744152
 20
69.19060444615023
 30
0.0
 40
0.7292854543845139
100
AcDbArc
 50
164.5024187354259
 51
215.8234917424551
  0
LWPOLYLINE
  5
227
330
18
100
AcDbEntity
  8
ADP1DETAIL
100
AcDbPolyline
 90
        3
 70
     0
 43
0.0
 10
-98.26586493207564
 20
67.39971706924535
 42
-0.1730719292751498
 10
-99.17602245876253
 20
68.47610533722963
 42
-0.1304376382941976
 10
-99.213171712599
 20
68.84727370550006
 42
-0.8518556535109526
  0
ARC
  5
22C
330
18
100
AcDbEntity
  8
ADP1DETAIL
100
AcDbCircle
 10
-97.21137296733244
 20
69.11687461739086
 30
0.0
 40
2.09142064651409
100
AcDbArc
 50
202.1707869571573
 51
239.4267456247648
  0
ARC
  5
22D
330
18
100
AcDbEntity
  8
ADP1DETAIL
100
AcDbCircle
 10
-98.3141076455373
 20
69.4932356141759
 30
0.0
 40
1.265865267689926
100
AcDbArc
 50
184.8837123088313
 51
210.1961876974063
  0
LINE
  5
22E
330
18
100
AcDbEntity
  8
ADP1DETAIL
100
AcDbLine
 10
-95.82268614728262
 20
68.21339865100445
 30
0.0
 11
-95.42350656019346
 21
68.30724121384439
 31
0.0
  0
LINE
  5
22F
330
18
100
AcDbEntity
  8
ADP1DETAIL
100
AcDbLine
 10
-96.08097880288999
 20
68.00225287616163
 30
0.0
 11
-95.65831806055387
 21
68.04917417448759
 31
0.0
  0
ARC
  5
230
330
18
100
AcDbEntity
  8
ADP1DETAIL
100
AcDbCircle
 10
-95.41467372717947
 20
67.45531200995623
 30
0.0
 40
0.9746643317869601
100
AcDbArc
 50
96.05185503252478
 51
175.4258903566245
  0
ARC
  5
231
330
18
100
AcDbEntity
  8
ADP1DETAIL
100
AcDbCircle
 10
-95.11822195427987
 20
67.31324988007973
 30
0.0
 40
1.180823243627528
100
AcDbArc
 50
109.7597574977693
 51
173.8771375673281
  0
LINE
  5
232
330
18
100
AcDbEntity
  8
ADP1DETAIL
100
AcDbLine
 10
-96.19838452701557
 20
67.72072518764186
 30
0.0
 11
-95.79920499203565
 21
67.74418583680483
 31
0.0
  0
LINE
  5
233
330
18
100
AcDbEntity
  8
ADP1DETAIL
100
AcDbLine
 10
-96.19838452701557
 20
67.97879222699866
 30
0.0
 11
-96.24534683750951
 21
68.42454442584728
 31
0.0
  0
LINE
  5
234
330
18
100
AcDbEntity
  8
ADP1DETAIL
100
AcDbLine
 10
-95.89312956091427
 20
68.26031994933043
 30
0.0
 11
-95.82268614728262
 21
68.56530828701316
 31
0.0
  0
LINE
  5
235
330
18
100
AcDbEntity
  8
ADP1DETAIL
100
AcDbLine
 10
-96.36275261374432
 20
67.74418583680483
 30
0.0
 11
-96.50363954522612
 21
68.16647738649049
 31
0.0
  0
LINE
  5
236
330
18
100
AcDbEntity
  8
ADP1DETAIL
100
AcDbLine
 10
-96.19838452701557
 20
67.50957941279904
 30
0.0
 11
-95.84616725042035
 21
67.57996132647598
 31
0.0
  0
LINE
  5
237
330
18
100
AcDbEntity
  8
ADP1DETAIL
100
AcDbLine
 10
-96.38623376899131
 20
67.57996132647598
 30
0.0
 11
-96.64452642459867
 21
67.86148901499576
 31
0.0
  0
LWPOLYLINE
  5
238
330
18
100
AcDbEntity
  8
ADP1DETAIL
100
AcDbPolyline
 90
        2
 70
     0
 43
0.0
 10
-93.52654258683857
 20
67.77745780454971
 42
-0.1514252925297569
 10
-92.55880603693771
 20
65.46850354423573
 42
0.9080420257156362
  0
LWPOLYLINE
  5
23C
330
18
100
AcDbEntity
  8
ADP1DETAIL
100
AcDbPolyline
 90
        2
 70
     0
 43
0.0
 10
-93.25151601635766
 20
67.78275578954962
 42
-0.1314571903895349
 10
-92.34747563971504
 20
65.65618870372755
 42
0.8684722592886389
  0
LWPOLYLINE
  5
240
330
18
100
AcDbEntity
  8
ADP1DETAIL
100
AcDbPolyline
 90
        4
 70
     0
 43
0.0
 10
-92.34747563971504
 20
65.63272805456458
 10
-92.27703217397413
 20
65.63272805456458
 10
-92.27703217397413
 20
64.2720108088557
 10
-92.32399448446805
 20
64.2720108088557
 42
-0.1430488527653842
  0
LWPOLYLINE
  5
246
330
18
100
AcDbEntity
  8
ADP1DETAIL
100
AcDbPolyline
 90
        3
 70
     0
 43
0.0
 10
-92.69969291631026
 20
63.94356182200997
 42
0.2681042749762986
 10
-93.0988725033994
 20
65.84387382940741
 42
0.1487742067588056
 10
-93.87375052233076
 20
66.31308667741902
 42
-0.1330951511504244
  0
LWPOLYLINE
  5
24B
330
18
100
AcDbEntity
  8
ADP1DETAIL
100
AcDbPolyline
 90
        4
 70
     0
 43
0.0
 10
-93.68760664036793
 20
66.49049148682277
 42
0.0041263171548184
 10
-93.66242012510808
 20
66.47731115393589
 42
-0.1759084714480504
 10
-92.55880603693771
 20
65.46850354423573
 42
-0.0801618816941797
 10
-92.32399448446805
 20
64.76468430603029
 42
0.8498079756046836
  0
LINE
  5
251
330
18
100
AcDbEntity
  8
ADP1DETAIL
100
AcDbLine
 10
-94.15552433318511
 20
64.41277467002158
 30
0.0
 11
-93.89723167757772
 21
64.48315658369853
 31
0.0
  0
LINE
  5
252
330
18
100
AcDbEntity
  8
ADP1DETAIL
100
AcDbLine
 10
-93.89723167757772
 20
64.22508954434173
 30
0.0
 11
-93.63893902197036
 21
64.43623531918456
 31
0.0
  0
LINE
  5
253
330
18
100
AcDbEntity
  8
ADP1DETAIL
100
AcDbLine
 10
-93.52153324573555
 20
64.60045979570144
 30
0.0
 11
-93.68590128035505
 21
64.8819875180332
 31
0.0
  0
LINE
  5
254
330
18
100
AcDbEntity
  8
ADP1DETAIL
100
AcDbLine
 10
-93.9207128328247
 20
64.62392044486441
 30
0.0
 11
-94.06159971219725
 21
64.83506621970723
 31
0.0
  0
LINE
  5
255
330
18
100
AcDbEntity
  8
ADP1DETAIL
100
AcDbLine
 10
-93.73286359084898
 20
64.10778633233883
 30
0.0
 11
-93.35716515900678
 21
64.31893210718166
 31
0.0
  0
LINE
  5
256
330
18
100
AcDbEntity
  8
ADP1DETAIL
100
AcDbLine
 10
-93.28672174537514
 20
64.5066172328615
 30
0.0
 11
-93.45108977999464
 21
64.90544813338418
 31
0.0
  0
LINE
  5
257
330
18
100
AcDbEntity
  8
ADP1DETAIL
100
AcDbLine
 10
-94.13204317793812
 20
66.52423245226185
 30
0.0
 11
-93.87375052233076
 21
66.50077180309885
 31
0.0
  0
LINE
  5
258
330
18
100
AcDbEntity
  8
ADP1DETAIL
100
AcDbLine
 10
-93.05191019290548
 20
68.79991471101899
 30
0.0
 11
-92.98146672716459
 21
69.10490304870172
 31
0.0
  0
LINE
  5
259
330
18
100
AcDbEntity
  8
ADP1DETAIL
100
AcDbLine
 10
-93.35716515900678
 20
68.63569020069011
 30
0.0
 11
-93.26324059012817
 21
69.0110604858618
 31
0.0
  0
LINE
  5
25A
330
18
100
AcDbEntity
  8
ADP1DETAIL
100
AcDbLine
 10
-93.63893902197036
 20
68.51838698868721
 30
0.0
 11
-93.54501440098252
 21
68.96413918753585
 31
0.0
  0
LINE
  5
25B
330
18
100
AcDbEntity
  8
ADP1DETAIL
100
AcDbLine
 10
-93.87375052233076
 20
68.37762316133333
 30
0.0
 11
-93.8502693670838
 21
69.0110604858618
 31
0.0
  0
ARC
  5
25C
330
18
100
AcDbEntity
  8
ADP1DETAIL
100
AcDbCircle
 10
-94.80758942398066
 20
70.89467018800309
 30
0.0
 40
2.841092900955348
100
AcDbArc
 50
286.2065601190859
 51
321.5596408492068
  0
ARC
  5
25D
330
18
100
AcDbEntity
  8
ADP1DETAIL
100
AcDbCircle
 10
-94.35937899086404
 20
70.85415915286813
 30
0.0
 40
2.477180937810103
100
AcDbArc
 50
277.9996411567813
 51
315.8389812920474
  0
LINE
  5
25E
330
18
100
AcDbEntity
  8
ADP1DETAIL
100
AcDbLine
 10
-93.33368400375981
 20
68.44800507501027
 30
0.0
 11
-92.86406100303901
 21
68.42454442584728
 31
0.0
  0
LINE
  5
25F
330
18
100
AcDbEntity
  8
ADP1DETAIL
100
AcDbLine
 10
-93.02842903765853
 20
68.63569020069011
 30
0.0
 11
-92.72317407155723
 21
68.63569020069011
 31
0.0
  0
LINE
  5
260
330
18
100
AcDbEntity
  8
ADP1DETAIL
100
AcDbLine
 10
-93.8502693670838
 20
68.18993800184149
 30
0.0
 11
-93.42760862474767
 21
68.02571352532462
 31
0.0
  0
LINE
  5
261
330
18
100
AcDbEntity
  8
ADP1DETAIL
100
AcDbLine
 10
-93.54501440098252
 20
68.33070186300736
 30
0.0
 11
-93.00494788241156
 21
68.14301673732751
 31
0.0
  0
TEXT
  5
26F
330
18
100
AcDbEntity
  8
ADPDIM
100
AcDbText
 10
-109.4798421371341
 20
59.03059045394053
 30
0.0
 40
0.25
  1
J U L I U S  B L U M  &  C O . ,  I N C .      ( 8 0 0 )  5 2 6 - 6 2 9 3        W W W . J U L I U S B L U M . C O M        P A R T  N o .  5 8 1
 41
1.25
  7
ARIAL_WIDE
 72
     1
 11
-96.61042706210009
 21
59.28059045394054
 31
0.0
100
AcDbText
 73
     3
  0
ENDSEC
  0
SECTION
  2
OBJECTS
  0
DICTIONARY
  5
C
330
0
100
AcDbDictionary
  3
ACAD_GROUP
350
D
  3
ACAD_LAYOUT
350
268
  3
ACAD_MLINESTYLE
350
E
  3
ACAD_PLOTSETTINGS
350
269
  3
ACAD_PLOTSTYLENAME
350
266
  3
ACDBHEADERROUNDTRIPXREC
350
3B3
  3
ACDBVARIABLEDICTIONARY
350
2C9
  0
DICTIONARY
  5
2C3
330
18
100
AcDbDictionary
280
     1
  3
ACAD_LAYOUTSELFREF
360
3D4
  0
DICTIONARY
  5
2C1
330
15
100
AcDbDictionary
280
     1
  3
ACAD_LAYOUTSELFREF
360
3D3
  0
DICTIONARY
  5
D
102
{ACAD_REACTORS
330
C
102
}
330
C
100
AcDbDictionary
  0
DICTIONARY
  5
268
102
{ACAD_REACTORS
330
C
102
}
330
C
100
AcDbDictionary
  0
DICTIONARY
  5
E
102
{ACAD_REACTORS
330
C
102
}
330
C
100
AcDbDictionary
  3
STANDARD
350
1B
  0
DICTIONARY
  5
269
102
{ACAD_REACTORS
330
C
102
}
330
C
100
AcDbDictionary
  0
ACDBDICTIONARYWDFLT
  5
266
102
{ACAD_REACTORS
330
C
102
}
330
C
100
AcDbDictionary
281
     1
  3
Normal
350
267
100
AcDbDictionaryWithDefault
340
267
  0
DICTIONARY
  5
3B3
102
{ACAD_REACTORS
330
C
102
}
330
C
100
AcDbDictionary
  3
CEPSNTYPE
350
3BD
  3
FINGERPRINTGUID
350
3BE
  3
HYPERLINKBASE
350
3B6
  3
INSUNITS
350
3BC
  3
LAYOUTDICT
350
3B8
  3
LWETCUNION
350
3BB
  3
PLOTSETDICT
350
3B9
  3
PLOTSTYLNAMDICT
350
3BA
  3
PSVPSCALE
350
3C0
  3
PUCSBASE
350
3C3
  3
PUCSORGBACK
350
3C9
  3
PUCSORGBOTTOM
350
3C5
  3
PUCSORGFRONT
350
3C8
  3
PUCSORGLEFT
350
3C6
  3
PUCSORGRIGHT
350
3C7
  3
PUCSORGTOP
350
3C4
  3
PUCSORTHOREF
350
3C1
  3
PUCSORTHOVIEW
350
3C2
  3
STYLESHEET
350
3B7
  3
TSTACKALIGN
350
3B4
  3
TSTACKSIZE
350
3B5
  3
UCSBASE
350
3CC
  3
UCSORGBACK
350
3D2
  3
UCSORGBOTTOM
350
3CE
  3
UCSORGFRONT
350
3D1
  3
UCSORGLEFT
350
3CF
  3
UCSORGRIGHT
350
3D0
  3
UCSORGTOP
350
3CD
  3
UCSORTHOREF
350
3CA
  3
UCSORTHOVIEW
350
3CB
  3
VERSIONGUID
350
3BF
  0
DICTIONARY
  5
2C9
102
{ACAD_REACTORS
330
C
102
}
330
C
100
AcDbDictionary
  3
DIMASSOC
350
2CA
  0
XRECORD
  5
3D4
102
{ACAD_REACTORS
330
2C3
102
}
330
2C3
100
AcDbXrecord
340
18
  0
XRECORD
  5
3D3
102
{ACAD_REACTORS
330
2C1
102
}
330
2C1
100
AcDbXrecord
340
15
  0
MLINESTYLE
  5
1B
102
{ACAD_REACTORS
330
E
102
}
330
E
100
AcDbMlineStyle
  2
STANDARD
 70
     0
  3

 62
     0
 51
90.0
 52
90.0
 71
     2
 49
0.5
 62
   256
  6
BYLAYER
 49
-0.5
 62
   256
  6
BYLAYER
  0
ACDBPLACEHOLDER
  5
267
102
{ACAD_REACTORS
330
266
102
}
330
266
100
AcDbPlaceHolder
280
     0
  0
XRECORD
  5
3BD
102
{ACAD_REACTORS
330
3B3
102
}
330
3B3
100
AcDbXrecord
 90
        0
  0
XRECORD
  5
3BE
102
{ACAD_REACTORS
330
3B3
102
}
330
3B3
100
AcDbXrecord
  1
{91CBDE5C-E84D-469D-A815-3D4AD0CC1C40}
  0
XRECORD
  5
3B6
102
{ACAD_REACTORS
330
3B3
102
}
330
3B3
100
AcDbXrecord
  1

  0
XRECORD
  5
3BC
102
{ACAD_REACTORS
330
3B3
102
}
330
3B3
100
AcDbXrecord
 90
        0
  0
XRECORD
  5
3B8
102
{ACAD_REACTORS
330
3B3
102
}
330
3B3
100
AcDbXrecord
340
268
  0
XRECORD
  5
3BB
102
{ACAD_REACTORS
330
3B3
102
}
330
3B3
100
AcDbXrecord
 90
    14877
  0
XRECORD
  5
3B9
102
{ACAD_REACTORS
330
3B3
102
}
330
3B3
100
AcDbXrecord
340
269
  0
XRECORD
  5
3BA
102
{ACAD_REACTORS
330
3B3
102
}
330
3B3
100
AcDbXrecord
340
266
  0
XRECORD
  5
3C0
102
{ACAD_REACTORS
330
3B3
102
}
330
3B3
100
AcDbXrecord
 40
0.0
  0
XRECORD
  5
3C3
102
{ACAD_REACTORS
330
3B3
102
}
330
3B3
100
AcDbXrecord
340
0
  0
XRECORD
  5
3C9
102
{ACAD_REACTORS
330
3B3
102
}
330
3B3
100
AcDbXrecord
 10
0.0
 20
0.0
 30
0.0
  0
XRECORD
  5
3C5
102
{ACAD_REACTORS
330
3B3
102
}
330
3B3
100
AcDbXrecord
 10
0.0
 20
0.0
 30
0.0
  0
XRECORD
  5
3C8
102
{ACAD_REACTORS
330
3B3
102
}
330
3B3
100
AcDbXrecord
 10
0.0
 20
0.0
 30
0.0
  0
XRECORD
  5
3C6
102
{ACAD_REACTORS
330
3B3
102
}
330
3B3
100
AcDbXrecord
 10
0.0
 20
0.0
 30
0.0
  0
XRECORD
  5
3C7
102
{ACAD_REACTORS
330
3B3
102
}
330
3B3
100
AcDbXrecord
 10
0.0
 20
0.0
 30
0.0
  0
XRECORD
  5
3C4
102
{ACAD_REACTORS
330
3B3
102
}
330
3B3
100
AcDbXrecord
 10
0.0
 20
0.0
 30
0.0
  0
XRECORD
  5
3C1
102
{ACAD_REACTORS
330
3B3
102
}
330
3B3
100
AcDbXrecord
340
0
  0
XRECORD
  5
3C2
102
{ACAD_REACTORS
330
3B3
102
}
330
3B3
100
AcDbXrecord
 70
     0
  0
XRECORD
  5
3B7
102
{ACAD_REACTORS
330
3B3
102
}
330
3B3
100
AcDbXrecord
  1

  0
XRECORD
  5
3B4
102
{ACAD_REACTORS
330
3B3
102
}
330
3B3
100
AcDbXrecord
 90
        1
  0
XRECORD
  5
3B5
102
{ACAD_REACTORS
330
3B3
102
}
330
3B3
100
AcDbXrecord
 90
       70
  0
XRECORD
  5
3CC
102
{ACAD_REACTORS
330
3B3
102
}
330
3B3
100
AcDbXrecord
340
0
  0
XRECORD
  5
3D2
102
{ACAD_REACTORS
330
3B3
102
}
330
3B3
100
AcDbXrecord
 10
0.0
 20
0.0
 30
0.0
  0
XRECORD
  5
3CE
102
{ACAD_REACTORS
330
3B3
102
}
330
3B3
100
AcDbXrecord
 10
0.0
 20
0.0
 30
0.0
  0
XRECORD
  5
3D1
102
{ACAD_REACTORS
330
3B3
102
}
330
3B3
100
AcDbXrecord
 10
0.0
 20
0.0
 30
0.0
  0
XRECORD
  5
3CF
102
{ACAD_REACTORS
330
3B3
102
}
330
3B3
100
AcDbXrecord
 10
0.0
 20
0.0
 30
0.0
  0
XRECORD
  5
3D0
102
{ACAD_REACTORS
330
3B3
102
}
330
3B3
100
AcDbXrecord
 10
0.0
 20
0.0
 30
0.0
  0
XRECORD
  5
3CD
102
{ACAD_REACTORS
330
3B3
102
}
330
3B3
100
AcDbXrecord
 10
0.0
 20
0.0
 30
0.0
  0
XRECORD
  5
3CA
102
{ACAD_REACTORS
330
3B3
102
}
330
3B3
100
AcDbXrecord
340
0
  0
XRECORD
  5
3CB
102
{ACAD_REACTORS
330
3B3
102
}
330
3B3
100
AcDbXrecord
 70
     0
  0
XRECORD
  5
3BF
102
{ACAD_REACTORS
330
3B3
102
}
330
3B3
100
AcDbXrecord
  1
{E529BED3-71F9-4C21-8F65-AACDD882E8E2}
  0
DICTIONARYVAR
  5
2CA
102
{ACAD_REACTORS
330
2C9
102
}
330
2C9
100
DictionaryVariables
280
     0
  1
1
  0
ENDSEC
  0
EOF
