  0
SECTION
  2
HEADER
  9
$ACADVER
  1
AC1014
  9
$ACADMAINTVER
 70
     9
  9
$DWGCODEPAGE
  3
ANSI_1252
  9
$INSBASE
 10
-111.1894270647983
 20
60.41689560748218
 30
0.0
  9
$EXTMIN
 10
-138.0984281644813
 20
59.1119396554874
 30
0.0
  9
$EXTMAX
 10
-86.62076786434496
 20
89.64913072311958
 30
0.0
  9
$LIMMIN
 10
0.0
 20
0.0
  9
$LIMMAX
 10
36.0
 20
36.0
  9
$ORTHOMODE
 70
     1
  9
$REGENMODE
 70
     1
  9
$FILLMODE
 70
     1
  9
$QTEXTMODE
 70
     0
  9
$MIRRTEXT
 70
     1
  9
$DRAGMODE
 70
     0
  9
$LTSCALE
 40
1.0
  9
$OSMODE
 70
    37
  9
$ATTMODE
 70
     1
  9
$TEXTSIZE
 40
0.2
  9
$TRACEWID
 40
0.05
  9
$TEXTSTYLE
  7
STANDARD
  9
$CLAYER
  8
ADPDIM
  9
$CELTYPE
  6
BYLAYER
  9
$CECOLOR
 62
   256
  9
$CELTSCALE
 40
1.0
  9
$DELOBJ
 70
     1
  9
$DISPSILH
 70
     0
  9
$DIMSCALE
 40
1.0
  9
$DIMASZ
 40
0.125
  9
$DIMEXO
 40
0.0625
  9
$DIMDLI
 40
0.38
  9
$DIMRND
 40
0.0
  9
$DIMDLE
 40
0.0
  9
$DIMEXE
 40
0.18
  9
$DIMTP
 40
0.0
  9
$DIMTM
 40
0.0
  9
$DIMTXT
 40
0.125
  9
$DIMCEN
 40
0.1875
  9
$DIMTSZ
 40
0.125
  9
$DIMTOL
 70
     0
  9
$DIMLIM
 70
     0
  9
$DIMTIH
 70
     0
  9
$DIMTOH
 70
     0
  9
$DIMSE1
 70
     0
  9
$DIMSE2
 70
     0
  9
$DIMTAD
 70
     0
  9
$DIMZIN
 70
     3
  9
$DIMBLK
  1

  9
$DIMASO
 70
     1
  9
$DIMSHO
 70
     1
  9
$DIMPOST
  1

  9
$DIMAPOST
  1

  9
$DIMALT
 70
     0
  9
$DIMALTD
 70
     1
  9
$DIMALTF
 40
25.4
  9
$DIMLFAC
 40
1.0
  9
$DIMTOFL
 70
     0
  9
$DIMTVP
 40
0.0
  9
$DIMTIX
 70
     0
  9
$DIMSOXD
 70
     0
  9
$DIMSAH
 70
     0
  9
$DIMBLK1
  1

  9
$DIMBLK2
  1

  9
$DIMSTYLE
  2
STANDARD
  9
$DIMCLRD
 70
     0
  9
$DIMCLRE
 70
     0
  9
$DIMCLRT
 70
     0
  9
$DIMTFAC
 40
1.0
  9
$DIMGAP
 40
0.125
  9
$DIMJUST
 70
     0
  9
$DIMSD1
 70
     0
  9
$DIMSD2
 70
     0
  9
$DIMTOLJ
 70
     1
  9
$DIMTZIN
 70
     0
  9
$DIMALTZ
 70
     0
  9
$DIMALTTZ
 70
     0
  9
$DIMFIT
 70
     3
  9
$DIMUPT
 70
     0
  9
$DIMUNIT
 70
     2
  9
$DIMDEC
 70
     4
  9
$DIMTDEC
 70
     4
  9
$DIMALTU
 70
     2
  9
$DIMALTTD
 70
     2
  9
$DIMTXSTY
  7
STANDARD
  9
$DIMAUNIT
 70
     0
  9
$LUNITS
 70
     5
  9
$LUPREC
 70
     5
  9
$SKETCHINC
 40
0.1
  9
$FILLETRAD
 40
0.062
  9
$AUNITS
 70
     0
  9
$AUPREC
 70
     0
  9
$MENU
  1
acad
  9
$ELEVATION
 40
0.0
  9
$PELEVATION
 40
0.0
  9
$THICKNESS
 40
0.0
  9
$LIMCHECK
 70
     0
  9
$BLIPMODE
 70
     0
  9
$CHAMFERA
 40
0.0
  9
$CHAMFERB
 40
0.0
  9
$CHAMFERC
 40
0.0
  9
$CHAMFERD
 40
0.0
  9
$SKPOLY
 70
     0
  9
$TDCREATE
 40
2450409.478552847
  9
$TDUPDATE
 40
2452297.073430266
  9
$TDINDWG
 40
0.0100917477
  9
$TDUSRTIMER
 40
0.0100917477
  9
$USRTIMER
 70
     1
  9
$ANGBASE
 50
0.0
  9
$ANGDIR
 70
     0
  9
$PDMODE
 70
     0
  9
$PDSIZE
 40
0.0
  9
$PLINEWID
 40
0.0
  9
$COORDS
 70
     2
  9
$SPLFRAME
 70
     0
  9
$SPLINETYPE
 70
     6
  9
$SPLINESEGS
 70
     8
  9
$ATTDIA
 70
     0
  9
$ATTREQ
 70
     1
  9
$HANDLING
 70
 22529
  9
$HANDSEED
  5
658
  9
$SURFTAB1
 70
     6
  9
$SURFTAB2
 70
     6
  9
$SURFTYPE
 70
     6
  9
$SURFU
 70
     6
  9
$SURFV
 70
     6
  9
$UCSNAME
  2

  9
$UCSORG
 10
0.0
 20
0.0
 30
0.0
  9
$UCSXDIR
 10
1.0
 20
0.0
 30
0.0
  9
$UCSYDIR
 10
0.0
 20
1.0
 30
0.0
  9
$PUCSNAME
  2

  9
$PUCSORG
 10
0.0
 20
0.0
 30
0.0
  9
$PUCSXDIR
 10
1.0
 20
0.0
 30
0.0
  9
$PUCSYDIR
 10
0.0
 20
1.0
 30
0.0
  9
$USERI1
 70
     0
  9
$USERI2
 70
     0
  9
$USERI3
 70
     0
  9
$USERI4
 70
     0
  9
$USERI5
 70
     0
  9
$USERR1
 40
0.0
  9
$USERR2
 40
0.0
  9
$USERR3
 40
0.0
  9
$USERR4
 40
0.0
  9
$USERR5
 40
0.0
  9
$WORLDVIEW
 70
     1
  9
$SHADEDGE
 70
     3
  9
$SHADEDIF
 70
    70
  9
$TILEMODE
 70
     1
  9
$MAXACTVP
 70
    15
  9
$PINSBASE
 10
0.0058594681322575
 20
8.002266177471257
 30
0.0
  9
$PLIMCHECK
 70
     0
  9
$PEXTMIN
 10
1.000000000000000E+20
 20
1.000000000000000E+20
 30
1.000000000000000E+20
  9
$PEXTMAX
 10
-1.000000000000000E+20
 20
-1.000000000000000E+20
 30
-1.000000000000000E+20
  9
$PLIMMIN
 10
0.0
 20
0.0
  9
$PLIMMAX
 10
12.0
 20
9.0
  9
$UNITMODE
 70
     0
  9
$VISRETAIN
 70
     0
  9
$PLINEGEN
 70
     0
  9
$PSLTSCALE
 70
     1
  9
$TREEDEPTH
 70
  3020
  9
$PICKSTYLE
 70
     1
  9
$CMLSTYLE
  2
STANDARD
  9
$CMLJUST
 70
     0
  9
$CMLSCALE
 40
1.0
  9
$PROXYGRAPHICS
 70
     1
  9
$MEASUREMENT
 70
     0
  0
ENDSEC
  0
SECTION
  2
CLASSES
  0
CLASS
  1
ACDBDICTIONARYWDFLT
  2
AcDbDictionaryWithDefault
  3
AutoCAD 2000
 90
        0
280
     0
281
     0
  0
CLASS
  1
ACDBPLACEHOLDER
  2
AcDbPlaceHolder
  3
AutoCAD 2000
 90
        0
280
     0
281
     0
  0
CLASS
  1
LAYOUT
  2
AcDbLayout
  3
AutoCAD 2000
 90
        0
280
     0
281
     0
  0
CLASS
  1
DICTIONARYVAR
  2
AcDbDictionaryVar
  3
AutoCAD 2000
 90
        0
280
     0
281
     0
  0
CLASS
  1
LONG_TRANSACTION
  2
AcDbLongTransaction
  3
AutoCAD 2000
 90
        0
280
     0
281
     0
  0
CLASS
  1
LWPOLYLINE
  2
AcDbPolyline
  3
AutoCAD 2000
 90
        0
280
     0
281
     1
  0
CLASS
  1
HATCH
  2
AcDbHatch
  3
AutoCAD 2000
 90
        0
280
     0
281
     1
  0
CLASS
  1
XRECORD
  2
AcDbXrecord
  3
AutoCAD 2000
 90
        0
280
     0
281
     0
  0
CLASS
  1
LONG_TRANSACTION
  2
AcDbLongTransaction
  3
AutoCAD 2000
 90
        0
280
     0
281
     0
  0
CLASS
  1
LWPOLYLINE
  2
AcDbPolyline
  3
AutoCAD 2000
 90
        0
280
     0
281
     1
  0
CLASS
  1
HATCH
  2
AcDbHatch
  3
AutoCAD 2000
 90
        0
280
     0
281
     1
  0
CLASS
  1
XRECORD
  2
AcDbXrecord
  3
AutoCAD 2000
 90
        0
280
     0
281
     0
  0
CLASS
  1
LONG_TRANSACTION
  2
AcDbLongTransaction
  3
AutoCAD 2000
 90
        0
280
     0
281
     0
  0
CLASS
  1
LWPOLYLINE
  2
AcDbPolyline
  3
AutoCAD 2000
 90
        0
280
     0
281
     1
  0
CLASS
  1
HATCH
  2
AcDbHatch
  3
AutoCAD 2000
 90
        0
280
     0
281
     1
  0
CLASS
  1
XRECORD
  2
AcDbXrecord
  3
AutoCAD 2000
 90
        0
280
     0
281
     0
  0
CLASS
  1
LONG_TRANSACTION
  2
AcDbLongTransaction
  3
AutoCAD 2000
 90
        0
280
     0
281
     0
  0
CLASS
  1
LWPOLYLINE
  2
AcDbPolyline
  3
AutoCAD 2000
 90
        0
280
     0
281
     1
  0
CLASS
  1
HATCH
  2
AcDbHatch
  3
AutoCAD 2000
 90
        0
280
     0
281
     1
  0
CLASS
  1
XRECORD
  2
AcDbXrecord
  3
AutoCAD 2000
 90
        0
280
     0
281
     0
  0
CLASS
  1
LONG_TRANSACTION
  2
AcDbLongTransaction
  3
AutoCAD 2000
 90
        0
280
     0
281
     0
  0
CLASS
  1
LWPOLYLINE
  2
AcDbPolyline
  3
AutoCAD 2000
 90
        0
280
     0
281
     1
  0
CLASS
  1
HATCH
  2
AcDbHatch
  3
AutoCAD 2000
 90
        0
280
     0
281
     1
  0
CLASS
  1
XRECORD
  2
AcDbXrecord
  3
AutoCAD 2000
 90
        0
280
     0
281
     0
  0
ENDSEC
  0
SECTION
  2
TABLES
  0
TABLE
  2
VPORT
  5
8
330
0
100
AcDbSymbolTable
 70
     2
  0
VPORT
  5
635
330
8
100
AcDbSymbolTableRecord
100
AcDbViewportTableRecord
  2
*ACTIVE
 70
     0
 10
0.0
 20
0.0
 11
1.0
 21
1.0
 12
-112.3170167434679
 22
74.38115257194723
 13
0.0
 23
0.0
 14
0.5740882589684922
 24
0.5740882589684922
 15
0.5
 25
0.5
 16
0.0
 26
0.0
 36
1.0
 17
0.0
 27
0.0
 37
0.0
 40
33.00097549302132
 41
1.570528967254408
 42
50.0
 43
0.0
 44
0.0
 50
0.0
 51
0.0
 71
     0
 72
   100
 73
     1
 74
     0
 75
     0
 76
     0
 77
     0
 78
     0
  0
ENDTAB
  0
TABLE
  2
LTYPE
  5
5
330
0
100
AcDbSymbolTable
 70
     1
  0
LTYPE
  5
12
330
5
100
AcDbSymbolTableRecord
100
AcDbLinetypeTableRecord
  2
BYBLOCK
 70
     0
  3

 72
    65
 73
     0
 40
0.0
  0
LTYPE
  5
13
330
5
100
AcDbSymbolTableRecord
100
AcDbLinetypeTableRecord
  2
BYLAYER
 70
     0
  3

 72
    65
 73
     0
 40
0.0
  0
LTYPE
  5
14
330
5
100
AcDbSymbolTableRecord
100
AcDbLinetypeTableRecord
  2
CONTINUOUS
 70
     0
  3
Solid line
 72
    65
 73
     0
 40
0.0
  0
ENDTAB
  0
TABLE
  2
LAYER
  5
2
330
0
100
AcDbSymbolTable
 70
     4
  0
LAYER
  5
F
330
2
100
AcDbSymbolTableRecord
100
AcDbLayerTableRecord
  2
0
 70
     0
 62
     7
  6
CONTINUOUS
  0
LAYER
  5
A5
330
2
100
AcDbSymbolTableRecord
100
AcDbLayerTableRecord
  2
DEFPOINTS
 70
     0
 62
     7
  6
CONTINUOUS
  0
LAYER
  5
A8
330
2
100
AcDbSymbolTableRecord
100
AcDbLayerTableRecord
  2
ADP1DETAIL
 70
     0
 62
     7
  6
CONTINUOUS
  0
LAYER
  5
AB
330
2
100
AcDbSymbolTableRecord
100
AcDbLayerTableRecord
  2
ADPDIM
 70
     0
 62
     3
  6
CONTINUOUS
  0
ENDTAB
  0
TABLE
  2
STYLE
  5
3
330
0
100
AcDbSymbolTable
 70
     2
  0
STYLE
  5
10
330
3
100
AcDbSymbolTableRecord
100
AcDbTextStyleTableRecord
  2
STANDARD
 70
     0
 40
0.0
 41
1.0
 50
0.0
 71
     0
 42
0.2
  3
txt
  4

  0
STYLE
  5
4F1
330
3
100
AcDbSymbolTableRecord
100
AcDbTextStyleTableRecord
  2
ARIAL_WIDE
 70
     0
 40
0.0
 41
1.25
 50
0.0
 71
     0
 42
0.2
  3
ARIAL.TTF
  4

1001
ACAD
1000
Arial
1071
       34
  0
ENDTAB
  0
TABLE
  2
VIEW
  5
6
330
0
100
AcDbSymbolTable
 70
     0
  0
ENDTAB
  0
TABLE
  2
UCS
  5
7
330
0
100
AcDbSymbolTable
 70
     0
  0
ENDTAB
  0
TABLE
  2
APPID
  5
9
330
0
100
AcDbSymbolTable
 70
     1
  0
APPID
  5
11
330
9
100
AcDbSymbolTableRecord
100
AcDbRegAppTableRecord
  2
ACAD
 70
     0
  0
ENDTAB
  0
TABLE
  2
DIMSTYLE
  5
A
330
0
100
AcDbSymbolTable
 70
     1
  0
DIMSTYLE
105
4E5
330
A
100
AcDbSymbolTableRecord
100
AcDbDimStyleTableRecord
  2
STANDARD
 70
     0
  3

  4

  5

  6

  7

 40
1.0
 41
0.18
 42
0.0625
 43
0.38
 44
0.18
 45
0.0
 46
0.0
 47
0.0
 48
0.0
140
0.18
141
0.09
142
0.0
143
25.4
144
1.0
145
0.0
146
1.0
147
0.09
 71
     0
 72
     0
 73
     1
 74
     1
 75
     0
 76
     0
 77
     0
 78
     0
170
     0
171
     2
172
     0
173
     0
174
     0
175
     0
176
     0
177
     0
178
     0
270
     2
271
     4
272
     4
273
     2
274
     2
340
10
275
     0
280
     0
281
     0
282
     0
283
     1
284
     0
285
     0
286
     0
287
     3
288
     0
  0
ENDTAB
  0
TABLE
  2
BLOCK_RECORD
  5
1
330
0
100
AcDbSymbolTable
 70
     2
  0
BLOCK_RECORD
  5
18
102
{ACAD_XDICTIONARY
360
546
102
}
330
1
100
AcDbSymbolTableRecord
100
AcDbBlockTableRecord
  2
*MODEL_SPACE
  0
BLOCK_RECORD
  5
15
102
{ACAD_XDICTIONARY
360
544
102
}
330
1
100
AcDbSymbolTableRecord
100
AcDbBlockTableRecord
  2
*PAPER_SPACE
  0
BLOCK_RECORD
  5
9A
330
1
100
AcDbSymbolTableRecord
100
AcDbBlockTableRecord
  2
*D0
  0
BLOCK_RECORD
  5
9F
330
1
100
AcDbSymbolTableRecord
100
AcDbBlockTableRecord
  2
*D1
  0
ENDTAB
  0
ENDSEC
  0
SECTION
  2
BLOCKS
  0
BLOCK
  5
AE
330
18
100
AcDbEntity
  8
0
100
AcDbBlockBegin
  2
*MODEL_SPACE
 70
     0
 10
0.0
 20
0.0
 30
0.0
  3
*MODEL_SPACE
  1

  0
ENDBLK
  5
AF
330
18
100
AcDbEntity
  8
0
100
AcDbBlockEnd
  0
BLOCK
  5
AC
330
15
100
AcDbEntity
 67
     1
  8
0
100
AcDbBlockBegin
  2
*PAPER_SPACE
 70
     0
 10
0.0
 20
0.0
 30
0.0
  3
*PAPER_SPACE
  1

  0
ENDBLK
  5
AD
330
15
100
AcDbEntity
 67
     1
  8
0
100
AcDbBlockEnd
  0
BLOCK
  5
B1
330
9A
100
AcDbEntity
  8
0
100
AcDbBlockBegin
  2
*D0
 70
     1
 10
0.0
 20
0.0
 30
0.0
  3
*D0
  1

  0
LINE
  5
B2
330
9A
100
AcDbEntity
  8
0
  6
BYBLOCK
 62
     0
100
AcDbLine
 10
-111.1269270647983
 20
88.4944579812765
 30
0.0
 11
-106.0441490854616
 21
88.4944579812765
 31
0.0
  0
LINE
  5
B3
330
9A
100
AcDbEntity
  8
0
  6
BYBLOCK
 62
     0
100
AcDbLine
 10
-111.1269270647983
 20
60.49445798127649
 30
0.0
 11
-106.0441490854616
 21
60.49445798127649
 31
0.0
  0
LINE
  5
B4
330
9A
100
AcDbEntity
  8
0
  6
BYBLOCK
 62
     0
100
AcDbLine
 10
-106.2241490854617
 20
88.4944579812765
 30
0.0
 11
-106.2241490854617
 21
74.72362464794317
 31
0.0
  0
LINE
  5
B5
330
9A
100
AcDbEntity
  8
0
  6
BYBLOCK
 62
     0
100
AcDbLine
 10
-106.2241490854617
 20
60.49445798127649
 30
0.0
 11
-106.2241490854617
 21
74.26529131460982
 31
0.0
  0
LINE
  5
B6
330
9A
100
AcDbEntity
  8
0
  6
BYBLOCK
 62
     0
100
AcDbLine
 10
-106.0991490854616
 20
88.36945798127649
 30
0.0
 11
-106.3491490854617
 21
88.61945798127649
 31
0.0
  0
LINE
  5
B7
330
9A
100
AcDbEntity
  8
0
  6
BYBLOCK
 62
     0
100
AcDbLine
 10
-106.0991490854616
 20
60.36945798127649
 30
0.0
 11
-106.3491490854617
 21
60.61945798127648
 31
0.0
  0
TEXT
  5
B8
330
9A
100
AcDbEntity
  8
0
  6
BYBLOCK
 62
     0
100
AcDbText
 10
-106.1616490854617
 20
74.39029131460983
 30
0.0
 40
0.125
  1
28
 50
90.0
 72
     1
 11
-106.2241490854617
 21
74.4944579812765
 31
0.0
100
AcDbText
 73
     2
  0
POINT
  5
B9
330
9A
100
AcDbEntity
  8
DEFPOINTS
  6
BYBLOCK
 62
     0
100
AcDbPoint
 10
-111.1894270647983
 20
88.4944579812765
 30
0.0
  0
POINT
  5
BA
330
9A
100
AcDbEntity
  8
DEFPOINTS
  6
BYBLOCK
 62
     0
100
AcDbPoint
 10
-111.1894270647983
 20
60.49445798127649
 30
0.0
  0
POINT
  5
BB
330
9A
100
AcDbEntity
  8
DEFPOINTS
  6
BYBLOCK
 62
     0
100
AcDbPoint
 10
-106.2241490854617
 20
60.49445798127649
 30
0.0
  0
ENDBLK
  5
BC
330
9A
100
AcDbEntity
  8
0
100
AcDbBlockEnd
  0
BLOCK
  5
BD
330
9F
100
AcDbEntity
  8
0
100
AcDbBlockBegin
  2
*D1
 70
     1
 10
0.0
 20
0.0
 30
0.0
  3
*D1
  1

  0
LINE
  5
BE
330
9F
100
AcDbEntity
  8
0
  6
BYBLOCK
 62
     0
100
AcDbLine
 10
-116.7424194569453
 20
85.12680591368408
 30
0.0
 11
-116.7424194569453
 21
89.64913072311958
 31
0.0
  0
LINE
  5
BF
330
9F
100
AcDbEntity
  8
0
  6
BYBLOCK
 62
     0
100
AcDbLine
 10
-107.7424194569453
 20
88.62028765909844
 30
0.0
 11
-107.7424194569453
 21
89.64913072311958
 31
0.0
  0
LINE
  5
C0
330
9F
100
AcDbEntity
  8
0
  6
BYBLOCK
 62
     0
100
AcDbLine
 10
-116.7424194569453
 20
89.46913072311957
 30
0.0
 11
-112.409086123612
 21
89.46913072311957
 31
0.0
  0
LINE
  5
C1
330
9F
100
AcDbEntity
  8
0
  6
BYBLOCK
 62
     0
100
AcDbLine
 10
-107.7424194569453
 20
89.46913072311957
 30
0.0
 11
-112.0757527902786
 21
89.46913072311957
 31
0.0
  0
LINE
  5
C2
330
9F
100
AcDbEntity
  8
0
  6
BYBLOCK
 62
     0
100
AcDbLine
 10
-116.8674194569453
 20
89.34413072311958
 30
0.0
 11
-116.6174194569453
 21
89.59413072311958
 31
0.0
  0
LINE
  5
C3
330
9F
100
AcDbEntity
  8
0
  6
BYBLOCK
 62
     0
100
AcDbLine
 10
-107.8674194569453
 20
89.34413072311958
 30
0.0
 11
-107.6174194569453
 21
89.59413072311958
 31
0.0
  0
TEXT
  5
C4
330
9F
100
AcDbEntity
  8
0
  6
BYBLOCK
 62
     0
100
AcDbText
 10
-112.284086123612
 20
89.40663072311958
 30
0.0
 40
0.125
  1
9
 72
     1
 11
-112.2424194569453
 21
89.46913072311957
 31
0.0
100
AcDbText
 73
     2
  0
POINT
  5
C5
330
9F
100
AcDbEntity
  8
DEFPOINTS
  6
BYBLOCK
 62
     0
100
AcDbPoint
 10
-116.7424194569453
 20
85.06430591368408
 30
0.0
  0
POINT
  5
C6
330
9F
100
AcDbEntity
  8
DEFPOINTS
  6
BYBLOCK
 62
     0
100
AcDbPoint
 10
-107.7424194569453
 20
88.55778765909844
 30
0.0
  0
POINT
  5
C7
330
9F
100
AcDbEntity
  8
DEFPOINTS
  6
BYBLOCK
 62
     0
100
AcDbPoint
 10
-107.7424194569453
 20
89.46913072311957
 30
0.0
  0
ENDBLK
  5
C8
330
9F
100
AcDbEntity
  8
0
100
AcDbBlockEnd
  0
ENDSEC
  0
SECTION
  2
ENTITIES
  0
DIMENSION
  5
C9
330
18
100
AcDbEntity
  8
ADPDIM
100
AcDbDimension
  2
*D0
 10
-106.2241490854617
 20
60.49445798127649
 30
0.0
 11
-106.2241490854617
 21
74.4944579812765
 31
0.0
100
AcDbAlignedDimension
 13
-111.1894270647983
 23
88.4944579812765
 33
0.0
 14
-111.1894270647983
 24
60.49445798127649
 34
0.0
 50
90.0
100
AcDbRotatedDimension
  0
LWPOLYLINE
  5
CA
330
18
100
AcDbEntity
  8
ADP1DETAIL
100
AcDbPolyline
 90
        5
 70
     0
 43
0.0
 10
-110.7041446048166
 20
70.34903874803443
 42
0.4427345074588138
 10
-110.7041446048166
 20
70.53097816634047
 42
0.3061334376916811
 10
-110.43927411899
 20
70.39865854661349
 42
0.2167814691621425
 10
-110.5220461118178
 20
70.71291758464653
 42
0.1454254520186722
 10
-110.1081859663827
 20
70.51443815505606
 42
0.0793424367922357
  0
LWPOLYLINE
  5
D1
330
18
100
AcDbEntity
  8
ADP1DETAIL
100
AcDbPolyline
 90
        2
 70
     0
 43
0.0
 10
-110.9728238626873
 20
70.97563445631903
 42
-0.0326861984787754
 10
-111.6437758753469
 20
70.5199204134155
 42
-0.0199231969404182
  0
ARC
  5
D5
330
18
100
AcDbEntity
  8
ADP1DETAIL
100
AcDbCircle
 10
-115.456632806047
 20
70.48067370949628
 30
0.0
 40
1.072287308826179
100
AcDbArc
 50
8.373918401975723
 51
83.7221726691988
  0
LWPOLYLINE
  5
D6
330
18
100
AcDbEntity
  8
ADP1DETAIL
100
AcDbPolyline
 90
        4
 70
     0
 43
0.0
 10
-113.7832642971568
 20
70.37219466972293
 42
-0.1602482278196072
 10
-114.1971244425919
 20
70.78569330491411
 42
0.0881674943252419
 10
-114.6937567621508
 20
71.44729116827486
 42
0.1448490087587495
 10
-114.9586272479773
 20
71.57961078800186
 42
-11.36015843046477
  0
LWPOLYLINE
  5
DC
330
18
100
AcDbEntity
  8
ADP1DETAIL
100
AcDbPolyline
 90
        5
 70
     0
 43
0.0
 10
-115.6880876084924
 20
69.08864135744142
 42
-0.0339439718299398
 10
-115.8472351009771
 20
69.41412555631443
 42
-0.186761841937731
 10
-115.7307899000727
 20
70.38365464055769
 42
0.159033424857534
 10
-115.1097487681501
 20
71.27562135100664
 42
0.0066267026923189
 10
-115.0957712783025
 20
71.35162347877024
 42
0.4144696477284304
  0
LWPOLYLINE
  5
E3
330
18
100
AcDbEntity
  8
ADP1DETAIL
100
AcDbPolyline
 90
        5
 70
     0
 43
0.0
 10
-113.6342746375484
 20
70.35565465843851
 42
-0.0998896018804419
 10
-114.2136789499351
 20
71.29843165490057
 42
-0.1778125395137571
 10
-114.2136789499351
 20
71.8277100161714
 42
0.20192967133102
 10
-114.0977981237169
 20
72.42314806966868
 42
-0.2444649131005809
 10
-113.9819171162027
 20
72.83664682249699
 42
-0.2444649131005809
  0
LWPOLYLINE
  5
EA
330
18
100
AcDbEntity
  8
ADP1DETAIL
100
AcDbPolyline
 90
        2
 70
     0
 43
0.0
 10
-108.6201119634234
 20
70.02242309379067
 42
0.2167920950498798
 10
-108.3559271156908
 20
74.45567679437935
 42
-13.36154613847367
  0
LWPOLYLINE
  5
EE
330
18
100
AcDbEntity
  8
ADP1DETAIL
100
AcDbPolyline
 90
        4
 70
     0
 43
0.0
 10
-110.3880442098172
 20
70.80892949784368
 42
0.1049098646405023
 10
-108.4723723165953
 20
73.5637100839304
 42
-0.1151811587755819
 10
-108.5500023900996
 20
70.84902864804928
 42
-0.0422478544137268
 10
-108.9886292338998
 20
69.999830277563
 42
-0.0267464614776959
  0
LWPOLYLINE
  5
F4
330
18
100
AcDbEntity
  8
ADP1DETAIL
100
AcDbPolyline
 90
       14
 70
     0
 43
0.0
 10
-113.5679098915703
 20
70.52005617993311
 42
0.0179708710010494
 10
-113.8288515582009
 20
70.96537209110362
 42
-0.3633745358346846
 10
-113.8288515582009
 20
71.85733891918968
 42
0.1231476089112953
 10
-113.4407010093834
 20
72.43905636973562
 42
0.6333617826747869
 10
-113.8288515582009
 20
72.82686800343295
 42
0.23288445723747
 10
-114.9933035672456
 20
72.78808681653581
 42
0.3122212142655026
 10
-115.575529571768
 20
72.55539981278999
 42
0.4598477557564756
 10
-115.808419973577
 20
72.36149399594134
 42
0.3026873317273736
 10
-116.313015904595
 20
71.93490117534688
 42
0.1424116128952353
 10
-115.3814542973593
 20
71.54708954164958
 42
0.2007565313418393
 10
-114.9156734937414
 20
71.31440253790377
 42
0.1072720157395214
 10
-114.4110775627233
 20
70.65512283120063
 42
0.0553797592486596
 10
-113.9841118865056
 20
70.26731119750333
 42
0.000000168519756
 10
-113.852263376009
 20
70.13557785205216
 42
0.1110449912907528
  0
LWPOLYLINE
  5
104
330
18
100
AcDbEntity
  8
ADP1DETAIL
100
AcDbPolyline
 90
        9
 70
     0
 43
0.0
 10
-115.3394256256621
 20
71.50257220283998
 42
-0.0187818780431584
 10
-115.3814542973593
 20
71.31440253790377
 42
-0.0749469245559241
 10
-115.8860502283773
 20
70.49999808361201
 42
0.1344773943780503
 10
-116.1577555762904
 20
69.91828063306607
 42
-0.363058321121835
 10
-115.3814542973593
 20
73.2534607063903
 42
-0.4290530306707678
 10
-113.7900366120969
 20
74.02908397378489
 42
-0.2529056277973846
 10
-113.0137351518697
 20
73.5637100839304
 42
0.3190929380760691
 10
-111.616392741016
 20
72.90443025959011
 42
0.0017826630333025
 10
-111.6052419192289
 20
72.90815644697859
 42
-0.3567658040538241
  0
LWPOLYLINE
  5
10F
330
18
100
AcDbEntity
  8
ADP1DETAIL
100
AcDbPolyline
 90
       51
 70
     0
 43
0.0
 10
-111.7200521883892
 20
73.15286352995002
 42
-0.0360528838069969
 10
-111.8880982702251
 20
73.13711726333593
 42
-0.1840892420026927
 10
-112.4315091473473
 20
73.33102308018458
 42
0.0827506896043584
 10
-112.9361050783654
 20
73.75761590077904
 42
0.4398309732106757
 10
-113.324255808479
 20
74.06786516068203
 42
-1.938813680260581
 10
-113.2466255536786
 20
74.22298979063353
 42
-0.2304030982064051
 10
-111.7328379419205
 20
73.17589845023308
 42
-0.3203992527514118
 10
-112.0045434711296
 20
70.65512283120063
 42
-0.1400213583637139
 10
-112.5479543482518
 20
70.26731119750333
 42
0.3330418752973533
 10
-113.0137351518697
 20
70.26731119750333
 42
-0.1725667589532497
 10
-113.5571462102879
 20
70.53877927050918
 42
0.1624121033245923
 10
-113.6347762837922
 20
70.18974882370902
 42
0.0068431916592333
 10
-114.2946323618188
 20
70.11218644991472
 42
0.3188112799698372
 10
-114.8380434202371
 20
69.60803137316307
 42
-0.2040669549702055
 10
-115.4590843708635
 20
68.71606466271412
 42
0.6768130931728704
 10
-115.7696050274729
 20
69.10387629641141
 42
0.3059996885241714
 10
-116.313015904595
 20
68.63850228891982
 42
0.1035060454768983
 10
-116.5070911790038
 20
67.82409783462806
 42
-0.2216958903148877
 10
-116.6235363799082
 20
67.59141083088227
 42
0.0053716175380678
 10
-115.575529571768
 20
67.43628620093076
 42
0.5070953363977401
 10
-115.1485638955503
 20
68.44459647207116
 42
0.0277699363155816
 10
-114.7992282928369
 20
69.10387629641141
 42
-0.1349155539712099
 10
-114.4110775627233
 20
69.76315600311458
 42
-0.3170289826061388
 10
-113.6735914111923
 20
69.87949956380603
 42
-0.0654519431264983
 10
-112.7032146765564
 20
69.76315600311458
 42
0.4603403470752729
 10
-111.6552078684162
 20
70.49999808361201
 42
0.1609554614987101
 10
-111.2670571383026
 20
72.36149399594134
 42
-0.0941726837924738
 10
-111.0729818638938
 20
71.39196491169808
 42
0.3644157919314598
 10
-110.8012763346847
 20
70.84902864804928
 42
0.0711294135539642
 10
-110.8400914620849
 20
70.34487345366052
 42
0.9368547834460516
 10
-110.7236462611804
 20
70.34487345366052
 42
-0.1412941537764025
 10
-110.0249750557536
 20
68.28947184211966
 42
-0.0512864759325509
 10
-110.0637900018577
 20
67.59141083088227
 42
0.4195192185795272
 10
-109.2486735955264
 20
67.97922246457956
 42
0.1798707132587685
 10
-108.4723723165953
 20
68.63850228891982
 42
0.2790016115363216
 10
-108.2006667873862
 20
69.33656318252012
 42
0.4869454467789157
 10
-107.9677763855773
 20
69.76315600311458
 42
-0.133059659565651
 10
-108.0454066403776
 20
70.30609226676339
 42
-0.2286309739522552
 10
-108.7440778458044
 20
69.99584300686037
 42
-0.1748965969118703
 10
-110.1026051292579
 20
70.42243582745482
 42
0.4808871683778369
 10
-110.2966804036667
 20
70.77146627425499
 42
-0.4808874488551981
 10
-110.4907558593715
 20
71.15927790795229
 42
0.2657660283831923
 10
-110.6460161876761
 20
71.58587072854672
 42
-0.0416185950879199
 10
-110.9953517903895
 20
72.36149399594134
 42
0.0967123081327232
 10
-111.4999475401115
 20
73.68005352698476
 42
0.3622514957225996
 10
-114.8380434202371
 20
74.18420872137351
 42
0.2191234634779688
 10
-116.6235363799082
 20
71.74099535849824
 10
-116.7011666347086
 20
71.74099535849824
 10
-116.7011666347086
 20
70.34487345366052
 10
-116.5847214338041
 20
70.34487345366052
 42
0.1195928183215071
 10
-116.0693915383759
 20
68.92417354966205
 42
0.3079748237853326
  0
LWPOLYLINE
  5
144
330
18
100
AcDbEntity
  8
ADP1DETAIL
100
AcDbPolyline
 90
        4
 70
     0
 43
0.0
 10
-110.0717345621176
 20
68.73619767215024
 42
-0.0235573835470581
 10
-110.4907558593715
 20
68.40581528517403
 42
-0.0267464614776959
 10
-111.7716530693206
 20
68.75484573197415
 42
0.2259384984678197
 10
-112.7155569326454
 20
68.63633082039574
 42
0.1651656824020062
  0
LWPOLYLINE
  5
14A
330
18
100
AcDbEntity
  8
ADP1DETAIL
100
AcDbPolyline
 90
        3
 70
     0
 43
0.0
 10
-112.8475469540126
 20
69.02149957479817
 42
-0.0456326947699084
 10
-110.8789065894851
 20
70.38365464055769
 42
0.0014156271753069
 10
-110.8432149682689
 20
70.41231567411698
 42
-0.1151811587755819
  0
ARC
  5
14F
330
18
100
AcDbEntity
  8
ADP1DETAIL
100
AcDbCircle
 10
-103.3810972722537
 20
85.81381367199817
 30
0.0
 40
21.61337218549051
100
AcDbArc
 50
245.3098193436347
 51
246.2721570821354
  0
ARC
  5
150
330
18
100
AcDbEntity
  8
ADP1DETAIL
100
AcDbCircle
 10
-112.2176210412279
 20
66.47070199962901
 30
0.0
 40
0.2154329472481184
100
AcDbArc
 50
228.7784648355538
 51
323.2291266460167
  0
ARC
  5
151
330
18
100
AcDbEntity
  8
ADP1DETAIL
100
AcDbCircle
 10
-112.0864376283547
 20
67.70185561448085
 30
0.0
 40
1.299898613761318
100
AcDbArc
 50
248.7184119848929
 51
275.4808850535143
  0
ARC
  5
152
330
18
100
AcDbEntity
  8
ADP1DETAIL
100
AcDbCircle
 10
-110.6890825009249
 20
66.8972451716704
 30
0.0
 40
1.922677028967404
100
AcDbArc
 50
219.2736649334779
 51
255.5866138121765
  0
ARC
  5
153
330
18
100
AcDbEntity
  8
ADP1DETAIL
100
AcDbCircle
 10
-110.3841630361055
 20
67.24100467157819
 30
0.0
 40
2.251923523224403
100
AcDbArc
 50
219.9194746685641
 51
250.5353945250968
  0
LWPOLYLINE
  5
154
330
18
100
AcDbEntity
  8
ADP1DETAIL
100
AcDbPolyline
 90
        3
 70
     0
 43
0.0
 10
-112.8977282680943
 20
67.28252511723233
 42
0.1991762051637686
 10
-110.0637900018577
 20
68.32825302901681
 42
0.0036439243363459
 10
-110.0027953270126
 20
68.37612062746278
 42
-13.36154613847367
  0
LWPOLYLINE
  5
159
330
18
100
AcDbEntity
  8
ADP1DETAIL
100
AcDbPolyline
 90
        3
 70
     0
 43
0.0
 10
-112.3870091389989
 20
62.74497421018572
 42
0.433899757881817
 10
-111.111796991294
 20
63.48060749016346
 42
0.0128952066068426
 10
-111.1055174563522
 20
63.51111527993445
 42
0.6427327712787771
  0
LWPOLYLINE
  5
15E
330
18
100
AcDbEntity
  8
ADP1DETAIL
100
AcDbPolyline
 90
       11
 70
     0
 43
0.0
 10
-112.1278235341206
 20
64.00960763969701
 42
0.3424260526782985
 10
-111.664300229248
 20
63.61264889815313
 42
-0.1399372757708897
 10
-111.3166575692976
 20
63.54648908828965
 42
0.2019126196488747
 10
-110.8862430978154
 20
63.56302909957406
 42
0.4084854222120743
 10
-109.5287816539961
 20
65.00200455237522
 42
0.3772821210326782
 10
-109.826760973213
 20
65.76284213053122
 42
-0.0152576637616785
 10
-110.1578491258202
 20
65.96132144248459
 42
0.4286565475653132
 10
-110.6710357714263
 20
66.1101809558589
 42
0.3018016459202165
 10
-112.1112692080734
 20
65.84554183404204
 42
0.3094140740109912
 10
-112.5251293535085
 20
64.27424676151388
 42
0.676812943316734
 10
-112.1112692080734
 20
64.02614765098142
 42
-0.3369222974065851
  0
LWPOLYLINE
  5
16B
330
18
100
AcDbEntity
  8
ADP1DETAIL
100
AcDbPolyline
 90
        6
 70
     0
 43
0.0
 10
-112.4303226395711
 20
66.77787748737286
 42
-0.1909191304866622
 10
-110.8012763346847
 20
67.20359919718497
 42
-0.5174495612674538
 10
-108.3559271156908
 20
63.79085686770356
 42
0.1174303886687776
 10
-108.9381531202132
 20
64.56648013509816
 42
-0.2591673904212929
 10
-109.0157831937175
 20
66.35041367363315
 42
0.0662633186905123
 10
-108.8354528328734
 20
66.32329962522769
 42
0.2547315243327472
  0
LWPOLYLINE
  5
173
330
18
100
AcDbEntity
  8
ADP1DETAIL
100
AcDbPolyline
 90
        6
 70
     0
 43
0.0
 10
-114.5269365854874
 20
61.06861947205064
 42
0.0841718260252734
 10
-113.09136540667
 20
60.53323916817363
 10
-113.09136540667
 20
60.41689560748218
 10
-111.1894270647983
 20
60.41689560748218
 10
-111.1894270647983
 20
60.49445798127649
 42
0.1196300399333528
 10
-109.4551670780938
 20
61.33734209698683
  0
LWPOLYLINE
  5
17B
330
18
100
AcDbEntity
  8
ADP1DETAIL
100
AcDbPolyline
 90
        5
 70
     0
 43
0.0
 10
-111.3632239606667
 20
63.56764541389683
 42
0.0307855900100179
 10
-111.344687393103
 20
63.5193886770606
 42
-0.4910871850560529
 10
-112.2374338729385
 20
63.05401478720611
 42
-0.3168504909966114
 10
-113.3630707545831
 20
64.87672939500114
 42
-0.1323637072898002
 10
-113.0832575987745
 20
66.03239724328787
 42
-0.5174495612674538
  0
LWPOLYLINE
  5
182
330
18
100
AcDbEntity
  8
ADP1DETAIL
100
AcDbPolyline
 90
        9
 70
     0
 43
0.0
 10
-112.9453449391008
 20
68.44031667225954
 42
0.1379762074773343
 10
-113.2078106075745
 20
67.90166020842237
 42
0.1651656824020062
 10
-112.8196598774609
 20
66.58310067737895
 42
0.6390711280809473
 10
-112.8972899509652
 20
65.80747740998436
 42
-0.3008255547055765
 10
-112.7032146765564
 20
65.18697877254126
 42
0.1418694002348265
 10
-112.0045434711296
 20
66.15650785678451
 42
0.8736883843872314
 10
-112.5091394021477
 20
66.73822530733045
 42
-0.3484937098543633
 10
-112.8584750048611
 20
68.05678483837387
 42
-0.0553668481285728
 10
-112.7855758772671
 20
68.18342993831463
 42
-0.1725426295506182
  0
LWPOLYLINE
  5
18D
330
18
100
AcDbEntity
  8
ADP1DETAIL
100
AcDbPolyline
 90
        7
 70
     0
 43
0.0
 10
-112.5668399424165
 20
68.37407173887787
 42
-0.2233503102155438
 10
-112.0045434711296
 20
68.40581528517403
 42
-0.1725426295506182
 10
-110.9565366629894
 20
68.09556602527101
 42
0.0990026238410058
 10
-111.3835023392071
 20
67.74653557847085
 42
-0.0184996237219287
 10
-112.4703242747475
 20
68.13434721216818
 42
0.0256385125074385
 10
-113.2466255536786
 20
69.84071837690887
 42
0.0019072703584286
 10
-113.2676224092039
 20
69.89133159963853
 42
-0.3633745358346846
  0
LWPOLYLINE
  5
196
330
18
100
AcDbEntity
  8
ADP1DETAIL
100
AcDbPolyline
 90
       22
 70
     0
 43
0.0
 10
-109.5018639000789
 20
61.71896776097312
 42
-0.0858582283313592
 10
-111.0729818638938
 20
60.80470724117948
 42
-0.1077223538864432
 10
-110.3354955310668
 20
62.08448570296285
 42
-0.3823545189403803
 10
-109.2098586494223
 20
62.20082914601721
 42
0.3582296157534013
 10
-109.4427490512313
 20
61.30886243556825
 42
0.1050292356506057
 10
-108.3559271156908
 20
60.99861305802814
 42
-0.0277644114456207
 10
-107.9677763855773
 20
60.45567679437935
 42
1.115590529461417
 10
-107.7737011111685
 20
60.61080142433084
 42
-0.1841614170541036
 10
-107.890146312073
 20
61.15373768797964
 42
0.2362525765285016
 10
-108.0454066403776
 20
62.47229733666014
 42
0.2358738036136233
 10
-108.9769682476134
 20
62.39473496286584
 42
0.4458043591335626
 10
-110.9565366629894
 20
61.77423632542274
 42
-0.006026701964288
 10
-111.3058722657028
 20
61.15373768797964
 42
-0.3225335351004601
 10
-112.8196598774609
 20
60.80470724117948
 42
0.0459547215220799
 10
-113.9064818130013
 20
61.19251887487678
 42
-0.0217131252874041
 10
-113.1689954801743
 20
61.42520587862258
 42
0.3577821603840263
 10
-112.4315091473473
 20
61.61911169547124
 42
0.1152210466606936
 10
-112.4315091473473
 20
62.9764524134118
 42
0.0415704319437504
 10
-113.4795159554875
 20
62.5110784059202
 42
0.6222868810147641
 10
-113.4407010093834
 20
61.61911169547124
 42
-0.1915457552297185
 10
-114.1781871609144
 20
61.3476435048283
 42
-0.0126821410066079
 10
-114.5782778808199
 20
61.67617901688763
 42
-0.3247696062490384
  0
LWPOLYLINE
  5
1AE
330
18
100
AcDbEntity
  8
ADP1DETAIL
100
AcDbPolyline
 90
        3
 70
     0
 43
0.0
 10
-113.9819171162027
 20
63.56236750853367
 42
-0.0979798246506038
 10
-114.4951037618088
 20
62.55343070220813
 42
0.0979303024410731
 10
-115.4552593862402
 20
60.83327623394275
 42
1.375954108826387
  0
LWPOLYLINE
  5
1B3
330
18
100
AcDbEntity
  8
ADP1DETAIL
100
AcDbPolyline
 90
        3
 70
     0
 43
0.0
 10
-113.8329274565943
 20
63.43004800644377
 42
-0.0665528425672162
 10
-115.0910624002426
 20
61.39563438250826
 42
0.2722269620753344
 10
-115.2234977338039
 20
60.66787670928404
 42
0.6983468108901558
  0
LWPOLYLINE
  5
1B8
330
18
100
AcDbEntity
  8
ADP1DETAIL
100
AcDbPolyline
 90
       11
 70
     0
 43
0.0
 10
-113.7998188045
 20
63.39696810151202
 42
-0.0955498404473316
 10
-113.9156996307181
 20
62.95038944375199
 42
0.0008958457578633
 10
-114.5613214285894
 20
61.75951333675747
 42
0.1781089004647527
 10
-114.4619949284185
 20
60.91597593745357
 42
-0.5875757303955267
 10
-114.4951037618088
 20
60.63479680435229
 42
-0.2656996760539371
 10
-115.3559330673653
 20
60.73403651914752
 42
-0.1983348240098211
 10
-116.4816326774523
 20
61.72643343182572
 42
-0.1582398094978693
 10
-116.6802854964982
 20
62.70229033321954
 42
-0.6194888580393336
 10
-116.4981870034994
 20
62.76845002544593
 42
0.1134030229006288
 10
-115.8691195316752
 20
62.61959051207161
 42
0.1853443577150539
 10
-114.2964509427628
 20
63.69468712826066
 42
-0.5245398960296516
  0
LWPOLYLINE
  5
1C5
330
18
100
AcDbEntity
  8
ADP1DETAIL
100
AcDbPolyline
 90
        4
 70
     0
 43
0.0
 10
-114.1971244425919
 20
63.69468712826066
 42
-0.0742792310952993
 10
-115.0745080741955
 20
62.56997071349255
 42
-0.0553008502167444
 10
-116.4154150106716
 20
61.90837285013181
 42
-0.2405384950275457
 10
-116.547850344233
 20
61.92491274377911
 42
-11.73240785298295
  0
LWPOLYLINE
  5
1CB
330
18
100
AcDbEntity
  8
ADP1DETAIL
100
AcDbPolyline
 90
        5
 70
     0
 43
0.0
 10
-114.1474612831544
 20
63.69468712826066
 42
-0.0622792449952491
 10
-114.7434199215882
 20
62.73537023815126
 42
-0.0964390889680152
 10
-115.1572800670233
 20
62.38803129518647
 42
-0.1053136800507502
 10
-116.3657518512342
 20
61.8422130402683
 42
0.0711117387498531
 10
-116.4319695180148
 20
61.67681351560958
 42
1.272682179364089
  0
LWPOLYLINE
  5
1D2
330
18
100
AcDbEntity
  8
ADP1DETAIL
100
AcDbPolyline
 90
        3
 70
     0
 43
0.0
 10
-115.575529571768
 20
62.66620315350881
 42
-0.3247696062490384
 10
-115.7307899000727
 20
66.23407011294171
 42
-0.0413500079631619
 10
-114.4498926901235
 20
67.66897320467657
 42
-0.056728850002834
  0
LWPOLYLINE
  5
1D7
330
18
100
AcDbEntity
  8
ADP1DETAIL
100
AcDbPolyline
 90
        6
 70
     0
 43
0.0
 10
-115.5141818863442
 20
67.45383775060791
 42
0.0774324085953013
 10
-116.6623515073084
 20
65.34210340249275
 10
-116.7399815808127
 20
65.34210340249275
 10
-116.7399815808127
 20
63.86841924149784
 10
-116.6623515073084
 20
63.86841924149784
 42
0.0727699701152147
 10
-116.1424781574043
 20
62.64752835888574
  0
LWPOLYLINE
  5
1DF
330
18
100
AcDbEntity
  8
ADP1DETAIL
100
AcDbPolyline
 90
        3
 70
     0
 43
0.0
 10
-113.5558268341859
 20
64.11875685470964
 42
0.1196934145615262
 10
-112.7420298039566
 20
62.93767122651466
 42
0.0208373312526043
 10
-112.675556100221
 20
62.88636095131595
 42
0.0128952066068426
  0
ARC
  5
1E4
330
18
100
AcDbEntity
  8
ADP1DETAIL
100
AcDbCircle
 10
288819.3062182583
 20
96457.47064902698
 30
0.0
 40
304587.9027456665
100
AcDbArc
 50
198.4499397395777
 51
198.4499889381043
  0
ARC
  5
1E5
330
18
100
AcDbEntity
  8
ADP1DETAIL
100
AcDbCircle
 10
-112.9306541870109
 20
63.50599491844102
 30
0.0
 40
1.026787285261892
100
AcDbArc
 50
282.5679613556926
 51
294.2719281049762
  0
ARC
  5
1E6
330
18
100
AcDbEntity
  8
ADP1DETAIL
100
AcDbCircle
 10
-113.3197008977824
 20
65.60244062334625
 30
0.0
 40
3.42782754262387
100
AcDbArc
 50
277.770878556714
 51
284.8297301208883
  0
ARC
  5
1E7
330
18
100
AcDbEntity
  8
ADP1DETAIL
100
AcDbCircle
 10
-113.6847607553318
 20
62.14238268344764
 30
0.0
 40
0.5967866283488434
100
AcDbArc
 50
359.7647226552658
 51
41.38029841772985
  0
ARC
  5
1E8
330
18
100
AcDbEntity
  8
ADP1DETAIL
100
AcDbCircle
 10
-113.9900693982991
 20
61.88420076490697
 30
0.0
 40
0.7365999366021634
100
AcDbArc
 50
359.3070961734034
 51
44.9467406288809
  0
ARC
  5
1E9
330
18
100
AcDbEntity
  8
ADP1DETAIL
100
AcDbCircle
 10
-112.6367863705467
 20
60.42674604355008
 30
0.0
 40
1.53170163283117
100
AcDbArc
 50
81.45695883906226
 51
102.0114331402955
  0
ARC
  5
1EA
330
18
100
AcDbEntity
  8
ADP1DETAIL
100
AcDbCircle
 10
-112.6649890851486
 20
60.87011940866779
 30
0.0
 40
0.9255457933616533
100
AcDbArc
 50
78.18403549721565
 51
117.1947806838889
  0
ARC
  5
1EB
330
18
100
AcDbEntity
  8
ADP1DETAIL
100
AcDbCircle
 10
-110.2901182281581
 20
60.31167548142477
 30
0.0
 40
3.316222404720907
100
AcDbArc
 50
130.4664936065163
 51
156.0043692426452
  0
ARC
  5
1EC
330
18
100
AcDbEntity
  8
ADP1DETAIL
100
AcDbCircle
 10
-110.0283136790789
 20
60.72185900268942
 30
0.0
 40
3.208009192227818
100
AcDbArc
 50
138.8078567879441
 51
165.7519702449395
  0
ARC
  5
1ED
330
18
100
AcDbEntity
  8
ADP1DETAIL
100
AcDbCircle
 10
-115.1062854183908
 20
64.48909287735981
 30
0.0
 40
0.6814074699149813
100
AcDbArc
 50
84.53580161892359
 51
139.0324864789759
  0
ARC
  5
1EE
330
18
100
AcDbEntity
  8
ADP1DETAIL
100
AcDbCircle
 10
-115.8852534588464
 20
64.5849826175592
 30
0.0
 40
1.084781884728875
100
AcDbArc
 50
38.93109763456841
 51
83.89007170807751
  0
LWPOLYLINE
  5
1EF
330
18
100
AcDbEntity
  8
ADP1DETAIL
100
AcDbPolyline
 90
       13
 70
     0
 43
0.0
 10
-112.9665278496227
 20
66.82393041181507
 42
0.1257790425850074
 10
-113.7124063572965
 20
65.6135715931357
 42
-0.1926450280334417
 10
-113.9841118865056
 20
65.18697877254126
 42
-0.2932507572964696
 10
-114.7215982193326
 20
65.1481975856441
 42
0.1960578745208253
 10
-114.6827830919324
 20
65.72991503619005
 42
0.0937186235446505
 10
-114.8768583663412
 20
66.07894548299021
 42
0.4686050997547767
 10
-115.1873790229505
 20
66.07894548299021
 42
0.090135129545642
 10
-115.6531598265684
 20
66.35041367363315
 42
0.1500672116813767
 10
-115.7696050274729
 20
65.10941639874696
 42
0.4103791980342535
 10
-115.1873790229505
 20
64.72160476504966
 42
0.2569745934527278
 10
-114.9544886211415
 20
64.91551058189831
 42
0.2340139097987307
 10
-113.7512214846966
 20
65.03185414258976
 42
0.0226026957219464
 10
-113.7233293262056
 20
64.75868281457476
 42
0.5597002495792733
  0
ARC
  5
1FE
330
18
100
AcDbEntity
  8
ADP1DETAIL
100
AcDbCircle
 10
-116.0705144534532
 20
65.91303200334763
 30
0.0
 40
0.5989672032242794
100
AcDbArc
 50
358.2903090867032
 51
41.33936018790035
  0
ARC
  5
1FF
330
18
100
AcDbEntity
  8
ADP1DETAIL
100
AcDbCircle
 10
-114.1120922399305
 20
65.61463390511777
 30
0.0
 40
1.099398604748184
100
AcDbArc
 50
157.0103047112577
 51
185.2130656294259
  0
ARC
  5
200
330
18
100
AcDbEntity
  8
ADP1DETAIL
100
AcDbCircle
 10
-113.7858662577844
 20
65.71322221431505
 30
0.0
 40
1.511198662990036
100
AcDbArc
 50
166.7121515033454
 51
185.6530459030211
  0
CIRCLE
  5
201
330
18
100
AcDbEntity
  8
ADP1DETAIL
100
AcDbCircle
 10
-113.595961156392
 20
64.4501366920438
 30
0.0
 40
0.33380137868282
  0
LWPOLYLINE
  5
202
330
18
100
AcDbEntity
  8
ADP1DETAIL
100
AcDbPolyline
 90
       10
 70
     0
 43
0.0
 10
-113.6342746375484
 20
64.14126566838359
 42
-0.1003358298484624
 10
-113.6342746375484
 20
63.47966780502282
 42
-0.4410426206532317
 10
-113.7998188045
 20
63.38042809022759
 42
0.0054990306765114
 10
-113.8329274565943
 20
63.69468712826066
 42
0.5408180989297656
 10
-113.8991451233749
 20
63.72776703319239
 10
-114.0315804569363
 20
63.51274770995459
 10
-114.0315804569363
 20
63.74430692683972
 42
-0.2612096282303598
 10
-114.3792229355906
 20
63.72776703319239
 42
-0.618163589548041
 10
-114.3792229355906
 20
63.94278635643019
 42
0.0216589981109171
 10
-113.8660362899846
 20
64.29012529939502
 42
-0.330454891455575
  0
ARC
  5
20E
330
18
100
AcDbEntity
  8
ADP1DETAIL
100
AcDbCircle
 10
-114.3936547259847
 20
65.32492077904013
 30
0.0
 40
0.6503608055759856
100
AcDbArc
 50
150.3086482287536
 51
185.1410183257898
  0
ARC
  5
20F
330
18
100
AcDbEntity
  8
ADP1DETAIL
100
AcDbCircle
 10
-115.3338315465788
 20
65.93847797904643
 30
0.0
 40
0.4750803119531139
100
AcDbArc
 50
322.1640465485419
 51
2.756036982969247
  0
ARC
  5
210
330
18
100
AcDbEntity
  8
ADP1DETAIL
100
AcDbCircle
 10
-113.1352775713473
 20
66.32785925281608
 30
0.0
 40
0.5154365646856359
100
AcDbArc
 50
317.2319721846772
 51
16.477816863328
  0
ARC
  5
211
330
18
100
AcDbEntity
  8
ADP1DETAIL
100
AcDbCircle
 10
-113.1918210422016
 20
66.10417355911116
 30
0.0
 40
0.7365762697415372
100
AcDbArc
 50
312.8728946167161
 51
13.45653410368203
  0
LWPOLYLINE
  5
212
330
18
100
AcDbEntity
  8
ADP1DETAIL
100
AcDbPolyline
 90
        3
 70
     0
 43
0.0
 10
-115.109077177076
 20
67.98601545434322
 42
0.05725434728878
 10
-114.4498926901235
 20
67.66897320467657
 42
0.0865161051944469
 10
-113.1470066997247
 20
67.30035642493675
 42
0.0036439243363459
  0
LWPOLYLINE
  5
217
330
18
100
AcDbEntity
  8
ADP1DETAIL
100
AcDbPolyline
 90
        3
 70
     0
 43
0.0
 10
-113.197871057819
 20
67.59013177736152
 42
-0.077947007219788
 10
-114.1393722148102
 20
67.8628790215252
 42
-0.1150520962892718
 10
-115.1923913813634
 20
68.46575916404415
 42
-0.186761841937731
  0
ARC
  5
21C
330
18
100
AcDbEntity
  8
ADP1DETAIL
100
AcDbCircle
 10
-114.255131393358
 20
68.03910701550186
 30
0.0
 40
1.183891222317466
100
AcDbArc
 50
160.699756619725
 51
201.5937605634377
  0
ARC
  5
21D
330
18
100
AcDbEntity
  8
ADP1DETAIL
100
AcDbCircle
 10
-116.0585306784834
 20
69.14029931522648
 30
0.0
 40
0.8753427787291709
100
AcDbArc
 50
250.6061193568845
 51
295.1137021067074
  0
ARC
  5
21E
330
18
100
AcDbEntity
  8
ADP1DETAIL
100
AcDbCircle
 10
-115.7418687762513
 20
69.05004608177584
 30
0.0
 40
0.454384100166296
100
AcDbArc
 50
214.2550013691688
 51
311.8510960740442
  0
ARC
  5
21F
330
18
100
AcDbEntity
  8
ADP1DETAIL
100
AcDbCircle
 10
-116.5699120467713
 20
67.74127887263718
 30
0.0
 40
1.076125057069917
100
AcDbArc
 50
351.750246630854
 51
28.11924791741425
  0
ARC
  5
220
330
18
100
AcDbEntity
  8
ADP1DETAIL
100
AcDbCircle
 10
-69.11480152109572
 20
14.06081029432955
 30
0.0
 40
71.52834794948571
100
AcDbArc
 50
130.4850836247424
 51
131.5749527798803
  0
ARC
  5
221
330
18
100
AcDbEntity
  8
ADP1DETAIL
100
AcDbCircle
 10
-114.8079308988359
 20
67.05756364284351
 30
0.0
 40
1.384903993428808
100
AcDbArc
 50
131.1987523699575
 51
159.0036028294525
  0
LWPOLYLINE
  5
222
330
18
100
AcDbEntity
  8
ADP1DETAIL
100
AcDbPolyline
 90
        3
 70
     0
 43
0.0
 10
-114.2143147242182
 20
67.88652075952022
 42
-0.0256653274582361
 10
-113.2854406810788
 20
68.63850228891982
 42
-0.0053353979782536
 10
-113.0764525708731
 20
68.82556207724204
 42
0.0014156271753069
  0
LWPOLYLINE
  5
227
330
18
100
AcDbEntity
  8
ADP1DETAIL
100
AcDbPolyline
 90
        3
 70
     0
 43
0.0
 10
-113.3083708230729
 20
69.37344069326853
 42
-0.0078416069462902
 10
-114.2558174157147
 20
68.75484573197415
 42
0.0262429636412349
 10
-114.8615069467085
 20
68.2036253700263
  0
LWPOLYLINE
  5
22C
330
18
100
AcDbEntity
  8
ADP1DETAIL
100
AcDbPolyline
 90
        5
 70
     0
 43
0.0
 10
-113.5957427281006
 20
69.87928126592487
 10
-113.4018858819832
 20
69.68559374695736
 42
0.1110449912907528
 10
-113.09136540667
 20
68.98753273571997
 42
0.2888403901988917
 10
-112.1598037994343
 20
67.6301920177794
 42
-0.0628202034509643
 10
-112.9490552721019
 20
67.5684542202983
 42
-0.1150520962892718
  0
LWPOLYLINE
  5
233
330
18
100
AcDbEntity
  8
ADP1DETAIL
100
AcDbPolyline
 90
        2
 70
     0
 43
0.0
 10
-115.0603454889974
 20
67.99505472140399
 42
0.001089937861149
 10
-115.0833183816374
 20
67.96993956451776
  0
LWPOLYLINE
  5
237
330
18
100
AcDbEntity
  8
ADP1DETAIL
100
AcDbPolyline
 90
        2
 70
     0
 43
0.0
 10
-112.3006776013197
 20
67.30411658950105
 42
0.0480796793465603
 10
-112.7621764129157
 20
67.00347657142559
 42
-0.1926450280334417
  0
ARC
  5
23B
330
18
100
AcDbEntity
  8
ADP1DETAIL
100
AcDbCircle
 10
-113.6810436476623
 20
69.99870231611317
 30
0.0
 40
0.3397497539845253
100
AcDbArc
 50
23.47098679610913
 51
79.25826658301331
  0
ARC
  5
23C
330
18
100
AcDbEntity
  8
ADP1DETAIL
100
AcDbCircle
 10
-113.7504445705029
 20
70.09266951422265
 30
0.0
 40
0.2225782347209106
100
AcDbArc
 50
164.9247491593096
 51
238.7126303984154
  0
ARC
  5
23D
330
18
100
AcDbEntity
  8
ADP1DETAIL
100
AcDbCircle
 10
-112.9700807787002
 20
70.15809447513639
 30
0.0
 40
0.4349409684139556
100
AcDbArc
 50
296.8782694185934
 51
9.951575223313509
  0
LWPOLYLINE
  5
23E
330
18
100
AcDbEntity
  8
ADP1DETAIL
100
AcDbPolyline
 90
        2
 70
     0
 43
0.0
 10
-112.732628575123
 20
69.77054135511692
 42
-0.0029872514584958
 10
-113.0865676350164
 20
69.52447512624498
 42
0.0262429636412349
  0
LWPOLYLINE
  5
242
330
18
100
AcDbEntity
  8
ADP1DETAIL
100
AcDbPolyline
 90
        7
 70
     0
 43
0.0
 10
-108.4619025969832
 20
62.54660385847724
 42
0.0762124068443518
 10
-108.0454066403776
 20
63.71329449390926
 10
-107.890146312073
 20
63.86841924149784
 10
-107.890146312073
 20
65.34210340249275
 10
-108.0065915129774
 20
65.34210340249275
 42
0.3240566860960067
 10
-110.9565366629894
 20
67.6301920177794
 42
0.014647752985746
 10
-111.124640400677
 20
67.62616089226871
 42
-0.1926450280334417
  0
LWPOLYLINE
  5
24B
330
18
100
AcDbEntity
  8
ADP1DETAIL
100
AcDbPolyline
 90
        6
 70
     0
 43
0.0
 10
-109.274676552692
 20
66.71269507217735
 42
0.0403837904698754
 10
-109.2098586494223
 20
66.58310067737895
 42
0.2680439893753651
 10
-109.4039339238311
 20
65.10941639874696
 42
0.0490857152493691
 10
-108.5888175174998
 20
63.5969510508549
 42
-0.2467587440833871
 10
-108.7052627184042
 20
62.54985959281734
 42
-0.002978987231932
 10
-108.7443241856326
 20
62.49975105965738
 42
-0.1077223538864432
  0
ARC
  5
253
330
18
100
AcDbEntity
  8
ADP1DETAIL
100
AcDbCircle
 10
-110.4911416864532
 20
61.80053734790274
 30
0.0
 40
1.465718959090378
100
AcDbArc
 50
336.3981564435746
 51
13.38864504712498
  0
ARC
  5
254
330
18
100
AcDbEntity
  8
ADP1DETAIL
100
AcDbCircle
 10
-112.910658118115
 20
61.97718892491501
 30
0.0
 40
4.027656803176056
100
AcDbArc
 50
348.3529310003671
 51
359.4916253606776
  0
ARC
  5
255
330
18
100
AcDbEntity
  8
ADP1DETAIL
100
AcDbCircle
 10
-110.3038203951798
 20
61.19715507055488
 30
0.0
 40
1.755570675441937
100
AcDbArc
 50
356.2186078960229
 51
14.17926970504086
  0
ARC
  5
256
330
18
100
AcDbEntity
  8
ADP1DETAIL
100
AcDbCircle
 10
-114.3109577411856
 20
57.52087189097228
 30
0.0
 40
7.069113257410852
100
AcDbArc
 50
26.584456526726
 51
41.69100320761153
  0
ARC
  5
257
330
18
100
AcDbEntity
  8
ADP1DETAIL
100
AcDbCircle
 10
-113.0204458959345
 20
58.73823141922969
 30
0.0
 40
5.394520735343563
100
AcDbArc
 50
21.14753807119924
 51
40.4648022901502
  0
ARC
  5
258
330
18
100
AcDbEntity
  8
ADP1DETAIL
100
AcDbCircle
 10
-108.2954782900664
 20
63.10615605964073
 30
0.0
 40
1.052918026549565
100
AcDbArc
 50
233.8720502431239
 51
281.3341209686642
  0
ARC
  5
259
330
18
100
AcDbEntity
  8
ADP1DETAIL
100
AcDbCircle
 10
-108.3451415401519
 20
63.59833983077297
 30
0.0
 40
1.675084384487036
100
AcDbArc
 50
258.3111955546083
 51
281.6888044453917
  0
ARC
  5
25A
330
18
100
AcDbEntity
  8
ADP1DETAIL
100
AcDbCircle
 10
-107.9130945947026
 20
62.51114887231272
 30
0.0
 40
1.016539532449978
100
AcDbArc
 50
236.8279312162571
 51
271.3077026612013
  0
ARC
  5
25B
330
18
100
AcDbEntity
  8
ADP1DETAIL
100
AcDbCircle
 10
-109.4118077782978
 20
67.03678873233037
 30
0.0
 40
0.6006377914217334
100
AcDbArc
 50
352.0503044341604
 51
58.54380188487334
  0
ARC
  5
25C
330
18
100
AcDbEntity
  8
ADP1DETAIL
100
AcDbCircle
 10
-107.8958829370412
 20
66.05272358939768
 30
0.0
 40
1.13862258772134
100
AcDbArc
 50
101.4368082114876
 51
138.6569621884212
  0
ARC
  5
25D
330
18
100
AcDbEntity
  8
ADP1DETAIL
100
AcDbCircle
 10
-105.1475343271048
 20
65.16214630960492
 30
0.0
 40
3.97505402200726
100
AcDbArc
 50
138.7953422833121
 51
155.5905033187737
  0
LWPOLYLINE
  5
25E
330
18
100
AcDbEntity
  8
ADP1DETAIL
100
AcDbPolyline
 90
        3
 70
     0
 43
0.0
 10
-108.5804960135166
 20
66.36743926499798
 42
0.234083192998547
 10
-108.1618518412821
 20
66.81578756348767
 42
0.2547315243327472
 10
-108.4620549402862
 20
68.64658434970944
 42
0.1624123221684876
  0
ARC
  5
263
330
18
100
AcDbEntity
  8
ADP1DETAIL
100
AcDbCircle
 10
-109.910349811457
 20
65.32031368517623
 30
0.0
 40
0.31602196828625
100
AcDbArc
 50
301.7640027769235
 51
37.9693293144849
  0
CIRCLE
  5
264
330
18
100
AcDbEntity
  8
ADP1DETAIL
100
AcDbCircle
 10
-110.952460764596
 20
64.93584474251173
 30
0.0
 40
0.2219454923890255
  0
ARC
  5
265
330
18
100
AcDbEntity
  8
ADP1DETAIL
100
AcDbCircle
 10
-110.2628021974756
 20
66.08028209733626
 30
0.0
 40
1.300249774075027
100
AcDbArc
 50
248.5990399756578
 51
305.2576607446654
  0
ARC
  5
266
330
18
100
AcDbEntity
  8
ADP1DETAIL
100
AcDbCircle
 10
-113.7938317891259
 20
67.04995303363516
 30
0.0
 40
3.468486394991923
100
AcDbArc
 50
299.3322204147251
 51
319.6339853229738
  0
ARC
  5
267
330
18
100
AcDbEntity
  8
ADP1DETAIL
100
AcDbCircle
 10
-113.0045271999512
 20
65.96972032268644
 30
0.0
 40
2.234922932203701
100
AcDbArc
 50
294.9548033017923
 51
326.0265323824284
  0
ARC
  5
268
330
18
100
AcDbEntity
  8
ADP1DETAIL
100
AcDbCircle
 10
-109.7313509793431
 20
64.21995444114343
 30
0.0
 40
1.343070242680285
100
AcDbArc
 50
161.1150002039451
 51
209.282896271916
  0
ARC
  5
269
330
18
100
AcDbEntity
  8
ADP1DETAIL
100
AcDbCircle
 10
-108.408389043722
 20
64.64711701551893
 30
0.0
 40
2.593745864693487
100
AcDbArc
 50
179.8332515194831
 51
203.5051637771617
  0
ARC
  5
26A
330
18
100
AcDbEntity
  8
ADP1DETAIL
100
AcDbCircle
 10
-109.6425521145006
 20
65.28103374566018
 30
0.0
 40
1.248871086343543
100
AcDbArc
 50
140.3995882806171
 51
185.22033354874
  0
ARC
  5
26B
330
18
100
AcDbEntity
  8
ADP1DETAIL
100
AcDbCircle
 10
-111.0435099204474
 20
64.8928021671548
 30
0.0
 40
1.209976086099166
100
AcDbArc
 50
72.07113636617433
 51
139.4050575848623
  0
ARC
  5
26C
330
18
100
AcDbEntity
  8
ADP1DETAIL
100
AcDbCircle
 10
-110.1739527877076
 20
65.44858309249817
 30
0.0
 40
0.8013278459971699
100
AcDbArc
 50
128.3398066431749
 51
198.0357374140936
  0
ARC
  5
26D
330
18
100
AcDbEntity
  8
ADP1DETAIL
100
AcDbCircle
 10
-112.7609023935326
 20
61.1984880732617
 30
0.0
 40
5.313953835492424
100
AcDbArc
 50
54.31627148261246
 51
64.49040296323289
  0
LWPOLYLINE
  5
26E
330
18
100
AcDbEntity
  8
ADP1DETAIL
100
AcDbPolyline
 90
        9
 70
     0
 43
0.0
 10
-110.3068387854287
 20
70.597137976204
 42
0.5750177627012004
 10
-110.1578491258202
 20
70.28287893817092
 42
0.0693103785663596
 10
-108.8500510227344
 20
69.58820116987844
 42
0.047153150439592
 10
-108.2872012176909
 20
69.48896145508318
 42
-0.5276134354632668
 10
-108.2209835509102
 20
69.37318184664064
 42
-0.1339896043085957
 10
-108.3865275365658
 20
69.02584290367582
 42
0.3713597557629713
 10
-108.3865275365658
 20
68.8604434966542
 42
0.4037130468933926
 10
-108.5355171961743
 20
68.71158386564278
 42
0.2871392147723943
 10
-108.4858540367368
 20
68.62888416213197
 42
0.2398247290894606
  0
LWPOLYLINE
  5
279
330
18
100
AcDbEntity
  8
ADP1DETAIL
100
AcDbPolyline
 90
        4
 70
     0
 43
0.0
 10
-109.0487038417803
 20
68.14922571707727
 10
-108.7672788486106
 20
68.3807849339624
 42
0.4201362390173895
 10
-108.7341701965163
 20
68.76120378185895
 42
-0.0055105946283163
 10
-110.5054916044746
 20
70.38211865296616
 42
-2.532636625441764
  0
LWPOLYLINE
  5
27F
330
18
100
AcDbEntity
  8
ADP1DETAIL
100
AcDbPolyline
 90
        4
 70
     0
 43
0.0
 10
-108.7491119359454
 20
68.28549525351672
 42
0.0586649431684048
 10
-108.7440778458044
 20
67.97922246457956
 42
0.2396532162293211
 10
-109.3263038503268
 20
67.20359919718497
 42
0.0223364902521455
 10
-109.3366113307696
 20
67.12402827864605
 42
0.2680439893753651
  0
ARC
  5
285
330
18
100
AcDbEntity
  8
ADP1DETAIL
100
AcDbCircle
 10
-123.5675696872716
 20
61.76884027572136
 30
0.0
 40
15.60019715712602
100
AcDbArc
 50
24.27485750950279
 51
33.58589517629706
  0
LWPOLYLINE
  5
286
330
18
100
AcDbEntity
  8
ADP1DETAIL
100
AcDbPolyline
 90
        5
 70
     0
 43
0.0
 10
-109.8102066471659
 20
67.6695672720226
 10
-109.3466831609973
 20
67.90112648890773
 42
-0.4335766006073344
 10
-109.4129008277779
 20
68.09960591849821
 42
-0.0000003926011063
 10
-109.4956728206057
 20
68.34770502903065
 42
0.0592129414817966
 10
-110.4558284450372
 20
69.95208000649054
 42
-2.035687002512012
  0
ARC
  5
28D
330
18
100
AcDbEntity
  8
ADP1DETAIL
100
AcDbCircle
 10
-109.0680772325969
 20
67.17978620273929
 30
0.0
 40
0.3468179075907822
100
AcDbArc
 50
344.3172860500618
 51
60.95798445314056
  0
ARC
  5
28E
330
18
100
AcDbEntity
  8
ADP1DETAIL
100
AcDbCircle
 10
-112.0123851488062
 20
67.25143738191144
 30
0.0
 40
3.334817422669781
100
AcDbArc
 50
356.3031703730026
 51
12.02336656167853
  0
ARC
  5
28F
330
18
100
AcDbEntity
  8
ADP1DETAIL
100
AcDbCircle
 10
-113.5636421585728
 20
67.79811794967727
 30
0.0
 40
5.096038446382102
100
AcDbArc
 50
355.1495026213809
 51
6.70019447311403
  0
LWPOLYLINE
  5
290
330
18
100
AcDbEntity
  8
ADP1DETAIL
100
AcDbPolyline
 90
        4
 70
     0
 43
0.0
 10
-108.9990406823429
 20
69.72052067196833
 10
-108.2706467103477
 20
69.62128107481018
 42
0.3086289004200089
 10
-108.0719938913018
 20
69.72052067196833
 42
0.2600286511349092
 10
-108.0719938913018
 20
69.95208000649054
 42
-1.702807349321629
  0
DIMENSION
  5
296
330
18
100
AcDbEntity
  8
ADPDIM
100
AcDbDimension
  2
*D1
 10
-107.7424194569453
 20
89.46913072311957
 30
0.0
 11
-112.2424194569453
 21
89.46913072311957
 31
0.0
100
AcDbAlignedDimension
 13
-116.7424194569453
 23
85.06430591368408
 33
0.0
 14
-107.7424194569453
 24
88.55778765909844
 34
0.0
100
AcDbRotatedDimension
  0
ARC
  5
297
330
18
100
AcDbEntity
  8
ADP1DETAIL
100
AcDbCircle
 10
-103.3810972722537
 20
63.09753991676049
 30
0.0
 40
21.61337218549051
100
AcDbArc
 50
113.7278429178645
 51
114.6901806563653
  0
ARC
  5
298
330
18
100
AcDbEntity
  8
ADP1DETAIL
100
AcDbCircle
 10
-110.6890825009249
 20
82.01410841708826
 30
0.0
 40
1.922677028967404
100
AcDbArc
 50
104.4133861878234
 51
140.7263350665221
  0
ARC
  5
299
330
18
100
AcDbEntity
  8
ADP1DETAIL
100
AcDbCircle
 10
-110.3841630361055
 20
81.67034891718046
 30
0.0
 40
2.251923523224403
100
AcDbArc
 50
109.4646054749031
 51
140.0805253314358
  0
ARC
  5
29A
330
18
100
AcDbEntity
  8
ADP1DETAIL
100
AcDbCircle
 10
-112.0864376283547
 20
81.20949797427782
 30
0.0
 40
1.299898613761318
100
AcDbArc
 50
84.51911494648561
 51
111.281588015107
  0
LWPOLYLINE
  5
29B
330
18
100
AcDbEntity
  8
ADP1DETAIL
100
AcDbPolyline
 90
        4
 70
     0
 43
0.0
 10
-110.0717345621176
 20
80.17515591660844
 42
0.0235573835470581
 10
-110.4907558593715
 20
80.50553830358468
 42
0.0267464614776959
 10
-111.7716530693206
 20
80.15650785678451
 42
-0.2259384984678197
 10
-112.7155569326454
 20
80.27502276836294
 42
-0.1651656824020062
  0
LWPOLYLINE
  5
2A1
330
18
100
AcDbEntity
  8
ADP1DETAIL
100
AcDbPolyline
 90
        3
 70
     0
 43
0.0
 10
-112.8977282680943
 20
81.62882847152634
 42
-0.1991762051637686
 10
-110.0637900018577
 20
80.58310055974185
 42
-0.0036439243363459
 10
-110.0027953270126
 20
80.53523296129588
 42
13.36154613847367
  0
LWPOLYLINE
  5
2A6
330
18
100
AcDbEntity
  8
ADP1DETAIL
100
AcDbPolyline
 90
        6
 70
     0
 43
0.0
 10
-112.4303226395711
 20
82.13347610138582
 42
0.1909191304866622
 10
-110.8012763346847
 20
81.7077543915737
 42
0.5174495612674538
 10
-108.3559271156908
 20
85.12049672105513
 42
-0.1174303886687776
 10
-108.9381531202132
 20
84.34487345366052
 42
0.2591673904212929
 10
-109.0157831937175
 20
82.56093991512551
 42
-0.0662633186905123
 10
-108.8354528328734
 20
82.588053963531
 42
-0.2547315243327472
  0
ARC
  5
2AE
330
18
100
AcDbEntity
  8
ADP1DETAIL
100
AcDbCircle
 10
-112.2176210412279
 20
82.44065158912965
 30
0.0
 40
0.2154329472481184
100
AcDbArc
 50
36.77087335398325
 51
131.2215351644461
  0
LWPOLYLINE
  5
2AF
330
18
100
AcDbEntity
  8
ADP1DETAIL
100
AcDbPolyline
 90
       11
 70
     0
 43
0.0
 10
-112.1278235341206
 20
84.90174594906164
 42
-0.3424260526782985
 10
-111.664300229248
 20
85.29870469060552
 42
0.1399372757708897
 10
-111.3166575692976
 20
85.36486450046904
 42
-0.2019126196488747
 10
-110.8862430978154
 20
85.34832448918459
 42
-0.4084854222120743
 10
-109.5287816539961
 20
83.90934903638347
 42
-0.3772821210326782
 10
-109.826760973213
 20
83.14851145822748
 42
0.0152576637616785
 10
-110.1578491258202
 20
82.95003214627408
 42
-0.4286565475653132
 10
-110.6710357714263
 20
82.80117263289978
 42
-0.3018016459202165
 10
-112.1112692080734
 20
83.06581175471665
 42
-0.3094140740109912
 10
-112.5251293535085
 20
84.6371068272448
 42
-0.676812943316734
 10
-112.1112692080734
 20
84.88520593777726
 42
0.3369222974065851
  0
LWPOLYLINE
  5
2BC
330
18
100
AcDbEntity
  8
ADP1DETAIL
100
AcDbPolyline
 90
        3
 70
     0
 43
0.0
 10
-112.8475469540126
 20
79.8898540139605
 42
0.0456326947699084
 10
-110.8789065894851
 20
78.52769894820098
 42
-0.0014156271753069
 10
-110.8432149682689
 20
78.49903791464168
 42
0.1151811587755819
  0
LWPOLYLINE
  5
2C1
330
18
100
AcDbEntity
  8
ADP1DETAIL
100
AcDbPolyline
 90
        3
 70
     0
 43
0.0
 10
-112.3870091389989
 20
86.16637937857294
 42
-0.433899757881817
 10
-111.111796991294
 20
85.43074609859523
 42
-0.0128952066068426
 10
-111.1055174563522
 20
85.40023830882422
 42
-0.6427327712787771
  0
LWPOLYLINE
  5
2C6
330
18
100
AcDbEntity
  8
ADP1DETAIL
100
AcDbPolyline
 90
       51
 70
     0
 43
0.0
 10
-111.7200521883892
 20
75.75849005880865
 42
0.0360528838069969
 10
-111.8880982702251
 20
75.77423632542272
 42
0.1840892420026927
 10
-112.4315091473473
 20
75.58033050857409
 42
-0.0827506896043584
 10
-112.9361050783654
 20
75.15373768797963
 42
-0.4398309732106757
 10
-113.324255808479
 20
74.84348842807662
 42
1.938813680260581
 10
-113.2466255536786
 20
74.68836379812514
 42
0.2304030982064051
 10
-111.7328379419205
 20
75.73545513852558
 42
0.3203992527514118
 10
-112.0045434711296
 20
78.25623075755806
 42
0.1400213583637139
 10
-112.5479543482518
 20
78.64404239125533
 42
-0.3330418752973533
 10
-113.0137351518697
 20
78.64404239125533
 42
0.1725667589532497
 10
-113.5571462102879
 20
78.37257431824948
 42
-0.1624121033245923
 10
-113.6347762837922
 20
78.72160476504966
 42
-0.0068431916592333
 10
-114.2946323618188
 20
78.79916713884394
 42
-0.3188112799698372
 10
-114.8380434202371
 20
79.30332221559563
 42
0.2040669549702055
 10
-115.4590843708635
 20
80.19528892604459
 42
-0.6768130931728704
 10
-115.7696050274729
 20
79.80747729234725
 42
-0.3059996885241714
 10
-116.313015904595
 20
80.27285129983885
 42
-0.1035060454768983
 10
-116.5070911790038
 20
81.08725575413059
 42
0.2216958903148877
 10
-116.6235363799082
 20
81.31994275787642
 42
-0.0053716175380678
 10
-115.575529571768
 20
81.47506738782793
 42
-0.5070953363977401
 10
-115.1485638955503
 20
80.46675711668749
 42
-0.0277699363155816
 10
-114.7992282928369
 20
79.80747729234725
 42
0.1349155539712099
 10
-114.4110775627233
 20
79.14819758564412
 42
0.3170289826061388
 10
-113.6735914111923
 20
79.03185402495265
 42
0.0654519431264983
 10
-112.7032146765564
 20
79.14819758564412
 42
-0.4603403470752729
 10
-111.6552078684162
 20
78.41135550514668
 42
-0.1609554614987101
 10
-111.2670571383026
 20
76.54985959281737
 42
0.0941726837924738
 10
-111.0729818638938
 20
77.5193886770606
 42
-0.3644157919314598
 10
-110.8012763346847
 20
78.06232494070943
 42
-0.0711294135539642
 10
-110.8400914620849
 20
78.56648013509818
 42
-0.9368547834460516
 10
-110.7236462611804
 20
78.56648013509818
 42
0.1412941537764025
 10
-110.0249750557536
 20
80.621881746639
 42
0.0512864759325509
 10
-110.0637900018577
 20
81.31994275787642
 42
-0.4195192185795272
 10
-109.2486735955264
 20
80.93213112417911
 42
-0.1798707132587685
 10
-108.4723723165953
 20
80.27285129983885
 42
-0.2790016115363216
 10
-108.2006667873862
 20
79.57479040623855
 42
-0.4869454467789157
 10
-107.9677763855773
 20
79.14819758564412
 42
0.133059659565651
 10
-108.0454066403776
 20
78.6052613219953
 42
0.2286309739522552
 10
-108.7440778458044
 20
78.9155105818983
 42
0.1748965969118703
 10
-110.1026051292579
 20
78.48891776130384
 42
-0.4808871683778369
 10
-110.2966804036667
 20
78.13988731450371
 42
0.4808874488551981
 10
-110.4907558593715
 20
77.75207568080638
 42
-0.2657660283831923
 10
-110.6460161876761
 20
77.32548286021196
 42
0.0416185950879199
 10
-110.9953517903895
 20
76.54985959281737
 42
-0.0967123081327232
 10
-111.4999475401115
 20
75.23130006177395
 42
-0.3622514957225996
 10
-114.8380434202371
 20
74.72714486738521
 42
-0.2191234634779688
 10
-116.6235363799082
 20
77.17035823026048
 10
-116.7011666347086
 20
77.17035823026048
 10
-116.7011666347086
 20
78.56648013509818
 10
-116.5847214338041
 20
78.56648013509818
 42
-0.1195928183215071
 10
-116.0693915383759
 20
79.98718003909662
 42
-0.3079748237853326
  0
LWPOLYLINE
  5
2FB
330
18
100
AcDbEntity
  8
ADP1DETAIL
100
AcDbPolyline
 90
        9
 70
     0
 43
0.0
 10
-115.3394256256621
 20
77.4087813859187
 42
0.0187818780431584
 10
-115.3814542973593
 20
77.59695105085488
 42
0.0749469245559241
 10
-115.8860502283773
 20
78.41135550514668
 42
-0.1344773943780503
 10
-116.1577555762904
 20
78.99307295569258
 42
0.363058321121835
 10
-115.3814542973593
 20
75.65789288236837
 42
0.4290530306707678
 10
-113.7900366120969
 20
74.88226961497376
 42
0.2529056277973846
 10
-113.0137351518697
 20
75.34764350482831
 42
-0.3190929380760691
 10
-111.616392741016
 20
76.00692332916856
 42
-0.0017826630333025
 10
-111.6052419192289
 20
76.00319714178008
 42
0.3567658040538241
  0
LWPOLYLINE
  5
306
330
18
100
AcDbEntity
  8
ADP1DETAIL
100
AcDbPolyline
 90
        7
 70
     0
 43
0.0
 10
-112.5668399424165
 20
80.53728184988079
 42
0.2233503102155438
 10
-112.0045434711296
 20
80.50553830358468
 42
0.1725426295506182
 10
-110.9565366629894
 20
80.81578756348767
 42
-0.0990026238410058
 10
-111.3835023392071
 20
81.16481801028781
 42
0.0184996237219287
 10
-112.4703242747475
 20
80.77700637659054
 42
-0.0256385125074385
 10
-113.2466255536786
 20
79.0706352118498
 42
-0.0019072703584286
 10
-113.2676224092039
 20
79.02002198912012
 42
0.3633745358346846
  0
LWPOLYLINE
  5
30F
330
18
100
AcDbEntity
  8
ADP1DETAIL
100
AcDbPolyline
 90
        9
 70
     0
 43
0.0
 10
-112.9453449391008
 20
80.47103691649914
 42
-0.1379762074773343
 10
-113.2078106075745
 20
81.00969338033632
 42
-0.1651656824020062
 10
-112.8196598774609
 20
82.32825291137974
 42
-0.6390711280809473
 10
-112.8972899509652
 20
83.10387617877433
 42
0.3008255547055765
 10
-112.7032146765564
 20
83.72437481621743
 42
-0.1418694002348265
 10
-112.0045434711296
 20
82.75484573197415
 42
-0.8736883843872314
 10
-112.5091394021477
 20
82.17312828142823
 42
0.3484937098543633
 10
-112.8584750048611
 20
80.85456875038481
 42
0.0553668481285728
 10
-112.7855758772671
 20
80.72792365044403
 42
0.1725426295506182
  0
LWPOLYLINE
  5
31A
330
18
100
AcDbEntity
  8
ADP1DETAIL
100
AcDbPolyline
 90
        5
 70
     0
 43
0.0
 10
-111.3632239606667
 20
85.34370817486189
 42
-0.0307855900100179
 10
-111.344687393103
 20
85.39196491169809
 42
0.4910871850560529
 10
-112.2374338729385
 20
85.85733880155258
 42
0.3168504909966114
 10
-113.3630707545831
 20
84.03462419375754
 42
0.1323637072898002
 10
-113.0832575987745
 20
82.87895634547078
 42
0.5174495612674538
  0
LWPOLYLINE
  5
321
330
18
100
AcDbEntity
  8
ADP1DETAIL
100
AcDbPolyline
 90
        6
 70
     0
 43
0.0
 10
-114.5269365854874
 20
87.84273411670804
 42
-0.0841718260252734
 10
-113.09136540667
 20
88.37811442058507
 10
-113.09136540667
 20
88.49445798127648
 10
-111.1894270647983
 20
88.49445798127648
 10
-111.1894270647983
 20
88.41689560748219
 42
-0.1196300399333528
 10
-109.4551670780938
 20
87.57401149177182
  0
LWPOLYLINE
  5
329
330
18
100
AcDbEntity
  8
ADP1DETAIL
100
AcDbPolyline
 90
       22
 70
     0
 43
0.0
 10
-109.5018639000789
 20
87.19238582778556
 42
0.0858582283313592
 10
-111.0729818638938
 20
88.10664634757921
 42
0.1077223538864432
 10
-110.3354955310668
 20
86.82686788579582
 42
0.3823545189403803
 10
-109.2098586494223
 20
86.71052444274145
 42
-0.3582296157534013
 10
-109.4427490512313
 20
87.60249115319041
 42
-0.1050292356506057
 10
-108.3559271156908
 20
87.91274053073051
 42
0.0277644114456207
 10
-107.9677763855773
 20
88.45567679437934
 42
-1.115590529461417
 10
-107.7737011111685
 20
88.30055216442785
 42
0.1841614170541036
 10
-107.890146312073
 20
87.75761590077904
 42
-0.2362525765285016
 10
-108.0454066403776
 20
86.43905625209853
 42
-0.2358738036136233
 10
-108.9769682476134
 20
86.51661862589282
 42
-0.4458043591335626
 10
-110.9565366629894
 20
87.13711726333592
 42
0.006026701964288
 10
-111.3058722657028
 20
87.75761590077904
 42
0.3225335351004601
 10
-112.8196598774609
 20
88.10664634757921
 42
-0.0459547215220799
 10
-113.9064818130013
 20
87.71883471388187
 42
0.0217131252874041
 10
-113.1689954801743
 20
87.48614771013611
 42
-0.3577821603840263
 10
-112.4315091473473
 20
87.29224189328743
 42
-0.1152210466606936
 10
-112.4315091473473
 20
85.93490117534686
 42
-0.0415704319437504
 10
-113.4795159554875
 20
86.40027518283847
 42
-0.6222868810147641
 10
-113.4407010093834
 20
87.29224189328743
 42
0.1915457552297185
 10
-114.1781871609144
 20
87.56371008393038
 42
0.0126821410066079
 10
-114.5782778808199
 20
87.23517457187105
 42
0.3247696062490384
  0
LWPOLYLINE
  5
341
330
18
100
AcDbEntity
  8
ADP1DETAIL
100
AcDbPolyline
 90
       10
 70
     0
 43
0.0
 10
-113.6342746375484
 20
84.77008792037512
 42
0.1003358298484624
 10
-113.6342746375484
 20
85.43168578373586
 42
0.4410426206532317
 10
-113.7998188045
 20
85.5309254985311
 42
-0.0054990306765114
 10
-113.8329274565943
 20
85.21666646049807
 42
-0.5408180989297656
 10
-113.8991451233749
 20
85.18358655556628
 10
-114.0315804569363
 20
85.39860587880408
 10
-114.0315804569363
 20
85.16704666191895
 42
0.2612096282303598
 10
-114.3792229355906
 20
85.18358655556628
 42
0.618163589548041
 10
-114.3792229355906
 20
84.96856723232847
 42
-0.0216589981109171
 10
-113.8660362899846
 20
84.62122828936371
 42
0.330454891455575
  0
LWPOLYLINE
  5
34D
330
18
100
AcDbEntity
  8
ADP1DETAIL
100
AcDbPolyline
 90
        6
 70
     0
 43
0.0
 10
-115.5141818863442
 20
81.45751583815076
 42
-0.0774324085953013
 10
-116.6623515073084
 20
83.56925018626593
 10
-116.7399815808127
 20
83.56925018626593
 10
-116.7399815808127
 20
85.04293434726085
 10
-116.6623515073084
 20
85.04293434726085
 42
-0.0727699701152147
 10
-116.1424781574043
 20
86.26382522987297
  0
LWPOLYLINE
  5
355
330
18
100
AcDbEntity
  8
ADP1DETAIL
100
AcDbPolyline
 90
        3
 70
     0
 43
0.0
 10
-115.575529571768
 20
86.24515043524992
 42
0.3247696062490384
 10
-115.7307899000727
 20
82.67728347581698
 42
0.0413500079631619
 10
-114.4498926901235
 20
81.2423803840821
 42
0.056728850002834
  0
LWPOLYLINE
  5
35A
330
18
100
AcDbEntity
  8
ADP1DETAIL
100
AcDbPolyline
 90
        3
 70
     0
 43
0.0
 10
-113.8329274565943
 20
85.48130558231491
 42
0.0665528425672162
 10
-115.0910624002426
 20
87.51571920625039
 42
-0.2722269620753344
 10
-115.2234977338039
 20
88.24347687947465
 42
-0.6983468108901558
  0
LWPOLYLINE
  5
35F
330
18
100
AcDbEntity
  8
ADP1DETAIL
100
AcDbPolyline
 90
        3
 70
     0
 43
0.0
 10
-113.9819171162027
 20
85.34898608022501
 42
0.0979798246506038
 10
-114.4951037618088
 20
86.35792288655059
 42
-0.0979303024410731
 10
-115.4552593862402
 20
88.07807735481592
 42
-1.375954108826387
  0
LWPOLYLINE
  5
364
330
18
100
AcDbEntity
  8
ADP1DETAIL
100
AcDbPolyline
 90
        5
 70
     0
 43
0.0
 10
-114.1474612831544
 20
85.21666646049807
 42
0.0622792449952491
 10
-114.7434199215882
 20
86.17598335060739
 42
0.0964390889680152
 10
-115.1572800670233
 20
86.52332229357222
 42
0.1053136800507502
 10
-116.3657518512342
 20
87.0691405484904
 42
-0.0711117387498531
 10
-116.4319695180148
 20
87.23454007314909
 42
-1.272682179364089
  0
LWPOLYLINE
  5
36B
330
18
100
AcDbEntity
  8
ADP1DETAIL
100
AcDbPolyline
 90
        4
 70
     0
 43
0.0
 10
-114.1971244425919
 20
85.21666646049807
 42
0.0742792310952993
 10
-115.0745080741955
 20
86.34138287526614
 42
0.0553008502167444
 10
-116.4154150106716
 20
87.00298073862688
 42
0.2405384950275457
 10
-116.547850344233
 20
86.98644084497955
 42
11.73240785298295
  0
LWPOLYLINE
  5
371
330
18
100
AcDbEntity
  8
ADP1DETAIL
100
AcDbPolyline
 90
       11
 70
     0
 43
0.0
 10
-113.7998188045
 20
85.51438548724664
 42
0.0955498404473316
 10
-113.9156996307181
 20
85.96096414500669
 42
-0.0008958457578633
 10
-114.5613214285894
 20
87.15184025200118
 42
-0.1781089004647527
 10
-114.4619949284185
 20
87.99537765130512
 42
0.5875757303955267
 10
-114.4951037618088
 20
88.27655678440638
 42
0.2656996760539371
 10
-115.3559330673653
 20
88.17731706961115
 42
0.1983348240098211
 10
-116.4816326774523
 20
87.18492015693296
 42
0.1582398094978693
 10
-116.6802854964982
 20
86.20906325553912
 42
0.6194888580393336
 10
-116.4981870034994
 20
86.14290356331272
 42
-0.1134030229006288
 10
-115.8691195316752
 20
86.29176307668707
 42
-0.1853443577150539
 10
-114.2964509427628
 20
85.21666646049807
 42
0.5245398960296516
  0
LWPOLYLINE
  5
37E
330
18
100
AcDbEntity
  8
ADP1DETAIL
100
AcDbPolyline
 90
        3
 70
     0
 43
0.0
 10
-113.5558268341859
 20
84.79259673404902
 42
-0.1196934145615262
 10
-112.7420298039566
 20
85.97368236224406
 42
-0.0208373312526043
 10
-112.675556100221
 20
86.02499263744274
 42
-0.0128952066068426
  0
ARC
  5
383
330
18
100
AcDbEntity
  8
ADP1DETAIL
100
AcDbCircle
 10
-115.456632806047
 20
78.43067987926243
 30
0.0
 40
1.072287308826179
100
AcDbArc
 50
276.2778273308011
 51
351.6260815980243
  0
LWPOLYLINE
  5
384
330
18
100
AcDbEntity
  8
ADP1DETAIL
100
AcDbPolyline
 90
        4
 70
     0
 43
0.0
 10
-113.7832642971568
 20
78.53915891903575
 42
0.1602482278196072
 10
-114.1971244425919
 20
78.12566028384456
 42
-0.0881674943252419
 10
-114.6937567621508
 20
77.46406242048379
 42
-0.1448490087587495
 10
-114.9586272479773
 20
77.33174280075684
 42
11.36015843046477
  0
LWPOLYLINE
  5
38A
330
18
100
AcDbEntity
  8
ADP1DETAIL
100
AcDbPolyline
 90
        5
 70
     0
 43
0.0
 10
-113.6342746375484
 20
78.55569893032016
 42
0.0998896018804419
 10
-114.2136789499351
 20
77.6129219338581
 42
0.1778125395137571
 10
-114.2136789499351
 20
77.08364357258725
 42
-0.20192967133102
 10
-114.0977981237169
 20
76.48820551909001
 42
0.2444649131005809
 10
-113.9819171162027
 20
76.07470676626174
 42
0.2444649131005809
  0
LWPOLYLINE
  5
391
330
18
100
AcDbEntity
  8
ADP1DETAIL
100
AcDbPolyline
 90
       14
 70
     0
 43
0.0
 10
-113.5679098915703
 20
78.39129740882559
 42
-0.0179708710010494
 10
-113.8288515582009
 20
77.94598149765507
 42
0.3633745358346846
 10
-113.8288515582009
 20
77.05401466956899
 42
-0.1231476089112953
 10
-113.4407010093834
 20
76.47229721902303
 42
-0.6333617826747869
 10
-113.8288515582009
 20
76.08448558532576
 42
-0.23288445723747
 10
-114.9933035672456
 20
76.12326677222291
 42
-0.3122212142655026
 10
-115.575529571768
 20
76.35595377596868
 42
-0.4598477557564756
 10
-115.808419973577
 20
76.54985959281737
 42
-0.3026873317273736
 10
-116.313015904595
 20
76.97645241341177
 42
-0.1424116128952353
 10
-115.3814542973593
 20
77.36426404710911
 42
-0.2007565313418393
 10
-114.9156734937414
 20
77.59695105085488
 42
-0.1072720157395214
 10
-114.4110775627233
 20
78.25623075755806
 42
-0.0553797592486596
 10
-113.9841118865056
 20
78.64404239125533
 42
-0.000000168519756
 10
-113.852263376009
 20
78.77577573670649
 42
-0.1110449912907528
  0
LWPOLYLINE
  5
3A1
330
18
100
AcDbEntity
  8
ADP1DETAIL
100
AcDbPolyline
 90
        5
 70
     0
 43
0.0
 10
-115.6880876084924
 20
79.82271223131724
 42
0.0339439718299398
 10
-115.8472351009771
 20
79.49722803244426
 42
0.186761841937731
 10
-115.7307899000727
 20
78.52769894820098
 42
-0.159033424857534
 10
-115.1097487681501
 20
77.63573223775208
 42
-0.0066267026923189
 10
-115.0957712783025
 20
77.55973010998842
 42
-0.4144696477284304
  0
LWPOLYLINE
  5
3A8
330
18
100
AcDbEntity
  8
ADP1DETAIL
100
AcDbPolyline
 90
        5
 70
     0
 43
0.0
 10
-115.1742602276653
 20
73.97189360034878
 42
0.2087650460077796
 10
-115.575529571768
 20
74.22298979063353
 42
0.0237772876529789
 10
-116.6623515073084
 20
74.45567679437935
 42
-0.2020524428294946
 10
-116.3518310319952
 20
73.83517815693625
 42
0.0060288985941342
 10
-116.1577555762904
 20
72.82686800343295
 42
0.3007422075455763
  0
LWPOLYLINE
  5
3AF
330
18
100
AcDbEntity
  8
ADP1DETAIL
100
AcDbPolyline
 90
        5
 70
     0
 43
0.0
 10
-114.7599742476353
 20
71.89386982603491
 42
-0.0027496530982654
 10
-114.8427464217592
 20
72.34044836615786
 42
-0.0277799004228718
 10
-114.8924095811967
 20
72.6547074041909
 42
0.3563518051681778
 10
-114.9586272479773
 20
72.7208672140544
 42
0.0027237029989696
 10
-115.3062697266318
 20
72.75394711898613
 42
-22.35097468418099
  0
LWPOLYLINE
  5
3B6
330
18
100
AcDbEntity
  8
ADP1DETAIL
100
AcDbPolyline
 90
        4
 70
     0
 43
0.0
 10
-115.2143227330597
 20
72.79318592141743
 42
0.0209795386249879
 10
-115.303824223855
 20
73.02077382028159
 42
0.4144696477284304
 10
-115.070933822046
 20
73.64127234008757
 42
0.0453414005407213
 10
-115.0812386040385
 20
73.7478434949288
 42
0.0237772876529789
  0
ARC
  5
3BC
330
18
100
AcDbEntity
  8
ADP1DETAIL
100
AcDbCircle
 10
-115.537136655573
 20
75.23619525511614
 30
0.0
 40
3.465886956909728
100
AcDbArc
 50
261.1932373381602
 51
302.3233552604207
  0
ARC
  5
3BD
330
18
100
AcDbEntity
  8
ADP1DETAIL
100
AcDbCircle
 10
-114.7704917232197
 20
72.81149903156133
 30
0.0
 40
1.141759882047228
100
AcDbArc
 50
205.2806019545227
 51
242.950678390223
  0
ARC
  5
3BE
330
18
100
AcDbEntity
  8
ADP1DETAIL
100
AcDbCircle
 10
-112.8978471411825
 20
73.61073068660729
 30
0.0
 40
2.673514245753187
100
AcDbArc
 50
168.914479969364
 51
179.2630010351479
  0
ARC
  5
3BF
330
18
100
AcDbEntity
  8
ADP1DETAIL
100
AcDbCircle
 10
-116.8441056725766
 20
72.68957546743537
 30
0.0
 40
1.396866434059536
100
AcDbArc
 50
10.76323120607855
 51
18.81352555928525
  0
LWPOLYLINE
  5
3C0
330
18
100
AcDbEntity
  8
ADP1DETAIL
100
AcDbPolyline
 90
        3
 70
     0
 43
0.0
 10
-115.8957428079115
 20
72.74288110308418
 42
0.1848881842353481
 10
-115.4590843708635
 20
72.86564907269298
 42
-0.0152048508258678
 10
-115.4089570496575
 20
72.7178112018726
 42
-0.0749469245559241
  0
ARC
  5
3C5
330
18
100
AcDbEntity
  8
ADP1DETAIL
100
AcDbCircle
 10
-117.4738496339984
 20
71.9831829139512
 30
0.0
 40
2.415744474531487
100
AcDbArc
 50
26.19822941186362
 51
31.18072441025518
  0
ARC
  5
3C6
330
18
100
AcDbEntity
  8
ADP1DETAIL
100
AcDbCircle
 10
-115.4312521337374
 20
73.96764835214895
 30
0.0
 40
0.5073982478339947
100
AcDbArc
 50
149.6512457481904
 51
186.5512243344803
  0
ARC
  5
3C7
330
18
100
AcDbEntity
  8
ADP1DETAIL
100
AcDbCircle
 10
-115.9518917057991
 20
74.45731156739416
 30
0.0
 40
1.01729316819568
100
AcDbArc
 50
253.9401800410611
 51
276.5408140249988
  0
ARC
  5
3C8
330
18
100
AcDbEntity
  8
ADP1DETAIL
100
AcDbCircle
 10
-116.8441056725766
 20
72.68957546743537
 30
0.0
 40
1.396866434059536
100
AcDbArc
 50
35.72414600795299
 51
67.05469524201159
  0
ARC
  5
3C9
330
18
100
AcDbEntity
  8
ADP1DETAIL
100
AcDbCircle
 10
-117.4738496339984
 20
71.9831829139512
 30
0.0
 40
2.415744474531487
100
AcDbArc
 50
40.97798935320671
 51
57.71858640255552
  0
LWPOLYLINE
  5
3CA
330
18
100
AcDbEntity
  8
ADP1DETAIL
100
AcDbPolyline
 90
        2
 70
     0
 43
0.0
 10
-114.114352449764
 20
71.51345097813837
 42
0.0384381180454414
 10
-114.1309067758112
 20
71.99310942319304
 42
-1.118029981901241
  0
ARC
  5
3CE
330
18
100
AcDbEntity
  8
ADP1DETAIL
100
AcDbCircle
 10
-114.4206090226526
 20
70.17111171644704
 30
0.0
 40
1.550592165156471
100
AcDbArc
 50
83.56361972545895
 51
111.6125593815345
  0
LWPOLYLINE
  5
3CF
330
18
100
AcDbEntity
  8
ADP1DETAIL
100
AcDbPolyline
 90
        4
 70
     0
 43
0.0
 10
-115.2143227330597
 20
76.11816766734124
 42
-0.0209795386249879
 10
-115.303824223855
 20
75.89057976847708
 42
-0.4144696477284304
 10
-115.070933822046
 20
75.27008124867109
 42
-0.0453414005407213
 10
-115.0812386040385
 20
75.16351009382987
 42
-0.0237772876529789
  0
LWPOLYLINE
  5
3D5
330
18
100
AcDbEntity
  8
ADP1DETAIL
100
AcDbPolyline
 90
        5
 70
     0
 43
0.0
 10
-114.7599742476353
 20
77.01748376272374
 42
0.0027496530982654
 10
-114.8427464217592
 20
76.57090522260086
 42
0.0277799004228718
 10
-114.8924095811967
 20
76.25664618456776
 42
-0.3563518051681778
 10
-114.9586272479773
 20
76.19048637470431
 42
-0.0027237029989696
 10
-115.3062697266318
 20
76.15740646977252
 42
22.35097468418099
  0
ARC
  5
3DC
330
18
100
AcDbEntity
  8
ADP1DETAIL
100
AcDbCircle
 10
-115.537136655573
 20
73.67515833364251
 30
0.0
 40
3.465886956909728
100
AcDbArc
 50
57.67664473957924
 51
98.80676266183975
  0
LWPOLYLINE
  5
3DD
330
18
100
AcDbEntity
  8
ADP1DETAIL
100
AcDbPolyline
 90
        5
 70
     0
 43
0.0
 10
-115.1742602276653
 20
74.93945998840989
 42
-0.2087650460077796
 10
-115.575529571768
 20
74.68836379812514
 42
-0.0237772876529789
 10
-116.6623515073084
 20
74.45567679437935
 42
0.2020524428294946
 10
-116.3518310319952
 20
75.07617543182246
 42
-0.0060288985941342
 10
-116.1577555762904
 20
76.08448558532572
 42
-0.3007422075455763
  0
ARC
  5
3E4
330
18
100
AcDbEntity
  8
ADP1DETAIL
100
AcDbCircle
 10
-117.4738496339984
 20
76.92817067480746
 30
0.0
 40
2.415744474531487
100
AcDbArc
 50
328.8192755897448
 51
333.8017705881363
  0
ARC
  5
3E5
330
18
100
AcDbEntity
  8
ADP1DETAIL
100
AcDbCircle
 10
-116.8441056725766
 20
76.22177812132328
 30
0.0
 40
1.396866434059536
100
AcDbArc
 50
341.1864744407147
 51
349.2367687939214
  0
LWPOLYLINE
  5
3E6
330
18
100
AcDbEntity
  8
ADP1DETAIL
100
AcDbPolyline
 90
        3
 70
     0
 43
0.0
 10
-115.8957428079115
 20
76.16847248567449
 42
-0.1848881842353481
 10
-115.4590843708635
 20
76.04570451606569
 42
0.0152048508258678
 10
-115.4089570496575
 20
76.19354238688605
 42
0.0749469245559241
  0
ARC
  5
3EB
330
18
100
AcDbEntity
  8
ADP1DETAIL
100
AcDbCircle
 10
-115.9518917057991
 20
74.45404202136451
 30
0.0
 40
1.01729316819568
100
AcDbArc
 50
83.45918597500116
 51
106.0598199589388
  0
ARC
  5
3EC
330
18
100
AcDbEntity
  8
ADP1DETAIL
100
AcDbCircle
 10
-115.4312521337374
 20
74.9437052366097
 30
0.0
 40
0.5073982478339947
100
AcDbArc
 50
173.4487756655196
 51
210.3487542518095
  0
ARC
  5
3ED
330
18
100
AcDbEntity
  8
ADP1DETAIL
100
AcDbCircle
 10
-112.8978471411825
 20
75.30062290215143
 30
0.0
 40
2.673514245753187
100
AcDbArc
 50
180.736998964852
 51
191.0855200306359
  0
ARC
  5
3EE
330
18
100
AcDbEntity
  8
ADP1DETAIL
100
AcDbCircle
 10
-116.8441056725766
 20
76.22177812132328
 30
0.0
 40
1.396866434059536
100
AcDbArc
 50
292.9453047579884
 51
324.275853992047
  0
ARC
  5
3EF
330
18
100
AcDbEntity
  8
ADP1DETAIL
100
AcDbCircle
 10
-117.4738496339984
 20
76.92817067480746
 30
0.0
 40
2.415744474531487
100
AcDbArc
 50
302.2814135974444
 51
319.0220106467932
  0
ARC
  5
3F0
330
18
100
AcDbEntity
  8
ADP1DETAIL
100
AcDbCircle
 10
-114.7704917232197
 20
76.09985455719733
 30
0.0
 40
1.141759882047228
100
AcDbArc
 50
117.0493216097769
 51
154.7193980454772
  0
ARC
  5
3F1
330
18
100
AcDbEntity
  8
ADP1DETAIL
100
AcDbCircle
 10
-114.4206090226526
 20
78.74024187231164
 30
0.0
 40
1.550592165156471
100
AcDbArc
 50
248.3874406184654
 51
276.436380274541
  0
LWPOLYLINE
  5
3F2
330
18
100
AcDbEntity
  8
ADP1DETAIL
100
AcDbPolyline
 90
        2
 70
     0
 43
0.0
 10
-114.114352449764
 20
77.39790261062029
 42
-0.0384381180454414
 10
-114.1309067758112
 20
76.91824416556563
 42
1.118029981901241
  0
LWPOLYLINE
  5
3F6
330
18
100
AcDbEntity
  8
ADP1DETAIL
100
AcDbPolyline
 90
        2
 70
     0
 43
0.0
 10
-112.3006776013197
 20
81.60723699925764
 42
-0.0480796793465603
 10
-112.7621764129157
 20
81.90787701733311
 42
0.1926450280334417
  0
LWPOLYLINE
  5
3FA
330
18
100
AcDbEntity
  8
ADP1DETAIL
100
AcDbPolyline
 90
        3
 70
     0
 43
0.0
 10
-115.109077177076
 20
80.92533813441546
 42
-0.05725434728878
 10
-114.4498926901235
 20
81.2423803840821
 42
-0.0865161051944469
 10
-113.1470066997247
 20
81.61099716382191
 42
-0.0036439243363459
  0
LWPOLYLINE
  5
3FF
330
18
100
AcDbEntity
  8
ADP1DETAIL
100
AcDbPolyline
 90
        3
 70
     0
 43
0.0
 10
-113.197871057819
 20
81.32122181139717
 42
0.077947007219788
 10
-114.1393722148102
 20
81.04847456723346
 42
0.1150520962892718
 10
-115.1923913813634
 20
80.44559442471456
 42
0.186761841937731
  0
ARC
  5
404
330
18
100
AcDbEntity
  8
ADP1DETAIL
100
AcDbCircle
 10
-116.5699120467713
 20
81.17007471612151
 30
0.0
 40
1.076125057069917
100
AcDbArc
 50
331.8807520825858
 51
8.249753369145976
  0
ARC
  5
405
330
18
100
AcDbEntity
  8
ADP1DETAIL
100
AcDbCircle
 10
-114.255131393358
 20
80.87224657325684
 30
0.0
 40
1.183891222317466
100
AcDbArc
 50
158.4062394365622
 51
199.3002433802749
  0
ARC
  5
406
330
18
100
AcDbEntity
  8
ADP1DETAIL
100
AcDbCircle
 10
-115.7418687762513
 20
79.86130750698285
 30
0.0
 40
0.454384100166296
100
AcDbArc
 50
48.14890392595576
 51
145.7449986308311
  0
ARC
  5
407
330
18
100
AcDbEntity
  8
ADP1DETAIL
100
AcDbCircle
 10
-116.0585306784834
 20
79.77105427353222
 30
0.0
 40
0.8753427787291709
100
AcDbArc
 50
64.88629789329249
 51
109.3938806431155
  0
ARC
  5
408
330
18
100
AcDbEntity
  8
ADP1DETAIL
100
AcDbCircle
 10
-114.8079308988359
 20
81.85378994591514
 30
0.0
 40
1.384903993428808
100
AcDbArc
 50
200.9963971705475
 51
228.8012476300424
  0
ARC
  5
409
330
18
100
AcDbEntity
  8
ADP1DETAIL
100
AcDbCircle
 10
-69.11480152109572
 20
134.8505432944291
 30
0.0
 40
71.52834794948571
100
AcDbArc
 50
228.4250472201196
 51
229.5149163752575
  0
LWPOLYLINE
  5
40A
330
18
100
AcDbEntity
  8
ADP1DETAIL
100
AcDbPolyline
 90
        3
 70
     0
 43
0.0
 10
-113.3083708230729
 20
79.53791289549013
 42
0.0078416069462902
 10
-114.2558174157147
 20
80.15650785678451
 42
-0.0262429636412349
 10
-114.8615069467085
 20
80.70772821873239
  0
LWPOLYLINE
  5
40F
330
18
100
AcDbEntity
  8
ADP1DETAIL
100
AcDbPolyline
 90
        5
 70
     0
 43
0.0
 10
-113.5957427281006
 20
79.03207232283384
 10
-113.4018858819832
 20
79.22575984180129
 42
-0.1110449912907528
 10
-113.09136540667
 20
79.92382085303873
 42
-0.2888403901988917
 10
-112.1598037994343
 20
81.28116157097927
 42
0.0628202034509643
 10
-112.9490552721019
 20
81.34289936846036
 42
0.1150520962892718
  0
ARC
  5
416
330
18
100
AcDbEntity
  8
ADP1DETAIL
100
AcDbCircle
 10
-113.6810436476623
 20
78.91265127264552
 30
0.0
 40
0.3397497539845253
100
AcDbArc
 50
280.7417334169866
 51
336.5290132038909
  0
ARC
  5
417
330
18
100
AcDbEntity
  8
ADP1DETAIL
100
AcDbCircle
 10
-113.7504445705029
 20
78.81868407453604
 30
0.0
 40
0.2225782347209106
100
AcDbArc
 50
121.2873696015845
 51
195.0752508406903
  0
ARC
  5
418
330
18
100
AcDbEntity
  8
ADP1DETAIL
100
AcDbCircle
 10
-112.9700807787002
 20
78.75325911362231
 30
0.0
 40
0.4349409684139556
100
AcDbArc
 50
350.0484247766864
 51
63.1217305814065
  0
LWPOLYLINE
  5
419
330
18
100
AcDbEntity
  8
ADP1DETAIL
100
AcDbPolyline
 90
        2
 70
     0
 43
0.0
 10
-112.732628575123
 20
79.14081223364177
 42
0.0029872514584958
 10
-113.0865676350164
 20
79.38687846251369
 42
-0.0262429636412349
  0
LWPOLYLINE
  5
41D
330
18
100
AcDbEntity
  8
ADP1DETAIL
100
AcDbPolyline
 90
        3
 70
     0
 43
0.0
 10
-114.2143147242182
 20
81.02483282923847
 42
0.0256653274582361
 10
-113.2854406810788
 20
80.27285129983885
 42
0.0053353979782536
 10
-113.0764525708731
 20
80.08579151151664
 42
-0.0014156271753069
  0
LWPOLYLINE
  5
422
330
18
100
AcDbEntity
  8
ADP1DETAIL
100
AcDbPolyline
 90
        2
 70
     0
 43
0.0
 10
-115.0603454889974
 20
80.91629886735466
 42
-0.001089937861149
 10
-115.0833183816374
 20
80.9414140242409
  0
ARC
  5
426
330
18
100
AcDbEntity
  8
ADP1DETAIL
100
AcDbCircle
 10
-115.8852534588464
 20
84.3263709711995
 30
0.0
 40
1.084781884728875
100
AcDbArc
 50
276.1099282919224
 51
321.0689023654316
  0
ARC
  5
427
330
18
100
AcDbEntity
  8
ADP1DETAIL
100
AcDbCircle
 10
-115.1062854183908
 20
84.42226071139884
 30
0.0
 40
0.6814074699149813
100
AcDbArc
 50
220.967513521024
 51
275.4641983810764
  0
LWPOLYLINE
  5
428
330
18
100
AcDbEntity
  8
ADP1DETAIL
100
AcDbPolyline
 90
       13
 70
     0
 43
0.0
 10
-112.9665278496227
 20
82.0874231769436
 42
-0.1257790425850074
 10
-113.7124063572965
 20
83.29778199562296
 42
0.1926450280334417
 10
-113.9841118865056
 20
83.72437481621743
 42
0.2932507572964696
 10
-114.7215982193326
 20
83.76315600311457
 42
-0.1960578745208253
 10
-114.6827830919324
 20
83.18143855256861
 42
-0.0937186235446505
 10
-114.8768583663412
 20
82.83240810576847
 42
-0.4686050997547767
 10
-115.1873790229505
 20
82.83240810576847
 42
-0.090135129545642
 10
-115.6531598265684
 20
82.56093991512551
 42
-0.1500672116813767
 10
-115.7696050274729
 20
83.80193719001171
 42
-0.4103791980342535
 10
-115.1873790229505
 20
84.18974882370903
 42
-0.2569745934527278
 10
-114.9544886211415
 20
83.9958430068604
 42
-0.2340139097987307
 10
-113.7512214846966
 20
83.87949944616892
 42
-0.0226026957219464
 10
-113.7233293262056
 20
84.15267077418391
 42
-0.5597002495792733
  0
ARC
  5
437
330
18
100
AcDbEntity
  8
ADP1DETAIL
100
AcDbCircle
 10
-113.7858662577844
 20
83.19813137444361
 30
0.0
 40
1.511198662990036
100
AcDbArc
 50
174.3469540969788
 51
193.2878484966545
  0
ARC
  5
438
330
18
100
AcDbEntity
  8
ADP1DETAIL
100
AcDbCircle
 10
-114.1120922399305
 20
83.2967196836409
 30
0.0
 40
1.099398604748184
100
AcDbArc
 50
174.786934370574
 51
202.9896952887422
  0
ARC
  5
439
330
18
100
AcDbEntity
  8
ADP1DETAIL
100
AcDbCircle
 10
-116.0705144534532
 20
82.99832158541102
 30
0.0
 40
0.5989672032242794
100
AcDbArc
 50
318.6606398120996
 51
1.709690913296659
  0
ARC
  5
43A
330
18
100
AcDbEntity
  8
ADP1DETAIL
100
AcDbCircle
 10
-115.3338315465788
 20
82.97287560971225
 30
0.0
 40
0.4750803119531139
100
AcDbArc
 50
357.2439630170307
 51
37.83595345145801
  0
ARC
  5
43B
330
18
100
AcDbEntity
  8
ADP1DETAIL
100
AcDbCircle
 10
-114.3936547259847
 20
83.58643280971852
 30
0.0
 40
0.6503608055759856
100
AcDbArc
 50
174.8589816742102
 51
209.6913517712463
  0
ARC
  5
43C
330
18
100
AcDbEntity
  8
ADP1DETAIL
100
AcDbCircle
 10
-113.1918210422016
 20
82.80718002964754
 30
0.0
 40
0.7365762697415372
100
AcDbArc
 50
346.5434658963179
 51
47.12710538328388
  0
ARC
  5
43D
330
18
100
AcDbEntity
  8
ADP1DETAIL
100
AcDbCircle
 10
-113.1352775713473
 20
82.58349433594259
 30
0.0
 40
0.5154365646856359
100
AcDbArc
 50
343.522183136672
 51
42.76802781532271
  0
CIRCLE
  5
43E
330
18
100
AcDbEntity
  8
ADP1DETAIL
100
AcDbCircle
 10
-113.595961156392
 20
84.46121689671489
 30
0.0
 40
0.33380137868282
  0
ARC
  5
43F
330
18
100
AcDbEntity
  8
ADP1DETAIL
100
AcDbCircle
 10
-113.3197008977824
 20
83.30891296541244
 30
0.0
 40
3.42782754262387
100
AcDbArc
 50
75.17026987911165
 51
82.22912144328601
  0
ARC
  5
440
330
18
100
AcDbEntity
  8
ADP1DETAIL
100
AcDbCircle
 10
-112.9306541870109
 20
85.40535867031767
 30
0.0
 40
1.026787285261892
100
AcDbArc
 50
65.72807189502374
 51
77.43203864430736
  0
ARC
  5
441
330
18
100
AcDbEntity
  8
ADP1DETAIL
100
AcDbCircle
 10
288819.3062182583
 20
-96308.55929543827
 30
0.0
 40
304587.9027456665
100
AcDbArc
 50
161.5500110618957
 51
161.5500602604221
  0
ARC
  5
442
330
18
100
AcDbEntity
  8
ADP1DETAIL
100
AcDbCircle
 10
-113.9900693982991
 20
87.0271528238517
 30
0.0
 40
0.7365999366021634
100
AcDbArc
 50
315.053259371119
 51
0.692903826596619
  0
ARC
  5
443
330
18
100
AcDbEntity
  8
ADP1DETAIL
100
AcDbCircle
 10
-113.6847607553318
 20
86.76897090531104
 30
0.0
 40
0.5967866283488434
100
AcDbArc
 50
318.6197015822701
 51
0.2352773447341382
  0
ARC
  5
444
330
18
100
AcDbEntity
  8
ADP1DETAIL
100
AcDbCircle
 10
-112.6649890851486
 20
88.04123418009089
 30
0.0
 40
0.9255457933616533
100
AcDbArc
 50
242.805219316111
 51
281.8159645027843
  0
ARC
  5
445
330
18
100
AcDbEntity
  8
ADP1DETAIL
100
AcDbCircle
 10
-112.6367863705467
 20
88.48460754520859
 30
0.0
 40
1.53170163283117
100
AcDbArc
 50
257.9885668597045
 51
278.5430411609377
  0
ARC
  5
446
330
18
100
AcDbEntity
  8
ADP1DETAIL
100
AcDbCircle
 10
-110.0283136790789
 20
88.18949458606924
 30
0.0
 40
3.208009192227818
100
AcDbArc
 50
194.2480297550604
 51
221.1921432120558
  0
ARC
  5
447
330
18
100
AcDbEntity
  8
ADP1DETAIL
100
AcDbCircle
 10
-110.2901182281581
 20
88.59967810733389
 30
0.0
 40
3.316222404720907
100
AcDbArc
 50
203.9956307573547
 51
229.5335063934836
  0
LWPOLYLINE
  5
448
330
18
100
AcDbEntity
  8
ADP1DETAIL
100
AcDbPolyline
 90
        6
 70
     0
 43
0.0
 10
-109.274676552692
 20
82.19865851658134
 42
-0.0403837904698754
 10
-109.2098586494223
 20
82.32825291137974
 42
-0.2680439893753651
 10
-109.4039339238311
 20
83.80193719001171
 42
-0.0490857152493691
 10
-108.5888175174998
 20
85.31440253790377
 42
0.2467587440833871
 10
-108.7052627184042
 20
86.36149399594133
 42
0.002978987231932
 10
-108.7443241856326
 20
86.41160252910129
 42
0.1077223538864432
  0
LWPOLYLINE
  5
450
330
18
100
AcDbEntity
  8
ADP1DETAIL
100
AcDbPolyline
 90
        7
 70
     0
 43
0.0
 10
-108.4619025969832
 20
86.36474973028144
 42
-0.0762124068443518
 10
-108.0454066403776
 20
85.19805909484942
 10
-107.890146312073
 20
85.04293434726085
 10
-107.890146312073
 20
83.56925018626593
 10
-108.0065915129774
 20
83.56925018626593
 42
-0.3240566860960067
 10
-110.9565366629894
 20
81.28116157097927
 42
-0.014647752985746
 10
-111.124640400677
 20
81.28519269648997
 42
0.1926450280334417
  0
LWPOLYLINE
  5
459
330
18
100
AcDbEntity
  8
ADP1DETAIL
100
AcDbPolyline
 90
        2
 70
     0
 43
0.0
 10
-110.9728238626873
 20
77.93571913243963
 42
0.0326861984787754
 10
-111.6437758753469
 20
78.39143317534317
 42
0.0199231969404182
  0
LWPOLYLINE
  5
45D
330
18
100
AcDbEntity
  8
ADP1DETAIL
100
AcDbPolyline
 90
        4
 70
     0
 43
0.0
 10
-110.3880442098172
 20
78.102424090915
 42
-0.1049098646405023
 10
-108.4723723165953
 20
75.34764350482831
 42
0.1151811587755819
 10
-108.5500023900996
 20
78.06232494070943
 42
0.0422478544137268
 10
-108.9886292338998
 20
78.9115233111957
 42
0.0267464614776959
  0
LWPOLYLINE
  5
463
330
18
100
AcDbEntity
  8
ADP1DETAIL
100
AcDbPolyline
 90
        2
 70
     0
 43
0.0
 10
-108.6201119634234
 20
78.88893049496802
 42
-0.2167920950498798
 10
-108.3559271156908
 20
74.45567679437935
 42
13.36154613847367
  0
LWPOLYLINE
  5
467
330
18
100
AcDbEntity
  8
ADP1DETAIL
100
AcDbPolyline
 90
        6
 70
     0
 43
0.0
 10
-109.0454963796346
 20
73.5148826694682
 42
0.1314783385592345
 10
-109.4427490512313
 20
74.339333351325
 42
0.3228177051564433
 10
-110.1802352027622
 20
74.339333351325
 42
0.5119241239392613
 10
-110.1802352027622
 20
74.06786516068203
 42
0.1487125641840593
 10
-110.8789065894851
 20
73.75761590077904
 42
-0.1329012293149507
 10
-111.2979215722344
 20
73.31131421667905
 42
-0.1840892420026927
  0
LWPOLYLINE
  5
46F
330
18
100
AcDbEntity
  8
ADP1DETAIL
100
AcDbPolyline
 90
        2
 70
     0
 43
0.0
 10
-108.7440778458044
 20
74.45567679437935
 42
-0.1458131107825201
 10
-110.5064080790976
 20
71.37782195418489
 42
-0.0199231969404182
  0
ARC
  5
473
330
18
100
AcDbEntity
  8
ADP1DETAIL
100
AcDbCircle
 10
-110.6525209005864
 20
72.35934978460142
 30
0.0
 40
1.786112543238606
100
AcDbArc
 50
33.58578631376033
 51
64.83358575248596
  0
LWPOLYLINE
  5
474
330
18
100
AcDbEntity
  8
ADP1DETAIL
100
AcDbPolyline
 90
        5
 70
     0
 43
0.0
 10
-111.2076594666267
 20
73.10568311503775
 42
0.0765394171452581
 10
-110.8400914620849
 20
73.44736652323894
 42
-0.3567658040538241
 10
-110.1802352027622
 20
73.75761590077904
 42
0.666890684121039
 10
-109.7144543991443
 20
73.21467963713022
 42
-0.1050161502350885
 10
-109.1502855369979
 20
73.2743139369807
 42
0.1695160514051219
  0
ARC
  5
47B
330
18
100
AcDbEntity
  8
ADP1DETAIL
100
AcDbCircle
 10
-109.1645846679985
 20
73.33086038807777
 30
0.0
 40
0.0
100
AcDbArc
 50
279.4835924420595
 51
0.0
  0
ARC
  5
47C
330
18
100
AcDbEntity
  8
ADP1DETAIL
100
AcDbCircle
 10
-108.7711919023391
 20
73.81333982467848
 30
0.0
 40
0.8245940847123579
100
AcDbArc
 50
191.7712021160852
 51
213.0243216273406
  0
ARC
  5
47D
330
18
100
AcDbEntity
  8
ADP1DETAIL
100
AcDbCircle
 10
-110.8931090818159
 20
74.90843798714777
 30
0.0
 40
1.363558651135208
100
AcDbArc
 50
321.4471102804561
 51
333.0368709046816
  0
ARC
  5
47E
330
18
100
AcDbEntity
  8
ADP1DETAIL
100
AcDbCircle
 10
-108.7097364444798
 20
72.74786649777046
 30
0.0
 40
1.338871868926388
100
AcDbArc
 50
116.8081808512426
 51
128.6166961338406
  0
ARC
  5
47F
330
18
100
AcDbEntity
  8
ADP1DETAIL
100
AcDbCircle
 10
-110.528117242286
 20
73.49076620212279
 30
0.0
 40
0.6337499415491363
100
AcDbArc
 50
337.4921681033603
 51
37.51252721256019
  0
ARC
  5
480
330
18
100
AcDbEntity
  8
ADP1DETAIL
100
AcDbCircle
 10
-113.5187963793525
 20
68.18895090899115
 30
0.0
 40
6.737832939336901
100
AcDbArc
 50
49.74179622102981
 51
58.10930616983059
  0
LWPOLYLINE
  5
481
330
18
100
AcDbEntity
  8
ADP1DETAIL
100
AcDbPolyline
 90
        6
 70
     0
 43
0.0
 10
-109.0454963796346
 20
75.39647091929051
 42
-0.1314783385592345
 10
-109.4427490512313
 20
74.57202023743372
 42
-0.3228177051564433
 10
-110.1802352027622
 20
74.57202023743372
 42
-0.5119241239392613
 10
-110.1802352027622
 20
74.84348842807662
 42
-0.1487125641840593
 10
-110.8789065894851
 20
75.15373768797963
 42
0.1329012293149507
 10
-111.2979215722344
 20
75.60003937207961
 42
0.1840892420026927
  0
LWPOLYLINE
  5
489
330
18
100
AcDbEntity
  8
ADP1DETAIL
100
AcDbPolyline
 90
        2
 70
     0
 43
0.0
 10
-108.7440778458044
 20
74.45567679437935
 42
0.1458131107825201
 10
-110.5064080790976
 20
77.53353163457376
 42
0.0199231969404182
  0
ARC
  5
48D
330
18
100
AcDbEntity
  8
ADP1DETAIL
100
AcDbCircle
 10
-110.6525209005864
 20
76.55200380415728
 30
0.0
 40
1.786112543238606
100
AcDbArc
 50
295.166414247514
 51
326.4142136862397
  0
LWPOLYLINE
  5
48E
330
18
100
AcDbEntity
  8
ADP1DETAIL
100
AcDbPolyline
 90
        5
 70
     0
 43
0.0
 10
-111.2076594666267
 20
75.80567047372096
 42
-0.0765394171452581
 10
-110.8400914620849
 20
75.46398706551973
 42
0.3567658040538241
 10
-110.1802352027622
 20
75.15373768797963
 42
-0.666890684121039
 10
-109.7144543991443
 20
75.69667395162844
 42
0.1050161502350885
 10
-109.1502855369979
 20
75.63703965177797
 42
-0.1695160514051219
  0
ARC
  5
495
330
18
100
AcDbEntity
  8
ADP1DETAIL
100
AcDbCircle
 10
-108.7711919023391
 20
75.09801376408019
 30
0.0
 40
0.8245940847123579
100
AcDbArc
 50
146.9756783726593
 51
168.2287978839147
  0
ARC
  5
496
330
18
100
AcDbEntity
  8
ADP1DETAIL
100
AcDbCircle
 10
-109.1645846679985
 20
75.58049320068095
 30
0.0
 40
0.0
100
AcDbArc
 50
0.0
 51
80.51640755794043
  0
ARC
  5
497
330
18
100
AcDbEntity
  8
ADP1DETAIL
100
AcDbCircle
 10
-110.8931090818159
 20
74.0029156016109
 30
0.0
 40
1.363558651135208
100
AcDbArc
 50
26.96312909531833
 51
38.55288971954392
  0
ARC
  5
498
330
18
100
AcDbEntity
  8
ADP1DETAIL
100
AcDbCircle
 10
-108.7097364444798
 20
76.1634870909882
 30
0.0
 40
1.338871868926388
100
AcDbArc
 50
231.3833038661594
 51
243.1918191487573
  0
ARC
  5
499
330
18
100
AcDbEntity
  8
ADP1DETAIL
100
AcDbCircle
 10
-110.528117242286
 20
75.42058738663591
 30
0.0
 40
0.6337499415491363
100
AcDbArc
 50
322.4874727874397
 51
22.50783189663959
  0
ARC
  5
49A
330
18
100
AcDbEntity
  8
ADP1DETAIL
100
AcDbCircle
 10
-113.5187963793525
 20
80.72240267976757
 30
0.0
 40
6.737832939336901
100
AcDbArc
 50
301.8906938301694
 51
310.2582037789701
  0
ARC
  5
49B
330
18
100
AcDbEntity
  8
ADP1DETAIL
100
AcDbCircle
 10
-112.0123851488062
 20
81.65991620684724
 30
0.0
 40
3.334817422669781
100
AcDbArc
 50
347.9766334383214
 51
3.696829626997354
  0
ARC
  5
49C
330
18
100
AcDbEntity
  8
ADP1DETAIL
100
AcDbCircle
 10
-109.4118077782978
 20
81.87456485642828
 30
0.0
 40
0.6006377914217334
100
AcDbArc
 50
301.4561981151266
 51
7.949695565839586
  0
ARC
  5
49D
330
18
100
AcDbEntity
  8
ADP1DETAIL
100
AcDbCircle
 10
-107.8958829370412
 20
82.85862999936101
 30
0.0
 40
1.13862258772134
100
AcDbArc
 50
221.3430378115787
 51
258.5631917885124
  0
ARC
  5
49E
330
18
100
AcDbEntity
  8
ADP1DETAIL
100
AcDbCircle
 10
-105.1475343271048
 20
83.74920727915375
 30
0.0
 40
3.97505402200726
100
AcDbArc
 50
204.4094966812262
 51
221.2046577166879
  0
LWPOLYLINE
  5
49F
330
18
100
AcDbEntity
  8
ADP1DETAIL
100
AcDbPolyline
 90
        3
 70
     0
 43
0.0
 10
-108.5804960135166
 20
82.54391432376067
 42
-0.234083192998547
 10
-108.1618518412821
 20
82.09556602527101
 42
-0.2547315243327472
 10
-108.4620549402862
 20
80.26476923904922
 42
-0.1624123221684876
  0
LWPOLYLINE
  5
4A4
330
18
100
AcDbEntity
  8
ADP1DETAIL
100
AcDbPolyline
 90
        4
 70
     0
 43
0.0
 10
-108.7491119359454
 20
80.62585833524197
 42
-0.0586649431684048
 10
-108.7440778458044
 20
80.93213112417911
 42
-0.2396532162293211
 10
-109.3263038503268
 20
81.7077543915737
 42
-0.0223364902521455
 10
-109.3366113307696
 20
81.78732531011261
 42
-0.2680439893753651
  0
LWPOLYLINE
  5
4AA
330
18
100
AcDbEntity
  8
ADP1DETAIL
100
AcDbPolyline
 90
        4
 70
     0
 43
0.0
 10
-109.0487038417803
 20
80.7621278716814
 10
-108.7672788486106
 20
80.53056865479625
 42
-0.4201362390173895
 10
-108.7341701965163
 20
80.1501498068997
 42
0.0055105946283163
 10
-110.5054916044746
 20
78.5292349357925
 42
2.532636625441764
  0
LWPOLYLINE
  5
4B0
330
18
100
AcDbEntity
  8
ADP1DETAIL
100
AcDbPolyline
 90
        9
 70
     0
 43
0.0
 10
-110.3068387854287
 20
78.31421561255471
 42
-0.5750177627012004
 10
-110.1578491258202
 20
78.62847465058774
 42
-0.0693103785663596
 10
-108.8500510227344
 20
79.32315241888021
 42
-0.047153150439592
 10
-108.2872012176909
 20
79.4223921336755
 42
0.5276134354632668
 10
-108.2209835509102
 20
79.53817174211806
 42
0.1339896043085957
 10
-108.3865275365658
 20
79.88551068508283
 42
-0.3713597557629713
 10
-108.3865275365658
 20
80.05091009210447
 42
-0.4037130468933926
 10
-108.5355171961743
 20
80.19976972311587
 42
-0.2871392147723943
 10
-108.4858540367368
 20
80.28246942662672
 42
-0.2398247290894606
  0
LWPOLYLINE
  5
4BB
330
18
100
AcDbEntity
  8
ADP1DETAIL
100
AcDbPolyline
 90
        5
 70
     0
 43
0.0
 10
-109.8102066471659
 20
81.24178631673606
 10
-109.3466831609973
 20
81.01022709985098
 42
0.4335766006073344
 10
-109.4129008277779
 20
80.81174767026046
 42
0.0000003926011063
 10
-109.4956728206057
 20
80.56364855972804
 42
-0.0592129414817966
 10
-110.4558284450372
 20
78.95927358226811
 42
2.035687002512012
  0
ARC
  5
4C2
330
18
100
AcDbEntity
  8
ADP1DETAIL
100
AcDbCircle
 10
-123.5675696872716
 20
87.1425133130373
 30
0.0
 40
15.60019715712602
100
AcDbArc
 50
326.4141048237029
 51
335.7251424904972
  0
LWPOLYLINE
  5
4C3
330
18
100
AcDbEntity
  8
ADP1DETAIL
100
AcDbPolyline
 90
        5
 70
     0
 43
0.0
 10
-110.7041446048166
 20
78.56231484072424
 42
-0.4427345074588138
 10
-110.7041446048166
 20
78.38037542241821
 42
-0.3061334376916811
 10
-110.43927411899
 20
78.51269504214517
 42
-0.2167814691621425
 10
-110.5220461118178
 20
78.19843600411212
 42
-0.1454254520186722
 10
-110.1081859663827
 20
78.3969154337026
 42
-0.0793424367922357
  0
LWPOLYLINE
  5
4CA
330
18
100
AcDbEntity
  8
ADP1DETAIL
100
AcDbPolyline
 90
        4
 70
     0
 43
0.0
 10
-108.9990406823429
 20
79.19083291679037
 10
-108.2706467103477
 20
79.29007251394849
 42
-0.3086289004200089
 10
-108.0719938913018
 20
79.19083291679037
 42
-0.2600286511349092
 10
-108.0719938913018
 20
78.95927358226811
 42
1.702807349321629
  0
ARC
  5
4D0
330
18
100
AcDbEntity
  8
ADP1DETAIL
100
AcDbCircle
 10
-109.0680772325969
 20
81.73156738601941
 30
0.0
 40
0.3468179075907822
100
AcDbArc
 50
299.0420155468594
 51
15.68271394993818
  0
ARC
  5
4D1
330
18
100
AcDbEntity
  8
ADP1DETAIL
100
AcDbCircle
 10
-113.5636421585728
 20
81.11323563908143
 30
0.0
 40
5.096038446382102
100
AcDbArc
 50
353.2998055268859
 51
4.850497378619027
  0
ARC
  5
4D2
330
18
100
AcDbEntity
  8
ADP1DETAIL
100
AcDbCircle
 10
-109.910349811457
 20
83.59103990358244
 30
0.0
 40
0.31602196828625
100
AcDbArc
 50
322.030670685515
 51
58.23599722307646
  0
ARC
  5
4D3
330
18
100
AcDbEntity
  8
ADP1DETAIL
100
AcDbCircle
 10
-109.6425521145006
 20
83.63031984309849
 30
0.0
 40
1.248871086343543
100
AcDbArc
 50
174.7796664512599
 51
219.6004117193829
  0
ARC
  5
4D4
330
18
100
AcDbEntity
  8
ADP1DETAIL
100
AcDbCircle
 10
-110.1739527877076
 20
83.46277049626053
 30
0.0
 40
0.8013278459971699
100
AcDbArc
 50
161.9642625859064
 51
231.660193356825
  0
ARC
  5
4D5
330
18
100
AcDbEntity
  8
ADP1DETAIL
100
AcDbCircle
 10
-111.0435099204474
 20
84.01855142160389
 30
0.0
 40
1.209976086099166
100
AcDbArc
 50
220.5949424151376
 51
287.9288636338257
  0
ARC
  5
4D6
330
18
100
AcDbEntity
  8
ADP1DETAIL
100
AcDbCircle
 10
-112.7609023935326
 20
87.71286551549696
 30
0.0
 40
5.313953835492424
100
AcDbArc
 50
295.5095970367671
 51
305.6837285173875
  0
ARC
  5
4D7
330
18
100
AcDbEntity
  8
ADP1DETAIL
100
AcDbCircle
 10
-110.2628021974756
 20
82.83107149142242
 30
0.0
 40
1.300249774075027
100
AcDbArc
 50
54.74233925533449
 51
111.4009600243421
  0
CIRCLE
  5
4D8
330
18
100
AcDbEntity
  8
ADP1DETAIL
100
AcDbCircle
 10
-110.952460764596
 20
83.97550884624692
 30
0.0
 40
0.2219454923890255
  0
ARC
  5
4D9
330
18
100
AcDbEntity
  8
ADP1DETAIL
100
AcDbCircle
 10
-108.408389043722
 20
84.26423657323978
 30
0.0
 40
2.593745864693487
100
AcDbArc
 50
156.4948362228382
 51
180.1667484805168
  0
ARC
  5
4DA
330
18
100
AcDbEntity
  8
ADP1DETAIL
100
AcDbCircle
 10
-109.7313509793431
 20
84.69139914761525
 30
0.0
 40
1.343070242680285
100
AcDbArc
 50
150.7171037280839
 51
198.8849997960548
  0
ARC
  5
4DB
330
18
100
AcDbEntity
  8
ADP1DETAIL
100
AcDbCircle
 10
-113.0045271999512
 20
82.94163326607224
 30
0.0
 40
2.234922932203701
100
AcDbArc
 50
33.97346761757156
 51
65.0451966982077
  0
ARC
  5
4DC
330
18
100
AcDbEntity
  8
ADP1DETAIL
100
AcDbCircle
 10
-113.7938317891259
 20
81.86140055512352
 30
0.0
 40
3.468486394991923
100
AcDbArc
 50
40.36601467702609
 51
60.66777958527481
  0
ARC
  5
4DD
330
18
100
AcDbEntity
  8
ADP1DETAIL
100
AcDbCircle
 10
-110.4911416864532
 20
87.11081624085592
 30
0.0
 40
1.465718959090378
100
AcDbArc
 50
346.611354952875
 51
23.60184355642539
  0
ARC
  5
4DE
330
18
100
AcDbEntity
  8
ADP1DETAIL
100
AcDbCircle
 10
-110.3038203951798
 20
87.71419851820381
 30
0.0
 40
1.755570675441937
100
AcDbArc
 50
345.8207302949591
 51
3.781392103977041
  0
ARC
  5
4DF
330
18
100
AcDbEntity
  8
ADP1DETAIL
100
AcDbCircle
 10
-112.910658118115
 20
86.93416466384366
 30
0.0
 40
4.027656803176056
100
AcDbArc
 50
0.508374639322346
 51
11.64706899963291
  0
ARC
  5
4E0
330
18
100
AcDbEntity
  8
ADP1DETAIL
100
AcDbCircle
 10
-107.9130945947026
 20
86.40020471644596
 30
0.0
 40
1.016539532449978
100
AcDbArc
 50
88.69229733879867
 51
123.1720687837428
  0
ARC
  5
4E1
330
18
100
AcDbEntity
  8
ADP1DETAIL
100
AcDbCircle
 10
-113.0204458959345
 20
90.17312216952896
 30
0.0
 40
5.394520735343563
100
AcDbArc
 50
319.5351977098498
 51
338.8524619288007
  0
ARC
  5
4E2
330
18
100
AcDbEntity
  8
ADP1DETAIL
100
AcDbCircle
 10
-114.3109577411856
 20
91.39048169778638
 30
0.0
 40
7.069113257410852
100
AcDbArc
 50
318.3089967923884
 51
333.415543473274
  0
ARC
  5
4E3
330
18
100
AcDbEntity
  8
ADP1DETAIL
100
AcDbCircle
 10
-108.3451415401519
 20
85.3130137579857
 30
0.0
 40
1.675084384487036
100
AcDbArc
 50
78.31119555460826
 51
101.6888044453916
  0
ARC
  5
4E4
330
18
100
AcDbEntity
  8
ADP1DETAIL
100
AcDbCircle
 10
-108.2954782900664
 20
85.80519752911795
 30
0.0
 40
1.052918026549565
100
AcDbArc
 50
78.66587903133572
 51
126.127949756876
  0
TEXT
  5
4F2
330
18
100
AcDbEntity
  8
ADPDIM
100
AcDbText
 10
-138.0984281644813
 20
59.25996148359109
 30
0.0
 40
0.5
  1
J U L I U S  B L U M  &  C O . ,  I N C .      ( 8 0 0 )  5 2 6 - 6 2 9 3        W W W . J U L I U S B L U M . C O M        P A R T  N o .  5 8 0
 41
1.25
  7
ARIAL_WIDE
 72
     1
 11
-112.3595980144131
 21
59.75996148359109
 31
0.0
100
AcDbText
 73
     3
  0
ENDSEC
  0
SECTION
  2
OBJECTS
  0
DICTIONARY
  5
C
330
0
100
AcDbDictionary
  3
ACAD_GROUP
350
D
  3
ACAD_LAYOUT
350
4EB
  3
ACAD_MLINESTYLE
350
E
  3
ACAD_PLOTSETTINGS
350
4EC
  3
ACAD_PLOTSTYLENAME
350
4E9
  3
ACDBHEADERROUNDTRIPXREC
350
636
  3
ACDBVARIABLEDICTIONARY
350
54C
  0
DICTIONARY
  5
546
330
18
100
AcDbDictionary
280
     1
  3
ACAD_LAYOUTSELFREF
360
657
  0
DICTIONARY
  5
544
330
15
100
AcDbDictionary
280
     1
  3
ACAD_LAYOUTSELFREF
360
656
  0
DICTIONARY
  5
D
102
{ACAD_REACTORS
330
C
102
}
330
C
100
AcDbDictionary
  0
DICTIONARY
  5
4EB
102
{ACAD_REACTORS
330
C
102
}
330
C
100
AcDbDictionary
  0
DICTIONARY
  5
E
102
{ACAD_REACTORS
330
C
102
}
330
C
100
AcDbDictionary
  3
STANDARD
350
1B
  0
DICTIONARY
  5
4EC
102
{ACAD_REACTORS
330
C
102
}
330
C
100
AcDbDictionary
  0
ACDBDICTIONARYWDFLT
  5
4E9
102
{ACAD_REACTORS
330
C
102
}
330
C
100
AcDbDictionary
281
     1
  3
Normal
350
4EA
100
AcDbDictionaryWithDefault
340
4EA
  0
DICTIONARY
  5
636
102
{ACAD_REACTORS
330
C
102
}
330
C
100
AcDbDictionary
  3
CEPSNTYPE
350
640
  3
FINGERPRINTGUID
350
641
  3
HYPERLINKBASE
350
639
  3
INSUNITS
350
63F
  3
LAYOUTDICT
350
63B
  3
LWETCUNION
350
63E
  3
PLOTSETDICT
350
63C
  3
PLOTSTYLNAMDICT
350
63D
  3
PSVPSCALE
350
643
  3
PUCSBASE
350
646
  3
PUCSORGBACK
350
64C
  3
PUCSORGBOTTOM
350
648
  3
PUCSORGFRONT
350
64B
  3
PUCSORGLEFT
350
649
  3
PUCSORGRIGHT
350
64A
  3
PUCSORGTOP
350
647
  3
PUCSORTHOREF
350
644
  3
PUCSORTHOVIEW
350
645
  3
STYLESHEET
350
63A
  3
TSTACKALIGN
350
637
  3
TSTACKSIZE
350
638
  3
UCSBASE
350
64F
  3
UCSORGBACK
350
655
  3
UCSORGBOTTOM
350
651
  3
UCSORGFRONT
350
654
  3
UCSORGLEFT
350
652
  3
UCSORGRIGHT
350
653
  3
UCSORGTOP
350
650
  3
UCSORTHOREF
350
64D
  3
UCSORTHOVIEW
350
64E
  3
VERSIONGUID
350
642
  0
DICTIONARY
  5
54C
102
{ACAD_REACTORS
330
C
102
}
330
C
100
AcDbDictionary
  3
DIMASSOC
350
54D
  0
XRECORD
  5
657
102
{ACAD_REACTORS
330
546
102
}
330
546
100
AcDbXrecord
340
18
  0
XRECORD
  5
656
102
{ACAD_REACTORS
330
544
102
}
330
544
100
AcDbXrecord
340
15
  0
MLINESTYLE
  5
1B
102
{ACAD_REACTORS
330
E
102
}
330
E
100
AcDbMlineStyle
  2
STANDARD
 70
     0
  3

 62
     0
 51
90.0
 52
90.0
 71
     2
 49
0.5
 62
   256
  6
BYLAYER
 49
-0.5
 62
   256
  6
BYLAYER
  0
ACDBPLACEHOLDER
  5
4EA
102
{ACAD_REACTORS
330
4E9
102
}
330
4E9
100
AcDbPlaceHolder
280
     0
  0
XRECORD
  5
640
102
{ACAD_REACTORS
330
636
102
}
330
636
100
AcDbXrecord
 90
        0
  0
XRECORD
  5
641
102
{ACAD_REACTORS
330
636
102
}
330
636
100
AcDbXrecord
  1
{3DB99939-59F2-468D-A95D-785C7C892A29}
  0
XRECORD
  5
639
102
{ACAD_REACTORS
330
636
102
}
330
636
100
AcDbXrecord
  1

  0
XRECORD
  5
63F
102
{ACAD_REACTORS
330
636
102
}
330
636
100
AcDbXrecord
 90
        0
  0
XRECORD
  5
63B
102
{ACAD_REACTORS
330
636
102
}
330
636
100
AcDbXrecord
340
4EB
  0
XRECORD
  5
63E
102
{ACAD_REACTORS
330
636
102
}
330
636
100
AcDbXrecord
 90
    14877
  0
XRECORD
  5
63C
102
{ACAD_REACTORS
330
636
102
}
330
636
100
AcDbXrecord
340
4EC
  0
XRECORD
  5
63D
102
{ACAD_REACTORS
330
636
102
}
330
636
100
AcDbXrecord
340
4E9
  0
XRECORD
  5
643
102
{ACAD_REACTORS
330
636
102
}
330
636
100
AcDbXrecord
 40
0.0
  0
XRECORD
  5
646
102
{ACAD_REACTORS
330
636
102
}
330
636
100
AcDbXrecord
340
0
  0
XRECORD
  5
64C
102
{ACAD_REACTORS
330
636
102
}
330
636
100
AcDbXrecord
 10
0.0
 20
0.0
 30
0.0
  0
XRECORD
  5
648
102
{ACAD_REACTORS
330
636
102
}
330
636
100
AcDbXrecord
 10
0.0
 20
0.0
 30
0.0
  0
XRECORD
  5
64B
102
{ACAD_REACTORS
330
636
102
}
330
636
100
AcDbXrecord
 10
0.0
 20
0.0
 30
0.0
  0
XRECORD
  5
649
102
{ACAD_REACTORS
330
636
102
}
330
636
100
AcDbXrecord
 10
0.0
 20
0.0
 30
0.0
  0
XRECORD
  5
64A
102
{ACAD_REACTORS
330
636
102
}
330
636
100
AcDbXrecord
 10
0.0
 20
0.0
 30
0.0
  0
XRECORD
  5
647
102
{ACAD_REACTORS
330
636
102
}
330
636
100
AcDbXrecord
 10
0.0
 20
0.0
 30
0.0
  0
XRECORD
  5
644
102
{ACAD_REACTORS
330
636
102
}
330
636
100
AcDbXrecord
340
0
  0
XRECORD
  5
645
102
{ACAD_REACTORS
330
636
102
}
330
636
100
AcDbXrecord
 70
     0
  0
XRECORD
  5
63A
102
{ACAD_REACTORS
330
636
102
}
330
636
100
AcDbXrecord
  1

  0
XRECORD
  5
637
102
{ACAD_REACTORS
330
636
102
}
330
636
100
AcDbXrecord
 90
        1
  0
XRECORD
  5
638
102
{ACAD_REACTORS
330
636
102
}
330
636
100
AcDbXrecord
 90
       70
  0
XRECORD
  5
64F
102
{ACAD_REACTORS
330
636
102
}
330
636
100
AcDbXrecord
340
0
  0
XRECORD
  5
655
102
{ACAD_REACTORS
330
636
102
}
330
636
100
AcDbXrecord
 10
0.0
 20
0.0
 30
0.0
  0
XRECORD
  5
651
102
{ACAD_REACTORS
330
636
102
}
330
636
100
AcDbXrecord
 10
0.0
 20
0.0
 30
0.0
  0
XRECORD
  5
654
102
{ACAD_REACTORS
330
636
102
}
330
636
100
AcDbXrecord
 10
0.0
 20
0.0
 30
0.0
  0
XRECORD
  5
652
102
{ACAD_REACTORS
330
636
102
}
330
636
100
AcDbXrecord
 10
0.0
 20
0.0
 30
0.0
  0
XRECORD
  5
653
102
{ACAD_REACTORS
330
636
102
}
330
636
100
AcDbXrecord
 10
0.0
 20
0.0
 30
0.0
  0
XRECORD
  5
650
102
{ACAD_REACTORS
330
636
102
}
330
636
100
AcDbXrecord
 10
0.0
 20
0.0
 30
0.0
  0
XRECORD
  5
64D
102
{ACAD_REACTORS
330
636
102
}
330
636
100
AcDbXrecord
340
0
  0
XRECORD
  5
64E
102
{ACAD_REACTORS
330
636
102
}
330
636
100
AcDbXrecord
 70
     0
  0
XRECORD
  5
642
102
{ACAD_REACTORS
330
636
102
}
330
636
100
AcDbXrecord
  1
{4B7CA21E-6FC5-481A-AF55-2AE469F62C96}
  0
DICTIONARYVAR
  5
54D
102
{ACAD_REACTORS
330
54C
102
}
330
54C
100
DictionaryVariables
280
     0
  1
1
  0
ENDSEC
  0
EOF
