  0
SECTION
  2
HEADER
  9
$ACADVER
  1
AC1014
  9
$ACADMAINTVER
 70
     9
  9
$DWGCODEPAGE
  3
ANSI_1252
  9
$INSBASE
 10
-28.6732446807618
 20
-40.12835352466819
 30
0.0
  9
$EXTMIN
 10
-59.00219705090235
 20
-42.06133246544687
 30
0.0
  9
$EXTMAX
 10
-7.524536750765925
 20
-12.08947137369568
 30
0.0
  9
$LIMMIN
 10
0.0
 20
0.0
  9
$LIMMAX
 10
36.0
 20
36.0
  9
$ORTHOMODE
 70
     1
  9
$REGENMODE
 70
     1
  9
$FILLMODE
 70
     1
  9
$QTEXTMODE
 70
     0
  9
$MIRRTEXT
 70
     1
  9
$DRAGMODE
 70
     0
  9
$LTSCALE
 40
1.0
  9
$OSMODE
 70
    37
  9
$ATTMODE
 70
     1
  9
$TEXTSIZE
 40
0.2
  9
$TRACEWID
 40
0.05
  9
$TEXTSTYLE
  7
STANDARD
  9
$CLAYER
  8
ADPDIM
  9
$CELTYPE
  6
BYLAYER
  9
$CECOLOR
 62
   256
  9
$CELTSCALE
 40
1.0
  9
$DELOBJ
 70
     1
  9
$DISPSILH
 70
     0
  9
$DIMSCALE
 40
1.0
  9
$DIMASZ
 40
0.125
  9
$DIMEXO
 40
0.0625
  9
$DIMDLI
 40
0.38
  9
$DIMRND
 40
0.0
  9
$DIMDLE
 40
0.0
  9
$DIMEXE
 40
0.18
  9
$DIMTP
 40
0.0
  9
$DIMTM
 40
0.0
  9
$DIMTXT
 40
0.125
  9
$DIMCEN
 40
0.1875
  9
$DIMTSZ
 40
0.125
  9
$DIMTOL
 70
     0
  9
$DIMLIM
 70
     0
  9
$DIMTIH
 70
     0
  9
$DIMTOH
 70
     0
  9
$DIMSE1
 70
     0
  9
$DIMSE2
 70
     0
  9
$DIMTAD
 70
     0
  9
$DIMZIN
 70
     3
  9
$DIMBLK
  1

  9
$DIMASO
 70
     1
  9
$DIMSHO
 70
     1
  9
$DIMPOST
  1

  9
$DIMAPOST
  1

  9
$DIMALT
 70
     0
  9
$DIMALTD
 70
     1
  9
$DIMALTF
 40
25.4
  9
$DIMLFAC
 40
1.0
  9
$DIMTOFL
 70
     0
  9
$DIMTVP
 40
0.0
  9
$DIMTIX
 70
     0
  9
$DIMSOXD
 70
     0
  9
$DIMSAH
 70
     0
  9
$DIMBLK1
  1

  9
$DIMBLK2
  1

  9
$DIMSTYLE
  2
STANDARD
  9
$DIMCLRD
 70
     0
  9
$DIMCLRE
 70
     0
  9
$DIMCLRT
 70
     0
  9
$DIMTFAC
 40
1.0
  9
$DIMGAP
 40
0.125
  9
$DIMJUST
 70
     0
  9
$DIMSD1
 70
     0
  9
$DIMSD2
 70
     0
  9
$DIMTOLJ
 70
     1
  9
$DIMTZIN
 70
     0
  9
$DIMALTZ
 70
     0
  9
$DIMALTTZ
 70
     0
  9
$DIMFIT
 70
     3
  9
$DIMUPT
 70
     0
  9
$DIMUNIT
 70
     2
  9
$DIMDEC
 70
     4
  9
$DIMTDEC
 70
     4
  9
$DIMALTU
 70
     2
  9
$DIMALTTD
 70
     2
  9
$DIMTXSTY
  7
STANDARD
  9
$DIMAUNIT
 70
     0
  9
$LUNITS
 70
     5
  9
$LUPREC
 70
     5
  9
$SKETCHINC
 40
0.1
  9
$FILLETRAD
 40
0.062
  9
$AUNITS
 70
     0
  9
$AUPREC
 70
     0
  9
$MENU
  1
acad
  9
$ELEVATION
 40
0.0
  9
$PELEVATION
 40
0.0
  9
$THICKNESS
 40
0.0
  9
$LIMCHECK
 70
     0
  9
$BLIPMODE
 70
     0
  9
$CHAMFERA
 40
0.0
  9
$CHAMFERB
 40
0.0
  9
$CHAMFERC
 40
0.0
  9
$CHAMFERD
 40
0.0
  9
$SKPOLY
 70
     0
  9
$TDCREATE
 40
2450409.415687685
  9
$TDUPDATE
 40
2452297.073406029
  9
$TDINDWG
 40
0.0112878241
  9
$TDUSRTIMER
 40
0.0112878241
  9
$USRTIMER
 70
     1
  9
$ANGBASE
 50
0.0
  9
$ANGDIR
 70
     0
  9
$PDMODE
 70
     0
  9
$PDSIZE
 40
0.0
  9
$PLINEWID
 40
0.0
  9
$COORDS
 70
     2
  9
$SPLFRAME
 70
     0
  9
$SPLINETYPE
 70
     6
  9
$SPLINESEGS
 70
     8
  9
$ATTDIA
 70
     0
  9
$ATTREQ
 70
     1
  9
$HANDLING
 70
 22529
  9
$HANDSEED
  5
278
  9
$SURFTAB1
 70
     6
  9
$SURFTAB2
 70
     6
  9
$SURFTYPE
 70
     6
  9
$SURFU
 70
     6
  9
$SURFV
 70
     6
  9
$UCSNAME
  2

  9
$UCSORG
 10
0.0
 20
0.0
 30
0.0
  9
$UCSXDIR
 10
1.0
 20
0.0
 30
0.0
  9
$UCSYDIR
 10
0.0
 20
1.0
 30
0.0
  9
$PUCSNAME
  2

  9
$PUCSORG
 10
0.0
 20
0.0
 30
0.0
  9
$PUCSXDIR
 10
1.0
 20
0.0
 30
0.0
  9
$PUCSYDIR
 10
0.0
 20
1.0
 30
0.0
  9
$USERI1
 70
     0
  9
$USERI2
 70
     0
  9
$USERI3
 70
     0
  9
$USERI4
 70
     0
  9
$USERI5
 70
     0
  9
$USERR1
 40
0.0
  9
$USERR2
 40
0.0
  9
$USERR3
 40
0.0
  9
$USERR4
 40
0.0
  9
$USERR5
 40
0.0
  9
$WORLDVIEW
 70
     1
  9
$SHADEDGE
 70
     3
  9
$SHADEDIF
 70
    70
  9
$TILEMODE
 70
     1
  9
$MAXACTVP
 70
    15
  9
$PINSBASE
 10
0.0058594681322575
 20
8.002266177471257
 30
0.0
  9
$PLIMCHECK
 70
     0
  9
$PEXTMIN
 10
1.000000000000000E+20
 20
1.000000000000000E+20
 30
1.000000000000000E+20
  9
$PEXTMAX
 10
-1.000000000000000E+20
 20
-1.000000000000000E+20
 30
-1.000000000000000E+20
  9
$PLIMMIN
 10
0.0
 20
0.0
  9
$PLIMMAX
 10
12.0
 20
9.0
  9
$UNITMODE
 70
     0
  9
$VISRETAIN
 70
     0
  9
$PLINEGEN
 70
     0
  9
$PSLTSCALE
 70
     1
  9
$TREEDEPTH
 70
  3020
  9
$PICKSTYLE
 70
     1
  9
$CMLSTYLE
  2
STANDARD
  9
$CMLJUST
 70
     0
  9
$CMLSCALE
 40
1.0
  9
$PROXYGRAPHICS
 70
     1
  9
$MEASUREMENT
 70
     0
  0
ENDSEC
  0
SECTION
  2
CLASSES
  0
CLASS
  1
ACDBDICTIONARYWDFLT
  2
AcDbDictionaryWithDefault
  3
AutoCAD 2000
 90
        0
280
     0
281
     0
  0
CLASS
  1
ACDBPLACEHOLDER
  2
AcDbPlaceHolder
  3
AutoCAD 2000
 90
        0
280
     0
281
     0
  0
CLASS
  1
LAYOUT
  2
AcDbLayout
  3
AutoCAD 2000
 90
        0
280
     0
281
     0
  0
CLASS
  1
DICTIONARYVAR
  2
AcDbDictionaryVar
  3
AutoCAD 2000
 90
        0
280
     0
281
     0
  0
CLASS
  1
LONG_TRANSACTION
  2
AcDbLongTransaction
  3
AutoCAD 2000
 90
        0
280
     0
281
     0
  0
CLASS
  1
LWPOLYLINE
  2
AcDbPolyline
  3
AutoCAD 2000
 90
        0
280
     0
281
     1
  0
CLASS
  1
HATCH
  2
AcDbHatch
  3
AutoCAD 2000
 90
        0
280
     0
281
     1
  0
CLASS
  1
XRECORD
  2
AcDbXrecord
  3
AutoCAD 2000
 90
        0
280
     0
281
     0
  0
CLASS
  1
LONG_TRANSACTION
  2
AcDbLongTransaction
  3
AutoCAD 2000
 90
        0
280
     0
281
     0
  0
CLASS
  1
LWPOLYLINE
  2
AcDbPolyline
  3
AutoCAD 2000
 90
        0
280
     0
281
     1
  0
CLASS
  1
HATCH
  2
AcDbHatch
  3
AutoCAD 2000
 90
        0
280
     0
281
     1
  0
CLASS
  1
XRECORD
  2
AcDbXrecord
  3
AutoCAD 2000
 90
        0
280
     0
281
     0
  0
CLASS
  1
LONG_TRANSACTION
  2
AcDbLongTransaction
  3
AutoCAD 2000
 90
        0
280
     0
281
     0
  0
CLASS
  1
LWPOLYLINE
  2
AcDbPolyline
  3
AutoCAD 2000
 90
        0
280
     0
281
     1
  0
CLASS
  1
HATCH
  2
AcDbHatch
  3
AutoCAD 2000
 90
        0
280
     0
281
     1
  0
CLASS
  1
XRECORD
  2
AcDbXrecord
  3
AutoCAD 2000
 90
        0
280
     0
281
     0
  0
CLASS
  1
LONG_TRANSACTION
  2
AcDbLongTransaction
  3
AutoCAD 2000
 90
        0
280
     0
281
     0
  0
CLASS
  1
LWPOLYLINE
  2
AcDbPolyline
  3
AutoCAD 2000
 90
        0
280
     0
281
     1
  0
CLASS
  1
HATCH
  2
AcDbHatch
  3
AutoCAD 2000
 90
        0
280
     0
281
     1
  0
CLASS
  1
XRECORD
  2
AcDbXrecord
  3
AutoCAD 2000
 90
        0
280
     0
281
     0
  0
CLASS
  1
LONG_TRANSACTION
  2
AcDbLongTransaction
  3
AutoCAD 2000
 90
        0
280
     0
281
     0
  0
CLASS
  1
LWPOLYLINE
  2
AcDbPolyline
  3
AutoCAD 2000
 90
        0
280
     0
281
     1
  0
CLASS
  1
HATCH
  2
AcDbHatch
  3
AutoCAD 2000
 90
        0
280
     0
281
     1
  0
CLASS
  1
XRECORD
  2
AcDbXrecord
  3
AutoCAD 2000
 90
        0
280
     0
281
     0
  0
ENDSEC
  0
SECTION
  2
TABLES
  0
TABLE
  2
VPORT
  5
8
330
0
100
AcDbSymbolTable
 70
     2
  0
VPORT
  5
255
330
8
100
AcDbSymbolTableRecord
100
AcDbViewportTableRecord
  2
*ACTIVE
 70
     0
 10
0.0
 20
0.0
 11
1.0
 21
1.0
 12
-33.22388697512713
 22
-27.07608047243219
 13
0.0
 23
0.0
 14
0.5740882589684922
 24
0.5740882589684922
 15
0.5
 25
0.5
 16
0.0
 26
0.0
 36
1.0
 17
0.0
 27
0.0
 37
0.0
 40
32.99242293166541
 41
1.570528967254408
 42
50.0
 43
0.0
 44
0.0
 50
0.0
 51
0.0
 71
     0
 72
   100
 73
     1
 74
     0
 75
     0
 76
     0
 77
     0
 78
     0
  0
ENDTAB
  0
TABLE
  2
LTYPE
  5
5
330
0
100
AcDbSymbolTable
 70
     1
  0
LTYPE
  5
12
330
5
100
AcDbSymbolTableRecord
100
AcDbLinetypeTableRecord
  2
BYBLOCK
 70
     0
  3

 72
    65
 73
     0
 40
0.0
  0
LTYPE
  5
13
330
5
100
AcDbSymbolTableRecord
100
AcDbLinetypeTableRecord
  2
BYLAYER
 70
     0
  3

 72
    65
 73
     0
 40
0.0
  0
LTYPE
  5
14
330
5
100
AcDbSymbolTableRecord
100
AcDbLinetypeTableRecord
  2
CONTINUOUS
 70
     0
  3
Solid line
 72
    65
 73
     0
 40
0.0
  0
ENDTAB
  0
TABLE
  2
LAYER
  5
2
330
0
100
AcDbSymbolTable
 70
     4
  0
LAYER
  5
F
330
2
100
AcDbSymbolTableRecord
100
AcDbLayerTableRecord
  2
0
 70
     0
 62
     7
  6
CONTINUOUS
  0
LAYER
  5
1F
330
2
100
AcDbSymbolTableRecord
100
AcDbLayerTableRecord
  2
DEFPOINTS
 70
     0
 62
     7
  6
CONTINUOUS
  0
LAYER
  5
20
330
2
100
AcDbSymbolTableRecord
100
AcDbLayerTableRecord
  2
ADPDIM
 70
     0
 62
     3
  6
CONTINUOUS
  0
LAYER
  5
21
330
2
100
AcDbSymbolTableRecord
100
AcDbLayerTableRecord
  2
ADP1DETAIL
 70
     0
 62
     7
  6
CONTINUOUS
  0
ENDTAB
  0
TABLE
  2
STYLE
  5
3
330
0
100
AcDbSymbolTable
 70
     2
  0
STYLE
  5
10
330
3
100
AcDbSymbolTableRecord
100
AcDbTextStyleTableRecord
  2
STANDARD
 70
     0
 40
0.0
 41
1.0
 50
0.0
 71
     0
 42
0.2
  3
txt
  4

  0
STYLE
  5
111
330
3
100
AcDbSymbolTableRecord
100
AcDbTextStyleTableRecord
  2
ARIAL_WIDE
 70
     0
 40
0.0
 41
1.25
 50
0.0
 71
     0
 42
0.2
  3
ARIAL.TTF
  4

1001
ACAD
1000
Arial
1071
       34
  0
ENDTAB
  0
TABLE
  2
VIEW
  5
6
330
0
100
AcDbSymbolTable
 70
     0
  0
ENDTAB
  0
TABLE
  2
UCS
  5
7
330
0
100
AcDbSymbolTable
 70
     0
  0
ENDTAB
  0
TABLE
  2
APPID
  5
9
330
0
100
AcDbSymbolTable
 70
     1
  0
APPID
  5
11
330
9
100
AcDbSymbolTableRecord
100
AcDbRegAppTableRecord
  2
ACAD
 70
     0
  0
ENDTAB
  0
TABLE
  2
DIMSTYLE
  5
A
330
0
100
AcDbSymbolTable
 70
     1
  0
DIMSTYLE
105
105
330
A
100
AcDbSymbolTableRecord
100
AcDbDimStyleTableRecord
  2
STANDARD
 70
     0
  3

  4

  5

  6

  7

 40
1.0
 41
0.18
 42
0.0625
 43
0.38
 44
0.18
 45
0.0
 46
0.0
 47
0.0
 48
0.0
140
0.18
141
0.09
142
0.0
143
25.4
144
1.0
145
0.0
146
1.0
147
0.09
 71
     0
 72
     0
 73
     1
 74
     1
 75
     0
 76
     0
 77
     0
 78
     0
170
     0
171
     2
172
     0
173
     0
174
     0
175
     0
176
     0
177
     0
178
     0
270
     2
271
     4
272
     4
273
     2
274
     2
340
10
275
     0
280
     0
281
     0
282
     0
283
     1
284
     0
285
     0
286
     0
287
     3
288
     0
  0
ENDTAB
  0
TABLE
  2
BLOCK_RECORD
  5
1
330
0
100
AcDbSymbolTable
 70
     2
  0
BLOCK_RECORD
  5
18
102
{ACAD_XDICTIONARY
360
166
102
}
330
1
100
AcDbSymbolTableRecord
100
AcDbBlockTableRecord
  2
*MODEL_SPACE
  0
BLOCK_RECORD
  5
15
102
{ACAD_XDICTIONARY
360
164
102
}
330
1
100
AcDbSymbolTableRecord
100
AcDbBlockTableRecord
  2
*PAPER_SPACE
  0
BLOCK_RECORD
  5
1C
330
1
100
AcDbSymbolTableRecord
100
AcDbBlockTableRecord
  2
*D0
  0
BLOCK_RECORD
  5
1D
330
1
100
AcDbSymbolTableRecord
100
AcDbBlockTableRecord
  2
*D1
  0
ENDTAB
  0
ENDSEC
  0
SECTION
  2
BLOCKS
  0
BLOCK
  5
24
330
18
100
AcDbEntity
  8
0
100
AcDbBlockBegin
  2
*MODEL_SPACE
 70
     0
 10
0.0
 20
0.0
 30
0.0
  3
*MODEL_SPACE
  1

  0
ENDBLK
  5
25
330
18
100
AcDbEntity
  8
0
100
AcDbBlockEnd
  0
BLOCK
  5
22
330
15
100
AcDbEntity
 67
     1
  8
0
100
AcDbBlockBegin
  2
*PAPER_SPACE
 70
     0
 10
0.0
 20
0.0
 30
0.0
  3
*PAPER_SPACE
  1

  0
ENDBLK
  5
23
330
15
100
AcDbEntity
 67
     1
  8
0
100
AcDbBlockEnd
  0
BLOCK
  5
26
330
1C
100
AcDbEntity
  8
0
100
AcDbBlockBegin
  2
*D0
 70
     1
 10
0.0
 20
0.0
 30
0.0
  3
*D0
  1

  0
LINE
  5
27
330
1C
100
AcDbEntity
  8
0
  6
BYBLOCK
 62
     0
100
AcDbLine
 10
-28.52921905069381
 20
-40.12835352466819
 30
0.0
 11
-25.76239086138023
 21
-40.12835352466819
 31
0.0
  0
LINE
  5
28
330
1C
100
AcDbEntity
  8
0
  6
BYBLOCK
 62
     0
100
AcDbLine
 10
-28.52921905069381
 20
-13.12835352466819
 30
0.0
 11
-25.76239086138022
 21
-13.12835352466819
 31
0.0
  0
LINE
  5
29
330
1C
100
AcDbEntity
  8
0
  6
BYBLOCK
 62
     0
100
AcDbLine
 10
-25.94239086138022
 20
-40.12835352466819
 30
0.0
 11
-25.94239086138022
 21
-26.85752019133486
 31
0.0
  0
LINE
  5
2A
330
1C
100
AcDbEntity
  8
0
  6
BYBLOCK
 62
     0
100
AcDbLine
 10
-25.94239086138022
 20
-13.12835352466819
 30
0.0
 11
-25.94239086138022
 21
-26.39918685800152
 31
0.0
  0
LINE
  5
2B
330
1C
100
AcDbEntity
  8
0
  6
BYBLOCK
 62
     0
100
AcDbLine
 10
-25.81739086138023
 20
-40.25335352466819
 30
0.0
 11
-26.06739086138023
 21
-40.00335352466819
 31
0.0
  0
LINE
  5
2C
330
1C
100
AcDbEntity
  8
0
  6
BYBLOCK
 62
     0
100
AcDbLine
 10
-25.81739086138022
 20
-13.25335352466819
 30
0.0
 11
-26.06739086138022
 21
-13.00335352466819
 31
0.0
  0
TEXT
  5
2D
330
1C
100
AcDbEntity
  8
0
  6
BYBLOCK
 62
     0
100
AcDbText
 10
-25.87989086138022
 20
-26.73252019133486
 30
0.0
 40
0.125
  1
27
 50
90.0
 72
     1
 11
-25.94239086138022
 21
-26.62835352466819
 31
0.0
100
AcDbText
 73
     2
  0
POINT
  5
2E
330
1C
100
AcDbEntity
  8
DEFPOINTS
  6
BYBLOCK
 62
     0
100
AcDbPoint
 10
-28.59171905069382
 20
-40.12835352466819
 30
0.0
  0
POINT
  5
2F
330
1C
100
AcDbEntity
  8
DEFPOINTS
  6
BYBLOCK
 62
     0
100
AcDbPoint
 10
-28.59171905069382
 20
-13.12835352466819
 30
0.0
  0
POINT
  5
30
330
1C
100
AcDbEntity
  8
DEFPOINTS
  6
BYBLOCK
 62
     0
100
AcDbPoint
 10
-25.94239086138022
 20
-13.12835352466819
 30
0.0
  0
ENDBLK
  5
31
330
1C
100
AcDbEntity
  8
0
100
AcDbBlockEnd
  0
BLOCK
  5
32
330
1D
100
AcDbEntity
  8
0
100
AcDbBlockBegin
  2
*D1
 70
     1
 10
0.0
 20
0.0
 30
0.0
  3
*D1
  1

  0
LINE
  5
33
330
1D
100
AcDbEntity
  8
0
  6
BYBLOCK
 62
     0
100
AcDbLine
 10
-40.08075350901689
 20
-17.47271540825144
 30
0.0
 11
-40.08075350901689
 21
-12.08947137369568
 31
0.0
  0
LINE
  5
34
330
1D
100
AcDbEntity
  8
0
  6
BYBLOCK
 62
     0
100
AcDbLine
 10
-26.58075350901689
 20
-17.51523302663989
 30
0.0
 11
-26.58075350901689
 21
-12.08947137369568
 31
0.0
  0
LINE
  5
35
330
1D
100
AcDbEntity
  8
0
  6
BYBLOCK
 62
     0
100
AcDbLine
 10
-40.08075350901689
 20
-12.26947137369568
 30
0.0
 11
-33.76825350901689
 21
-12.26947137369568
 31
0.0
  0
LINE
  5
36
330
1D
100
AcDbEntity
  8
0
  6
BYBLOCK
 62
     0
100
AcDbLine
 10
-26.58075350901689
 20
-12.26947137369568
 30
0.0
 11
-32.89325350901689
 21
-12.26947137369568
 31
0.0
  0
LINE
  5
37
330
1D
100
AcDbEntity
  8
0
  6
BYBLOCK
 62
     0
100
AcDbLine
 10
-40.20575350901689
 20
-12.39447137369568
 30
0.0
 11
-39.95575350901689
 21
-12.14447137369568
 31
0.0
  0
LINE
  5
38
330
1D
100
AcDbEntity
  8
0
  6
BYBLOCK
 62
     0
100
AcDbLine
 10
-26.70575350901689
 20
-12.39447137369568
 30
0.0
 11
-26.45575350901689
 21
-12.14447137369568
 31
0.0
  0
TEXT
  5
39
330
1D
100
AcDbEntity
  8
0
  6
BYBLOCK
 62
     0
100
AcDbText
 10
-33.64325350901689
 20
-12.33197137369568
 30
0.0
 40
0.125
  1
13 1/2
 72
     1
 11
-33.33075350901689
 21
-12.26947137369568
 31
0.0
100
AcDbText
 73
     2
  0
POINT
  5
3A
330
1D
100
AcDbEntity
  8
DEFPOINTS
  6
BYBLOCK
 62
     0
100
AcDbPoint
 10
-40.08075350901689
 20
-17.53521540825143
 30
0.0
  0
POINT
  5
3B
330
1D
100
AcDbEntity
  8
DEFPOINTS
  6
BYBLOCK
 62
     0
100
AcDbPoint
 10
-26.58075350901689
 20
-17.57773302663989
 30
0.0
  0
POINT
  5
3C
330
1D
100
AcDbEntity
  8
DEFPOINTS
  6
BYBLOCK
 62
     0
100
AcDbPoint
 10
-26.58075350901689
 20
-12.26947137369568
 30
0.0
  0
ENDBLK
  5
3D
330
1D
100
AcDbEntity
  8
0
100
AcDbBlockEnd
  0
ENDSEC
  0
SECTION
  2
ENTITIES
  0
DIMENSION
  5
3E
330
18
100
AcDbEntity
  8
ADPDIM
100
AcDbDimension
  2
*D0
 10
-25.94239086138022
 20
-13.12835352466819
 30
0.0
 11
-25.94239086138022
 21
-26.62835352466819
 31
0.0
100
AcDbAlignedDimension
 13
-28.59171905069382
 23
-40.12835352466819
 33
0.0
 14
-28.59171905069382
 24
-13.12835352466819
 34
0.0
 50
90.0
100
AcDbRotatedDimension
  0
ARC
  5
3F
330
18
100
AcDbEntity
  8
ADP1DETAIL
100
AcDbCircle
 10
78.30449383262032
 20
-26.61700484961291
 30
0.0
 40
111.9558082873719
100
AcDbArc
 50
177.8132958009031
 51
182.1867041990968
  0
ARC
  5
40
330
18
100
AcDbEntity
  8
ADP1DETAIL
100
AcDbCircle
 10
229.681309157211
 20
-26.61998067037315
 30
0.0
 40
263.2012361714723
100
AcDbArc
 50
179.0741271712977
 51
180.9258728287021
  0
ARC
  5
41
330
18
100
AcDbEntity
  8
ADP1DETAIL
100
AcDbCircle
 10
-149.4660008506554
 20
-26.61700484961295
 30
0.0
 40
111.9558082873732
100
AcDbArc
 50
357.8132958009031
 51
2.186704199096856
  0
ARC
  5
42
330
18
100
AcDbEntity
  8
ADP1DETAIL
100
AcDbCircle
 10
-300.8428161752537
 20
-26.61998067037302
 30
0.0
 40
263.2012361714813
100
AcDbArc
 50
359.0741271712978
 51
0.9258728287022057
  0
ARC
  5
43
330
18
100
AcDbEntity
  8
ADP1DETAIL
100
AcDbCircle
 10
225.181309157211
 20
-26.61998067037314
 30
0.0
 40
263.2012361714723
100
AcDbArc
 50
179.0741271712977
 51
180.9258728287021
  0
ARC
  5
44
330
18
100
AcDbEntity
  8
ADP1DETAIL
100
AcDbCircle
 10
73.80449383262035
 20
-26.61700484961289
 30
0.0
 40
111.9558082873719
100
AcDbArc
 50
177.8132958009031
 51
182.1867041990968
  0
ARC
  5
45
330
18
100
AcDbEntity
  8
ADP1DETAIL
100
AcDbCircle
 10
82.80449383262036
 20
-26.61700484961291
 30
0.0
 40
111.9558082873719
100
AcDbArc
 50
177.8132958009031
 51
182.1867041990968
  0
ARC
  5
46
330
18
100
AcDbEntity
  8
ADP1DETAIL
100
AcDbCircle
 10
234.181309157211
 20
-26.61998067037295
 30
0.0
 40
263.2012361714723
100
AcDbArc
 50
179.0741271712977
 51
180.9258728287022
  0
ARC
  5
47
330
18
100
AcDbEntity
  8
ADP1DETAIL
100
AcDbCircle
 10
-140.4660008506549
 20
-26.6170048496129
 30
0.0
 40
111.9558082873727
100
AcDbArc
 50
357.813295800903
 51
2.186704199096835
  0
ARC
  5
48
330
18
100
AcDbEntity
  8
ADP1DETAIL
100
AcDbCircle
 10
-291.8428161752536
 20
-26.61998067037304
 30
0.0
 40
263.2012361714813
100
AcDbArc
 50
359.0741271712978
 51
0.9258728287022059
  0
ARC
  5
49
330
18
100
AcDbEntity
  8
ADP1DETAIL
100
AcDbCircle
 10
-144.9660008506554
 20
-26.61700484961297
 30
0.0
 40
111.9558082873732
100
AcDbArc
 50
357.8132958009031
 51
2.186704199096856
  0
ARC
  5
4A
330
18
100
AcDbEntity
  8
ADP1DETAIL
100
AcDbCircle
 10
-296.3428161752536
 20
-26.61998067037304
 30
0.0
 40
263.2012361714813
100
AcDbArc
 50
359.0741271712978
 51
0.9258728287022057
  0
LINE
  5
4B
330
18
100
AcDbEntity
  8
ADP1DETAIL
100
AcDbLine
 10
-37.59171905069381
 20
-30.88878211696338
 30
0.0
 11
-37.64606947073914
 21
-33.14432454884426
 31
0.0
  0
LWPOLYLINE
  5
4C
330
18
100
AcDbEntity
  8
ADP1DETAIL
100
AcDbPolyline
 90
        4
 70
     0
 43
0.0
 10
-37.97217199101107
 20
-40.12835352466818
 10
-37.59171905069381
 20
-40.12835352466818
 10
-37.64606947073914
 20
-37.8728110927873
 42
-0.4356567203520196
 10
-35.58075350901688
 20
-35.69879429097442
 42
5.820683986793332
  0
LWPOLYLINE
  5
52
330
18
100
AcDbEntity
  8
ADP1DETAIL
100
AcDbPolyline
 90
        4
 70
     0
 43
0.0
 10
-37.87596314736114
 20
-40.133065515113
 10
-38.06978796733996
 20
-40.12835352466818
 10
-38.01543754729463
 20
-37.8728110927873
 42
0.4356567203520196
 10
-40.08075350901689
 20
-35.69879429097442
 42
-5.820683986793332
  0
ARC
  5
58
330
18
100
AcDbEntity
  8
ADP1DETAIL
100
AcDbCircle
 10
-35.6026412347365
 20
-33.27110120736627
 30
0.0
 40
2.047357144427624
100
AcDbArc
 50
176.4498536618745
 51
270.6125449093539
  0
ARC
  5
59
330
18
100
AcDbEntity
  8
ADP1DETAIL
100
AcDbCircle
 10
-40.05886578329728
 20
-33.27110120736627
 30
0.0
 40
2.047357144427623
100
AcDbArc
 50
269.387455090646
 51
3.5501463381255
  0
LWPOLYLINE
  5
5A
330
18
100
AcDbEntity
  8
ADP1DETAIL
100
AcDbPolyline
 90
        3
 70
     0
 43
0.0
 10
-37.6732446807618
 20
-40.12835352466818
 10
-37.75477031082978
 20
-37.79128546271932
 10
-37.75477031082978
 20
-35.50856782081579
  0
LWPOLYLINE
  5
5F
330
18
100
AcDbEntity
  8
ADP1DETAIL
100
AcDbPolyline
 90
        3
 70
     0
 43
0.0
 10
-37.98826233727198
 20
-40.12835352466818
 10
-37.906736707204
 20
-37.79128546271932
 10
-37.906736707204
 20
-35.50856782081579
  0
LINE
  5
64
330
18
100
AcDbEntity
  8
ADP1DETAIL
100
AcDbLine
 10
-38.06978796733996
 20
-40.12835352466818
 30
0.0
 11
-37.6732446807618
 21
-40.12835352466818
 31
0.0
  0
LINE
  5
65
330
18
100
AcDbEntity
  8
ADP1DETAIL
100
AcDbLine
 10
-38.06978796733996
 20
-30.88878211696338
 30
0.0
 11
-38.01543754729463
 21
-33.14432454884426
 31
0.0
  0
LINE
  5
66
330
18
100
AcDbEntity
  8
ADP1DETAIL
100
AcDbLine
 10
-37.6732446807618
 20
-30.88878211696338
 30
0.0
 11
-37.75477031082978
 21
-33.22585017891225
 31
0.0
  0
LINE
  5
67
330
18
100
AcDbEntity
  8
ADP1DETAIL
100
AcDbLine
 10
-37.98826233727198
 20
-30.88878211696338
 30
0.0
 11
-37.906736707204
 21
-33.22585017891225
 31
0.0
  0
LINE
  5
68
330
18
100
AcDbEntity
  8
ADP1DETAIL
100
AcDbLine
 10
-37.75477031082978
 20
-33.22585017891225
 30
0.0
 11
-37.75477031082978
 21
-35.50856782081579
 31
0.0
  0
LINE
  5
69
330
18
100
AcDbEntity
  8
ADP1DETAIL
100
AcDbLine
 10
-37.906736707204
 20
-33.22585017891225
 30
0.0
 11
-37.906736707204
 21
-35.50856782081579
 31
0.0
  0
LINE
  5
6A
330
18
100
AcDbEntity
  8
ADP1DETAIL
100
AcDbLine
 10
-40.08075350901689
 20
-35.31834135065715
 30
0.0
 11
-40.08075350901689
 21
-35.69879429097442
 31
0.0
  0
LWPOLYLINE
  5
6B
330
18
100
AcDbEntity
  8
ADP1DETAIL
100
AcDbPolyline
 90
        3
 70
     0
 43
0.0
 10
-28.6732446807618
 20
-40.12835352466819
 10
-28.75477031082979
 20
-37.79128546271933
 10
-28.75477031082979
 20
-35.50856782081579
  0
LWPOLYLINE
  5
70
330
18
100
AcDbEntity
  8
ADP1DETAIL
100
AcDbPolyline
 90
        3
 70
     0
 43
0.0
 10
-33.17324468076179
 20
-40.12835352466818
 10
-33.25477031082979
 20
-37.79128546271932
 10
-33.25477031082979
 20
-35.50856782081579
  0
LWPOLYLINE
  5
75
330
18
100
AcDbEntity
  8
ADP1DETAIL
100
AcDbPolyline
 90
        4
 70
     0
 43
0.0
 10
-28.87596314736114
 20
-40.133065515113
 10
-29.06978796733996
 20
-40.12835352466819
 10
-29.01543754729464
 20
-37.87281109278731
 42
0.4356567203520196
 10
-31.08075350901689
 20
-35.69879429097442
 42
-5.820683986793332
  0
LWPOLYLINE
  5
7B
330
18
100
AcDbEntity
  8
ADP1DETAIL
100
AcDbPolyline
 90
        4
 70
     0
 43
0.0
 10
-28.97217199101107
 20
-40.12835352466819
 10
-28.59171905069382
 20
-40.12835352466819
 10
-28.64606947073914
 20
-37.87281109278731
 42
-0.4356567203520196
 10
-26.58075350901689
 20
-35.69879429097442
 42
5.820683986793332
  0
LWPOLYLINE
  5
81
330
18
100
AcDbEntity
  8
ADP1DETAIL
100
AcDbPolyline
 90
        3
 70
     0
 43
0.0
 10
-28.98826233727198
 20
-40.12835352466819
 10
-28.90673670720399
 20
-37.79128546271933
 10
-28.90673670720399
 20
-35.50856782081579
  0
LWPOLYLINE
  5
86
330
18
100
AcDbEntity
  8
ADP1DETAIL
100
AcDbPolyline
 90
        3
 70
     0
 43
0.0
 10
-33.48826233727198
 20
-40.12835352466818
 10
-33.40673670720399
 20
-37.79128546271932
 10
-33.40673670720399
 20
-35.50856782081579
  0
LWPOLYLINE
  5
8B
330
18
100
AcDbEntity
  8
ADP1DETAIL
100
AcDbPolyline
 90
        4
 70
     0
 43
0.0
 10
-33.37596314736114
 20
-40.133065515113
 10
-33.56978796733996
 20
-40.12835352466818
 10
-33.51543754729464
 20
-37.8728110927873
 42
0.4356567203520196
 10
-35.58075350901688
 20
-35.69879429097442
 42
-5.820683986793332
  0
LWPOLYLINE
  5
91
330
18
100
AcDbEntity
  8
ADP1DETAIL
100
AcDbPolyline
 90
        4
 70
     0
 43
0.0
 10
-33.47217199101107
 20
-40.12835352466818
 10
-33.09171905069382
 20
-40.12835352466818
 10
-33.14606947073914
 20
-37.8728110927873
 42
-0.4356567203520196
 10
-31.08075350901689
 20
-35.69879429097442
 42
5.820683986793332
  0
ARC
  5
97
330
18
100
AcDbEntity
  8
ADP1DETAIL
100
AcDbCircle
 10
-31.05886578329728
 20
-33.27110120736627
 30
0.0
 40
2.047357144427623
100
AcDbArc
 50
269.387455090646
 51
3.5501463381255
  0
ARC
  5
98
330
18
100
AcDbEntity
  8
ADP1DETAIL
100
AcDbCircle
 10
-26.60264123473651
 20
-33.27110120736627
 30
0.0
 40
2.047357144427623
100
AcDbArc
 50
176.4498536618745
 51
270.6125449093539
  0
LINE
  5
99
330
18
100
AcDbEntity
  8
ADP1DETAIL
100
AcDbLine
 10
-29.06978796733996
 20
-30.88878211696338
 30
0.0
 11
-29.01543754729464
 21
-33.14432454884426
 31
0.0
  0
LINE
  5
9A
330
18
100
AcDbEntity
  8
ADP1DETAIL
100
AcDbLine
 10
-33.09171905069382
 20
-30.88878211696338
 30
0.0
 11
-33.14606947073914
 21
-33.14432454884426
 31
0.0
  0
LINE
  5
9B
330
18
100
AcDbEntity
  8
ADP1DETAIL
100
AcDbLine
 10
-33.17324468076179
 20
-30.88878211696338
 30
0.0
 11
-33.25477031082979
 21
-33.22585017891225
 31
0.0
  0
LINE
  5
9C
330
18
100
AcDbEntity
  8
ADP1DETAIL
100
AcDbLine
 10
-28.98826233727198
 20
-30.88878211696338
 30
0.0
 11
-28.90673670720399
 21
-33.22585017891225
 31
0.0
  0
LINE
  5
9D
330
18
100
AcDbEntity
  8
ADP1DETAIL
100
AcDbLine
 10
-33.56978796733996
 20
-30.88878211696338
 30
0.0
 11
-33.51543754729464
 21
-33.14432454884426
 31
0.0
  0
LINE
  5
9E
330
18
100
AcDbEntity
  8
ADP1DETAIL
100
AcDbLine
 10
-33.48826233727198
 20
-30.88878211696338
 30
0.0
 11
-33.40673670720399
 21
-33.22585017891225
 31
0.0
  0
ARC
  5
9F
330
18
100
AcDbEntity
  8
ADP1DETAIL
100
AcDbCircle
 10
-35.55886578329727
 20
-33.27110120736627
 30
0.0
 40
2.047357144427622
100
AcDbArc
 50
269.387455090646
 51
3.550146338125502
  0
ARC
  5
A0
330
18
100
AcDbEntity
  8
ADP1DETAIL
100
AcDbCircle
 10
-31.10264123473651
 20
-33.27110120736627
 30
0.0
 40
2.047357144427623
100
AcDbArc
 50
176.4498536618745
 51
270.6125449093539
  0
LINE
  5
A1
330
18
100
AcDbEntity
  8
ADP1DETAIL
100
AcDbLine
 10
-33.25477031082979
 20
-33.22585017891225
 30
0.0
 11
-33.25477031082979
 21
-35.50856782081579
 31
0.0
  0
LINE
  5
A2
330
18
100
AcDbEntity
  8
ADP1DETAIL
100
AcDbLine
 10
-33.40673670720399
 20
-33.22585017891225
 30
0.0
 11
-33.40673670720399
 21
-35.50856782081579
 31
0.0
  0
LINE
  5
A3
330
18
100
AcDbEntity
  8
ADP1DETAIL
100
AcDbLine
 10
-28.90673670720399
 20
-33.22585017891225
 30
0.0
 11
-28.90673670720399
 21
-35.50856782081579
 31
0.0
  0
LINE
  5
A4
330
18
100
AcDbEntity
  8
ADP1DETAIL
100
AcDbLine
 10
-28.59171905069382
 20
-30.88878211696338
 30
0.0
 11
-28.64606947073914
 21
-33.14432454884426
 31
0.0
  0
LINE
  5
A5
330
18
100
AcDbEntity
  8
ADP1DETAIL
100
AcDbLine
 10
-28.6732446807618
 20
-30.88878211696338
 30
0.0
 11
-28.75477031082979
 21
-33.22585017891225
 31
0.0
  0
LINE
  5
A6
330
18
100
AcDbEntity
  8
ADP1DETAIL
100
AcDbLine
 10
-28.75477031082979
 20
-33.22585017891225
 30
0.0
 11
-28.75477031082979
 21
-35.50856782081579
 31
0.0
  0
LINE
  5
A7
330
18
100
AcDbEntity
  8
ADP1DETAIL
100
AcDbLine
 10
-26.58075350901689
 20
-35.31834135065714
 30
0.0
 11
-26.58075350901689
 21
-35.69879429097442
 31
0.0
  0
LWPOLYLINE
  5
A8
330
18
100
AcDbEntity
  8
ADP1DETAIL
100
AcDbPolyline
 90
        4
 70
     0
 43
0.0
 10
-37.87596314736114
 20
-13.10094418411285
 10
-38.06978796733996
 20
-13.10565617455767
 10
-38.01543754729463
 20
-15.36119860643855
 42
-0.4356567203520196
 10
-40.08075350901689
 20
-17.53521540825143
 42
5.820683986793332
  0
LWPOLYLINE
  5
AE
330
18
100
AcDbEntity
  8
ADP1DETAIL
100
AcDbPolyline
 90
        4
 70
     0
 43
0.0
 10
-37.97217199101107
 20
-13.10565617455767
 10
-37.59171905069381
 20
-13.10565617455767
 10
-37.64606947073914
 20
-15.36119860643855
 42
0.4356567203520196
 10
-35.58075350901688
 20
-17.53521540825143
 42
-5.820683986793332
  0
LINE
  5
B4
330
18
100
AcDbEntity
  8
ADP1DETAIL
100
AcDbLine
 10
-37.59171905069381
 20
-22.34522758226247
 30
0.0
 11
-37.64606947073914
 21
-20.08968515038159
 31
0.0
  0
ARC
  5
B5
330
18
100
AcDbEntity
  8
ADP1DETAIL
100
AcDbCircle
 10
-40.05886578329728
 20
-19.96290849185958
 30
0.0
 40
2.047357144427623
100
AcDbArc
 50
356.4498536618744
 51
90.61254490935395
  0
ARC
  5
B6
330
18
100
AcDbEntity
  8
ADP1DETAIL
100
AcDbCircle
 10
-35.6026412347365
 20
-19.96290849185958
 30
0.0
 40
2.047357144427623
100
AcDbArc
 50
89.38745509064606
 51
183.5501463381254
  0
DIMENSION
  5
B7
330
18
100
AcDbEntity
  8
ADPDIM
100
AcDbDimension
  2
*D1
 10
-26.58075350901689
 20
-12.26947137369568
 30
0.0
 11
-33.33075350901689
 21
-12.26947137369568
 31
0.0
100
AcDbAlignedDimension
 13
-40.08075350901689
 23
-17.53521540825143
 33
0.0
 14
-26.58075350901689
 24
-17.57773302663989
 34
0.0
100
AcDbRotatedDimension
  0
LWPOLYLINE
  5
B8
330
18
100
AcDbEntity
  8
ADP1DETAIL
100
AcDbPolyline
 90
        3
 70
     0
 43
0.0
 10
-37.98826233727198
 20
-13.10565617455767
 10
-37.906736707204
 20
-15.44272423650653
 10
-37.906736707204
 20
-17.72544187841007
  0
LWPOLYLINE
  5
BD
330
18
100
AcDbEntity
  8
ADP1DETAIL
100
AcDbPolyline
 90
        3
 70
     0
 43
0.0
 10
-37.6732446807618
 20
-13.10565617455767
 10
-37.75477031082978
 20
-15.44272423650653
 10
-37.75477031082978
 20
-17.72544187841007
  0
LINE
  5
C2
330
18
100
AcDbEntity
  8
ADP1DETAIL
100
AcDbLine
 10
-37.906736707204
 20
-20.00815952031361
 30
0.0
 11
-37.906736707204
 21
-17.72544187841007
 31
0.0
  0
LINE
  5
C3
330
18
100
AcDbEntity
  8
ADP1DETAIL
100
AcDbLine
 10
-37.75477031082978
 20
-20.00815952031361
 30
0.0
 11
-37.75477031082978
 21
-17.72544187841007
 31
0.0
  0
LINE
  5
C4
330
18
100
AcDbEntity
  8
ADP1DETAIL
100
AcDbLine
 10
-38.06978796733996
 20
-22.34522758226247
 30
0.0
 11
-38.01543754729463
 21
-20.08968515038159
 31
0.0
  0
LINE
  5
C5
330
18
100
AcDbEntity
  8
ADP1DETAIL
100
AcDbLine
 10
-37.98826233727198
 20
-22.34522758226247
 30
0.0
 11
-37.906736707204
 21
-20.00815952031361
 31
0.0
  0
LINE
  5
C6
330
18
100
AcDbEntity
  8
ADP1DETAIL
100
AcDbLine
 10
-37.6732446807618
 20
-22.34522758226247
 30
0.0
 11
-37.75477031082978
 21
-20.00815952031361
 31
0.0
  0
LINE
  5
C7
330
18
100
AcDbEntity
  8
ADP1DETAIL
100
AcDbLine
 10
-40.08075350901689
 20
-17.53521540825143
 30
0.0
 11
-40.08075350901689
 21
-17.9156683485687
 31
0.0
  0
LWPOLYLINE
  5
C8
330
18
100
AcDbEntity
  8
ADP1DETAIL
100
AcDbPolyline
 90
        3
 70
     0
 43
0.0
 10
-28.6732446807618
 20
-13.10565617455767
 10
-28.75477031082979
 20
-15.44272423650653
 10
-28.75477031082979
 20
-17.72544187841007
  0
LWPOLYLINE
  5
CD
330
18
100
AcDbEntity
  8
ADP1DETAIL
100
AcDbPolyline
 90
        3
 70
     0
 43
0.0
 10
-33.17324468076179
 20
-13.10565617455767
 10
-33.25477031082979
 20
-15.44272423650653
 10
-33.25477031082979
 20
-17.72544187841007
  0
LWPOLYLINE
  5
D2
330
18
100
AcDbEntity
  8
ADP1DETAIL
100
AcDbPolyline
 90
        4
 70
     0
 43
0.0
 10
-28.97217199101107
 20
-13.10565617455767
 10
-28.59171905069382
 20
-13.10565617455767
 10
-28.64606947073914
 20
-15.36119860643855
 42
0.4356567203520196
 10
-26.58075350901689
 20
-17.53521540825143
 42
-5.820683986793332
  0
LWPOLYLINE
  5
D8
330
18
100
AcDbEntity
  8
ADP1DETAIL
100
AcDbPolyline
 90
        4
 70
     0
 43
0.0
 10
-28.87596314736114
 20
-13.10094418411285
 10
-29.06978796733996
 20
-13.10565617455767
 10
-29.01543754729464
 20
-15.36119860643855
 42
-0.4356567203520196
 10
-31.08075350901689
 20
-17.53521540825143
 42
5.820683986793332
  0
LWPOLYLINE
  5
DE
330
18
100
AcDbEntity
  8
ADP1DETAIL
100
AcDbPolyline
 90
        3
 70
     0
 43
0.0
 10
-28.98826233727198
 20
-13.10565617455767
 10
-28.90673670720399
 20
-15.44272423650653
 10
-28.90673670720399
 20
-17.72544187841007
  0
LWPOLYLINE
  5
E3
330
18
100
AcDbEntity
  8
ADP1DETAIL
100
AcDbPolyline
 90
        3
 70
     0
 43
0.0
 10
-33.48826233727198
 20
-13.10565617455767
 10
-33.40673670720399
 20
-15.44272423650653
 10
-33.40673670720399
 20
-17.72544187841007
  0
LWPOLYLINE
  5
E8
330
18
100
AcDbEntity
  8
ADP1DETAIL
100
AcDbPolyline
 90
        4
 70
     0
 43
0.0
 10
-33.47217199101107
 20
-13.10565617455767
 10
-33.09171905069382
 20
-13.10565617455767
 10
-33.14606947073914
 20
-15.36119860643855
 42
0.4356567203520196
 10
-31.08075350901689
 20
-17.53521540825143
 42
-5.820683986793332
  0
LWPOLYLINE
  5
EE
330
18
100
AcDbEntity
  8
ADP1DETAIL
100
AcDbPolyline
 90
        4
 70
     0
 43
0.0
 10
-33.37596314736114
 20
-13.10094418411285
 10
-33.56978796733996
 20
-13.10565617455767
 10
-33.51543754729464
 20
-15.36119860643855
 42
-0.4356567203520196
 10
-35.58075350901688
 20
-17.53521540825143
 42
5.820683986793332
  0
ARC
  5
F4
330
18
100
AcDbEntity
  8
ADP1DETAIL
100
AcDbCircle
 10
-31.05886578329728
 20
-19.96290849185958
 30
0.0
 40
2.047357144427623
100
AcDbArc
 50
356.4498536618744
 51
90.61254490935395
  0
ARC
  5
F5
330
18
100
AcDbEntity
  8
ADP1DETAIL
100
AcDbCircle
 10
-26.60264123473651
 20
-19.96290849185958
 30
0.0
 40
2.047357144427623
100
AcDbArc
 50
89.38745509064601
 51
183.5501463381254
  0
ARC
  5
F6
330
18
100
AcDbEntity
  8
ADP1DETAIL
100
AcDbCircle
 10
-31.10264123473651
 20
-19.96290849185958
 30
0.0
 40
2.047357144427623
100
AcDbArc
 50
89.38745509064606
 51
183.5501463381254
  0
ARC
  5
F7
330
18
100
AcDbEntity
  8
ADP1DETAIL
100
AcDbCircle
 10
-35.55886578329727
 20
-19.96290849185958
 30
0.0
 40
2.047357144427623
100
AcDbArc
 50
356.4498536618744
 51
90.61254490935395
  0
LINE
  5
F8
330
18
100
AcDbEntity
  8
ADP1DETAIL
100
AcDbLine
 10
-33.25477031082979
 20
-20.00815952031361
 30
0.0
 11
-33.25477031082979
 21
-17.72544187841007
 31
0.0
  0
LINE
  5
F9
330
18
100
AcDbEntity
  8
ADP1DETAIL
100
AcDbLine
 10
-33.40673670720399
 20
-20.00815952031361
 30
0.0
 11
-33.40673670720399
 21
-17.72544187841007
 31
0.0
  0
LINE
  5
FA
330
18
100
AcDbEntity
  8
ADP1DETAIL
100
AcDbLine
 10
-28.90673670720399
 20
-20.00815952031361
 30
0.0
 11
-28.90673670720399
 21
-17.72544187841007
 31
0.0
  0
LINE
  5
FB
330
18
100
AcDbEntity
  8
ADP1DETAIL
100
AcDbLine
 10
-33.17324468076179
 20
-22.34522758226247
 30
0.0
 11
-33.25477031082979
 21
-20.00815952031361
 31
0.0
  0
LINE
  5
FC
330
18
100
AcDbEntity
  8
ADP1DETAIL
100
AcDbLine
 10
-33.56978796733996
 20
-22.34522758226247
 30
0.0
 11
-33.51543754729464
 21
-20.08968515038159
 31
0.0
  0
LINE
  5
FD
330
18
100
AcDbEntity
  8
ADP1DETAIL
100
AcDbLine
 10
-33.48826233727198
 20
-22.34522758226247
 30
0.0
 11
-33.40673670720399
 21
-20.00815952031361
 31
0.0
  0
LINE
  5
FE
330
18
100
AcDbEntity
  8
ADP1DETAIL
100
AcDbLine
 10
-33.09171905069382
 20
-22.34522758226247
 30
0.0
 11
-33.14606947073914
 21
-20.08968515038159
 31
0.0
  0
LINE
  5
FF
330
18
100
AcDbEntity
  8
ADP1DETAIL
100
AcDbLine
 10
-29.06978796733996
 20
-22.34522758226247
 30
0.0
 11
-29.01543754729464
 21
-20.08968515038159
 31
0.0
  0
LINE
  5
100
330
18
100
AcDbEntity
  8
ADP1DETAIL
100
AcDbLine
 10
-28.98826233727198
 20
-22.34522758226247
 30
0.0
 11
-28.90673670720399
 21
-20.00815952031361
 31
0.0
  0
LINE
  5
101
330
18
100
AcDbEntity
  8
ADP1DETAIL
100
AcDbLine
 10
-28.75477031082979
 20
-20.00815952031361
 30
0.0
 11
-28.75477031082979
 21
-17.72544187841007
 31
0.0
  0
LINE
  5
102
330
18
100
AcDbEntity
  8
ADP1DETAIL
100
AcDbLine
 10
-28.6732446807618
 20
-22.34522758226247
 30
0.0
 11
-28.75477031082979
 21
-20.00815952031361
 31
0.0
  0
LINE
  5
103
330
18
100
AcDbEntity
  8
ADP1DETAIL
100
AcDbLine
 10
-28.59171905069382
 20
-22.34522758226247
 30
0.0
 11
-28.64606947073914
 21
-20.08968515038159
 31
0.0
  0
LINE
  5
104
330
18
100
AcDbEntity
  8
ADP1DETAIL
100
AcDbLine
 10
-26.58075350901689
 20
-17.53521540825143
 30
0.0
 11
-26.58075350901689
 21
-17.9156683485687
 31
0.0
  0
TEXT
  5
112
330
18
100
AcDbEntity
  8
ADPDIM
100
AcDbText
 10
-59.00219705090235
 20
-41.91331063734318
 30
0.0
 40
0.5
  1
J U L I U S  B L U M  &  C O . ,  I N C .      ( 8 0 0 )  5 2 6 - 6 2 9 3        W W W . J U L I U S B L U M . C O M        P A R T  N o .  5 7 9
 41
1.25
  7
ARIAL_WIDE
 72
     1
 11
-33.26336690083414
 21
-41.41331063734318
 31
0.0
100
AcDbText
 73
     3
  0
ENDSEC
  0
SECTION
  2
OBJECTS
  0
DICTIONARY
  5
C
330
0
100
AcDbDictionary
  3
ACAD_GROUP
350
D
  3
ACAD_LAYOUT
350
10B
  3
ACAD_MLINESTYLE
350
E
  3
ACAD_PLOTSETTINGS
350
10C
  3
ACAD_PLOTSTYLENAME
350
109
  3
ACDBHEADERROUNDTRIPXREC
350
256
  3
ACDBVARIABLEDICTIONARY
350
16C
  0
DICTIONARY
  5
166
330
18
100
AcDbDictionary
280
     1
  3
ACAD_LAYOUTSELFREF
360
277
  0
DICTIONARY
  5
164
330
15
100
AcDbDictionary
280
     1
  3
ACAD_LAYOUTSELFREF
360
276
  0
DICTIONARY
  5
D
102
{ACAD_REACTORS
330
C
102
}
330
C
100
AcDbDictionary
  0
DICTIONARY
  5
10B
102
{ACAD_REACTORS
330
C
102
}
330
C
100
AcDbDictionary
  0
DICTIONARY
  5
E
102
{ACAD_REACTORS
330
C
102
}
330
C
100
AcDbDictionary
  3
STANDARD
350
1B
  0
DICTIONARY
  5
10C
102
{ACAD_REACTORS
330
C
102
}
330
C
100
AcDbDictionary
  0
ACDBDICTIONARYWDFLT
  5
109
102
{ACAD_REACTORS
330
C
102
}
330
C
100
AcDbDictionary
281
     1
  3
Normal
350
10A
100
AcDbDictionaryWithDefault
340
10A
  0
DICTIONARY
  5
256
102
{ACAD_REACTORS
330
C
102
}
330
C
100
AcDbDictionary
  3
CEPSNTYPE
350
260
  3
FINGERPRINTGUID
350
261
  3
HYPERLINKBASE
350
259
  3
INSUNITS
350
25F
  3
LAYOUTDICT
350
25B
  3
LWETCUNION
350
25E
  3
PLOTSETDICT
350
25C
  3
PLOTSTYLNAMDICT
350
25D
  3
PSVPSCALE
350
263
  3
PUCSBASE
350
266
  3
PUCSORGBACK
350
26C
  3
PUCSORGBOTTOM
350
268
  3
PUCSORGFRONT
350
26B
  3
PUCSORGLEFT
350
269
  3
PUCSORGRIGHT
350
26A
  3
PUCSORGTOP
350
267
  3
PUCSORTHOREF
350
264
  3
PUCSORTHOVIEW
350
265
  3
STYLESHEET
350
25A
  3
TSTACKALIGN
350
257
  3
TSTACKSIZE
350
258
  3
UCSBASE
350
26F
  3
UCSORGBACK
350
275
  3
UCSORGBOTTOM
350
271
  3
UCSORGFRONT
350
274
  3
UCSORGLEFT
350
272
  3
UCSORGRIGHT
350
273
  3
UCSORGTOP
350
270
  3
UCSORTHOREF
350
26D
  3
UCSORTHOVIEW
350
26E
  3
VERSIONGUID
350
262
  0
DICTIONARY
  5
16C
102
{ACAD_REACTORS
330
C
102
}
330
C
100
AcDbDictionary
  3
DIMASSOC
350
16D
  0
XRECORD
  5
277
102
{ACAD_REACTORS
330
166
102
}
330
166
100
AcDbXrecord
340
18
  0
XRECORD
  5
276
102
{ACAD_REACTORS
330
164
102
}
330
164
100
AcDbXrecord
340
15
  0
MLINESTYLE
  5
1B
102
{ACAD_REACTORS
330
E
102
}
330
E
100
AcDbMlineStyle
  2
STANDARD
 70
     0
  3

 62
     0
 51
90.0
 52
90.0
 71
     2
 49
0.5
 62
   256
  6
BYLAYER
 49
-0.5
 62
   256
  6
BYLAYER
  0
ACDBPLACEHOLDER
  5
10A
102
{ACAD_REACTORS
330
109
102
}
330
109
100
AcDbPlaceHolder
280
     0
  0
XRECORD
  5
260
102
{ACAD_REACTORS
330
256
102
}
330
256
100
AcDbXrecord
 90
        0
  0
XRECORD
  5
261
102
{ACAD_REACTORS
330
256
102
}
330
256
100
AcDbXrecord
  1
{62030BCE-EBA9-4F38-9F78-60DCB0F7814B}
  0
XRECORD
  5
259
102
{ACAD_REACTORS
330
256
102
}
330
256
100
AcDbXrecord
  1

  0
XRECORD
  5
25F
102
{ACAD_REACTORS
330
256
102
}
330
256
100
AcDbXrecord
 90
        0
  0
XRECORD
  5
25B
102
{ACAD_REACTORS
330
256
102
}
330
256
100
AcDbXrecord
340
10B
  0
XRECORD
  5
25E
102
{ACAD_REACTORS
330
256
102
}
330
256
100
AcDbXrecord
 90
    14877
  0
XRECORD
  5
25C
102
{ACAD_REACTORS
330
256
102
}
330
256
100
AcDbXrecord
340
10C
  0
XRECORD
  5
25D
102
{ACAD_REACTORS
330
256
102
}
330
256
100
AcDbXrecord
340
109
  0
XRECORD
  5
263
102
{ACAD_REACTORS
330
256
102
}
330
256
100
AcDbXrecord
 40
0.0
  0
XRECORD
  5
266
102
{ACAD_REACTORS
330
256
102
}
330
256
100
AcDbXrecord
340
0
  0
XRECORD
  5
26C
102
{ACAD_REACTORS
330
256
102
}
330
256
100
AcDbXrecord
 10
0.0
 20
0.0
 30
0.0
  0
XRECORD
  5
268
102
{ACAD_REACTORS
330
256
102
}
330
256
100
AcDbXrecord
 10
0.0
 20
0.0
 30
0.0
  0
XRECORD
  5
26B
102
{ACAD_REACTORS
330
256
102
}
330
256
100
AcDbXrecord
 10
0.0
 20
0.0
 30
0.0
  0
XRECORD
  5
269
102
{ACAD_REACTORS
330
256
102
}
330
256
100
AcDbXrecord
 10
0.0
 20
0.0
 30
0.0
  0
XRECORD
  5
26A
102
{ACAD_REACTORS
330
256
102
}
330
256
100
AcDbXrecord
 10
0.0
 20
0.0
 30
0.0
  0
XRECORD
  5
267
102
{ACAD_REACTORS
330
256
102
}
330
256
100
AcDbXrecord
 10
0.0
 20
0.0
 30
0.0
  0
XRECORD
  5
264
102
{ACAD_REACTORS
330
256
102
}
330
256
100
AcDbXrecord
340
0
  0
XRECORD
  5
265
102
{ACAD_REACTORS
330
256
102
}
330
256
100
AcDbXrecord
 70
     0
  0
XRECORD
  5
25A
102
{ACAD_REACTORS
330
256
102
}
330
256
100
AcDbXrecord
  1

  0
XRECORD
  5
257
102
{ACAD_REACTORS
330
256
102
}
330
256
100
AcDbXrecord
 90
        1
  0
XRECORD
  5
258
102
{ACAD_REACTORS
330
256
102
}
330
256
100
AcDbXrecord
 90
       70
  0
XRECORD
  5
26F
102
{ACAD_REACTORS
330
256
102
}
330
256
100
AcDbXrecord
340
0
  0
XRECORD
  5
275
102
{ACAD_REACTORS
330
256
102
}
330
256
100
AcDbXrecord
 10
0.0
 20
0.0
 30
0.0
  0
XRECORD
  5
271
102
{ACAD_REACTORS
330
256
102
}
330
256
100
AcDbXrecord
 10
0.0
 20
0.0
 30
0.0
  0
XRECORD
  5
274
102
{ACAD_REACTORS
330
256
102
}
330
256
100
AcDbXrecord
 10
0.0
 20
0.0
 30
0.0
  0
XRECORD
  5
272
102
{ACAD_REACTORS
330
256
102
}
330
256
100
AcDbXrecord
 10
0.0
 20
0.0
 30
0.0
  0
XRECORD
  5
273
102
{ACAD_REACTORS
330
256
102
}
330
256
100
AcDbXrecord
 10
0.0
 20
0.0
 30
0.0
  0
XRECORD
  5
270
102
{ACAD_REACTORS
330
256
102
}
330
256
100
AcDbXrecord
 10
0.0
 20
0.0
 30
0.0
  0
XRECORD
  5
26D
102
{ACAD_REACTORS
330
256
102
}
330
256
100
AcDbXrecord
340
0
  0
XRECORD
  5
26E
102
{ACAD_REACTORS
330
256
102
}
330
256
100
AcDbXrecord
 70
     0
  0
XRECORD
  5
262
102
{ACAD_REACTORS
330
256
102
}
330
256
100
AcDbXrecord
  1
{780772D0-30E5-4DF2-A9E1-B843A4EDC5E6}
  0
DICTIONARYVAR
  5
16D
102
{ACAD_REACTORS
330
16C
102
}
330
16C
100
DictionaryVariables
280
     0
  1
1
  0
ENDSEC
  0
EOF
