  0
SECTION
  2
HEADER
  9
$ACADVER
  1
AC1014
  9
$ACADMAINTVER
 70
     9
  9
$DWGCODEPAGE
  3
ANSI_1252
  9
$INSBASE
 10
-41.10677824717926
 20
-3.483027731501622
 30
0.0
  9
$EXTMIN
 10
-70.50377246098013
 20
-5.064961483938464
 30
0.0
  9
$EXTMAX
 10
-19.0261121608437
 20
26.1505346936728
 30
0.0
  9
$LIMMIN
 10
0.0
 20
0.0
  9
$LIMMAX
 10
36.0
 20
36.0
  9
$ORTHOMODE
 70
     1
  9
$REGENMODE
 70
     1
  9
$FILLMODE
 70
     1
  9
$QTEXTMODE
 70
     0
  9
$MIRRTEXT
 70
     1
  9
$DRAGMODE
 70
     0
  9
$LTSCALE
 40
1.0
  9
$OSMODE
 70
    37
  9
$ATTMODE
 70
     1
  9
$TEXTSIZE
 40
0.2
  9
$TRACEWID
 40
0.05
  9
$TEXTSTYLE
  7
STANDARD
  9
$CLAYER
  8
ADPDIM
  9
$CELTYPE
  6
BYLAYER
  9
$CECOLOR
 62
   256
  9
$CELTSCALE
 40
1.0
  9
$DELOBJ
 70
     1
  9
$DISPSILH
 70
     0
  9
$DIMSCALE
 40
1.0
  9
$DIMASZ
 40
0.125
  9
$DIMEXO
 40
0.0625
  9
$DIMDLI
 40
0.38
  9
$DIMRND
 40
0.0
  9
$DIMDLE
 40
0.0
  9
$DIMEXE
 40
0.18
  9
$DIMTP
 40
0.0
  9
$DIMTM
 40
0.0
  9
$DIMTXT
 40
0.125
  9
$DIMCEN
 40
0.1875
  9
$DIMTSZ
 40
0.125
  9
$DIMTOL
 70
     0
  9
$DIMLIM
 70
     0
  9
$DIMTIH
 70
     0
  9
$DIMTOH
 70
     0
  9
$DIMSE1
 70
     0
  9
$DIMSE2
 70
     0
  9
$DIMTAD
 70
     0
  9
$DIMZIN
 70
     3
  9
$DIMBLK
  1

  9
$DIMASO
 70
     1
  9
$DIMSHO
 70
     1
  9
$DIMPOST
  1

  9
$DIMAPOST
  1

  9
$DIMALT
 70
     0
  9
$DIMALTD
 70
     1
  9
$DIMALTF
 40
25.4
  9
$DIMLFAC
 40
1.0
  9
$DIMTOFL
 70
     0
  9
$DIMTVP
 40
0.0
  9
$DIMTIX
 70
     0
  9
$DIMSOXD
 70
     0
  9
$DIMSAH
 70
     0
  9
$DIMBLK1
  1

  9
$DIMBLK2
  1

  9
$DIMSTYLE
  2
STANDARD
  9
$DIMCLRD
 70
     0
  9
$DIMCLRE
 70
     0
  9
$DIMCLRT
 70
     0
  9
$DIMTFAC
 40
1.0
  9
$DIMGAP
 40
0.125
  9
$DIMJUST
 70
     0
  9
$DIMSD1
 70
     0
  9
$DIMSD2
 70
     0
  9
$DIMTOLJ
 70
     1
  9
$DIMTZIN
 70
     0
  9
$DIMALTZ
 70
     0
  9
$DIMALTTZ
 70
     0
  9
$DIMFIT
 70
     3
  9
$DIMUPT
 70
     0
  9
$DIMUNIT
 70
     2
  9
$DIMDEC
 70
     4
  9
$DIMTDEC
 70
     4
  9
$DIMALTU
 70
     2
  9
$DIMALTTD
 70
     2
  9
$DIMTXSTY
  7
STANDARD
  9
$DIMAUNIT
 70
     0
  9
$LUNITS
 70
     5
  9
$LUPREC
 70
     5
  9
$SKETCHINC
 40
0.1
  9
$FILLETRAD
 40
0.062
  9
$AUNITS
 70
     0
  9
$AUPREC
 70
     0
  9
$MENU
  1
acad
  9
$ELEVATION
 40
0.0
  9
$PELEVATION
 40
0.0
  9
$THICKNESS
 40
0.0
  9
$LIMCHECK
 70
     0
  9
$BLIPMODE
 70
     0
  9
$CHAMFERA
 40
0.0
  9
$CHAMFERB
 40
0.0
  9
$CHAMFERC
 40
0.0
  9
$CHAMFERD
 40
0.0
  9
$SKPOLY
 70
     0
  9
$TDCREATE
 40
2450409.424716817
  9
$TDUPDATE
 40
2452297.073326273
  9
$TDINDWG
 40
0.0124967477
  9
$TDUSRTIMER
 40
0.0124967477
  9
$USRTIMER
 70
     1
  9
$ANGBASE
 50
0.0
  9
$ANGDIR
 70
     0
  9
$PDMODE
 70
     0
  9
$PDSIZE
 40
0.0
  9
$PLINEWID
 40
0.0
  9
$COORDS
 70
     2
  9
$SPLFRAME
 70
     0
  9
$SPLINETYPE
 70
     6
  9
$SPLINESEGS
 70
     8
  9
$ATTDIA
 70
     0
  9
$ATTREQ
 70
     1
  9
$HANDLING
 70
 22529
  9
$HANDSEED
  5
29C
  9
$SURFTAB1
 70
     6
  9
$SURFTAB2
 70
     6
  9
$SURFTYPE
 70
     6
  9
$SURFU
 70
     6
  9
$SURFV
 70
     6
  9
$UCSNAME
  2

  9
$UCSORG
 10
0.0
 20
0.0
 30
0.0
  9
$UCSXDIR
 10
1.0
 20
0.0
 30
0.0
  9
$UCSYDIR
 10
0.0
 20
1.0
 30
0.0
  9
$PUCSNAME
  2

  9
$PUCSORG
 10
0.0
 20
0.0
 30
0.0
  9
$PUCSXDIR
 10
1.0
 20
0.0
 30
0.0
  9
$PUCSYDIR
 10
0.0
 20
1.0
 30
0.0
  9
$USERI1
 70
     0
  9
$USERI2
 70
     0
  9
$USERI3
 70
     0
  9
$USERI4
 70
     0
  9
$USERI5
 70
     0
  9
$USERR1
 40
0.0
  9
$USERR2
 40
0.0
  9
$USERR3
 40
0.0
  9
$USERR4
 40
0.0
  9
$USERR5
 40
0.0
  9
$WORLDVIEW
 70
     1
  9
$SHADEDGE
 70
     3
  9
$SHADEDIF
 70
    70
  9
$TILEMODE
 70
     1
  9
$MAXACTVP
 70
    15
  9
$PINSBASE
 10
0.0058594681322575
 20
8.002266177471257
 30
0.0
  9
$PLIMCHECK
 70
     0
  9
$PEXTMIN
 10
1.000000000000000E+20
 20
1.000000000000000E+20
 30
1.000000000000000E+20
  9
$PEXTMAX
 10
-1.000000000000000E+20
 20
-1.000000000000000E+20
 30
-1.000000000000000E+20
  9
$PLIMMIN
 10
0.0
 20
0.0
  9
$PLIMMAX
 10
12.0
 20
9.0
  9
$UNITMODE
 70
     0
  9
$VISRETAIN
 70
     0
  9
$PLINEGEN
 70
     0
  9
$PSLTSCALE
 70
     1
  9
$TREEDEPTH
 70
  3020
  9
$PICKSTYLE
 70
     1
  9
$CMLSTYLE
  2
STANDARD
  9
$CMLJUST
 70
     0
  9
$CMLSCALE
 40
1.0
  9
$PROXYGRAPHICS
 70
     1
  9
$MEASUREMENT
 70
     0
  0
ENDSEC
  0
SECTION
  2
CLASSES
  0
CLASS
  1
ACDBDICTIONARYWDFLT
  2
AcDbDictionaryWithDefault
  3
AutoCAD 2000
 90
        0
280
     0
281
     0
  0
CLASS
  1
ACDBPLACEHOLDER
  2
AcDbPlaceHolder
  3
AutoCAD 2000
 90
        0
280
     0
281
     0
  0
CLASS
  1
LAYOUT
  2
AcDbLayout
  3
AutoCAD 2000
 90
        0
280
     0
281
     0
  0
CLASS
  1
DICTIONARYVAR
  2
AcDbDictionaryVar
  3
AutoCAD 2000
 90
        0
280
     0
281
     0
  0
CLASS
  1
LONG_TRANSACTION
  2
AcDbLongTransaction
  3
AutoCAD 2000
 90
        0
280
     0
281
     0
  0
CLASS
  1
LWPOLYLINE
  2
AcDbPolyline
  3
AutoCAD 2000
 90
        0
280
     0
281
     1
  0
CLASS
  1
HATCH
  2
AcDbHatch
  3
AutoCAD 2000
 90
        0
280
     0
281
     1
  0
CLASS
  1
XRECORD
  2
AcDbXrecord
  3
AutoCAD 2000
 90
        0
280
     0
281
     0
  0
CLASS
  1
LONG_TRANSACTION
  2
AcDbLongTransaction
  3
AutoCAD 2000
 90
        0
280
     0
281
     0
  0
CLASS
  1
LWPOLYLINE
  2
AcDbPolyline
  3
AutoCAD 2000
 90
        0
280
     0
281
     1
  0
CLASS
  1
HATCH
  2
AcDbHatch
  3
AutoCAD 2000
 90
        0
280
     0
281
     1
  0
CLASS
  1
XRECORD
  2
AcDbXrecord
  3
AutoCAD 2000
 90
        0
280
     0
281
     0
  0
CLASS
  1
LONG_TRANSACTION
  2
AcDbLongTransaction
  3
AutoCAD 2000
 90
        0
280
     0
281
     0
  0
CLASS
  1
LWPOLYLINE
  2
AcDbPolyline
  3
AutoCAD 2000
 90
        0
280
     0
281
     1
  0
CLASS
  1
HATCH
  2
AcDbHatch
  3
AutoCAD 2000
 90
        0
280
     0
281
     1
  0
CLASS
  1
XRECORD
  2
AcDbXrecord
  3
AutoCAD 2000
 90
        0
280
     0
281
     0
  0
CLASS
  1
LONG_TRANSACTION
  2
AcDbLongTransaction
  3
AutoCAD 2000
 90
        0
280
     0
281
     0
  0
CLASS
  1
LWPOLYLINE
  2
AcDbPolyline
  3
AutoCAD 2000
 90
        0
280
     0
281
     1
  0
CLASS
  1
HATCH
  2
AcDbHatch
  3
AutoCAD 2000
 90
        0
280
     0
281
     1
  0
CLASS
  1
XRECORD
  2
AcDbXrecord
  3
AutoCAD 2000
 90
        0
280
     0
281
     0
  0
CLASS
  1
LONG_TRANSACTION
  2
AcDbLongTransaction
  3
AutoCAD 2000
 90
        0
280
     0
281
     0
  0
CLASS
  1
LWPOLYLINE
  2
AcDbPolyline
  3
AutoCAD 2000
 90
        0
280
     0
281
     1
  0
CLASS
  1
HATCH
  2
AcDbHatch
  3
AutoCAD 2000
 90
        0
280
     0
281
     1
  0
CLASS
  1
XRECORD
  2
AcDbXrecord
  3
AutoCAD 2000
 90
        0
280
     0
281
     0
  0
ENDSEC
  0
SECTION
  2
TABLES
  0
TABLE
  2
VPORT
  5
8
330
0
100
AcDbSymbolTable
 70
     2
  0
VPORT
  5
279
330
8
100
AcDbSymbolTableRecord
100
AcDbViewportTableRecord
  2
*ACTIVE
 70
     0
 10
0.0
 20
0.0
 11
1.0
 21
1.0
 12
-44.71997993226404
 22
10.54208066394673
 13
0.0
 23
0.0
 14
0.5740882589684922
 24
0.5740882589684922
 15
0.5
 25
0.5
 16
0.0
 26
0.0
 36
1.0
 17
0.0
 27
0.0
 37
0.0
 40
32.99369872363827
 41
1.570528967254408
 42
50.0
 43
0.0
 44
0.0
 50
0.0
 51
0.0
 71
     0
 72
   100
 73
     1
 74
     0
 75
     0
 76
     0
 77
     0
 78
     0
  0
ENDTAB
  0
TABLE
  2
LTYPE
  5
5
330
0
100
AcDbSymbolTable
 70
     1
  0
LTYPE
  5
12
330
5
100
AcDbSymbolTableRecord
100
AcDbLinetypeTableRecord
  2
BYBLOCK
 70
     0
  3

 72
    65
 73
     0
 40
0.0
  0
LTYPE
  5
13
330
5
100
AcDbSymbolTableRecord
100
AcDbLinetypeTableRecord
  2
BYLAYER
 70
     0
  3

 72
    65
 73
     0
 40
0.0
  0
LTYPE
  5
14
330
5
100
AcDbSymbolTableRecord
100
AcDbLinetypeTableRecord
  2
CONTINUOUS
 70
     0
  3
Solid line
 72
    65
 73
     0
 40
0.0
  0
ENDTAB
  0
TABLE
  2
LAYER
  5
2
330
0
100
AcDbSymbolTable
 70
     4
  0
LAYER
  5
F
330
2
100
AcDbSymbolTableRecord
100
AcDbLayerTableRecord
  2
0
 70
     0
 62
     7
  6
CONTINUOUS
  0
LAYER
  5
20
330
2
100
AcDbSymbolTableRecord
100
AcDbLayerTableRecord
  2
DEFPOINTS
 70
     0
 62
     7
  6
CONTINUOUS
  0
LAYER
  5
21
330
2
100
AcDbSymbolTableRecord
100
AcDbLayerTableRecord
  2
ADPDIM
 70
     0
 62
     3
  6
CONTINUOUS
  0
LAYER
  5
22
330
2
100
AcDbSymbolTableRecord
100
AcDbLayerTableRecord
  2
ADP1DETAIL
 70
     0
 62
     7
  6
CONTINUOUS
  0
ENDTAB
  0
TABLE
  2
STYLE
  5
3
330
0
100
AcDbSymbolTable
 70
     2
  0
STYLE
  5
10
330
3
100
AcDbSymbolTableRecord
100
AcDbTextStyleTableRecord
  2
STANDARD
 70
     0
 40
0.0
 41
1.0
 50
0.0
 71
     0
 42
0.2
  3
txt
  4

  0
STYLE
  5
135
330
3
100
AcDbSymbolTableRecord
100
AcDbTextStyleTableRecord
  2
ARIAL_WIDE
 70
     0
 40
0.0
 41
1.25
 50
0.0
 71
     0
 42
0.2
  3
ARIAL.TTF
  4

1001
ACAD
1000
Arial
1071
       34
  0
ENDTAB
  0
TABLE
  2
VIEW
  5
6
330
0
100
AcDbSymbolTable
 70
     0
  0
ENDTAB
  0
TABLE
  2
UCS
  5
7
330
0
100
AcDbSymbolTable
 70
     0
  0
ENDTAB
  0
TABLE
  2
APPID
  5
9
330
0
100
AcDbSymbolTable
 70
     1
  0
APPID
  5
11
330
9
100
AcDbSymbolTableRecord
100
AcDbRegAppTableRecord
  2
ACAD
 70
     0
  0
ENDTAB
  0
TABLE
  2
DIMSTYLE
  5
A
330
0
100
AcDbSymbolTable
 70
     1
  0
DIMSTYLE
105
129
330
A
100
AcDbSymbolTableRecord
100
AcDbDimStyleTableRecord
  2
STANDARD
 70
     0
  3

  4

  5

  6

  7

 40
1.0
 41
0.18
 42
0.0625
 43
0.38
 44
0.18
 45
0.0
 46
0.0
 47
0.0
 48
0.0
140
0.18
141
0.09
142
0.0
143
25.4
144
1.0
145
0.0
146
1.0
147
0.09
 71
     0
 72
     0
 73
     1
 74
     1
 75
     0
 76
     0
 77
     0
 78
     0
170
     0
171
     2
172
     0
173
     0
174
     0
175
     0
176
     0
177
     0
178
     0
270
     2
271
     4
272
     4
273
     2
274
     2
340
10
275
     0
280
     0
281
     0
282
     0
283
     1
284
     0
285
     0
286
     0
287
     3
288
     0
  0
ENDTAB
  0
TABLE
  2
BLOCK_RECORD
  5
1
330
0
100
AcDbSymbolTable
 70
     3
  0
BLOCK_RECORD
  5
18
102
{ACAD_XDICTIONARY
360
18A
102
}
330
1
100
AcDbSymbolTableRecord
100
AcDbBlockTableRecord
  2
*MODEL_SPACE
  0
BLOCK_RECORD
  5
15
102
{ACAD_XDICTIONARY
360
188
102
}
330
1
100
AcDbSymbolTableRecord
100
AcDbBlockTableRecord
  2
*PAPER_SPACE
  0
BLOCK_RECORD
  5
1C
330
1
100
AcDbSymbolTableRecord
100
AcDbBlockTableRecord
  2
576
  0
BLOCK_RECORD
  5
1D
330
1
100
AcDbSymbolTableRecord
100
AcDbBlockTableRecord
  2
*D1
  0
BLOCK_RECORD
  5
1E
330
1
100
AcDbSymbolTableRecord
100
AcDbBlockTableRecord
  2
*D2
  0
ENDTAB
  0
ENDSEC
  0
SECTION
  2
BLOCKS
  0
BLOCK
  5
25
330
18
100
AcDbEntity
  8
0
100
AcDbBlockBegin
  2
*MODEL_SPACE
 70
     0
 10
0.0
 20
0.0
 30
0.0
  3
*MODEL_SPACE
  1

  0
ENDBLK
  5
26
330
18
100
AcDbEntity
  8
0
100
AcDbBlockEnd
  0
BLOCK
  5
23
330
15
100
AcDbEntity
 67
     1
  8
0
100
AcDbBlockBegin
  2
*PAPER_SPACE
 70
     0
 10
0.0
 20
0.0
 30
0.0
  3
*PAPER_SPACE
  1

  0
ENDBLK
  5
24
330
15
100
AcDbEntity
 67
     1
  8
0
100
AcDbBlockEnd
  0
BLOCK
  5
27
330
1C
100
AcDbEntity
  8
0
100
AcDbBlockBegin
  2
576
 70
     0
 10
0.0
 20
0.0
 30
0.0
  3
576
  1

  0
LWPOLYLINE
  5
28
330
1C
100
AcDbEntity
  8
0
100
AcDbPolyline
 90
        4
 70
     0
 43
0.0
 10
0.6118681318681301
 20
1.160439560439559
 42
0.2225247786520959
 10
-0.0632967032967038
 20
0.2848351648351652
 42
1.021784602903037
 10
0.0949450549450539
 20
0.2531868131868151
 42
-0.1457554022919964
 10
0.4747252747252731
 20
0.9072527472527482
 42
-0.5949509786856658
  0
LWPOLYLINE
  5
2E
330
1C
100
AcDbEntity
  8
0
100
AcDbPolyline
 90
        4
 70
     0
 43
0.0
 10
0.3270329670329666
 20
1.128791208791209
 42
0.2198610050104288
 10
-0.1898901098901113
 20
0.2109890109890102
 42
0.7127663943434356
 10
0.1476923076923065
 20
0.0632967032967038
 42
-0.0772069197316905
 10
0.337582417582416
 20
0.5591208791208793
 42
-0.0323294601287583
  0
LWPOLYLINE
  5
34
330
1C
100
AcDbEntity
  8
0
100
AcDbPolyline
 90
        4
 70
     0
 43
0.0
 10
1.308131868131866
 20
0.2848351648351652
 42
-0.8021716063658761
 10
1.192087912087909
 20
0.1898901098901113
 42
0.5277027223069604
 10
1.540219780219779
 20
0.4747252747252731
 42
0.5976110764524555
 10
0.7068131868131858
 20
0.9389010989010984
 42
-0.3524403916880592
  0
LWPOLYLINE
  5
3A
330
1C
100
AcDbEntity
  8
0
100
AcDbPolyline
 90
        4
 70
     0
 43
0.0
 10
2.004395604395602
 20
1.054945054945058
 42
-0.2160470803506805
 10
2.669010989010986
 20
0.274285714285714
 42
1.320342311630075
 10
2.827252747252746
 20
0.2426373626373639
 42
0.2726938438387808
 10
1.909450549450548
 20
1.202637362637361
 42
10.84701360654105
  0
LWPOLYLINE
  5
40
330
1C
100
AcDbEntity
  8
0
100
AcDbPolyline
 90
       10
 70
     0
 43
0.0
 10
0.9494505494505478
 20
1.255384615384617
 42
0.3345377158763765
 10
2.679560439560438
 20
3.175384615384619
 42
-0.1762278043573861
 10
2.753406593406591
 20
3.333626373626376
 42
-0.4399017163416528
 10
2.858901098901096
 20
3.217582417582416
 42
-0.3755660622778437
 10
1.065494505494504
 20
1.287032967032967
 42
-0.1880446753266813
 10
2.510769230769231
 20
1.012747252747253
 42
-0.2757579912880577
 10
2.953846153846152
 20
0.1476923076923065
 42
-0.6401484459423267
 10
2.679560439560438
 20
0.0421978021978013
 42
-0.1760207599453211
 10
2.52131868131868
 20
0.3692307692307715
 42
0.2383427661481777
 10
1.624615384615383
 20
1.097142857142859
 42
0.1078547127995552
  0
LWPOLYLINE
  5
4C
330
1C
100
AcDbEntity
  8
0
100
AcDbPolyline
 90
       16
 70
     0
 43
0.0
 10
1.265934065934064
 20
1.561318681318681
 42
-0.1662068135675749
 10
0.7595604395604383
 20
1.160439560439559
 42
1.048752192458487
 10
0.6751648351648339
 20
1.065494505494505
 42
0.7121430800614643
 10
0.7595604395604383
 20
1.118241758241758
 42
-0.4605892304637563
 10
1.645714285714284
 20
1.044395604395607
 42
0.3197500934428277
 10
1.846153846153844
 20
0.8545054945054957
 42
-0.2703491413499733
 10
1.624615384615383
 20
0.7806593406593408
 42
-0.6213370903179936
 10
1.255384615384615
 20
0.0105494505494512
 42
-0.2423054457654167
 10
1.044395604395603
 20
0.1160439560439563
 42
-1.064418450715694
 10
1.308131868131866
 20
0.2848351648351652
 42
0.6387016293357765
 10
1.107692307692305
 20
0.9389010989010984
 42
0.2273159892201848
 10
0.5485714285714281
 20
0.7595604395604419
 42
-0.0327517155779275
 10
0.5802197802197782
 20
0.5274725274725292
 42
-0.6476033504876356
 10
0.337582417582416
 20
0.5591208791208793
 42
-0.3464332046051546
 10
0.4747252747252731
 20
0.9072527472527482
 42
-0.444495931463785
 10
1.624615384615383
 20
0.7806593406593408
 42
3.641610034923179
  0
LWPOLYLINE
  5
5E
330
1C
100
AcDbEntity
  8
0
100
AcDbPolyline
 90
        2
 70
     0
 43
0.0
 10
2.162637362637362
 20
1.213186813186812
 42
0.4399017163416421
 10
1.95164835164835
 20
1.381978021978024
 42
0.7319035625589146
  0
LWPOLYLINE
  5
62
330
1C
100
AcDbEntity
  8
0
100
AcDbPolyline
 90
        2
 70
     0
 43
0.0
 10
1.919999999999998
 20
1.445274725274725
 42
0.5510572194291541
 10
2.13098901098901
 20
1.656263736263735
 42
2.659698662753938
  0
LWPOLYLINE
  5
66
330
1C
100
AcDbEntity
  8
0
100
AcDbPolyline
 90
        5
 70
     0
 43
0.0
 10
2.194285714285712
 20
1.69846153846154
 42
-0.2037500043052155
 10
2.078241758241757
 20
1.445274725274725
 42
-0.3873091045953803
 10
1.919999999999998
 20
1.445274725274725
 42
1.699514460109727
 10
1.95164835164835
 20
1.381978021978024
 42
-0.4610075176099452
 10
2.225934065934064
 20
1.181538461538462
 42
-0.2537227182706141
  0
LWPOLYLINE
  5
6D
330
1C
100
AcDbEntity
  8
0
100
AcDbPolyline
 90
        2
 70
     0
 43
0.0
 10
2.194285714285712
 20
1.69846153846154
 42
-0.1001335940680071
 10
1.466373626373625
 20
1.318681318681321
 42
2.908375739796596
  0
LWPOLYLINE
  5
71
330
1C
100
AcDbEntity
  8
0
100
AcDbPolyline
 90
        5
 70
     0
 43
0.0
 10
1.18153846153846
 20
1.445274725274725
 42
0.3353784004889324
 10
2.574065934065933
 20
3.333626373626376
 42
-0.5127189266453706
 10
2.774505494505493
 20
3.481318681318679
 42
-0.4200638963057421
 10
2.964395604395603
 20
3.270329670329672
 42
-0.2495528352977472
 10
2.194285714285712
 20
1.69846153846154
 42
-11.51328984924903
  0
LWPOLYLINE
  5
78
330
1C
100
AcDbEntity
  8
0
100
AcDbPolyline
 90
       10
 70
     0
 43
0.0
 10
0.7912087912087902
 20
1.814505494505496
 42
-0.5443926013386342
 10
1.044395604395603
 20
1.782857142857142
 42
-0.1552561087472114
 10
1.339780219780218
 20
1.930549450549449
 42
0.2052577019546319
 10
1.308131868131866
 20
1.677362637362637
 42
-0.325466636203078
 10
1.265934065934064
 20
1.561318681318681
 42
0.3740600920029483
 10
1.888351648351646
 20
2.510769230769231
 42
-0.507655378927136
 10
1.656263736263735
 20
2.500219780219783
 42
-0.454259321154796
 10
1.814505494505493
 20
2.785054945054948
 42
-0.4403075583098354
 10
2.078241758241757
 20
2.215384615384614
 42
-0.0398140886456697
 10
1.909450549450548
 20
1.867252747252749
 42
0.059134445741609
  0
LWPOLYLINE
  5
84
330
1C
100
AcDbEntity
  8
0
100
AcDbPolyline
 90
       15
 70
     0
 43
0.0
 10
0.8967032967032952
 20
2.341978021978022
 42
0.3299872990068693
 10
1.835604395604393
 20
2.943296703296702
 42
0.3589141750561795
 10
1.55076923076923
 20
3.787252747252747
 42
0.414213562373092
 10
0.8545054945054939
 20
3.460219780219784
 42
0.5881338037734815
 10
1.213186813186812
 20
3.048791208791211
 42
0.642814463762651
 10
1.276483516483516
 20
3.333626373626376
 42
0.503509263085507
 10
1.097142857142856
 20
3.28087912087912
 42
-0.6541777190509138
 10
1.287032967032965
 20
3.629010989010989
 42
-0.5402037702955558
 10
1.666813186813184
 20
2.922197802197803
 42
-0.1750677740493813
 10
1.287032967032965
 20
2.584615384615386
 42
-0.0846645062291533
 10
0.8439560439560427
 20
2.489670329670332
 42
-0.2502299783442067
 10
0.1687912087912071
 20
3.164835164835167
 42
0.2250936205825913
 10
0.063296703296702
 20
3.28087912087912
 42
0.6663540783901122
 10
-0.0527472527472543
 20
3.164835164835167
 42
0.1442891113347392
 10
0.4747252747252731
 20
2.542417582417584
 42
2.941612678630592
  0
LWPOLYLINE
  5
95
330
1C
100
AcDbEntity
  8
0
100
AcDbPolyline
 90
       11
 70
     0
 43
0.0
 10
0.4430769230769212
 20
2.816703296703295
 42
-0.1070079145902917
 10
0.1898901098901096
 20
3.354725274725275
 42
0.7956438965253476
 10
-0.1898901098901113
 20
3.354725274725275
 42
0.2250207798144757
 10
0.2531868131868116
 20
2.563516483516483
 42
0.3663078514478769
 10
0.2109890109890102
 20
2.405274725274729
 42
-0.2567005616713734
 10
0.5696703296703288
 20
2.373626373626375
 42
-0.4999999999999859
 10
0.5907692307692294
 20
2.162637362637362
 42
0.4006577453091062
 10
0.5380219780219769
 20
2.067692307692308
 42
0.803868671034653
 10
0.8123076923076908
 20
2.078241758241759
 42
0.1122611261542558
 10
0.8017582417582396
 20
2.310329670329668
 42
0.628297037155273
 10
0.2215384615384597
 20
2.415824175824173
 42
-0.50927488441372
  0
LWPOLYLINE
  5
A2
330
1C
100
AcDbEntity
  8
0
100
AcDbPolyline
 90
        9
 70
     0
 43
0.0
 10
0.3059340659340641
 20
1.329230769230768
 42
1.261065394565724
 10
0.1687912087912071
 20
1.540219780219779
 42
0.4660288465914537
 10
0.2109890109890102
 20
1.149890109890108
 42
0.1822197244559577
 10
0.7912087912087902
 20
1.255384615384617
 42
0.2418760394556986
 10
1.044395604395603
 20
1.782857142857142
 42
0.3262767049386853
 10
0.8650549450549434
 20
2.014945054945059
 42
0.7126029663717591
 10
0.7384615384615377
 20
1.835604395604395
 42
0.2911762741218175
 10
0.7912087912087902
 20
1.814505494505496
 42
-0.6965391161077543
 10
0.3059340659340641
 20
1.329230769230768
 42
-0.4490031844611472
  0
LWPOLYLINE
  5
AD
330
1C
100
AcDbEntity
  8
0
100
AcDbPolyline
 90
        4
 70
     0
 43
0.0
 10
1.044395604395603
 20
1.635164835164836
 42
-0.1083726513688929
 10
1.339780219780218
 20
1.930549450549449
 42
0.0534573014542001
 10
1.107692307692305
 20
1.476923076923078
 42
-0.2230471463080291
 10
0.8334065934065915
 20
1.213186813186812
 42
-0.0729237445296827
  0
LWPOLYLINE
  5
B3
330
1C
100
AcDbEntity
  8
0
100
AcDbPolyline
 90
        4
 70
     0
 43
0.0
 10
1.529670329670327
 20
0.9178021978021995
 42
0.1541431408618801
 10
1.846153846153844
 20
0.8545054945054957
 42
-0.0907295778156894
 10
1.487472527472526
 20
1.044395604395607
 42
0.3813009605532001
 10
0.780659340659339
 20
1.118241758241758
 42
57.62461761020255
  0
LWPOLYLINE
  5
B9
330
1C
100
AcDbEntity
  8
0
100
AcDbPolyline
 90
        2
 70
     0
 43
0.0
 10
0.4008791208791198
 20
0.8123076923076908
 42
0.8672954016950631
 10
0.5485714285714281
 20
0.664615384615388
 42
-0.0458021185112159
  0
LWPOLYLINE
  5
BD
330
1C
100
AcDbEntity
  8
0
100
AcDbPolyline
 90
        4
 70
     0
 43
0.0
 10
0.8334065934065915
 20
2.173186813186813
 42
0.2867962264113044
 10
1.023296703296702
 20
2.257582417582419
 42
-0.302775637731985
 10
0.8967032967032952
 20
2.341978021978022
 10
0.7595604395604383
 20
2.489670329670332
  0
LWPOLYLINE
  5
C3
330
1C
100
AcDbEntity
  8
0
100
AcDbPolyline
 90
       11
 70
     0
 43
0.0
 10
0.4008791208791198
 20
2.8589010989011
 10
0.43252747252747
 20
2.964395604395605
 42
0.1461086477244639
 10
0.7068131868131858
 20
2.669010989010992
 42
0.2563862818268757
 10
1.054945054945054
 20
2.658461538461541
 42
0.2915676128689553
 10
1.160439560439558
 20
2.837802197802197
 42
-0.7391920459971076
 10
0.9810989010988997
 20
2.985494505494504
 42
-0.669245860209106
 10
1.265934065934064
 20
2.985494505494504
 42
-0.0499251098112063
 10
1.297582417582416
 20
2.880000000000002
 42
-0.1400549446402656
 10
1.413626373626373
 20
2.8589010989011
 42
0.1867950230991054
 10
1.329230769230766
 20
2.669010989010992
 42
-0.2104033417637967
 10
1.287032967032965
 20
2.584615384615386
 42
0.1623471055925819
  0
LWPOLYLINE
  5
D0
330
1C
100
AcDbEntity
  8
0
100
AcDbPolyline
 90
        2
 70
     0
 43
0.0
 10
0.5907692307692294
 20
2.162637362637362
 42
0.1088638359979264
 10
0.822857142857142
 20
2.130989010989011
 42
0.9217919206745314
  0
LWPOLYLINE
  5
D4
330
1C
100
AcDbEntity
  8
0
100
AcDbPolyline
 90
        2
 70
     0
 43
0.0
 10
0.4430769230769212
 20
2.816703296703295
 10
0.43252747252747
 20
2.964395604395605
  0
LWPOLYLINE
  5
D8
330
1C
100
AcDbEntity
  8
0
100
AcDbPolyline
 90
        3
 70
     0
 43
0.0
 10
1.413626373626373
 20
2.8589010989011
 10
1.234285714285713
 20
2.690109890109887
 10
1.160439560439558
 20
2.542417582417584
  0
LWPOLYLINE
  5
DD
330
1C
100
AcDbEntity
  8
0
100
AcDbPolyline
 90
        2
 70
     0
 43
0.0
 10
1.297582417582416
 20
2.880000000000002
 42
-0.1813345817725138
 10
1.265934065934064
 20
2.732307692307692
 42
-1.239169722701525
  0
LWPOLYLINE
  5
E1
330
1C
100
AcDbEntity
  8
0
100
AcDbPolyline
 90
       16
 70
     1
 43
0.0
 10
-0.2004395604395608
 20
3.63956043956044
 42
0.1120816990324105
 10
-0.1860528151583647
 20
3.576186959816779
 42
0.103120844343858
 10
-0.1432771036689353
 20
3.520148767409177
 42
0.0925508537462636
 10
-0.0811983691927211
 20
3.483881906453373
 42
0.0862505554323811
 10
-0.0052747252747256
 20
3.470686833298475
 42
0.0862505554323738
 10
0.0706489186432712
 20
3.483881906453372
 42
0.0925508537462531
 10
0.132727653119484
 20
3.520148767409177
 42
0.103120844343859
 10
0.1755033646089133
 20
3.576186959816779
 42
0.1120816990324122
 10
0.1898901098901096
 20
3.63956043956044
 42
0.1120816990324124
 10
0.1755033646089133
 20
3.702933919304101
 42
0.1031208443438599
 10
0.1327276531194841
 20
3.758972111711703
 42
0.0925508537462577
 10
0.0706489186432713
 20
3.795238972667508
 42
0.0862505554323792
 10
-0.0052747252747256
 20
3.808434045822406
 42
0.0862505554323708
 10
-0.0811983691927202
 20
3.79523897266751
 42
0.0925508537462559
 10
-0.1432771036689354
 20
3.758972111711703
 42
0.1031208443438598
 10
-0.1860528151583645
 20
3.702933919304101
 42
0.1120816990324126
  0
CIRCLE
  5
F3
330
1C
100
AcDbEntity
  8
0
100
AcDbCircle
 10
2.421098901098901
 20
1.492747252747253
 30
0.0
 40
0.0792965083694391
  0
LWPOLYLINE
  5
F4
330
1C
100
AcDbEntity
  8
0
100
AcDbPolyline
 90
        3
 70
     0
 43
0.0
 10
2.204835164835163
 20
1.287032967032967
 42
0.4391723812325508
 10
2.34197802197802
 20
1.487472527472526
 42
0.3757351161049558
 10
2.162637362637362
 20
1.561318681318681
 42
0.9091660935342964
  0
LWPOLYLINE
  5
F9
330
1C
100
AcDbEntity
  8
0
100
AcDbPolyline
 90
       16
 70
     1
 43
0.0
 10
2.579340659340658
 20
3.650192287580645
 42
0.1120816990324105
 10
2.593727404621854
 20
3.586818807836984
 42
0.103120844343858
 10
2.636503116111284
 20
3.530780615429382
 42
0.0925508537462636
 10
2.698581850587498
 20
3.494513754473577
 42
0.0862505554323811
 10
2.774505494505493
 20
3.481318681318679
 42
0.0862505554323738
 10
2.85042913842349
 20
3.494513754473576
 42
0.0925508537462531
 10
2.912507872899703
 20
3.530780615429382
 42
0.103120844343859
 10
2.955283584389132
 20
3.586818807836984
 42
0.1120816990324122
 10
2.969670329670329
 20
3.650192287580645
 42
0.1120816990324124
 10
2.955283584389132
 20
3.713565767324306
 42
0.1031208443438599
 10
2.912507872899703
 20
3.769603959731908
 42
0.0925508537462577
 10
2.850429138423491
 20
3.805870820687712
 42
0.0862505554323792
 10
2.774505494505493
 20
3.81906589384261
 42
0.0862505554323708
 10
2.698581850587499
 20
3.805870820687714
 42
0.0925508537462559
 10
2.636503116111283
 20
3.769603959731908
 42
0.1031208443438598
 10
2.593727404621855
 20
3.713565767324306
 42
0.1120816990324126
  0
ENDBLK
  5
10B
330
1C
100
AcDbEntity
  8
0
100
AcDbBlockEnd
  0
BLOCK
  5
10C
330
1D
100
AcDbEntity
  8
0
100
AcDbBlockBegin
  2
*D1
 70
     1
 10
0.0
 20
0.0
 30
0.0
  3
*D1
  1

  0
LINE
  5
10D
330
1D
100
AcDbEntity
  8
0
  6
BYBLOCK
 62
     0
100
AcDbLine
 10
-48.81646343142904
 20
24.91365995553787
 30
0.0
 11
-48.81646343142904
 21
26.1505346936728
 31
0.0
  0
LINE
  5
10E
330
1D
100
AcDbEntity
  8
0
  6
BYBLOCK
 62
     0
100
AcDbLine
 10
-40.81646343142903
 20
24.91365995553787
 30
0.0
 11
-40.81646343142903
 21
26.1505346936728
 31
0.0
  0
LINE
  5
10F
330
1D
100
AcDbEntity
  8
0
  6
BYBLOCK
 62
     0
100
AcDbLine
 10
-48.81646343142904
 20
25.9705346936728
 30
0.0
 11
-44.9831300980957
 21
25.9705346936728
 31
0.0
  0
LINE
  5
110
330
1D
100
AcDbEntity
  8
0
  6
BYBLOCK
 62
     0
100
AcDbLine
 10
-40.81646343142903
 20
25.9705346936728
 30
0.0
 11
-44.64979676476237
 21
25.9705346936728
 31
0.0
  0
LINE
  5
111
330
1D
100
AcDbEntity
  8
0
  6
BYBLOCK
 62
     0
100
AcDbLine
 10
-48.94146343142903
 20
25.8455346936728
 30
0.0
 11
-48.69146343142904
 21
26.09553469367281
 31
0.0
  0
LINE
  5
112
330
1D
100
AcDbEntity
  8
0
  6
BYBLOCK
 62
     0
100
AcDbLine
 10
-40.94146343142903
 20
25.8455346936728
 30
0.0
 11
-40.69146343142903
 21
26.09553469367281
 31
0.0
  0
TEXT
  5
113
330
1D
100
AcDbEntity
  8
0
  6
BYBLOCK
 62
     0
100
AcDbText
 10
-44.8581300980957
 20
25.9080346936728
 30
0.0
 40
0.125
  1
8
 72
     1
 11
-44.81646343142903
 21
25.9705346936728
 31
0.0
100
AcDbText
 73
     2
  0
POINT
  5
114
330
1D
100
AcDbEntity
  8
DEFPOINTS
  6
BYBLOCK
 62
     0
100
AcDbPoint
 10
-48.81646343142904
 20
24.85115995553786
 30
0.0
  0
POINT
  5
115
330
1D
100
AcDbEntity
  8
DEFPOINTS
  6
BYBLOCK
 62
     0
100
AcDbPoint
 10
-40.81646343142903
 20
24.85115995553786
 30
0.0
  0
POINT
  5
116
330
1D
100
AcDbEntity
  8
DEFPOINTS
  6
BYBLOCK
 62
     0
100
AcDbPoint
 10
-40.81646343142903
 20
25.9705346936728
 30
0.0
  0
ENDBLK
  5
117
330
1D
100
AcDbEntity
  8
0
100
AcDbBlockEnd
  0
BLOCK
  5
118
330
1E
100
AcDbEntity
  8
0
100
AcDbBlockBegin
  2
*D2
 70
     1
 10
0.0
 20
0.0
 30
0.0
  3
*D2
  1

  0
LINE
  5
119
330
1E
100
AcDbEntity
  8
0
  6
BYBLOCK
 62
     0
100
AcDbLine
 10
-41.02301836367021
 20
-3.615804410392346
 30
0.0
 11
-39.2526957459413
 21
-3.615804410392347
 31
0.0
  0
LINE
  5
11A
330
1E
100
AcDbEntity
  8
0
  6
BYBLOCK
 62
     0
100
AcDbLine
 10
-41.02301836367021
 20
25.38419558960765
 30
0.0
 11
-39.2526957459413
 21
25.38419558960765
 31
0.0
  0
LINE
  5
11B
330
1E
100
AcDbEntity
  8
0
  6
BYBLOCK
 62
     0
100
AcDbLine
 10
-39.4326957459413
 20
-3.615804410392347
 30
0.0
 11
-39.4326957459413
 21
10.65502892294098
 31
0.0
  0
LINE
  5
11C
330
1E
100
AcDbEntity
  8
0
  6
BYBLOCK
 62
     0
100
AcDbLine
 10
-39.4326957459413
 20
25.38419558960765
 30
0.0
 11
-39.4326957459413
 21
11.11336225627431
 31
0.0
  0
LINE
  5
11D
330
1E
100
AcDbEntity
  8
0
  6
BYBLOCK
 62
     0
100
AcDbLine
 10
-39.3076957459413
 20
-3.740804410392347
 30
0.0
 11
-39.5576957459413
 21
-3.490804410392347
 31
0.0
  0
LINE
  5
11E
330
1E
100
AcDbEntity
  8
0
  6
BYBLOCK
 62
     0
100
AcDbLine
 10
-39.3076957459413
 20
25.25919558960765
 30
0.0
 11
-39.5576957459413
 21
25.50919558960765
 31
0.0
  0
TEXT
  5
11F
330
1E
100
AcDbEntity
  8
0
  6
BYBLOCK
 62
     0
100
AcDbText
 10
-39.3701957459413
 20
10.78002892294098
 30
0.0
 40
0.125
  1
29
 50
90.0
 72
     1
 11
-39.4326957459413
 21
10.88419558960765
 31
0.0
100
AcDbText
 73
     2
  0
POINT
  5
120
330
1E
100
AcDbEntity
  8
DEFPOINTS
  6
BYBLOCK
 62
     0
100
AcDbPoint
 10
-41.08551836367022
 20
-3.615804410392346
 30
0.0
  0
POINT
  5
121
330
1E
100
AcDbEntity
  8
DEFPOINTS
  6
BYBLOCK
 62
     0
100
AcDbPoint
 10
-41.08551836367022
 20
25.38419558960765
 30
0.0
  0
POINT
  5
122
330
1E
100
AcDbEntity
  8
DEFPOINTS
  6
BYBLOCK
 62
     0
100
AcDbPoint
 10
-39.4326957459413
 20
25.38419558960765
 30
0.0
  0
ENDBLK
  5
123
330
1E
100
AcDbEntity
  8
0
100
AcDbBlockEnd
  0
ENDSEC
  0
SECTION
  2
ENTITIES
  0
DIMENSION
  5
124
330
18
100
AcDbEntity
  8
ADPDIM
100
AcDbDimension
  2
*D2
 10
-39.4326957459413
 20
25.38419558960765
 30
0.0
 11
-39.4326957459413
 21
10.88419558960765
 31
0.0
100
AcDbAlignedDimension
 13
-41.08551836367022
 23
-3.615804410392346
 33
0.0
 14
-41.08551836367022
 24
25.38419558960765
 34
0.0
 50
90.0
100
AcDbRotatedDimension
  0
INSERT
  5
125
330
18
100
AcDbEntity
  8
ADP1DETAIL
100
AcDbBlockReference
  2
576
 10
-48.30899562288117
 20
-3.501101734392545
 30
0.0
 41
2.526677695644532
 42
2.526677695644532
 43
2.526677695644532
  0
INSERT
  5
126
330
18
100
AcDbEntity
  8
ADP1DETAIL
100
AcDbBlockReference
  2
576
 10
-48.30899562288117
 20
15.66745198564412
 30
0.0
 41
2.526677695644532
 42
2.526677695644532
 43
2.526677695644532
  0
INSERT
  5
127
330
18
100
AcDbEntity
  8
ADP1DETAIL
100
AcDbBlockReference
  2
576
 10
-41.27890453864668
 20
6.067223566631422
 30
0.0
 41
-2.526677695644532
 42
2.526677695644532
 43
2.526677695644532
  0
DIMENSION
  5
128
330
18
100
AcDbEntity
  8
ADPDIM
100
AcDbDimension
  2
*D1
 10
-40.81646343142903
 20
25.9705346936728
 30
0.0
 11
-44.81646343142903
 21
25.9705346936728
 31
0.0
100
AcDbAlignedDimension
 13
-48.81646343142904
 23
24.85115995553786
 33
0.0
 14
-40.81646343142903
 24
24.85115995553786
 34
0.0
100
AcDbRotatedDimension
  0
TEXT
  5
136
330
18
100
AcDbEntity
  8
ADPDIM
100
AcDbText
 10
-70.50377246098013
 20
-4.916939655834781
 30
0.0
 40
0.5
  1
J U L I U S  B L U M  &  C O . ,  I N C .      ( 8 0 0 )  5 2 6 - 6 2 9 3        W W W . J U L I U S B L U M . C O M        P A R T  N o .  5 7 6
 41
1.25
  7
ARIAL_WIDE
 72
     1
 11
-44.76494231091192
 21
-4.416939655834781
 31
0.0
100
AcDbText
 73
     3
  0
ENDSEC
  0
SECTION
  2
OBJECTS
  0
DICTIONARY
  5
C
330
0
100
AcDbDictionary
  3
ACAD_GROUP
350
D
  3
ACAD_LAYOUT
350
12F
  3
ACAD_MLINESTYLE
350
E
  3
ACAD_PLOTSETTINGS
350
130
  3
ACAD_PLOTSTYLENAME
350
12D
  3
ACDBHEADERROUNDTRIPXREC
350
27A
  3
ACDBVARIABLEDICTIONARY
350
190
  0
DICTIONARY
  5
18A
330
18
100
AcDbDictionary
280
     1
  3
ACAD_LAYOUTSELFREF
360
29B
  0
DICTIONARY
  5
188
330
15
100
AcDbDictionary
280
     1
  3
ACAD_LAYOUTSELFREF
360
29A
  0
DICTIONARY
  5
D
102
{ACAD_REACTORS
330
C
102
}
330
C
100
AcDbDictionary
  0
DICTIONARY
  5
12F
102
{ACAD_REACTORS
330
C
102
}
330
C
100
AcDbDictionary
  0
DICTIONARY
  5
E
102
{ACAD_REACTORS
330
C
102
}
330
C
100
AcDbDictionary
  3
STANDARD
350
1B
  0
DICTIONARY
  5
130
102
{ACAD_REACTORS
330
C
102
}
330
C
100
AcDbDictionary
  0
ACDBDICTIONARYWDFLT
  5
12D
102
{ACAD_REACTORS
330
C
102
}
330
C
100
AcDbDictionary
281
     1
  3
Normal
350
12E
100
AcDbDictionaryWithDefault
340
12E
  0
DICTIONARY
  5
27A
102
{ACAD_REACTORS
330
C
102
}
330
C
100
AcDbDictionary
  3
CEPSNTYPE
350
284
  3
FINGERPRINTGUID
350
285
  3
HYPERLINKBASE
350
27D
  3
INSUNITS
350
283
  3
LAYOUTDICT
350
27F
  3
LWETCUNION
350
282
  3
PLOTSETDICT
350
280
  3
PLOTSTYLNAMDICT
350
281
  3
PSVPSCALE
350
287
  3
PUCSBASE
350
28A
  3
PUCSORGBACK
350
290
  3
PUCSORGBOTTOM
350
28C
  3
PUCSORGFRONT
350
28F
  3
PUCSORGLEFT
350
28D
  3
PUCSORGRIGHT
350
28E
  3
PUCSORGTOP
350
28B
  3
PUCSORTHOREF
350
288
  3
PUCSORTHOVIEW
350
289
  3
STYLESHEET
350
27E
  3
TSTACKALIGN
350
27B
  3
TSTACKSIZE
350
27C
  3
UCSBASE
350
293
  3
UCSORGBACK
350
299
  3
UCSORGBOTTOM
350
295
  3
UCSORGFRONT
350
298
  3
UCSORGLEFT
350
296
  3
UCSORGRIGHT
350
297
  3
UCSORGTOP
350
294
  3
UCSORTHOREF
350
291
  3
UCSORTHOVIEW
350
292
  3
VERSIONGUID
350
286
  0
DICTIONARY
  5
190
102
{ACAD_REACTORS
330
C
102
}
330
C
100
AcDbDictionary
  3
DIMASSOC
350
191
  0
XRECORD
  5
29B
102
{ACAD_REACTORS
330
18A
102
}
330
18A
100
AcDbXrecord
340
18
  0
XRECORD
  5
29A
102
{ACAD_REACTORS
330
188
102
}
330
188
100
AcDbXrecord
340
15
  0
MLINESTYLE
  5
1B
102
{ACAD_REACTORS
330
E
102
}
330
E
100
AcDbMlineStyle
  2
STANDARD
 70
     0
  3

 62
     0
 51
90.0
 52
90.0
 71
     2
 49
0.5
 62
   256
  6
BYLAYER
 49
-0.5
 62
   256
  6
BYLAYER
  0
ACDBPLACEHOLDER
  5
12E
102
{ACAD_REACTORS
330
12D
102
}
330
12D
100
AcDbPlaceHolder
280
     0
  0
XRECORD
  5
284
102
{ACAD_REACTORS
330
27A
102
}
330
27A
100
AcDbXrecord
 90
        0
  0
XRECORD
  5
285
102
{ACAD_REACTORS
330
27A
102
}
330
27A
100
AcDbXrecord
  1
{A5EEE5EF-8C69-4CB3-ADDB-42E39707FE5B}
  0
XRECORD
  5
27D
102
{ACAD_REACTORS
330
27A
102
}
330
27A
100
AcDbXrecord
  1

  0
XRECORD
  5
283
102
{ACAD_REACTORS
330
27A
102
}
330
27A
100
AcDbXrecord
 90
        0
  0
XRECORD
  5
27F
102
{ACAD_REACTORS
330
27A
102
}
330
27A
100
AcDbXrecord
340
12F
  0
XRECORD
  5
282
102
{ACAD_REACTORS
330
27A
102
}
330
27A
100
AcDbXrecord
 90
    14877
  0
XRECORD
  5
280
102
{ACAD_REACTORS
330
27A
102
}
330
27A
100
AcDbXrecord
340
130
  0
XRECORD
  5
281
102
{ACAD_REACTORS
330
27A
102
}
330
27A
100
AcDbXrecord
340
12D
  0
XRECORD
  5
287
102
{ACAD_REACTORS
330
27A
102
}
330
27A
100
AcDbXrecord
 40
0.0
  0
XRECORD
  5
28A
102
{ACAD_REACTORS
330
27A
102
}
330
27A
100
AcDbXrecord
340
0
  0
XRECORD
  5
290
102
{ACAD_REACTORS
330
27A
102
}
330
27A
100
AcDbXrecord
 10
0.0
 20
0.0
 30
0.0
  0
XRECORD
  5
28C
102
{ACAD_REACTORS
330
27A
102
}
330
27A
100
AcDbXrecord
 10
0.0
 20
0.0
 30
0.0
  0
XRECORD
  5
28F
102
{ACAD_REACTORS
330
27A
102
}
330
27A
100
AcDbXrecord
 10
0.0
 20
0.0
 30
0.0
  0
XRECORD
  5
28D
102
{ACAD_REACTORS
330
27A
102
}
330
27A
100
AcDbXrecord
 10
0.0
 20
0.0
 30
0.0
  0
XRECORD
  5
28E
102
{ACAD_REACTORS
330
27A
102
}
330
27A
100
AcDbXrecord
 10
0.0
 20
0.0
 30
0.0
  0
XRECORD
  5
28B
102
{ACAD_REACTORS
330
27A
102
}
330
27A
100
AcDbXrecord
 10
0.0
 20
0.0
 30
0.0
  0
XRECORD
  5
288
102
{ACAD_REACTORS
330
27A
102
}
330
27A
100
AcDbXrecord
340
0
  0
XRECORD
  5
289
102
{ACAD_REACTORS
330
27A
102
}
330
27A
100
AcDbXrecord
 70
     0
  0
XRECORD
  5
27E
102
{ACAD_REACTORS
330
27A
102
}
330
27A
100
AcDbXrecord
  1

  0
XRECORD
  5
27B
102
{ACAD_REACTORS
330
27A
102
}
330
27A
100
AcDbXrecord
 90
        1
  0
XRECORD
  5
27C
102
{ACAD_REACTORS
330
27A
102
}
330
27A
100
AcDbXrecord
 90
       70
  0
XRECORD
  5
293
102
{ACAD_REACTORS
330
27A
102
}
330
27A
100
AcDbXrecord
340
0
  0
XRECORD
  5
299
102
{ACAD_REACTORS
330
27A
102
}
330
27A
100
AcDbXrecord
 10
0.0
 20
0.0
 30
0.0
  0
XRECORD
  5
295
102
{ACAD_REACTORS
330
27A
102
}
330
27A
100
AcDbXrecord
 10
0.0
 20
0.0
 30
0.0
  0
XRECORD
  5
298
102
{ACAD_REACTORS
330
27A
102
}
330
27A
100
AcDbXrecord
 10
0.0
 20
0.0
 30
0.0
  0
XRECORD
  5
296
102
{ACAD_REACTORS
330
27A
102
}
330
27A
100
AcDbXrecord
 10
0.0
 20
0.0
 30
0.0
  0
XRECORD
  5
297
102
{ACAD_REACTORS
330
27A
102
}
330
27A
100
AcDbXrecord
 10
0.0
 20
0.0
 30
0.0
  0
XRECORD
  5
294
102
{ACAD_REACTORS
330
27A
102
}
330
27A
100
AcDbXrecord
 10
0.0
 20
0.0
 30
0.0
  0
XRECORD
  5
291
102
{ACAD_REACTORS
330
27A
102
}
330
27A
100
AcDbXrecord
340
0
  0
XRECORD
  5
292
102
{ACAD_REACTORS
330
27A
102
}
330
27A
100
AcDbXrecord
 70
     0
  0
XRECORD
  5
286
102
{ACAD_REACTORS
330
27A
102
}
330
27A
100
AcDbXrecord
  1
{259FCE4D-C36D-4AED-AEC7-94D5FE2AFB59}
  0
DICTIONARYVAR
  5
191
102
{ACAD_REACTORS
330
190
102
}
330
190
100
DictionaryVariables
280
     0
  1
1
  0
ENDSEC
  0
EOF
