  0
SECTION
  2
HEADER
  9
$ACADVER
  1
AC1015
  9
$ACADMAINTVER
 70
    20
  9
$DWGCODEPAGE
  3
ANSI_1252
  9
$INSBASE
 10
51.48530910957383
 20
-80.80033529281697
 30
0.0
  9
$EXTMIN
 10
29.00678539844104
 20
-82.65524170873677
 30
0.0
  9
$EXTMAX
 10
80.48444569857746
 20
-57.12526871859966
 30
0.0
  9
$LIMMIN
 10
0.0
 20
0.0
  9
$LIMMAX
 10
36.0
 20
36.0
  9
$ORTHOMODE
 70
     1
  9
$REGENMODE
 70
     1
  9
$FILLMODE
 70
     1
  9
$QTEXTMODE
 70
     0
  9
$MIRRTEXT
 70
     1
  9
$LTSCALE
 40
1.0
  9
$ATTMODE
 70
     1
  9
$TEXTSIZE
 40
0.2
  9
$TRACEWID
 40
0.05
  9
$TEXTSTYLE
  7
STANDARD
  9
$CLAYER
  8
ADPDIM
  9
$CELTYPE
  6
BYLAYER
  9
$CECOLOR
 62
   256
  9
$CELTSCALE
 40
1.0
  9
$DISPSILH
 70
     0
  9
$DIMSCALE
 40
1.0
  9
$DIMASZ
 40
0.125
  9
$DIMEXO
 40
0.0625
  9
$DIMDLI
 40
0.38
  9
$DIMRND
 40
0.0
  9
$DIMDLE
 40
0.0
  9
$DIMEXE
 40
0.18
  9
$DIMTP
 40
0.0
  9
$DIMTM
 40
0.0
  9
$DIMTXT
 40
0.125
  9
$DIMCEN
 40
0.1875
  9
$DIMTSZ
 40
0.125
  9
$DIMTOL
 70
     0
  9
$DIMLIM
 70
     0
  9
$DIMTIH
 70
     0
  9
$DIMTOH
 70
     0
  9
$DIMSE1
 70
     0
  9
$DIMSE2
 70
     0
  9
$DIMTAD
 70
     0
  9
$DIMZIN
 70
     3
  9
$DIMBLK
  1

  9
$DIMASO
 70
     1
  9
$DIMSHO
 70
     1
  9
$DIMPOST
  1

  9
$DIMAPOST
  1

  9
$DIMALT
 70
     0
  9
$DIMALTD
 70
     1
  9
$DIMALTF
 40
25.4
  9
$DIMLFAC
 40
1.0
  9
$DIMTOFL
 70
     0
  9
$DIMTVP
 40
0.0
  9
$DIMTIX
 70
     0
  9
$DIMSOXD
 70
     0
  9
$DIMSAH
 70
     0
  9
$DIMBLK1
  1

  9
$DIMBLK2
  1

  9
$DIMSTYLE
  2
STANDARD
  9
$DIMCLRD
 70
     0
  9
$DIMCLRE
 70
     0
  9
$DIMCLRT
 70
     0
  9
$DIMTFAC
 40
1.0
  9
$DIMGAP
 40
0.125
  9
$DIMJUST
 70
     0
  9
$DIMSD1
 70
     0
  9
$DIMSD2
 70
     0
  9
$DIMTOLJ
 70
     1
  9
$DIMTZIN
 70
     0
  9
$DIMALTZ
 70
     0
  9
$DIMALTTZ
 70
     0
  9
$DIMUPT
 70
     0
  9
$DIMDEC
 70
     4
  9
$DIMTDEC
 70
     4
  9
$DIMALTU
 70
     2
  9
$DIMALTTD
 70
     2
  9
$DIMTXSTY
  7
STANDARD
  9
$DIMAUNIT
 70
     0
  9
$DIMADEC
 70
     0
  9
$DIMALTRND
 40
0.0
  9
$DIMAZIN
 70
     0
  9
$DIMDSEP
 70
    46
  9
$DIMATFIT
 70
     3
  9
$DIMFRAC
 70
     0
  9
$DIMLDRBLK
  1

  9
$DIMLUNIT
 70
     2
  9
$DIMLWD
 70
    -2
  9
$DIMLWE
 70
    -2
  9
$DIMTMOVE
 70
     0
  9
$LUNITS
 70
     5
  9
$LUPREC
 70
     4
  9
$SKETCHINC
 40
0.1
  9
$FILLETRAD
 40
0.062
  9
$AUNITS
 70
     0
  9
$AUPREC
 70
     0
  9
$MENU
  1
acad
  9
$ELEVATION
 40
0.0
  9
$PELEVATION
 40
0.0
  9
$THICKNESS
 40
0.0
  9
$LIMCHECK
 70
     0
  9
$CHAMFERA
 40
0.0
  9
$CHAMFERB
 40
0.0
  9
$CHAMFERC
 40
0.0
  9
$CHAMFERD
 40
0.0
  9
$SKPOLY
 70
     0
  9
$TDCREATE
 40
2450408.698185567
  9
$TDUCREATE
 40
2450408.864852234
  9
$TDUPDATE
 40
2453954.926215463
  9
$TDUUPDATE
 40
2453955.092882130
  9
$TDINDWG
 40
0.0073434722
  9
$TDUSRTIMER
 40
0.0073434722
  9
$USRTIMER
 70
     1
  9
$ANGBASE
 50
0.0
  9
$ANGDIR
 70
     0
  9
$PDMODE
 70
     0
  9
$PDSIZE
 40
0.0
  9
$PLINEWID
 40
0.0
  9
$SPLFRAME
 70
     0
  9
$SPLINETYPE
 70
     6
  9
$SPLINESEGS
 70
     8
  9
$HANDSEED
  5
89B
  9
$SURFTAB1
 70
     6
  9
$SURFTAB2
 70
     6
  9
$SURFTYPE
 70
     6
  9
$SURFU
 70
     6
  9
$SURFV
 70
     6
  9
$UCSBASE
  2

  9
$UCSNAME
  2

  9
$UCSORG
 10
0.0
 20
0.0
 30
0.0
  9
$UCSXDIR
 10
1.0
 20
0.0
 30
0.0
  9
$UCSYDIR
 10
0.0
 20
1.0
 30
0.0
  9
$UCSORTHOREF
  2

  9
$UCSORTHOVIEW
 70
     0
  9
$UCSORGTOP
 10
0.0
 20
0.0
 30
0.0
  9
$UCSORGBOTTOM
 10
0.0
 20
0.0
 30
0.0
  9
$UCSORGLEFT
 10
0.0
 20
0.0
 30
0.0
  9
$UCSORGRIGHT
 10
0.0
 20
0.0
 30
0.0
  9
$UCSORGFRONT
 10
0.0
 20
0.0
 30
0.0
  9
$UCSORGBACK
 10
0.0
 20
0.0
 30
0.0
  9
$PUCSBASE
  2

  9
$PUCSNAME
  2

  9
$PUCSORG
 10
0.0
 20
0.0
 30
0.0
  9
$PUCSXDIR
 10
1.0
 20
0.0
 30
0.0
  9
$PUCSYDIR
 10
0.0
 20
1.0
 30
0.0
  9
$PUCSORTHOREF
  2

  9
$PUCSORTHOVIEW
 70
     0
  9
$PUCSORGTOP
 10
0.0
 20
0.0
 30
0.0
  9
$PUCSORGBOTTOM
 10
0.0
 20
0.0
 30
0.0
  9
$PUCSORGLEFT
 10
0.0
 20
0.0
 30
0.0
  9
$PUCSORGRIGHT
 10
0.0
 20
0.0
 30
0.0
  9
$PUCSORGFRONT
 10
0.0
 20
0.0
 30
0.0
  9
$PUCSORGBACK
 10
0.0
 20
0.0
 30
0.0
  9
$USERI1
 70
     0
  9
$USERI2
 70
     0
  9
$USERI3
 70
     0
  9
$USERI4
 70
     0
  9
$USERI5
 70
     0
  9
$USERR1
 40
0.0
  9
$USERR2
 40
0.0
  9
$USERR3
 40
0.0
  9
$USERR4
 40
0.0
  9
$USERR5
 40
0.0
  9
$WORLDVIEW
 70
     1
  9
$SHADEDGE
 70
     3
  9
$SHADEDIF
 70
    70
  9
$TILEMODE
 70
     1
  9
$MAXACTVP
 70
    15
  9
$PINSBASE
 10
0.0
 20
0.0
 30
0.0
  9
$PLIMCHECK
 70
     0
  9
$PEXTMIN
 10
1.000000000000000E+20
 20
1.000000000000000E+20
 30
1.000000000000000E+20
  9
$PEXTMAX
 10
-1.000000000000000E+20
 20
-1.000000000000000E+20
 30
-1.000000000000000E+20
  9
$PLIMMIN
 10
0.0
 20
0.0
  9
$PLIMMAX
 10
12.0
 20
9.0
  9
$UNITMODE
 70
     0
  9
$VISRETAIN
 70
     0
  9
$PLINEGEN
 70
     0
  9
$PSLTSCALE
 70
     1
  9
$TREEDEPTH
 70
  3020
  9
$CMLSTYLE
  2
STANDARD
  9
$CMLJUST
 70
     0
  9
$CMLSCALE
 40
1.0
  9
$PROXYGRAPHICS
 70
     1
  9
$MEASUREMENT
 70
     0
  9
$CELWEIGHT
370
    -1
  9
$ENDCAPS
280
     0
  9
$JOINSTYLE
280
     0
  9
$LWDISPLAY
290
     0
  9
$INSUNITS
 70
     0
  9
$HYPERLINKBASE
  1

  9
$STYLESHEET
  1

  9
$XEDIT
290
     1
  9
$CEPSNTYPE
380
     0
  9
$PSTYLEMODE
290
     1
  9
$FINGERPRINTGUID
  2
{88E10A29-9486-4F71-9E58-B193E0636196}
  9
$VERSIONGUID
  2
{CCBF538C-DC51-49CB-84EC-78CF685D507E}
  9
$EXTNAMES
290
     1
  9
$PSVPSCALE
 40
0.0
  9
$OLESTARTUP
290
     0
  0
ENDSEC
  0
SECTION
  2
CLASSES
  0
CLASS
  1
ACDBDICTIONARYWDFLT
  2
AcDbDictionaryWithDefault
  3
ObjectDBX Classes
 90
        0
280
     0
281
     0
  0
CLASS
  1
ACDBPLACEHOLDER
  2
AcDbPlaceHolder
  3
ObjectDBX Classes
 90
        0
280
     0
281
     0
  0
CLASS
  1
LAYOUT
  2
AcDbLayout
  3
ObjectDBX Classes
 90
        0
280
     0
281
     0
  0
CLASS
  1
DICTIONARYVAR
  2
AcDbDictionaryVar
  3
ObjectDBX Classes
 90
        0
280
     0
281
     0
  0
CLASS
  1
MATERIAL
  2
AcDbMaterial
  3
ObjectDBX Classes
 90
     1024
280
     0
281
     0
  0
CLASS
  1
VISUALSTYLE
  2
AcDbVisualStyle
  3
ObjectDBX Classes
 90
     4095
280
     0
281
     0
  0
CLASS
  1
TABLESTYLE
  2
AcDbTableStyle
  3
ObjectDBX Classes
 90
     4095
280
     0
281
     0
  0
ENDSEC
  0
SECTION
  2
TABLES
  0
TABLE
  2
VPORT
  5
8
330
0
100
AcDbSymbolTable
 70
     1
  0
VPORT
  5
7F2
330
8
100
AcDbSymbolTableRecord
100
AcDbViewportTableRecord
  2
*Active
 70
     0
 10
0.0
 20
0.0
 11
1.0
 21
1.0
 12
53.62006173668193
 22
-66.56116358290569
 13
0.0
 23
0.0
 14
0.5740882589684922
 24
0.5740882589684922
 15
0.5
 25
0.5
 16
0.0
 26
0.0
 36
1.0
 17
0.0
 27
0.0
 37
0.0
 40
20.53450491199368
 41
1.774011299435028
 42
50.0
 43
0.0
 44
0.0
 50
0.0
 51
0.0
 71
     0
 72
   100
 73
     1
 74
     0
 75
     0
 76
     0
 77
     0
 78
     0
281
     0
 65
     1
110
0.0
120
0.0
130
0.0
111
1.0
121
0.0
131
0.0
112
0.0
122
1.0
132
0.0
 79
     0
146
0.0
  0
ENDTAB
  0
TABLE
  2
LTYPE
  5
5
330
0
100
AcDbSymbolTable
 70
     1
  0
LTYPE
  5
12
330
5
100
AcDbSymbolTableRecord
100
AcDbLinetypeTableRecord
  2
BYBLOCK
 70
     0
  3

 72
    65
 73
     0
 40
0.0
  0
LTYPE
  5
13
330
5
100
AcDbSymbolTableRecord
100
AcDbLinetypeTableRecord
  2
BYLAYER
 70
     0
  3

 72
    65
 73
     0
 40
0.0
  0
LTYPE
  5
14
330
5
100
AcDbSymbolTableRecord
100
AcDbLinetypeTableRecord
  2
CONTINUOUS
 70
     0
  3
Solid line
 72
    65
 73
     0
 40
0.0
  0
ENDTAB
  0
TABLE
  2
LAYER
  5
2
330
0
100
AcDbSymbolTable
 70
     3
  0
LAYER
  5
F
330
2
100
AcDbSymbolTableRecord
100
AcDbLayerTableRecord
  2
0
 70
     0
 62
     7
  6
CONTINUOUS
370
    -3
390
6D2
  0
LAYER
  5
CF
330
2
100
AcDbSymbolTableRecord
100
AcDbLayerTableRecord
  2
DEFPOINTS
 70
     0
 62
     7
  6
CONTINUOUS
290
     0
370
    -3
390
6D2
  0
LAYER
  5
D0
330
2
100
AcDbSymbolTableRecord
100
AcDbLayerTableRecord
  2
ADPDIM
 70
     0
 62
     3
  6
CONTINUOUS
370
    -3
390
6D2
  0
ENDTAB
  0
TABLE
  2
STYLE
  5
3
330
0
100
AcDbSymbolTable
 70
     2
  0
STYLE
  5
10
330
3
100
AcDbSymbolTableRecord
100
AcDbTextStyleTableRecord
  2
STANDARD
 70
     0
 40
0.0
 41
1.0
 50
0.0
 71
     0
 42
0.2
  3
txt
  4

  0
STYLE
  5
6D9
330
3
100
AcDbSymbolTableRecord
100
AcDbTextStyleTableRecord
  2
ARIAL_WIDE
 70
     0
 40
0.0
 41
1.25
 50
0.0
 71
     0
 42
0.2
  3
ARIAL.TTF
  4

1001
ACAD
1000
Arial
1071
       34
  0
ENDTAB
  0
TABLE
  2
VIEW
  5
6
330
0
100
AcDbSymbolTable
 70
     0
  0
ENDTAB
  0
TABLE
  2
UCS
  5
7
330
0
100
AcDbSymbolTable
 70
     0
  0
ENDTAB
  0
TABLE
  2
APPID
  5
9
330
0
100
AcDbSymbolTable
 70
     2
  0
APPID
  5
11
330
9
100
AcDbSymbolTableRecord
100
AcDbRegAppTableRecord
  2
ACAD
 70
     0
  0
APPID
  5
871
330
9
100
AcDbSymbolTableRecord
100
AcDbRegAppTableRecord
  2
DCO15
 70
     0
  0
ENDTAB
  0
TABLE
  2
DIMSTYLE
  5
A
330
0
100
AcDbSymbolTable
 70
     1
100
AcDbDimStyleTable
 71
     1
340
6CD
  0
DIMSTYLE
105
6CD
102
{ACAD_REACTORS
330
839
102
}
330
A
100
AcDbSymbolTableRecord
100
AcDbDimStyleTableRecord
  2
STANDARD
 70
     0
340
10
  0
ENDTAB
  0
TABLE
  2
BLOCK_RECORD
  5
1
330
0
100
AcDbSymbolTable
 70
     3
  0
BLOCK_RECORD
  5
18
102
{ACAD_XDICTIONARY
360
72E
102
}
330
1
100
AcDbSymbolTableRecord
100
AcDbBlockTableRecord
  2
*MODEL_SPACE
340
6D5
  0
BLOCK_RECORD
  5
15
102
{ACAD_XDICTIONARY
360
72C
102
}
330
1
100
AcDbSymbolTableRecord
100
AcDbBlockTableRecord
  2
*PAPER_SPACE
340
6D6
  0
BLOCK_RECORD
  5
C7
330
1
100
AcDbSymbolTableRecord
100
AcDbBlockTableRecord
  2
*D0
340
0
  0
BLOCK_RECORD
  5
C9
330
1
100
AcDbSymbolTableRecord
100
AcDbBlockTableRecord
  2
*D1
340
0
  0
BLOCK_RECORD
  5
83A
330
1
100
AcDbSymbolTableRecord
100
AcDbBlockTableRecord
  2
*D2
340
0
  0
ENDTAB
  0
ENDSEC
  0
SECTION
  2
BLOCKS
  0
BLOCK
  5
D3
330
18
100
AcDbEntity
  8
0
100
AcDbBlockBegin
  2
*MODEL_SPACE
 70
     0
 10
0.0
 20
0.0
 30
0.0
  3
*MODEL_SPACE
  1

  0
ENDBLK
  5
D4
330
18
100
AcDbEntity
  8
0
100
AcDbBlockEnd
  0
BLOCK
  5
D1
330
15
100
AcDbEntity
 67
     1
  8
0
100
AcDbBlockBegin
  2
*PAPER_SPACE
 70
     0
 10
0.0
 20
0.0
 30
0.0
  3
*PAPER_SPACE
  1

  0
ENDBLK
  5
D2
330
15
100
AcDbEntity
 67
     1
  8
0
100
AcDbBlockEnd
  0
BLOCK
  5
D6
330
C7
100
AcDbEntity
  8
0
100
AcDbBlockBegin
  2
*D0
 70
     1
 10
0.0
 20
0.0
 30
0.0
  3
*D0
  1

  0
LINE
  5
D7
330
C7
100
AcDbEntity
  8
0
  6
ByBlock
 62
     0
100
AcDbLine
 10
51.58735904584482
 20
-80.80033529281697
 30
0.0
 11
49.92558525429916
 21
-80.80033529281697
 31
0.0
  0
LINE
  5
D8
330
C7
100
AcDbEntity
  8
0
  6
ByBlock
 62
     0
100
AcDbLine
 10
51.40975515060573
 20
-58.30734363723784
 30
0.0
 11
49.92558525429916
 21
-58.30734363723784
 31
0.0
  0
LINE
  5
D9
330
C7
100
AcDbEntity
  8
0
  6
ByBlock
 62
     0
100
AcDbLine
 10
50.10558525429916
 20
-80.80033529281697
 30
0.0
 11
50.10558525429916
 21
-70.01217279836073
 31
0.0
  0
LINE
  5
DA
330
C7
100
AcDbEntity
  8
0
  6
ByBlock
 62
     0
100
AcDbLine
 10
50.10558525429916
 20
-58.30734363723784
 30
0.0
 11
50.10558525429916
 21
-69.09550613169407
 31
0.0
  0
LINE
  5
DB
330
C7
100
AcDbEntity
  8
0
  6
ByBlock
 62
     0
100
AcDbLine
 10
50.23058525429916
 20
-80.92533529281697
 30
0.0
 11
49.98058525429915
 21
-80.67533529281696
 31
0.0
  0
LINE
  5
DC
330
C7
100
AcDbEntity
  8
0
  6
ByBlock
 62
     0
100
AcDbLine
 10
50.23058525429916
 20
-58.43234363723785
 30
0.0
 11
49.98058525429915
 21
-58.18234363723785
 31
0.0
  0
TEXT
  5
DD
330
C7
100
AcDbEntity
  8
0
  6
ByBlock
 62
     0
100
AcDbText
 10
50.16808525429915
 20
-69.88717279836073
 30
0.0
 40
0.125
  1
22 1/2
 50
90.0
 72
     1
 11
50.10558525429916
 21
-69.55383946502741
 31
0.0
100
AcDbText
 73
     2
  0
POINT
  5
DE
330
C7
100
AcDbEntity
  8
DEFPOINTS
  6
ByBlock
 62
     0
100
AcDbPoint
 10
51.64985904584482
 20
-80.80033529281697
 30
0.0
  0
POINT
  5
DF
330
C7
100
AcDbEntity
  8
DEFPOINTS
  6
ByBlock
 62
     0
100
AcDbPoint
 10
51.47225515060573
 20
-58.30734363723784
 30
0.0
  0
POINT
  5
E0
330
C7
100
AcDbEntity
  8
DEFPOINTS
  6
ByBlock
 62
     0
100
AcDbPoint
 10
50.10558525429916
 20
-58.30734363723784
 30
0.0
  0
ENDBLK
  5
E1
330
C7
100
AcDbEntity
  8
0
100
AcDbBlockEnd
  0
BLOCK
  5
E2
330
C9
100
AcDbEntity
  8
0
100
AcDbBlockBegin
  2
*D1
 70
     1
 10
0.0
 20
0.0
 30
0.0
  3
*D1
  1

  0
LINE
  5
E3
330
C9
100
AcDbEntity
  8
0
  6
ByBlock
 62
     0
100
AcDbLine
 10
51.47225515060573
 20
-58.24484363723785
 30
0.0
 11
51.47225515060573
 21
-57.65631155768269
 31
0.0
  0
LINE
  5
E4
330
C9
100
AcDbEntity
  8
0
  6
ByBlock
 62
     0
100
AcDbLine
 10
58.34725515060573
 20
-59.52517313648137
 30
0.0
 11
58.34725515060573
 21
-57.65631155768269
 31
0.0
  0
LINE
  5
E5
330
C9
100
AcDbEntity
  8
0
  6
ByBlock
 62
     0
100
AcDbLine
 10
51.47225515060573
 20
-57.83631155768269
 30
0.0
 11
54.49308848393907
 21
-57.83631155768269
 31
0.0
  0
LINE
  5
E6
330
C9
100
AcDbEntity
  8
0
  6
ByBlock
 62
     0
100
AcDbLine
 10
58.34725515060573
 20
-57.83631155768269
 30
0.0
 11
55.3264218172724
 21
-57.83631155768269
 31
0.0
  0
LINE
  5
E7
330
C9
100
AcDbEntity
  8
0
  6
ByBlock
 62
     0
100
AcDbLine
 10
51.34725515060573
 20
-57.96131155768269
 30
0.0
 11
51.59725515060573
 21
-57.71131155768269
 31
0.0
  0
LINE
  5
E8
330
C9
100
AcDbEntity
  8
0
  6
ByBlock
 62
     0
100
AcDbLine
 10
58.22225515060573
 20
-57.96131155768269
 30
0.0
 11
58.47225515060573
 21
-57.71131155768269
 31
0.0
  0
TEXT
  5
E9
330
C9
100
AcDbEntity
  8
0
  6
ByBlock
 62
     0
100
AcDbText
 10
54.61808848393907
 20
-57.89881155768269
 30
0.0
 40
0.125
  1
6 7/8
 72
     1
 11
54.90975515060573
 21
-57.83631155768269
 31
0.0
100
AcDbText
 73
     2
  0
POINT
  5
EA
330
C9
100
AcDbEntity
  8
DEFPOINTS
  6
ByBlock
 62
     0
100
AcDbPoint
 10
51.47225515060573
 20
-58.30734363723784
 30
0.0
  0
POINT
  5
EB
330
C9
100
AcDbEntity
  8
DEFPOINTS
  6
ByBlock
 62
     0
100
AcDbPoint
 10
58.34725515060573
 20
-59.58767313648136
 30
0.0
  0
POINT
  5
EC
330
C9
100
AcDbEntity
  8
DEFPOINTS
  6
ByBlock
 62
     0
100
AcDbPoint
 10
58.34725515060573
 20
-57.83631155768269
 30
0.0
  0
ENDBLK
  5
ED
330
C9
100
AcDbEntity
  8
0
100
AcDbBlockEnd
  0
BLOCK
  5
845
330
83A
100
AcDbEntity
  8
0
 62
     3
100
AcDbBlockBegin
  2
*D2
 70
     1
 10
0.0
 20
0.0
 30
0.0
  3
*D2
  1

  0
LINE
  5
865
330
83A
100
AcDbEntity
  8
ADPDIM
 62
     0
370
    -2
100
AcDbLine
 10
51.39669846832202
 20
-58.4562287459175
 30
0.0
 11
51.39669846832202
 21
-57.33665382727931
 31
0.0
  0
LINE
  5
866
330
83A
100
AcDbEntity
  8
ADPDIM
 62
     0
370
    -2
100
AcDbLine
 10
58.39669846832201
 20
-59.61330132803474
 30
0.0
 11
58.39669846832201
 21
-57.33665382727931
 31
0.0
  0
LINE
  5
867
330
83A
100
AcDbEntity
  8
ADPDIM
 62
     0
370
    -2
100
AcDbLine
 10
51.39669846832202
 20
-57.51665382727932
 30
0.0
 11
54.73003180165535
 21
-57.51665382727932
 31
0.0
  0
LINE
  5
868
330
83A
100
AcDbEntity
  8
ADPDIM
 62
     0
370
    -2
100
AcDbLine
 10
58.39669846832201
 20
-57.51665382727932
 30
0.0
 11
55.06336513498868
 21
-57.51665382727932
 31
0.0
  0
LINE
  5
869
330
83A
100
AcDbEntity
  8
ADPDIM
 62
     0
370
    -2
100
AcDbLine
 10
58.27169846832202
 20
-57.64165382727931
 30
0.0
 11
58.52169846832201
 21
-57.39165382727931
 31
0.0
  0
LINE
  5
86A
330
83A
100
AcDbEntity
  8
ADPDIM
 62
     0
370
    -2
100
AcDbLine
 10
51.27169846832202
 20
-57.64165382727931
 30
0.0
 11
51.52169846832201
 21
-57.39165382727931
 31
0.0
  0
MTEXT
  5
86B
330
83A
100
AcDbEntity
  8
ADPDIM
 62
     0
100
AcDbMText
 10
54.89669846832201
 20
-57.51665382727932
 30
0.0
 40
0.125
 41
0.0
 71
     5
 72
     1
  1
\A1;7
 73
     1
 44
1.0
1001
ACAD
1000
MTEXTBEGIN
1070
    73
1070
     1
1070
    44
1040
1.0
1070
    74
1070
     0
1000
MTEXTEND
  0
POINT
  5
86C
330
83A
100
AcDbEntity
  8
DEFPOINTS
 62
     0
100
AcDbPoint
 10
51.39669846832202
 20
-58.5187287459175
 30
0.0
  0
POINT
  5
86D
330
83A
100
AcDbEntity
  8
DEFPOINTS
 62
     0
100
AcDbPoint
 10
58.39669846832201
 20
-59.67580132803473
 30
0.0
  0
POINT
  5
86E
330
83A
100
AcDbEntity
  8
DEFPOINTS
 62
     0
100
AcDbPoint
 10
58.39669846832201
 20
-57.51665382727932
 30
0.0
  0
ENDBLK
  5
846
330
83A
100
AcDbEntity
  8
0
 62
     3
100
AcDbBlockEnd
  0
ENDSEC
  0
SECTION
  2
ENTITIES
  0
DIMENSION
  5
EF
330
18
100
AcDbEntity
  8
ADPDIM
100
AcDbDimension
  2
*D0
 10
50.10558525429916
 20
-58.30734363723784
 30
0.0
 11
50.10558525429916
 21
-69.55383946502741
 31
0.0
 71
     5
 42
-1.0
100
AcDbAlignedDimension
 13
51.64985904584482
 23
-80.80033529281697
 33
0.0
 14
51.47225515060573
 24
-58.30734363723784
 34
0.0
 50
90.0
100
AcDbRotatedDimension
  0
LWPOLYLINE
  5
F0
330
18
100
AcDbEntity
  8
0
100
AcDbPolyline
 90
        7
 70
     0
 43
0.0
 10
56.75296896913827
 20
-61.13317304037725
 42
0.3912377748786133
 10
57.03745190056968
 20
-61.32867065216893
 42
0.3211056299671767
 10
57.9442412244119
 20
-60.45781759263608
 42
0.4356571114687491
 10
56.57516720397825
 20
-58.60947632368497
 42
0.4562289711435116
 10
54.28152379036172
 20
-60.28009244313369
 42
0.2186337976823387
 10
54.70824813392114
 20
-62.53720147318735
 42
0.0314326436734597
 10
55.71128502806341
 20
-64.02990123038856
 42
-0.1872281981349202
  0
LWPOLYLINE
  5
F9
330
18
100
AcDbEntity
  8
0
100
AcDbPolyline
 90
        4
 70
     0
 43
0.0
 10
53.91218314845718
 20
-60.54422458890922
 42
-0.0173084213962537
 10
53.9437003293823
 20
-60.28009244313369
 42
-0.4101578723628524
 10
56.57516720397825
 20
-58.32511617475706
 42
-0.3766825151508508
 10
58.27889998594827
 20
-59.90686968183962
 42
-0.4040292795451161
  0
LWPOLYLINE
  5
FF
330
18
100
AcDbEntity
  8
0
100
AcDbPolyline
 90
        4
 70
     0
 43
0.0
 10
53.30361386763083
 20
-59.72914460756715
 42
0.2902530507891089
 10
53.32139404414683
 20
-59.30260430894538
 42
0.0261543492727726
 10
52.8946697005874
 20
-59.05378915982597
 42
-0.0379545188215433
 10
52.66352729870401
 20
-58.91160901013209
 42
0.3243761730390568
  0
LWPOLYLINE
  5
105
330
18
100
AcDbEntity
  8
0
100
AcDbPolyline
 90
       14
 70
     0
 43
0.0
 10
53.25027323090747
 20
-59.80023460718419
 42
0.3136110031076739
 10
53.46363545627486
 20
-60.04904975630359
 42
-0.1970583289875733
 10
53.53475616233887
 20
-60.10236729363132
 42
-0.322428335007698
 10
53.51697598582287
 20
-59.8180071447034
 42
0.1358010001789791
 10
53.57031651537088
 20
-60.06682229382279
 42
0.0990464530512891
 10
53.71255803467426
 20
-59.72914460756715
 42
0.416577309428442
 10
53.53475616233887
 20
-59.46255692092854
 42
-0.4559538621632688
 10
53.07247146574744
 20
-59.78246214489487
 42
-0.4890060013726221
 10
52.68130747522
 20
-59.49810192073705
 42
-0.0011165401490243
 10
52.59240659263999
 20
-58.73388393585963
 42
-0.1694240886146493
 10
52.75242818128402
 20
-58.55615878635726
 42
0.0681656022727685
 10
53.10803181877944
 20
-58.82274647299587
 42
-0.0875521831809144
 10
53.35695439717884
 20
-59.01824408478755
 42
-0.0929672744056735
 10
53.53475616233887
 20
-59.44478438340933
 42
0.8096987140997946
  0
LWPOLYLINE
  5
115
330
18
100
AcDbEntity
  8
0
100
AcDbPolyline
 90
        4
 70
     0
 43
0.0
 10
51.75673808203714
 20
-58.36066117456557
 10
51.93453984719717
 20
-58.37843371208478
 42
0.08907040645838
 10
51.89897949416516
 20
-59.24928677161765
 42
-0.1112506748930025
 10
51.73895790552113
 20
-58.36066117456557
 42
-0.9574941329107481
  0
LWPOLYLINE
  5
11B
330
18
100
AcDbEntity
  8
0
100
AcDbPolyline
 90
        4
 70
     0
 43
0.0
 10
51.79229843506915
 20
-58.36066117456557
 10
51.79229843506915
 20
-58.30734363723784
 10
51.47225515060573
 20
-58.30734363723784
 42
0.0606261740650937
 10
51.70777362722521
 20
-59.81382950914092
 42
-0.0686265515224094
  0
LWPOLYLINE
  5
121
330
18
100
AcDbEntity
  8
0
100
AcDbPolyline
 90
        3
 70
     0
 43
0.0
 10
56.27693624702864
 20
-76.22973730887879
 42
-0.0624032656230218
 10
57.21525377290507
 20
-76.55971326376914
 42
-0.2089933420386893
 10
58.34316304448067
 20
-78.14146684608161
 42
-0.3211855772011505
  0
LWPOLYLINE
  5
126
330
18
100
AcDbEntity
  8
0
100
AcDbPolyline
 90
        7
 70
     0
 43
0.0
 10
52.65669459083126
 20
-77.82184987430951
 42
-0.156652395380479
 10
54.28152379036172
 20
-76.71966587575231
 42
-0.2903579573597955
 10
57.39305553806509
 20
-77.12843363685486
 42
-0.5378507170468314
 10
57.03745200774503
 20
-80.29194080147982
 42
-0.365628800596328
 10
55.43723558542798
 20
-79.91871804018576
 42
-0.4330771756569364
 10
55.52613657518335
 20
-79.42108766671705
 42
-0.1033065761506979
 10
55.84617975247141
 20
-79.2966801297723
 42
12.10381563351935
  0
LWPOLYLINE
  5
12F
330
18
100
AcDbEntity
  8
0
100
AcDbPolyline
 90
        3
 70
     0
 43
0.0
 10
52.67389806203884
 20
-76.97679647546124
 42
0.1468804477175918
 10
51.54337585666975
 20
-79.5454952788917
 42
0.0434150267715217
 10
51.47225515060573
 20
-80.80734363723784
 42
-1.030946717024728
  0
LWPOLYLINE
  5
134
330
18
100
AcDbEntity
  8
0
100
AcDbPolyline
 90
        6
 70
     0
 43
0.0
 10
56.8787226883444
 20
-77.29989130985505
 42
0.1223232008824629
 10
56.53390421128254
 20
-77.38774837486049
 42
0.2002894573629469
 10
56.4460093161603
 20
-77.49588005204559
 42
0.0892669761427069
 10
56.34459199395598
 20
-77.86758276966188
 42
-0.0267769098352787
 10
56.24317478186557
 20
-78.23252725745412
 42
-0.1084271901462605
 10
56.10119072898454
 20
-78.46906537858906
 42
-0.4311735729286271
  0
LWPOLYLINE
  5
13C
330
18
100
AcDbEntity
  8
0
100
AcDbPolyline
 90
       11
 70
     0
 43
0.0
 10
56.0538626746529
 20
-78.63126297165925
 10
56.19584683764782
 20
-78.62450474183518
 42
-0.3864944859760047
 10
56.38515894486048
 20
-78.67857058042773
 42
0.2139425382889906
 10
56.86520048149013
 20
-79.00296568927554
 42
0.2215909805940198
 10
57.53455412533245
 20
-78.75966933831654
 42
0.3508990813835433
 10
57.69682159860877
 20
-78.28659317333921
 42
0.3334199165594311
 10
57.52103180836428
 20
-77.94868160484327
 42
-0.0470671932894149
 10
57.14240748382504
 20
-77.53642943098999
 42
0.2927107851264324
 10
56.65560484376826
 20
-77.25934193091065
 42
0.2314853059898941
 10
56.2702194158019
 20
-77.29313308003099
 42
0.4366097790939176
 10
55.76313335534982
 20
-77.5161547415178
 42
-0.7121546497002406
  0
LWPOLYLINE
  5
149
330
18
100
AcDbEntity
  8
0
100
AcDbPolyline
 90
        9
 70
     0
 43
0.0
 10
56.2702194158019
 20
-77.29313308003099
 42
0.1503864330019424
 10
56.04034035768473
 20
-77.5769788099344
 42
0.1934589834148883
 10
56.04034035768473
 20
-77.8000004714212
 42
-0.0215498964029538
 10
56.12823536292087
 20
-78.11763735044497
 42
-0.2338907475560305
 10
56.06738499162107
 20
-78.37445016105211
 42
-0.2288788582079058
 10
55.83074483007676
 20
-78.4825818382372
 42
-0.4016120272165032
 10
55.76313335534982
 20
-78.41499953999651
 42
-0.0256347664522559
 10
55.79693909271329
 20
-78.12439558026904
 42
-0.1820024823060718
 10
56.01329583386229
 20
-77.75269286265274
 42
2.810849211091839
  0
ARC
  5
154
330
18
100
AcDbEntity
  8
0
100
AcDbCircle
 10
50.34803101087558
 20
-79.62564540925445
 30
0.0
 40
2.824232761895465
100
AcDbArc
 50
17.71187698326994
 51
38.49835155292131
  0
LWPOLYLINE
  5
155
330
18
100
AcDbEntity
  8
0
100
AcDbPolyline
 90
       34
 70
     0
 43
0.0
 10
51.86871212478167
 20
-80.53708424580177
 42
-0.0482045815609056
 10
52.30142560707967
 20
-79.94235986669868
 42
-0.1194941186084372
 10
53.07895756643954
 20
-79.40170132618812
 10
53.2479862532569
 20
-79.5436242297861
 42
0.1523034976632991
 10
53.13980793773935
 20
-79.93560163687459
 42
0.2712142282404766
 10
53.33588114837915
 20
-80.24648028607428
 42
0.12652538202134
 10
53.77535584421819
 20
-80.34785373343529
 42
-0.2583902847277375
 10
53.93086221406738
 20
-80.42895249132412
 10
54.10665211442577
 20
-80.57087539492211
 42
0.0267780282829594
 10
54.12693553482109
 20
-79.95587632634681
 42
0.1189847436676387
 10
54.02551832273066
 20
-79.57065714908238
 42
0.2744260498146116
 10
53.66717741858675
 20
-79.32736079812336
 42
0.2917328038027194
 10
53.4237761536153
 20
-79.46252539460473
 10
53.26150857022508
 20
-79.32736079812336
 10
53.56576020649632
 20
-79.22598735076235
 42
0.1319018993095368
 10
54.0525628465531
 20
-79.40845955601218
 42
0.2364808959352109
 10
54.38385911676069
 20
-79.11785559628469
 42
0.0352968743357984
 10
54.60021585790969
 20
-78.45554891894092
 42
-0.1158604605458988
 10
54.71515538696827
 20
-78.23252725745412
 42
-0.2866916440337605
 10
54.51908206621458
 20
-78.30010963298736
 42
0.2593147054151755
 10
53.55899910306918
 20
-78.5771971330667
 42
0.0293981666332819
 10
53.45758189097877
 20
-79.05027329804403
 10
53.15333025470752
 20
-79.19219612434945
 10
53.14656904116649
 20
-78.84752632602943
 42
0.3010175229064032
 10
53.32235894152488
 20
-78.58395536289077
 42
0.292606682058238
 10
53.11952451734405
 20
-78.05681328202836
 42
0.1217223121439122
 10
52.41636502602436
 20
-77.76620932230087
 42
-0.085059088515604
 10
52.50426003126051
 20
-78.03653859255614
 42
0.0638686194920132
 10
52.53806576862398
 20
-78.64477943130738
 42
0.4470726681927838
 10
52.80851166753176
 20
-78.92862516121081
 42
0.1307743102748561
 10
53.0113460917126
 20
-78.86780101550162
 42
-0.0455053744716261
 10
52.97754035434913
 20
-79.23274558058643
 42
0.1492173879146639
 10
52.29466439353863
 20
-79.71933820521186
 10
51.90927896557228
 20
-80.17889798783361
  0
LINE
  5
179
330
18
100
AcDbEntity
  8
0
100
AcDbLine
 10
52.93021230001748
 20
-78.46906537858906
 30
0.0
 11
52.6597664011097
 21
-78.36093370140398
 31
0.0
  0
ARC
  5
17A
330
18
100
AcDbEntity
  8
0
100
AcDbCircle
 10
54.16403639846014
 20
-74.29244502274443
 30
0.0
 40
4.481528794688252
100
AcDbArc
 50
250.4790597930882
 51
254.8269537182007
  0
ARC
  5
17B
330
18
100
AcDbEntity
  8
0
100
AcDbCircle
 10
52.97376906136378
 20
-78.2042486794453
 30
0.0
 40
0.5651485951986402
100
AcDbArc
 50
241.0641573389887
 51
275.8762928049139
  0
LWPOLYLINE
  5
17C
330
18
100
AcDbEntity
  8
0
100
AcDbPolyline
 90
        3
 70
     0
 43
0.0
 10
51.82785878810115
 20
-80.80734363723784
 42
0.0129296954375821
 10
52.11234171953255
 20
-78.87013983115052
 42
-0.0722514937502498
 10
52.5039418578647
 20
-78.03437406573597
 42
-0.2903579573597955
  0
LWPOLYLINE
  5
181
330
18
100
AcDbEntity
  8
0
100
AcDbPolyline
 90
        3
 70
     0
 43
0.0
 10
51.814622856909
 20
-80.80065528623299
 42
-0.0206127459763928
 10
52.08506886593068
 20
-80.42219426150007
 10
51.96336812333106
 20
-80.39516134220379
  0
LINE
  5
186
330
18
100
AcDbEntity
  8
0
100
AcDbLine
 10
51.48530910957383
 20
-80.80033529281697
 30
0.0
 11
51.81440898211581
 21
-80.80033529281697
 31
0.0
  0
LINE
  5
187
330
18
100
AcDbEntity
  8
0
100
AcDbLine
 10
52.82203398449993
 20
-78.2933514031633
 30
0.0
 11
52.5989160298099
 21
-78.18521964868565
 31
0.0
  0
LINE
  5
188
330
18
100
AcDbEntity
  8
0
100
AcDbLine
 10
52.72061677240952
 20
-78.07032974167649
 30
0.0
 11
52.72737787583665
 21
-77.87434099948597
 31
0.0
  0
LINE
  5
189
330
18
100
AcDbEntity
  8
0
100
AcDbLine
 10
52.71385555886848
 20
-78.10412089079682
 30
0.0
 11
52.57187150598745
 21
-78.01626390308395
 31
0.0
  0
LINE
  5
18A
330
18
100
AcDbEntity
  8
0
100
AcDbLine
 10
52.80175056410463
 20
-78.21901079780599
 30
0.0
 11
52.82879508792706
 21
-78.02302213290801
 31
0.0
  0
LWPOLYLINE
  5
18B
330
18
100
AcDbEntity
  8
0
100
AcDbPolyline
 90
        4
 70
     0
 43
0.0
 10
58.38874574448734
 20
-78.81682229382279
 42
-0.1785137760805989
 10
57.69531864601251
 20
-80.34525833880755
 42
-0.3211855772011505
 10
55.41945540891198
 20
-80.41634833842458
 42
-0.2820832514771665
 10
55.22387346723593
 20
-79.01231990561448
 42
1.52744554463887
  0
LWPOLYLINE
  5
191
330
18
100
AcDbEntity
  8
0
100
AcDbPolyline
 90
       13
 70
     0
 43
0.0
 10
57.05451258870279
 20
-79.30032787882709
 42
-0.3862639080087285
 10
56.83139474412666
 20
-79.44900893495658
 42
-0.1040486083705081
 10
56.4460093161603
 20
-79.3814266367159
 42
0.022073218815169
 10
56.12823536292087
 20
-79.03675683839589
 42
0.0693828876327849
 10
56.04710157122577
 20
-78.97593276997928
 42
0.025559271079615
 10
55.57382113802326
 20
-78.81373517690909
 42
-0.2941424895252776
 10
55.33041987305182
 20
-78.48934006806125
 42
-0.0392567911107339
 10
55.38450903081059
 20
-78.19873610833377
 42
0.1108679251124254
 10
55.39127013423772
 20
-78.03653859255614
 42
-0.2494925920890571
 10
55.49944855986917
 20
-77.69862702406019
 42
-0.0784554644093962
 10
55.62114919235489
 20
-77.5972534994066
 42
-0.3449893739009735
 10
55.76989445877695
 20
-77.5161547415178
 42
-0.4592081693980331
 10
56.03357925425759
 20
-77.57022058011035
 42
-1.70046977402315
  0
LWPOLYLINE
  5
1A0
330
18
100
AcDbEntity
  8
0
100
AcDbPolyline
 90
        8
 70
     0
 43
0.0
 10
56.28374173277006
 20
-78.50961475753347
 42
-0.2724094550390151
 10
56.35135320749702
 20
-78.25280194692632
 42
-0.2203078494251111
 10
56.62856020983193
 20
-78.06357151185242
 42
0.2341400480163762
 10
56.87196158491727
 20
-77.88785745913409
 42
-0.3498134132633492
 10
57.10860174646158
 20
-78.04329682238021
 42
-0.3931467479236718
 10
57.02746795476645
 20
-78.21901079780599
 42
0.4150332412146061
 10
56.99366221740299
 20
-78.30010963298736
 42
-0.2306763273428214
 10
56.77730547625398
 20
-78.64477943130738
 42
0.5554105879057211
  0
LWPOLYLINE
  5
1AA
330
18
100
AcDbEntity
  8
0
100
AcDbPolyline
 90
        8
 70
     0
 43
0.0
 10
56.85167816452197
 20
-78.99620745945148
 42
-0.2313816887967397
 10
56.41220357879682
 20
-79.1381302857569
 42
-0.1103581464241728
 10
55.98625119992596
 20
-78.78670225761282
 42
-0.4384195643132244
 10
56.02005693728943
 20
-78.58395536289077
 42
-0.2572776596551713
 10
56.4662927365556
 20
-78.55016413647788
 42
-0.0036151089222535
 10
56.77730547625398
 20
-78.65829589095551
 42
-0.048205929766297
 10
56.99366221740299
 20
-78.75966933831654
 42
0.3599616938557854
 10
57.37904764536935
 20
-78.69884526989991
 42
2.216678865256372
  0
LWPOLYLINE
  5
1B4
330
18
100
AcDbEntity
  8
0
100
AcDbPolyline
 90
       11
 70
     0
 43
0.0
 10
56.43924810261927
 20
-79.3814266367159
 42
-0.0443756318077716
 10
56.4662927365556
 20
-79.73285466486001
 10
56.25669709883373
 20
-79.30032787882709
 10
56.08766841201637
 20
-79.15840497522911
 42
-0.2824421276657192
 10
55.98625119992596
 20
-79.4219760156603
 42
0.0957942188568247
 10
55.93216204216718
 20
-79.48280008407692
 10
55.93216204216718
 20
-79.51659131048983
 42
-0.2104522608812029
 10
55.84426714704493
 20
-79.28681141917896
 42
-0.2101725574045358
 10
55.87807288440841
 20
-79.2192291209383
 42
0.1850873713293621
 10
55.76989445877695
 20
-78.95565808050708
 42
0.0106328825307472
 10
55.48592624290101
 20
-78.89483401209045
 42
1.210324825844427
  0
ARC
  5
1C1
330
18
100
AcDbEntity
  8
0
100
AcDbCircle
 10
51.85043930442978
 20
-81.3507553827765
 30
0.0
 40
2.397840172015805
100
AcDbArc
 50
23.30991043386039
 51
52.74285928806403
  0
LINE
  5
1C2
330
18
100
AcDbEntity
  8
0
100
AcDbLine
 10
54.01875710918963
 20
-79.81395342274883
 30
0.0
 11
53.60632715740083
 21
-79.70582174556374
 31
0.0
  0
LINE
  5
1C3
330
18
100
AcDbEntity
  8
0
100
AcDbLine
 10
53.25474746679794
 20
-79.96939278599494
 30
0.0
 11
53.4237761536153
 21
-79.57065714908238
 31
0.0
  0
LINE
  5
1C4
330
18
100
AcDbEntity
  8
0
100
AcDbLine
 10
53.45082067743774
 20
-79.97615101581901
 30
0.0
 11
53.54547678610102
 21
-79.66527236661933
 31
0.0
  0
ARC
  5
1C5
330
18
100
AcDbEntity
  8
0
100
AcDbCircle
 10
53.98986273468681
 20
-80.05436091802305
 30
0.0
 40
0.3726699879568295
100
AcDbArc
 50
142.4953791423999
 51
173.1546088680936
  0
LINE
  5
1C6
330
18
100
AcDbEntity
  8
0
100
AcDbLine
 10
54.12017432128005
 20
-80.03021685441154
 30
0.0
 11
53.78887816118635
 21
-79.92884340705053
 31
0.0
  0
ARC
  5
1C7
330
18
100
AcDbEntity
  8
0
100
AcDbCircle
 10
54.10265907742485
 20
-80.07621470266098
 30
0.0
 40
0.320884829445148
100
AcDbArc
 50
163.0956083040528
 51
203.8438463675456
  0
LWPOLYLINE
  5
1C8
330
18
100
AcDbEntity
  8
0
100
AcDbPolyline
 90
        4
 70
     0
 43
0.0
 10
53.58604362689162
 20
-79.07054798751622
 42
0.1154701149022994
 10
53.97142916497188
 20
-78.93538339103486
 42
0.0548849217879102
 10
54.12017432128005
 20
-78.75966933831654
 42
-0.129683647914465
 10
54.45147059148763
 20
-78.46906537858906
 42
4.250476998830321
  0
ARC
  5
1CE
330
18
100
AcDbEntity
  8
0
100
AcDbCircle
 10
54.04853403308388
 20
-78.87594625135074
 30
0.0
 40
0.4948828826227323
100
AcDbArc
 50
208.3701055709672
 51
258.6506438035459
  0
LINE
  5
1CF
330
18
100
AcDbEntity
  8
0
100
AcDbLine
 10
53.97819026839902
 20
-79.68554705609152
 30
0.0
 11
53.49138762834225
 21
-79.57741537890644
 31
0.0
  0
LINE
  5
1D0
330
18
100
AcDbEntity
  8
0
100
AcDbLine
 10
53.86325073934044
 20
-79.49631654372507
 30
0.0
 11
53.4440595740106
 21
-79.49631654372507
 31
0.0
  0
ARC
  5
1D1
330
18
100
AcDbEntity
  8
0
100
AcDbCircle
 10
53.99043200520753
 20
-78.90974770507357
 30
0.0
 40
0.3132755115114048
100
AcDbArc
 50
215.3103827910248
 51
278.9262250847878
  0
LINE
  5
1D2
330
18
100
AcDbEntity
  8
0
100
AcDbLine
 10
52.99106267131729
 20
-78.59747182253892
 30
0.0
 11
53.13304672419832
 21
-78.17846141886157
 31
0.0
  0
LINE
  5
1D3
330
18
100
AcDbEntity
  8
0
100
AcDbLine
 10
52.90992887962218
 20
-78.39472485052431
 30
0.0
 11
52.98430145777626
 21
-78.12439558026904
 31
0.0
  0
LINE
  5
1D4
330
18
100
AcDbEntity
  8
0
100
AcDbLine
 10
53.06543524947137
 20
-78.73939464884434
 30
0.0
 11
53.24122514982978
 21
-78.38796662070024
 31
0.0
  0
LINE
  5
1D5
330
18
100
AcDbEntity
  8
0
100
AcDbLine
 10
53.64013289476431
 20
-79.03675683839589
 30
0.0
 11
53.72802778988655
 21
-78.75966933831654
 31
0.0
  0
ARC
  5
1D6
330
18
100
AcDbEntity
  8
0
100
AcDbCircle
 10
54.19538484535266
 20
-78.28949344653189
 30
0.0
 40
0.4237865227917192
100
AcDbArc
 50
266.2275754822999
 51
299.5116857735139
  0
ARC
  5
1D7
330
18
100
AcDbEntity
  8
0
100
AcDbCircle
 10
54.03566123123725
 20
-77.1193303335485
 30
0.0
 40
1.728754656176072
100
AcDbArc
 50
271.4566589106468
 51
280.2503473102508
  0
LINE
  5
1D8
330
18
100
AcDbEntity
  8
0
100
AcDbLine
 10
54.16074127218455
 20
-78.71236172954806
 30
0.0
 11
54.16074127218455
 21
-78.40148308034838
 31
0.0
  0
ARC
  5
1D9
330
18
100
AcDbEntity
  8
0
100
AcDbCircle
 10
54.08984086392724
 20
-78.7315780251615
 30
0.0
 40
0.402038940356704
100
AcDbArc
 50
230.8855781734176
 51
286.0964341167067
  0
ARC
  5
1DA
330
18
100
AcDbEntity
  8
0
100
AcDbCircle
 10
52.81241674186294
 20
-78.47721370348667
 30
0.0
 40
1.105483172606217
100
AcDbArc
 50
333.5754559916648
 51
353.4023341196721
  0
LINE
  5
1DB
330
18
100
AcDbEntity
  8
0
100
AcDbLine
 10
54.0322794261578
 20
-78.84076809620537
 30
0.0
 11
54.04580174312596
 21
-78.49609829788533
 31
0.0
  0
LWPOLYLINE
  5
1DC
330
18
100
AcDbEntity
  8
0
100
AcDbPolyline
 90
        4
 70
     0
 43
0.0
 10
55.85102825047207
 20
-79.08406444716437
 42
-0.0906053182644296
 10
55.6414326127502
 20
-79.18543789452538
 42
0.2891746322220408
 10
55.30337523911548
 20
-79.55714068943423
 10
55.30337523911548
 20
-79.78692050345255
  0
LWPOLYLINE
  5
1E2
330
18
100
AcDbEntity
  8
0
100
AcDbPolyline
 90
        5
 70
     0
 43
0.0
 10
55.76989445877695
 20
-77.52291297134185
 42
0.2062839193577411
 10
55.47916513947386
 20
-78.04329682238021
 42
-0.0344275229378709
 10
55.41831476817406
 20
-78.39472485052431
 42
0.1956163555819305
 10
55.45212050553753
 20
-78.62450474183518
 42
0.1719326581989268
 10
55.95920656598963
 20
-78.89483401209045
 42
-13.37613550487318
  0
LWPOLYLINE
  5
1E9
330
18
100
AcDbEntity
  8
0
100
AcDbPolyline
 90
       10
 70
     0
 43
0.0
 10
55.48592624290101
 20
-78.90159224191453
 42
0.1142200179479997
 10
55.12082423532994
 20
-79.05703152786809
 42
0.0777706163780563
 10
55.07349618099831
 20
-79.10433913663656
 42
-0.6889580829054152
 10
54.99912360284422
 20
-79.08406444716437
 42
-0.2485401411790868
 10
55.16815228966159
 20
-78.67181235060366
 10
55.0329293402077
 20
-78.59071359271483
 10
55.26280839832486
 20
-78.47582360841312
 10
55.01940702323953
 20
-78.2122525679819
 42
-0.6538855448417658
 10
55.06673507757117
 20
-78.10412089079682
 42
-0.2223854851196537
 10
55.38450903081059
 20
-78.25280194692632
 42
-2.137220760875124
  0
LWPOLYLINE
  5
1F5
330
18
100
AcDbEntity
  8
0
100
AcDbPolyline
 90
        6
 70
     0
 43
0.0
 10
55.84426714704493
 20
-78.68532881025179
 42
-0.1625870122334079
 10
55.64819382629123
 20
-78.42175776982057
 42
-0.2414903790321798
 10
55.66847724668654
 20
-78.2933514031633
 42
0.0131604571956079
 10
55.72932761798635
 20
-78.03653859255614
 42
-0.0929671971124042
 10
55.78341677574512
 20
-77.91489037843037
 42
-0.1051847001514654
 10
56.03357925425759
 20
-77.67835233458798
 42
3.55911652572
  0
LWPOLYLINE
  5
1FD
330
18
100
AcDbEntity
  8
0
100
AcDbPolyline
 90
        4
 70
     0
 43
0.0
 10
56.64208252680009
 20
-79.11109736646062
 42
0.3076381829107686
 10
57.05451258870279
 20
-79.29356964900303
 42
0.2752569131227524
 10
57.4669426506055
 20
-79.12461382610877
 42
0.2236473179344967
 10
57.54131522875958
 20
-78.7664275681406
 42
0.7885747075117546
  0
LWPOLYLINE
  5
203
330
18
100
AcDbEntity
  8
0
100
AcDbPolyline
 90
        5
 70
     0
 43
0.0
 10
57.3114361706424
 20
-77.73241817318051
 42
0.5374568442929036
 10
57.35876422497405
 20
-77.88109922931003
 42
-0.2724446235398831
 10
57.55483754572775
 20
-78.37445016105211
 42
-0.1731582113560447
 10
57.37904764536935
 20
-78.69884526989991
 42
-0.2802512863030013
 10
57.02070685133932
 20
-79.00296568927554
 42
-0.0787873764077853
  0
LWPOLYLINE
  5
20A
330
18
100
AcDbEntity
  8
0
100
AcDbPolyline
 90
        5
 70
     0
 43
0.0
 10
56.98014001054872
 20
-77.9081321486063
 42
0.800000692520371
 10
57.11536296000261
 20
-78.04329682238021
 42
0.2294650600665943
 10
56.92605074267604
 20
-78.20549433815784
 42
-0.1589669743623513
 10
56.64884374034113
 20
-78.40148308034838
 42
0.029262164619956
 10
56.54066531470967
 20
-78.44203245929278
 42
-0.211645960858072
  0
LWPOLYLINE
  5
211
330
18
100
AcDbEntity
  8
0
100
AcDbPolyline
 90
        3
 70
     0
 43
0.0
 10
56.52038189431437
 20
-78.5231312171816
 42
0.1504299053097642
 10
56.54742652825071
 20
-78.30686786281143
 42
-0.2441055018237746
 10
56.62179910640479
 20
-78.07032974167649
 42
2.407681726555696
  0
LWPOLYLINE
  5
216
330
18
100
AcDbEntity
  8
0
100
AcDbPolyline
 90
        3
 70
     0
 43
0.0
 10
58.49542680358336
 20
-78.14146684608161
 10
58.49542680358336
 20
-78.81682229382279
 10
58.38874574448734
 20
-78.81682229382279
  0
LWPOLYLINE
  5
21B
330
18
100
AcDbEntity
  8
0
100
AcDbPolyline
 90
        2
 70
     0
 43
0.0
 10
58.34316304448067
 20
-78.14146684608161
 10
58.49542680358336
 20
-78.14146684608161
  0
LWPOLYLINE
  5
21F
330
18
100
AcDbEntity
  8
0
100
AcDbPolyline
 90
        3
 70
     0
 43
0.0
 10
51.52559568015374
 20
-67.56682229382279
 42
0.1785137760805988
 10
52.21902277862858
 20
-69.09525833880755
 42
0.1402245798430644
 10
53.22011260580626
 20
-69.48833145894394
 42
0.2820832514771665
  0
LWPOLYLINE
  5
224
330
18
100
AcDbEntity
  8
0
100
AcDbPolyline
 90
        7
 70
     0
 43
0.0
 10
57.25764683380983
 20
-66.57184987430949
 42
0.156652395380479
 10
55.63281763427937
 20
-65.4696658757523
 42
0.2903579573597955
 10
52.52128588657598
 20
-65.87843363685488
 42
0.5378507170468314
 10
52.87688941689605
 20
-69.04194080147982
 42
0.365628800596328
 10
54.4771058392131
 20
-68.66871804018576
 42
0.4330771756569364
 10
54.38820484945773
 20
-68.17108766671705
 42
0.1033065761506979
 10
54.06816167216968
 20
-68.0466801297723
 42
-12.10381563351935
  0
LWPOLYLINE
  5
22D
330
18
100
AcDbEntity
  8
0
100
AcDbPolyline
 90
        7
 70
     0
 43
0.0
 10
53.1613724555028
 20
-72.38317304037725
 42
-0.3912377748786133
 10
52.8768895240714
 20
-72.57867065216892
 42
-0.3211056299671767
 10
51.97010020022918
 20
-71.70781759263606
 42
-0.4356571114687491
 10
53.33917422066283
 20
-69.85947632368499
 42
-0.4562289711435116
 10
55.63281763427937
 20
-71.5300924431337
 42
-0.2186337976823387
 10
55.20609329071993
 20
-73.78720147318735
 42
-0.0314326436734597
 10
54.20305639657767
 20
-75.27990123038856
 42
0.018825659133162
  0
LWPOLYLINE
  5
236
330
18
100
AcDbEntity
  8
0
100
AcDbPolyline
 90
        3
 70
     0
 43
0.0
 10
51.63902946253941
 20
-71.54786498065289
 42
0.0962866584836929
 10
51.84563896461715
 20
-72.18767535335567
 42
0.4040292795451161
 10
53.44585527975886
 20
-72.77416826396062
 42
4.730610073077646
  0
LWPOLYLINE
  5
23B
330
18
100
AcDbEntity
  8
0
100
AcDbPolyline
 90
        2
 70
     0
 43
0.0
 10
53.22011260580626
 20
-69.58246658826138
 42
0.3574713819881076
 10
51.63544143869281
 20
-71.15686968183962
 42
0.4040292795451161
  0
LWPOLYLINE
  5
23F
330
18
100
AcDbEntity
  8
0
100
AcDbPolyline
 90
        4
 70
     0
 43
0.0
 10
53.09025164226344
 20
-72.18767535335567
 42
-0.0237914854511304
 10
52.75242828845938
 20
-71.97440527927468
 42
0.1740013095769437
 10
52.55684623960799
 20
-71.92108774194695
 42
-0.0990114313739616
 10
52.80576881800739
 20
-71.72559005492537
 42
4.191685387299907
  0
LWPOLYLINE
  5
245
330
18
100
AcDbEntity
  8
0
100
AcDbPolyline
 90
        7
 70
     0
 43
0.0
 10
53.10256522323004
 20
-76.31627812378393
 10
52.78133444687637
 20
-77.06549322019653
 42
-0.5467376603499026
 10
52.69567286229897
 20
-77.07976393738229
 42
-0.048922715039796
 10
52.64570365989935
 20
-76.72299484385248
 42
0.254623724211786
 10
52.85271899014981
 20
-76.50893338773459
 42
0.1500089860703346
 10
52.83844205938692
 20
-75.99518586201469
 42
-0.1392791557668802
 10
53.09542670257805
 20
-76.30200732900577
 42
-1.542526322477891
  0
LWPOLYLINE
  5
24E
330
18
100
AcDbEntity
  8
0
100
AcDbPolyline
 90
        7
 70
     0
 43
0.0
 10
53.32139404414682
 20
-72.75639572644142
 42
0.3838590667675373
 10
53.1613724555028
 20
-72.38317304037725
 42
0.295450391316447
 10
52.9124498771034
 20
-72.41871804018576
 42
-0.2290065676766355
 10
52.71686782825202
 20
-72.47203557751349
 42
-0.3099255006748023
 10
52.68130747522
 20
-72.43649057770497
 42
-0.343697748485301
 10
53.12581199529544
 20
-72.20544789087488
 42
-0.2344270782908736
 10
53.26805351459881
 20
-72.31208296553032
 42
-1.624050646441661
  0
LWPOLYLINE
  5
257
330
18
100
AcDbEntity
  8
0
100
AcDbPolyline
 90
        8
 70
     0
 43
0.0
 10
53.58338794280474
 20
-70.73349295101777
 42
0.2898269386231135
 10
52.90151413290524
 20
-71.02927284846877
 42
0.0953212941807623
 10
52.80502255603267
 20
-71.72371254228429
 42
0.2858705086909236
 10
52.95297630723728
 20
-71.93590246544568
 42
0.0437212853936499
 10
53.28104766860402
 20
-72.13523236362792
 42
-0.2330451111258273
 10
53.42900141980862
 20
-72.32813228693555
 42
-0.0584462927690436
 10
53.58338794280474
 20
-72.61748213428204
 42
0.2342197866020754
 10
53.94362316312899
 20
-72.62391210915666
 42
4.447886453548089
  0
LWPOLYLINE
  5
261
330
18
100
AcDbEntity
  8
0
100
AcDbPolyline
 90
       43
 70
     0
 43
0.0
 10
52.96693443625301
 20
-76.1093519874627
 42
0.0443760913465588
 10
52.99548829777881
 20
-75.53138604042593
 42
-0.0050484916219588
 10
52.71708831371384
 20
-75.47430301649812
 42
-0.2005997278199228
 10
52.41727287823399
 20
-75.78112440589681
 42
-0.2717311032318026
 10
52.08890369176941
 20
-75.73831217674713
 42
0.2813024123881758
 10
51.69628826160124
 20
-75.50284452846203
 42
0.1101262566809176
 10
51.89616518174078
 20
-75.25310616299115
 42
-0.2009393157148788
 10
52.06748824035453
 20
-75.10326312819015
 42
-0.0567228809050533
 10
51.73911905388994
 20
-74.83211864814446
 42
0.1282977034138111
 10
51.6106267875649
 20
-74.75362943204941
 42
-0.1019329688791726
 10
52.13173448405811
 20
-74.44680796505832
 42
-0.3354508680526863
 10
52.69567286229897
 20
-74.66086949876862
 42
-0.094720320703732
 10
52.5314883243372
 20
-74.24701730371859
 42
-0.0498543301398823
 10
52.14601141482101
 20
-74.23274650894043
 42
-0.1272362601728964
 10
51.93185756391857
 20
-73.94733123411659
 42
-0.0375150736242722
 10
52.01751903795491
 20
-73.42644838860002
 42
-0.0473085558305193
 10
52.31733447343476
 20
-72.99119007897516
 10
52.36730367583438
 20
-72.69150400937316
 10
52.59573445749972
 20
-72.85561783895231
 10
52.69567286229897
 20
-73.1338977163871
 42
0.0293867741072609
 10
52.90268830309049
 20
-73.35509456989406
 42
-0.1582182315170831
 10
52.9383805747272
 20
-73.72613445820201
 42
-0.176287881935514
 10
52.63856513924736
 20
-74.19706959958745
 10
52.82416523916507
 20
-74.63946330660139
 10
53.02404204876355
 20
-74.35404803177753
 42
-0.2113429344576544
 10
52.8669959209127
 20
-74.09717426891758
 42
-0.2713486243635461
 10
53.05259591028935
 20
-73.64764524210698
 42
-0.089476420470688
 10
53.74502666539632
 20
-73.46926069534209
 42
0.1354323597001433
 10
53.94490358553586
 20
-73.39790687663612
 42
0.0250666620609222
 10
53.85924211149951
 20
-73.64764524210698
 42
0.1289533418724826
 10
53.85210359084753
 20
-73.94733123411659
 42
-0.1723690465992638
 10
53.80927279855883
 20
-74.33977723699938
 42
-0.4595170688085875
 10
53.10970363334096
 20
-74.52529718115338
 10
52.9383805747272
 20
-74.75362943204941
 10
53.12398056410385
 20
-75.31732458430804
 10
53.28816521260669
 20
-75.238835368213
 42
-0.0817120619607906
 10
53.37382668664302
 20
-74.91774318403617
 42
-0.3304672387401203
 10
53.7021958731076
 20
-74.85352476271929
 42
-0.1957564421294447
 10
54.2447190210157
 20
-75.3601368910501
 42
0.0781802027661967
 10
53.75930359615921
 20
-75.48857381127628
 42
-0.2359768207214719
 10
53.43807281980555
 20
-75.58133374455706
 42
-0.4732812613919556
 10
53.32385748424339
 20
-75.37440768582825
 42
0.1606042263262696
 10
53.15253442562966
 20
-75.47430301649812
 42
-0.0263091304521385
  0
LWPOLYLINE
  5
28E
330
18
100
AcDbEntity
  8
0
100
AcDbPolyline
 90
        5
 70
     0
 43
0.0
 10
52.06748824035453
 20
-75.10326312819015
 42
0.1338609247136417
 10
52.52434980368522
 20
-75.06758621883718
 42
0.4989915918491664
 10
52.58859593684774
 20
-74.86066016010835
 10
52.77419592622439
 20
-74.82498325075538
 42
-0.0283343975362131
 10
52.9383805747272
 20
-75.3601368910501
 42
3.417809899720462
  0
LWPOLYLINE
  5
295
330
18
100
AcDbEntity
  8
0
100
AcDbPolyline
 90
        4
 70
     0
 43
0.0
 10
52.9383805747272
 20
-75.3601368910501
 10
52.75278058535057
 20
-75.28878307234413
 10
52.73136513393569
 20
-75.24597076560208
 42
0.1777218985358029
 10
52.52434980368522
 20
-75.06758621883718
 42
1.444086396823232
  0
LWPOLYLINE
  5
29B
330
18
100
AcDbEntity
  8
0
100
AcDbPolyline
 90
        3
 70
     0
 43
0.0
 10
53.63740517761244
 20
-64.97973730887879
 42
0.0624032656230219
 10
52.69908765173601
 20
-65.30971326376913
 42
0.2089933420386893
 10
51.57117838016041
 20
-66.8914668460816
 42
0.3211855772011505
  0
LWPOLYLINE
  5
2A0
330
18
100
AcDbEntity
  8
0
100
AcDbPolyline
 90
       13
 70
     0
 43
0.0
 10
52.96444942033631
 20
-63.59704622835952
 42
-0.2026260863915099
 10
52.73671841522147
 20
-63.69312334983982
 42
0.075385722020648
 10
53.01377202889701
 20
-64.21321905420362
 42
-0.0990278771178374
 10
53.17594975934678
 20
-64.01733883077142
 42
-0.1623179517617873
 10
52.99349984011926
 20
-63.67285986778924
 42
-0.3972006120785911
 10
53.06107387612102
 20
-63.36215334912719
 42
-0.0474929660011451
 10
53.9125067958115
 20
-62.97714742204385
 42
0.0915377838779398
 10
53.89223460703376
 20
-63.32162638502602
 42
0.0069471672305774
 10
53.92602162503464
 20
-63.73365031394098
 42
-0.3664282889162428
 10
53.85169022947826
 20
-64.01733883077142
 42
-0.3408535494655991
 10
53.31785519090492
 20
-64.037602312822
 42
-0.1622999308671591
 10
53.1421627413459
 20
-64.32129090694499
 42
0.1618259452430488
 10
53.53409212813332
 20
-64.65226090765765
 42
0.1925276127240445
  0
LWPOLYLINE
  5
2AF
330
18
100
AcDbEntity
  8
0
100
AcDbPolyline
 90
       20
 70
     0
 43
0.0
 10
53.58815144502584
 20
-64.99673987063982
 42
-0.0250842240300756
 10
53.04080157722937
 20
-64.40909927763581
 42
0.026472888444215
 10
52.89213867600273
 20
-64.59147046150589
 42
-0.3183992396654192
 10
53.00701455922849
 20
-64.93594950178064
 42
-0.3875178639267705
 10
52.67590173877432
 20
-65.23314705817317
 42
-0.1975792074812333
 10
52.27721488231839
 20
-65.18586557429095
 42
0.3272201859215237
 10
51.89880021464022
 20
-65.23314705817317
 42
0.2749849028579227
 10
51.97988907986511
 20
-64.88191357540995
 42
-0.1850345262870295
 10
52.17585382831576
 20
-64.28751846262487
 42
-0.7143009347607379
 10
52.6691443792197
 20
-64.46988964649499
 10
52.90565350522586
 20
-64.33479986921452
 42
-0.0710763865569756
 10
52.73671841522147
 20
-64.11865624102432
 10
52.60832770277257
 20
-63.80119520258121
 42
-0.4804952312987759
 10
52.39209076554416
 20
-63.90251253554154
 42
-0.3524857599662414
 10
51.95961689108735
 20
-63.27434497843638
 42
-0.0228326654826839
 10
52.06097794508999
 20
-62.62591393928062
 42
0.2075413249773505
 10
51.98664654953361
 20
-62.27468053380997
 42
0.1269614362840132
 10
52.26370005309527
 20
-62.49757868178122
 42
-0.1269367898710656
 10
52.78402026244547
 20
-62.80153068066224
 42
-0.318859559461023
 10
53.05431640645251
 20
-63.36890786890823
 42
-0.4206229328790744
  0
LWPOLYLINE
  5
2C5
330
18
100
AcDbEntity
  8
0
100
AcDbPolyline
 90
        2
 70
     0
 43
0.0
 10
51.78300499580219
 20
-60.06000958398113
 42
0.1450236266072829
 10
53.82231303896752
 20
-63.00899718338751
 42
-0.0686265515224094
  0
LWPOLYLINE
  5
2C9
330
18
100
AcDbEntity
  8
0
100
AcDbPolyline
 90
        3
 70
     0
 43
0.0
 10
51.89897949416516
 20
-59.24928677161765
 42
0.205236642361412
 10
54.79714901650115
 20
-63.33696445787329
 42
-0.1442881881804332
 10
53.92842415302714
 20
-61.3452455140441
 42
-0.4101578723628524
  0
LWPOLYLINE
  5
2CE
330
18
100
AcDbEntity
  8
0
100
AcDbPolyline
 90
        5
 70
     0
 43
0.0
 10
52.93420141409236
 20
-66.6581321486063
 42
-0.800000692520371
 10
52.79897846463847
 20
-66.79329682238021
 42
-0.2294650600665943
 10
52.98829068196504
 20
-66.95549433815784
 42
0.1589669743623513
 10
53.26549768429995
 20
-67.15148308034837
 42
-0.029262164619956
 10
53.3736761099314
 20
-67.19203245929278
 42
0.211645960858072
  0
LWPOLYLINE
  5
2D5
330
18
100
AcDbEntity
  8
0
100
AcDbPolyline
 90
        8
 70
     0
 43
0.0
 10
53.63059969187101
 20
-67.25961475753345
 42
0.2724094550390151
 10
53.56298821714407
 20
-67.00280194692632
 42
0.2203078494251111
 10
53.28578121480916
 20
-66.81357151185242
 42
-0.2341400480163762
 10
53.04237983972381
 20
-66.63785745913408
 42
0.3498134132633492
 10
52.80573967817951
 20
-66.79329682238021
 42
0.3931467479236718
 10
52.88687346987462
 20
-66.96901079780598
 42
-0.4150332412146061
 10
52.92067920723809
 20
-67.05010963298736
 42
0.2306763273428214
 10
53.1370359483871
 20
-67.39477943130738
 42
-0.5554105879057211
  0
LWPOLYLINE
  5
2DF
330
18
100
AcDbEntity
  8
0
100
AcDbPolyline
 90
       11
 70
     0
 43
0.0
 10
53.86047874998818
 20
-67.38126297165925
 10
53.71849458699326
 20
-67.37450474183518
 42
0.3864944859760047
 10
53.5291824797806
 20
-67.42857058042772
 42
-0.2139425382889906
 10
53.04914094315094
 20
-67.75296568927555
 42
-0.2215909805940198
 10
52.37978729930864
 20
-67.50966933831654
 42
-0.3508990813835433
 10
52.21751982603231
 20
-67.03659317333922
 42
-0.3334199165594311
 10
52.39330961627681
 20
-66.69868160484327
 42
0.0470671932894149
 10
52.77193394081603
 20
-66.28642943098999
 42
-0.2927107851264324
 10
53.25873658087282
 20
-66.00934193091065
 42
-0.2314853059898941
 10
53.64412200883918
 20
-66.04313308003099
 42
-0.4366097790939176
 10
54.15120806929127
 20
-66.2661547415178
 42
0.7121546497002406
  0
LWPOLYLINE
  5
2EC
330
18
100
AcDbEntity
  8
0
100
AcDbPolyline
 90
        8
 70
     0
 43
0.0
 10
53.06266326011912
 20
-67.74620745945147
 42
0.2313816887967397
 10
53.50213784584425
 20
-67.88813028575692
 42
0.1103581464241728
 10
53.92809022471512
 20
-67.5367022576128
 42
0.4384195643132244
 10
53.89428448735166
 20
-67.33395536289076
 42
0.2572776596551713
 10
53.44804868808548
 20
-67.30016413647786
 42
0.0036151089222535
 10
53.1370359483871
 20
-67.40829589095553
 42
0.048205929766297
 10
52.92067920723809
 20
-67.50966933831654
 42
-0.3599616938557854
 10
52.53529377927172
 20
-67.44884526989993
 42
-2.216678865256372
  0
LWPOLYLINE
  5
2F6
330
18
100
AcDbEntity
  8
0
100
AcDbPolyline
 90
        4
 70
     0
 43
0.0
 10
53.27225889784099
 20
-67.86109736646064
 42
-0.3076381829107686
 10
52.85982883593828
 20
-68.04356964900303
 42
-0.2752569131227524
 10
52.44739877403558
 20
-67.87461382610877
 42
-0.2236473179344967
 10
52.37302619588151
 20
-67.51642756814061
 42
-0.7885747075117546
  0
LWPOLYLINE
  5
2FC
330
18
100
AcDbEntity
  8
0
100
AcDbPolyline
 90
       13
 70
     0
 43
0.0
 10
52.85982883593828
 20
-68.05032787882709
 42
0.3862639080087285
 10
53.08294668051442
 20
-68.1990089349566
 42
0.1040486083705081
 10
53.46833210848078
 20
-68.13142663671591
 42
-0.022073218815169
 10
53.78610606172021
 20
-67.78675683839589
 42
-0.0693828876327849
 10
53.86723985341532
 20
-67.72593276997928
 42
-0.025559271079615
 10
54.34052028661782
 20
-67.56373517690907
 42
0.2941424895252776
 10
54.58392155158927
 20
-67.23934006806127
 42
0.0392567911107339
 10
54.52983239383049
 20
-66.94873610833377
 42
-0.1108679251124254
 10
54.52307129040335
 20
-66.78653859255615
 42
0.2494925920890571
 10
54.41489286477191
 20
-66.4486270240602
 42
0.0784554644093962
 10
54.29319223228619
 20
-66.3472534994066
 42
0.3449893739009735
 10
54.14444696586413
 20
-66.2661547415178
 42
0.4592081693980331
 10
53.88076217038348
 20
-66.32022058011035
 42
1.70046977402315
  0
LWPOLYLINE
  5
30B
330
18
100
AcDbEntity
  8
0
100
AcDbPolyline
 90
        5
 70
     0
 43
0.0
 10
52.60290525399867
 20
-66.48241817318053
 42
-0.5374568442929036
 10
52.55557719966702
 20
-66.63109922931003
 42
0.2724446235398831
 10
52.35950387891334
 20
-67.1244501610521
 42
0.1731582113560447
 10
52.53529377927172
 20
-67.44884526989993
 42
0.2802512863030013
 10
52.89363457330176
 20
-67.75296568927555
 42
0.0787873764077853
  0
ARC
  5
312
330
18
100
AcDbEntity
  8
0
100
AcDbCircle
 10
52.30747864879084
 20
-63.13731071099857
 30
0.0
 40
0.6215162705660259
100
AcDbArc
 50
311.148727739666
 51
342.0958289370296
  0
LWPOLYLINE
  5
313
330
18
100
AcDbEntity
  8
0
100
AcDbPolyline
 90
        2
 70
     0
 43
0.0
 10
52.85271899014981
 20
-75.43862610714514
 42
0.1195711324376108
 10
51.93899597402949
 20
-75.46003222171997
 42
-0.131467313942055
  0
LINE
  5
317
330
18
100
AcDbEntity
  8
0
100
AcDbLine
 10
52.08176517111743
 20
-75.43862610714514
 30
0.0
 11
51.96754983555528
 21
-75.36727228843918
 31
0.0
  0
LINE
  5
318
330
18
100
AcDbEntity
  8
0
100
AcDbLine
 10
52.52434980368522
 20
-75.39581380040307
 30
0.0
 11
52.36730367583438
 21
-75.21742925363817
 31
0.0
  0
LINE
  5
319
330
18
100
AcDbEntity
  8
0
100
AcDbLine
 10
52.5172113935743
 20
-75.40294919779215
 30
0.0
 11
52.33161140419766
 21
-75.65982296065211
 31
0.0
  0
LINE
  5
31A
330
18
100
AcDbEntity
  8
0
100
AcDbLine
 10
52.35302674507148
 20
-75.40294919779215
 30
0.0
 11
52.18170368645774
 21
-75.67409367783786
 31
0.0
  0
LINE
  5
31B
330
18
100
AcDbEntity
  8
0
100
AcDbLine
 10
52.07462676100651
 20
-75.22456465102725
 30
0.0
 11
52.23881140950933
 21
-75.38867840301399
 31
0.0
  0
LINE
  5
31C
330
18
100
AcDbEntity
  8
0
100
AcDbLine
 10
52.23881140950933
 20
-75.38867840301399
 30
0.0
 11
52.08176517111743
 21
-75.58133374455706
 31
0.0
  0
LWPOLYLINE
  5
31D
330
18
100
AcDbEntity
  8
0
100
AcDbPolyline
 90
        3
 70
     0
 43
0.0
 10
52.80274978775018
 20
-74.74649403466033
 42
0.0801639228658221
 10
52.31733447343476
 20
-74.71795252269643
 42
-0.1880431802603599
 10
51.90330370239276
 20
-74.73935863727125
 42
-0.1880431802603599
  0
LINE
  5
322
330
18
100
AcDbEntity
  8
0
100
AcDbLine
 10
52.06034983024361
 20
-74.78217094401333
 30
0.0
 11
51.96041142544436
 21
-74.88920167207226
 31
0.0
  0
LINE
  5
323
330
18
100
AcDbEntity
  8
0
100
AcDbLine
 10
52.36730367583438
 20
-74.73935863727125
 30
0.0
 11
52.19598061722063
 21
-75.01050319490936
 31
0.0
  0
LINE
  5
324
330
18
100
AcDbEntity
  8
0
100
AcDbLine
 10
52.53862673444812
 20
-74.73935863727125
 30
0.0
 11
52.3744420859453
 21
-75.05331550165141
 31
0.0
  0
LINE
  5
325
330
18
100
AcDbEntity
  8
0
100
AcDbLine
 10
52.23881140950933
 20
-74.75362943204941
 30
0.0
 11
52.07462676100651
 21
-74.94628477359248
 31
0.0
  0
LINE
  5
326
330
18
100
AcDbEntity
  8
0
100
AcDbLine
 10
52.4315498089969
 20
-73.69045754884904
 30
0.0
 11
52.20311902733155
 21
-73.26233455902086
 31
0.0
  0
LINE
  5
327
330
18
100
AcDbEntity
  8
0
100
AcDbLine
 10
52.51007287292232
 20
-74.02582045021162
 30
0.0
 11
52.21025754798354
 21
-73.9116543247636
 31
0.0
  0
LINE
  5
328
330
18
100
AcDbEntity
  8
0
100
AcDbLine
 10
52.46724208063362
 20
-73.86170669822488
 30
0.0
 11
52.31019595278278
 21
-73.7332697779987
 31
0.0
  0
LINE
  5
329
330
18
100
AcDbEntity
  8
0
100
AcDbLine
 10
52.51007287292232
 20
-74.70368172791828
 30
0.0
 11
52.41013446812308
 21
-74.58238028267358
 31
0.0
  0
LWPOLYLINE
  5
32A
330
18
100
AcDbEntity
  8
0
100
AcDbPolyline
 90
        3
 70
     0
 43
0.0
 10
52.59573445749972
 20
-74.16852808762356
 42
-0.1784948655282679
 10
52.4315498089969
 20
-73.63337444732883
 42
0.0538746515784961
 10
52.39585753736018
 20
-72.94837777223311
 42
0.8518139348432473
  0
LINE
  5
32F
330
18
100
AcDbEntity
  8
0
100
AcDbLine
 10
52.13887289416903
 20
-74.74649403466033
 30
0.0
 11
52.02465755860689
 21
-74.58238028267358
 31
0.0
  0
LINE
  5
330
330
18
100
AcDbEntity
  8
0
100
AcDbLine
 10
52.31019595278278
 20
-74.71081712530736
 30
0.0
 11
52.13887289416903
 21
-74.53956797593153
 31
0.0
  0
LINE
  5
331
330
18
100
AcDbEntity
  8
0
100
AcDbLine
 10
52.31019595278278
 20
-73.7332697779987
 30
0.0
 11
52.13887289416903
 21
-73.60483293536493
 31
0.0
  0
LINE
  5
332
330
18
100
AcDbEntity
  8
0
100
AcDbLine
 10
52.41013446812308
 20
-73.36222996728314
 30
0.0
 11
52.28878061190895
 21
-73.14103311377616
 31
0.0
  0
LINE
  5
333
330
18
100
AcDbEntity
  8
0
100
AcDbLine
 10
52.73850365458766
 20
-73.80462359670466
 30
0.0
 11
52.62428831902552
 21
-73.94733123411659
 31
0.0
  0
LINE
  5
334
330
18
100
AcDbEntity
  8
0
100
AcDbLine
 10
52.73136513393569
 20
-73.59769753797586
 30
0.0
 11
52.46724208063362
 21
-73.87597741541063
 31
0.0
  0
LINE
  5
335
330
18
100
AcDbEntity
  8
0
100
AcDbLine
 10
52.62428831902552
 20
-73.94733123411659
 30
0.0
 11
52.52434980368522
 21
-74.00441433563681
 31
0.0
  0
LINE
  5
336
330
18
100
AcDbEntity
  8
0
100
AcDbLine
 10
52.43868832964888
 20
-73.47639601513876
 30
0.0
 11
52.64570365989935
 21
-73.28374075118809
 31
0.0
  0
LINE
  5
337
330
18
100
AcDbEntity
  8
0
100
AcDbLine
 10
52.69567286229897
 20
-73.44785450317485
 30
0.0
 11
52.4315498089969
 21
-73.69045754884904
 31
0.0
  0
LINE
  5
338
330
18
100
AcDbEntity
  8
0
100
AcDbLine
 10
52.59573445749972
 20
-73.1338977163871
 30
0.0
 11
52.43868832964888
 21
-73.30514686576293
 31
0.0
  0
LINE
  5
339
330
18
100
AcDbEntity
  8
0
100
AcDbLine
 10
52.52434980368522
 20
-73.03400238571722
 30
0.0
 11
52.42441139888597
 21
-73.1909807403149
 31
0.0
  0
LWPOLYLINE
  5
33A
330
18
100
AcDbEntity
  8
0
100
AcDbPolyline
 90
        3
 70
     0
 43
0.0
 10
51.52559568015374
 20
-71.15686968183962
 10
51.52559568015374
 20
-71.54786498065289
 10
51.63902946253941
 20
-71.54786498065289
  0
LWPOLYLINE
  5
33F
330
18
100
AcDbEntity
  8
0
100
AcDbPolyline
 90
        2
 70
     0
 43
0.0
 10
51.63544143869281
 20
-71.15686968183962
 10
51.52559568015374
 20
-71.15686968183962
  0
ARC
  5
343
330
18
100
AcDbEntity
  8
0
100
AcDbCircle
 10
52.45666405876072
 20
-63.41876309793612
 30
0.0
 40
0.347443622746036
100
AcDbArc
 50
217.9293489533491
 51
292.2201427229163
  0
LWPOLYLINE
  5
344
330
18
100
AcDbEntity
  8
0
100
AcDbPolyline
 90
        3
 70
     0
 43
0.0
 10
51.41891462105772
 20
-66.8914668460816
 10
51.41891462105772
 20
-67.56682229382279
 10
51.52559568015374
 20
-67.56682229382279
  0
LWPOLYLINE
  5
349
330
18
100
AcDbEntity
  8
0
100
AcDbPolyline
 90
        2
 70
     0
 43
0.0
 10
51.57117838016041
 20
-66.8914668460816
 10
51.41891462105772
 20
-66.8914668460816
  0
LINE
  5
34D
330
18
100
AcDbEntity
  8
0
100
AcDbLine
 10
52.44614997232279
 20
-64.63875194538811
 30
0.0
 11
52.05422058553537
 21
-64.6927878717588
 31
0.0
  0
ARC
  5
34E
330
18
100
AcDbEntity
  8
0
100
AcDbCircle
 10
52.62356097398622
 20
-64.84551564449555
 30
0.0
 40
0.2089451263200149
100
AcDbArc
 50
151.8141042398838
 51
221.231098783628
  0
ARC
  5
34F
330
18
100
AcDbEntity
  8
0
100
AcDbCircle
 10
52.14135677071735
 20
-65.54262395582409
 30
0.0
 40
1.075355816429145
100
AcDbArc
 50
68.19745588625224
 51
85.99847696126266
  0
LWPOLYLINE
  5
350
330
18
100
AcDbEntity
  8
0
100
AcDbPolyline
 90
        2
 70
     0
 43
0.0
 10
52.06773541475851
 20
-65.0710392790611
 42
-0.0678338974373861
 10
52.7502332444446
 20
-64.51717113037718
 42
-0.2801374553296905
  0
LINE
  5
354
330
18
100
AcDbEntity
  8
0
100
AcDbLine
 10
52.06097794508999
 20
-64.82787764903925
 30
0.0
 11
52.31100190031927
 21
-64.74006927834846
 31
0.0
  0
ARC
  5
355
330
18
100
AcDbEntity
  8
0
100
AcDbCircle
 10
52.9102116827301
 20
-65.02038061258092
 30
0.0
 40
0.6101033750881716
100
AcDbArc
 50
161.6074800215078
 51
186.6755044011108
  0
LINE
  5
356
330
18
100
AcDbEntity
  8
0
100
AcDbLine
 10
52.74347577477609
 20
-64.5509435746973
 30
0.0
 11
52.79753509166861
 21
-64.91568601973006
 31
0.0
  0
LINE
  5
357
330
18
100
AcDbEntity
  8
0
100
AcDbLine
 10
52.56102585554856
 20
-64.67252438970823
 30
0.0
 11
52.61508517244108
 21
-64.96972194610075
 31
0.0
  0
ARC
  5
358
330
18
100
AcDbEntity
  8
0
100
AcDbCircle
 10
52.35947846233166
 20
-64.52710833230398
 30
0.0
 40
0.2356298931645312
100
AcDbArc
 50
14.05379982207248
 51
73.6326359781421
  0
ARC
  5
359
330
18
100
AcDbEntity
  8
0
100
AcDbCircle
 10
54.32281028050162
 20
-60.37158645220315
 30
0.0
 40
3.437564603419115
100
AcDbArc
 50
233.6223162667097
 51
238.2462404137869
  0
ARC
  5
35A
330
18
100
AcDbEntity
  8
0
100
AcDbCircle
 10
52.66102843173067
 20
-63.1336002369961
 30
0.0
 40
0.4279605624844211
100
AcDbArc
 50
216.6684671546139
 51
257.4153090655973
  0
ARC
  5
35B
330
18
100
AcDbEntity
  8
0
100
AcDbCircle
 10
52.50884882623402
 20
-63.22064076338092
 30
0.0
 40
0.4169003505759063
100
AcDbArc
 50
226.7424291377023
 51
279.0659994922704
  0
LWPOLYLINE
  5
35C
330
18
100
AcDbEntity
  8
0
100
AcDbPolyline
 90
        3
 70
     0
 43
0.0
 10
52.57454068477169
 20
-63.62557846119961
 42
0.1280037571722181
 10
52.17585382831576
 20
-62.57187801290993
 42
-0.0855661234145683
 10
52.71644622644372
 20
-63.65259638573866
 42
0.7427520487221877
  0
ARC
  5
361
330
18
100
AcDbEntity
  8
0
100
AcDbCircle
 10
52.91670860808354
 20
-61.65903969221019
 30
0.0
 40
1.459579464849697
100
AcDbArc
 50
237.9452463261542
 51
250.0675509933325
  0
ARC
  5
362
330
18
100
AcDbEntity
  8
0
100
AcDbCircle
 10
52.17005859342872
 20
-62.98856643744836
 30
0.0
 40
0.5893180017507607
100
AcDbArc
 50
333.2212591112993
 51
22.00480180291
  0
ARC
  5
363
330
18
100
AcDbEntity
  8
0
100
AcDbCircle
 10
51.8504449100055
 20
-62.78126723725794
 30
0.0
 40
0.7665320701209055
100
AcDbArc
 50
339.3615312758999
 51
8.615323578787165
  0
ARC
  5
364
330
18
100
AcDbEntity
  8
0
100
AcDbCircle
 10
53.64494891893237
 20
-63.56818762340543
 30
0.0
 40
0.8776292482115282
100
AcDbArc
 50
151.7482008153133
 51
171.3670989272214
  0
ARC
  5
365
330
18
100
AcDbEntity
  8
0
100
AcDbCircle
 10
52.12790790331949
 20
-62.672275079943
 30
0.0
 40
0.342946306057702
100
AcDbArc
 50
330.3256073191713
 51
14.67628259560454
  0
LWPOLYLINE
  5
366
330
18
100
AcDbEntity
  8
0
100
AcDbPolyline
 90
       11
 70
     0
 43
0.0
 10
51.84800534651319
 20
-59.91128203641057
 42
0.2935953513414927
 10
51.50208212898454
 20
-59.80638432351284
 42
0.1705327823223723
 10
51.41268624627674
 20
-60.23763056275061
 42
-0.0014775854113464
 10
51.47487476812556
 20
-60.71161291299059
 42
-0.0102075945529194
 10
51.47098792333066
 20
-61.08069755033284
 42
-0.0175925407115197
 10
51.70419463154636
 20
-60.7543490239928
 42
0.0756120502824977
 10
51.82079798565421
 20
-60.60283007087725
 42
0.2195997154413106
 10
51.83634503321062
 20
-60.38914951586618
 42
0.2315992683525035
 10
51.57981769838977
 20
-60.21820507185732
 42
-0.3289650741421917
 10
51.57593096413593
 20
-59.94624796657396
 42
-0.2290827701726269
 10
51.84023187800551
 20
-60.14050303069173
 42
0.6022952294210614
  0
ARC
  5
373
330
18
100
AcDbEntity
  8
0
100
AcDbCircle
 10
51.46989391624665
 20
-60.82376465506111
 30
0.0
 40
0.1122622916873288
100
AcDbArc
 50
11.71512800182866
 51
87.45706684172045
  0
ARC
  5
374
330
18
100
AcDbEntity
  8
0
100
AcDbCircle
 10
51.35250483297495
 20
-60.89633297625624
 30
0.0
 40
0.4007745236206214
100
AcDbArc
 50
35.93941132079122
 51
72.80436428080517
  0
ARC
  5
375
330
18
100
AcDbEntity
  8
0
100
AcDbCircle
 10
50.82949012386091
 20
-61.48855054803753
 30
0.0
 40
1.308061590408674
100
AcDbArc
 50
44.49808343528139
 51
60.82706361548712
  0
ARC
  5
376
330
18
100
AcDbEntity
  8
0
100
AcDbCircle
 10
51.08110308127633
 20
-61.0706595461831
 30
0.0
 40
0.9090555602978513
100
AcDbArc
 50
40.32477888745579
 51
67.02001960181687
  0
LWPOLYLINE
  5
377
330
18
100
AcDbEntity
  8
0
100
AcDbPolyline
 90
        3
 70
     0
 43
0.0
 10
58.08648263653992
 20
-69.62147106318269
 42
-0.0080670151719472
 10
57.80199970510853
 20
-67.62013983115052
 42
0.0722514937502501
 10
57.41039956677639
 20
-66.78437406573597
 42
0.2903579573597955
  0
LWPOLYLINE
  5
37C
330
18
100
AcDbEntity
  8
0
100
AcDbPolyline
 90
        3
 70
     0
 43
0.0
 10
57.24044336260224
 20
-65.72679647546124
 42
-0.1468804477175917
 10
58.37096556797133
 20
-68.2954952788917
 42
-0.0434150267715217
 10
58.44208627403535
 20
-69.55734363723784
 42
1.030946717024728
  0
LWPOLYLINE
  5
381
330
18
100
AcDbEntity
  8
0
100
AcDbPolyline
 90
       34
 70
     0
 43
0.0
 10
58.04562929985941
 20
-69.28708424580176
 42
0.0482045815609056
 10
57.6129158175614
 20
-68.69235986669867
 42
0.1194941186084372
 10
56.83538385820154
 20
-68.15170132618812
 10
56.66635517138418
 20
-68.2936242297861
 42
-0.1523034976632991
 10
56.77453348690173
 20
-68.68560163687461
 42
-0.2712142282404766
 10
56.57846027626193
 20
-68.99648028607429
 42
-0.12652538202134
 10
56.13898558042289
 20
-69.09785373343531
 42
0.2583902847277375
 10
55.9834792105737
 20
-69.17895249132413
 10
55.8076893102153
 20
-69.32087539492211
 42
-0.0267780282829594
 10
55.78740588982
 20
-68.70587632634681
 42
-0.1189847436676387
 10
55.88882310191042
 20
-68.32065714908238
 42
-0.2744260498146116
 10
56.24716400605435
 20
-68.07736079812336
 42
-0.2917328038027194
 10
56.49056527102579
 20
-68.21252539460473
 10
56.652832854416
 20
-68.07736079812336
 10
56.34858121814476
 20
-67.97598735076235
 42
-0.1319018993095368
 10
55.86177857808798
 20
-68.15845955601218
 42
-0.2364808959352109
 10
55.53048230788039
 20
-67.86785559628469
 42
-0.0352968743357984
 10
55.31412556673139
 20
-67.20554891894092
 42
0.1158604605458988
 10
55.1991860376728
 20
-66.98252725745411
 42
0.2866916440337605
 10
55.3952593584265
 20
-67.05010963298736
 42
-0.2593147054151755
 10
56.3553423215719
 20
-67.3271971330667
 42
-0.0293981666332819
 10
56.45675953366231
 20
-67.80027329804402
 10
56.76101116993357
 20
-67.94219612434945
 10
56.76777238347459
 20
-67.59752632602943
 42
-0.3010175229064032
 10
56.5919824831162
 20
-67.33395536289076
 42
-0.292606682058238
 10
56.79481690729703
 20
-66.80681328202836
 42
-0.1217223121439122
 10
57.49797639861672
 20
-66.51620932230088
 42
0.085059088515604
 10
57.41008139338057
 20
-66.78653859255615
 42
-0.0638686194920132
 10
57.37627565601709
 20
-67.39477943130738
 42
-0.4470726681927838
 10
57.10582975710932
 20
-67.67862516121079
 42
-0.1307743102748561
 10
56.90299533292849
 20
-67.61780101550162
 42
0.0455053744716261
 10
56.93680107029196
 20
-67.98274558058641
 42
-0.1492173879146639
 10
57.61967703110244
 20
-68.46933820521186
 10
58.0050624590688
 20
-68.92889798783361
  0
LWPOLYLINE
  5
3A5
330
18
100
AcDbEntity
  8
0
100
AcDbPolyline
 90
        3
 70
     0
 43
0.0
 10
53.68510872466439
 20
-69.47730259307632
 42
0.1123148808044774
 10
54.49488601572911
 20
-69.16634833842458
 42
0.2820832514771665
 10
54.69046795740513
 20
-67.76231990561448
 42
-1.52744554463887
  0
LWPOLYLINE
  5
3AA
330
18
100
AcDbEntity
  8
0
100
AcDbPolyline
 90
        4
 70
     0
 43
0.0
 10
54.06331317416902
 20
-67.83406444716437
 42
0.0906053182644296
 10
54.27290881189088
 20
-67.93543789452538
 42
-0.2891746322220408
 10
54.61096618552561
 20
-68.30714068943425
 10
54.61096618552561
 20
-68.53692050345253
  0
LWPOLYLINE
  5
3B0
330
18
100
AcDbEntity
  8
0
100
AcDbPolyline
 90
       11
 70
     0
 43
0.0
 10
53.47509332202181
 20
-68.13142663671591
 42
0.0443756318077716
 10
53.44804868808548
 20
-68.48285466486
 10
53.65764432580735
 20
-68.05032787882709
 10
53.82667301262471
 20
-67.90840497522911
 42
0.2824421276657192
 10
53.92809022471512
 20
-68.17197601566032
 42
-0.0957942188568247
 10
53.98217938247391
 20
-68.23280008407692
 10
53.98217938247391
 20
-68.26659131048984
 42
0.2104522608812029
 10
54.07007427759615
 20
-68.03681141917896
 42
0.2101725574045358
 10
54.03626854023269
 20
-67.96922912093828
 42
-0.1850873713293621
 10
54.14444696586413
 20
-67.70565808050706
 42
-0.0106328825307472
 10
54.42841518174008
 20
-67.64483401209045
 42
-1.210324825844427
  0
ARC
  5
3BD
330
18
100
AcDbEntity
  8
0
100
AcDbCircle
 10
58.06390212021129
 20
-70.1007553827765
 30
0.0
 40
2.397840172015805
100
AcDbArc
 50
127.257140711936
 51
156.6900895661396
  0
LWPOLYLINE
  5
3BE
330
18
100
AcDbEntity
  8
0
100
AcDbPolyline
 90
        2
 70
     0
 43
0.0
 10
58.13133642883888
 20
-71.31000958398113
 42
-0.145023626607283
 10
56.09202838567355
 20
-74.25899718338751
 42
0.0686265515224094
  0
LWPOLYLINE
  5
3C2
330
18
100
AcDbEntity
  8
0
100
AcDbPolyline
 90
       20
 70
     0
 43
0.0
 10
56.32618997961523
 20
-76.24673987063982
 42
0.0250842240300756
 10
56.87353984741172
 20
-75.65909927763581
 42
-0.026472888444215
 10
57.02220274863836
 20
-75.8414704615059
 42
0.3183992396654192
 10
56.90732686541259
 20
-76.18594950178064
 42
0.3875178639267705
 10
57.23843968586676
 20
-76.48314705817316
 42
0.1975792074812333
 10
57.63712654232268
 20
-76.43586557429095
 42
-0.3272201859215237
 10
58.01554121000087
 20
-76.48314705817316
 42
-0.2749849028579227
 10
57.93445234477598
 20
-76.13191357540994
 42
0.1850345262870295
 10
57.73848759632532
 20
-75.53751846262489
 42
0.7143009347607379
 10
57.24519704542138
 20
-75.71988964649499
 10
57.00868791941522
 20
-75.58479986921454
 42
0.0710763865569756
 10
57.17762300941962
 20
-75.36865624102431
 10
57.30601372186852
 20
-75.05119520258121
 42
0.4804952312987759
 10
57.52225065909692
 20
-75.15251253554156
 42
0.3524857599662414
 10
57.95472453355372
 20
-74.52434497843637
 42
0.0228326654826839
 10
57.85336347955109
 20
-73.87591393928062
 42
-0.2075413249773505
 10
57.92769487510746
 20
-73.52468053380997
 42
-0.1269614362840132
 10
57.65064137154581
 20
-73.74757868178122
 42
0.1269367898710656
 10
57.13032116219561
 20
-74.05153068066224
 42
0.3188595594610196
 10
56.86002501818857
 20
-74.61890786890823
 42
0.4206229328790744
  0
LWPOLYLINE
  5
3D8
330
18
100
AcDbEntity
  8
0
100
AcDbPolyline
 90
        3
 70
     0
 43
0.0
 10
58.01536193047592
 20
-70.49928677161765
 42
-0.205236642361412
 10
55.11719240813992
 20
-74.58696445787331
 42
0.1442881881804332
 10
55.98591727161394
 20
-72.5952455140441
 42
0.3673758991357172
  0
LWPOLYLINE
  5
3DD
330
18
100
AcDbEntity
  8
0
100
AcDbPolyline
 90
       13
 70
     0
 43
0.0
 10
56.94989200430477
 20
-74.84704622835952
 42
0.2026260863915092
 10
57.17762300941962
 20
-74.94312334983982
 42
-0.075385722020648
 10
56.90056939574407
 20
-75.4632190542036
 42
0.0990278771178374
 10
56.73839166529429
 20
-75.26733883077142
 42
0.1623179517617873
 10
56.92084158452182
 20
-74.92285986778925
 42
0.3972006120785911
 10
56.85326754852006
 20
-74.61215334912719
 42
0.0474929660011451
 10
56.00183462882958
 20
-74.22714742204384
 42
-0.0915377838779398
 10
56.02210681760732
 20
-74.57162638502602
 42
-0.0069471672305774
 10
55.98831979960646
 20
-74.98365031394098
 42
0.3664282889162428
 10
56.06265119516282
 20
-75.26733883077142
 42
0.3408535494655991
 10
56.59648623373616
 20
-75.287602312822
 42
0.1622999308671591
 10
56.77217868329517
 20
-75.57129090694499
 42
-0.1618259452430488
 10
56.38024929650776
 20
-75.90226090765764
 42
-0.1925276127240445
  0
LWPOLYLINE
  5
3EC
330
18
100
AcDbEntity
  8
0
100
AcDbPolyline
 90
        2
 70
     0
 43
0.0
 10
56.60324359329078
 20
-75.1997939421312
 42
0.0481225018279491
 10
56.10995304238683
 20
-74.34197379456628
 42
0.0481225018279491
  0
LINE
  5
3F0
330
18
100
AcDbEntity
  8
0
100
AcDbLine
 10
56.57621393484451
 20
-75.17953046008061
 30
0.0
 11
56.29240296161436
 21
-75.09847660917086
 31
0.0
  0
ARC
  5
3F1
330
18
100
AcDbEntity
  8
0
100
AcDbCircle
 10
56.22009067237243
 20
-75.38291804416987
 30
0.0
 40
0.4466971594586426
100
AcDbArc
 50
51.99669971809052
 51
88.52533396261206
  0
LINE
  5
3F2
330
18
100
AcDbEntity
  8
0
100
AcDbLine
 10
56.38024929650776
 20
-74.72022520186857
 30
0.0
 11
56.46809552128726
 21
-74.47706357184673
 31
0.0
  0
LWPOLYLINE
  5
3F3
330
18
100
AcDbEntity
  8
0
100
AcDbPolyline
 90
       14
 70
     0
 43
0.0
 10
56.66406819373361
 20
-71.05023460718419
 42
-0.3136110031076739
 10
56.45070596836622
 20
-71.29904975630359
 42
0.1970583289875733
 10
56.37958526230221
 20
-71.35236729363132
 42
0.322428335007698
 10
56.39736543881821
 20
-71.06800714470338
 42
-0.1358010001789791
 10
56.3440249092702
 20
-71.31682229382279
 42
-0.0990464530512891
 10
56.20178338996683
 20
-70.97914460756716
 42
-0.416577309428442
 10
56.37958526230221
 20
-70.71255692092853
 42
0.4559538621632688
 10
56.84186995889366
 20
-71.03246214489487
 42
0.4890060013726221
 10
57.23303394942107
 20
-70.74810192073704
 42
0.0011165401490243
 10
57.32193483200108
 20
-69.98388393585964
 42
0.1694240886146493
 10
57.16191324335706
 20
-69.80615878635726
 42
-0.0681656022727685
 10
56.80630960586164
 20
-70.07274647299586
 42
0.0875521831809144
 10
56.55738702746225
 20
-70.26824408478756
 42
0.0929672744056735
 10
56.37958526230221
 20
-70.69478438340934
 42
-0.8096987140997946
  0
LWPOLYLINE
  5
403
330
18
100
AcDbEntity
  8
0
100
AcDbPolyline
 90
        4
 70
     0
 43
0.0
 10
55.98591727161394
 20
-72.5952455140441
 42
0.3273378330737087
 10
56.23734374299883
 20
-72.06326781641092
 42
-0.1474467292292345
 10
56.39736543881821
 20
-71.44122990599744
 42
0.1097261172144482
 10
56.66406819373361
 20
-71.40568483095904
 42
5.638187915043237
  0
LWPOLYLINE
  5
409
330
18
100
AcDbEntity
  8
0
100
AcDbPolyline
 90
        4
 70
     0
 43
0.0
 10
56.21956356648283
 20
-72.06326781641092
 10
56.48626632139823
 20
-72.0277227413725
 42
0.890478458857858
 10
56.48626632139823
 20
-71.81445266729152
 42
0.1392709739936248
 10
56.24865446321308
 20
-71.85304818057578
 42
0.7855800887510883
  0
LINE
  5
40F
330
18
100
AcDbEntity
  8
0
100
AcDbLine
 10
56.46352074720335
 20
-68.72615101581901
 30
0.0
 11
56.36886463854006
 21
-68.41527236661933
 31
0.0
  0
LWPOLYLINE
  5
410
330
18
100
AcDbEntity
  8
0
100
AcDbPolyline
 90
        5
 70
     0
 43
0.0
 10
53.32607707114455
 20
-72.76537208300755
 10
53.48046359414066
 20
-72.73965210827917
 10
53.56408962743022
 20
-73.13831190464367
 10
53.73777446580085
 20
-72.90683198162854
 10
53.74420723759235
 20
-72.84253200719266
  0
ARC
  5
417
330
18
100
AcDbEntity
  8
0
100
AcDbCircle
 10
53.28536851610592
 20
-74.18072744309346
 30
0.0
 40
1.457322949769377
100
AcDbArc
 50
44.5923684520143
 51
71.64821685842402
  0
LWPOLYLINE
  5
418
330
18
100
AcDbEntity
  8
0
100
AcDbPolyline
 90
       14
 70
     0
 43
0.0
 10
53.78923664013288
 20
-72.66249210886417
 42
0.1092291326632446
 10
54.23953066553821
 20
-72.93255203158681
 42
0.1252385744535821
 10
54.77988349602458
 20
-72.86182200704641
 42
0.2714943097715431
 10
54.86994230110565
 20
-72.74608208315379
 42
0.0420344071450082
 10
54.97286675694508
 20
-72.46959218555653
 42
0.0934256168115493
 10
55.00503061590261
 20
-72.09665236392041
 42
0.0560771898470727
 10
55.11438773635819
 20
-71.62726254301552
 42
0.08432838863525
 10
55.04362724665163
 20
-71.42793264483327
 42
0.281713510397918
 10
54.77988349602458
 20
-70.94568287417915
 42
-0.076845870701826
 10
54.61906420123697
 20
-70.8170829253074
 42
0.1088516124585345
 10
54.13660631687413
 20
-70.68205300156103
 42
-0.0707503794846431
 10
53.91145930417147
 20
-70.6370430269789
 42
0.1200477092282244
 10
53.3968375608511
 20
-70.58560300229228
 42
0.3779055572280501
 10
53.24245103785498
 20
-70.76564297585065
 42
-1.013887826661796
  0
LWPOLYLINE
  5
428
330
18
100
AcDbEntity
  8
0
100
AcDbPolyline
 90
        7
 70
     0
 43
0.0
 10
53.60911902997075
 20
-72.68178210871792
 10
53.73134169400934
 20
-72.79109205773591
 42
0.0227219639229175
 10
53.79566941192439
 20
-72.9261219814823
 42
0.0707486880942276
 10
53.91789207596297
 20
-73.09330193006154
 42
0.0967534735566549
 10
54.00151810925254
 20
-73.15117192962282
 42
0.0269102346341185
 10
54.10444245791661
 20
-73.18975192933031
 42
-0.0889909885202597
 10
54.3746188731598
 20
-73.33121182795131
  0
LWPOLYLINE
  5
431
330
18
100
AcDbEntity
  8
0
100
AcDbPolyline
 90
        4
 70
     0
 43
0.0
 10
56.0193540525678
 20
-74.316620029993
 42
-0.012057680763914
 10
55.7750590464074
 20
-74.49810192073705
 42
0.0686265515224094
 10
53.26805351459881
 20
-76.77298341308001
 42
-0.1469919506713041
 10
55.48139935577965
 20
-76.13923912497175
 42
-0.4863655031408923
  0
LWPOLYLINE
  5
437
330
18
100
AcDbEntity
  8
0
100
AcDbPolyline
 90
        3
 70
     0
 43
0.0
 10
54.0876727826238
 20
-75.21029385624911
 42
0.1546768044923481
 10
53.60225746830836
 20
-75.11753392296831
 42
0.1880842703517328
 10
53.28816521260669
 20
-75.24597076560208
  0
LINE
  5
43C
330
18
100
AcDbEntity
  8
0
100
AcDbLine
 10
53.90207279324715
 20
-75.40294919779215
 30
0.0
 11
53.56656519667165
 21
-75.14607543493221
 31
0.0
  0
LINE
  5
43D
330
18
100
AcDbEntity
  8
0
100
AcDbLine
 10
53.99487278793547
 20
-75.26737695776931
 30
0.0
 11
53.75930359615921
 21
-75.10326312819015
 31
0.0
  0
LWPOLYLINE
  5
43E
330
18
100
AcDbEntity
  8
0
100
AcDbPolyline
 90
        3
 70
     0
 43
0.0
 10
54.1283392648798
 20
-75.37641874759166
 42
-0.0244345762891327
 10
53.21471298505081
 20
-76.43530572682438
 42
0.0018002470754258
 10
53.18809025907989
 20
-76.45824097444215
 42
0.0434150267715217
  0
LINE
  5
443
330
18
100
AcDbEntity
  8
0
100
AcDbLine
 10
53.68078053223379
 20
-75.46003222171997
 30
0.0
 11
53.3666882765321
 21
-75.20315845886002
 31
0.0
  0
LWPOLYLINE
  5
444
330
18
100
AcDbEntity
  8
0
100
AcDbPolyline
 90
        3
 70
     0
 43
0.0
 10
53.15253442562966
 20
-75.47430301649812
 10
53.15253442562966
 20
-76.00232125940377
 42
-0.1206356515517117
 10
53.17394976650348
 20
-76.54461029708757
 42
-0.8170942866686225
  0
LINE
  5
449
330
18
100
AcDbEntity
  8
0
100
AcDbLine
 10
53.61653439907127
 20
-75.11039852557923
 30
0.0
 11
53.80213438844791
 21
-74.9106078642395
 31
0.0
  0
LINE
  5
44A
330
18
100
AcDbEntity
  8
0
100
AcDbLine
 10
53.75216518604829
 20
-75.08185701361533
 30
0.0
 11
53.90207279324715
 21
-74.97482628555639
 31
0.0
  0
LWPOLYLINE
  5
44B
330
18
100
AcDbEntity
  8
0
100
AcDbPolyline
 90
        2
 70
     0
 43
0.0
 10
53.15253442562966
 20
-74.44680796505832
 42
-0.0680929149485087
 10
53.78785745768501
 20
-73.60483293536493
 42
2.403983047664688
  0
LINE
  5
44F
330
18
100
AcDbEntity
  8
0
100
AcDbLine
 10
53.42379588904265
 20
-75.12466932035739
 30
0.0
 11
53.58798053754547
 21
-74.9106078642395
 31
0.0
  0
LINE
  5
450
330
18
100
AcDbEntity
  8
0
100
AcDbLine
 10
53.72361132452249
 20
-73.78321748212984
 30
0.0
 11
53.58084212743455
 21
-73.82602978887189
 31
0.0
  0
LINE
  5
451
330
18
100
AcDbEntity
  8
0
100
AcDbLine
 10
53.72361132452249
 20
-73.95446663150567
 30
0.0
 11
53.43093440969462
 21
-74.01154973302588
 31
0.0
  0
LINE
  5
452
330
18
100
AcDbEntity
  8
0
100
AcDbLine
 10
53.42379588904265
 20
-74.01154973302588
 30
0.0
 11
53.39524202751683
 21
-73.63337444732883
 31
0.0
  0
LINE
  5
453
330
18
100
AcDbEntity
  8
0
100
AcDbLine
 10
53.50231895296806
 20
-73.9116543247636
 30
0.0
 11
53.54514974525677
 21
-73.61910365255067
 31
0.0
  0
LINE
  5
454
330
18
100
AcDbEntity
  8
0
100
AcDbLine
 10
53.28816521260669
 20
-74.18279888240171
 30
0.0
 11
53.238195899666
 21
-73.797488276908
 31
0.0
  0
LINE
  5
455
330
18
100
AcDbEntity
  8
0
100
AcDbLine
 10
53.64508826059707
 20
-74.19706959958745
 30
0.0
 11
53.30244203282852
 21
-74.18279888240171
 31
0.0
  0
LINE
  5
456
330
18
100
AcDbEntity
  8
0
100
AcDbLine
 10
53.40951895827974
 20
-74.38258954374145
 30
0.0
 11
53.24533442031797
 21
-74.33977723699938
 31
0.0
  0
LINE
  5
457
330
18
100
AcDbEntity
  8
0
100
AcDbLine
 10
53.18822669726638
 20
-74.37545414635238
 30
0.0
 11
53.09542670257805
 21
-73.95446663150567
 31
0.0
  0
LINE
  5
458
330
18
100
AcDbEntity
  8
0
100
AcDbLine
 10
53.60225746830836
 20
-74.36831882655569
 30
0.0
 11
53.40951895827974
 21
-74.38258954374145
 31
0.0
  0
LWPOLYLINE
  5
459
330
18
100
AcDbEntity
  8
0
100
AcDbPolyline
 90
        3
 70
     0
 43
0.0
 10
54.36818610136829
 20
-73.32478185307668
 10
54.27169452449573
 20
-73.00971195577192
 10
54.23953066553821
 20
-72.93255203158681
  0
LWPOLYLINE
  5
45E
330
18
100
AcDbEntity
  8
0
100
AcDbPolyline
 90
        7
 70
     0
 43
0.0
 10
55.46799959025624
 20
-76.29402135452202
 42
-0.1239298406467769
 10
55.54233109592651
 20
-75.96305135380937
 42
-0.0637210343850984
 10
55.85317172760293
 20
-76.01033276039903
 42
0.3980010422014045
 10
56.35997699761612
 20
-75.74690764832661
 42
-0.2133629293178502
 10
56.312675260506
 20
-76.18594950178064
 42
-0.3822798190233456
 10
56.08292349405447
 20
-76.26024883290935
 42
0.0820565127163897
 10
55.46799959025624
 20
-76.28726683474098
 42
-0.1042022450257261
  0
ARC
  5
467
330
18
100
AcDbEntity
  8
0
100
AcDbCircle
 10
56.1570278839542
 20
-75.4380351069633
 30
0.0
 40
0.645796215682231
100
AcDbArc
 50
65.89343696325965
 51
85.17797475133853
  0
LINE
  5
468
330
18
100
AcDbEntity
  8
0
100
AcDbLine
 10
56.32618997961523
 20
-74.67969823776741
 30
0.0
 11
56.15049753005623
 21
-74.61215334912719
 31
0.0
  0
LINE
  5
469
330
18
100
AcDbEntity
  8
0
100
AcDbLine
 10
56.23158639528112
 20
-74.53109949821743
 30
0.0
 11
56.14374006038771
 21
-74.5040814963858
 31
0.0
  0
LINE
  5
46A
330
18
100
AcDbEntity
  8
0
100
AcDbLine
 10
56.29916043128288
 20
-74.57838090480706
 30
0.0
 11
56.33294744928376
 21
-74.44329112752662
 31
0.0
  0
LWPOLYLINE
  5
46B
330
18
100
AcDbEntity
  8
0
100
AcDbPolyline
 90
        3
 70
     0
 43
0.0
 10
56.0021582761839
 20
-71.7942245889092
 42
0.0173084213962536
 10
55.97064109525877
 20
-71.5300924431337
 42
0.3673758991357172
 10
53.68510872466439
 20
-69.55253496771937
 42
0.5617674967428751
  0
ARC
  5
470
330
18
100
AcDbEntity
  8
0
100
AcDbCircle
 10
54.28492895233095
 20
-71.10442271967798
 30
0.0
 40
0.5056632902305946
100
AcDbArc
 50
299.696602652953
 51
19.83764285095586
  0
LWPOLYLINE
  5
471
330
18
100
AcDbEntity
  8
0
100
AcDbPolyline
 90
        5
 70
     0
 43
0.0
 10
54.77988349602458
 20
-71.08714284803004
 42
-0.1822681583426621
 10
54.99859784411111
 20
-71.3250526706899
 42
-0.2046088149621425
 10
54.9921650723196
 20
-71.63369259312003
 42
-0.2050944684223198
 10
54.68339191915202
 20
-71.91661246559191
 42
-0.132388649134869
 10
54.33602224241077
 20
-71.94233244032028
 42
0.0949534615155838
  0
LWPOLYLINE
  5
478
330
18
100
AcDbEntity
  8
0
100
AcDbPolyline
 90
        3
 70
     0
 43
0.0
 10
54.99859784411111
 20
-72.09665236392041
 42
0.2891477551267568
 10
54.70912300631804
 20
-72.3088422870818
 42
-0.4670380260963495
 10
54.28456006807873
 20
-72.45030218570278
 42
-0.0009356169916199
  0
ARC
  5
47D
330
18
100
AcDbEntity
  8
0
100
AcDbCircle
 10
53.89701195430849
 20
-72.66039038230703
 30
0.0
 40
0.4321175124052097
100
AcDbArc
 50
28.11889031011288
 51
119.1828312355039
  0
LWPOLYLINE
  5
47E
330
18
100
AcDbEntity
  8
0
100
AcDbPolyline
 90
       11
 70
     0
 43
0.0
 10
53.39040478905959
 20
-71.91661246559191
 42
-0.3128442123354155
 10
53.47403082234915
 20
-71.49223261926916
 42
-0.1252051841882062
 10
53.86642990163093
 20
-71.26718274635854
 42
0.1192943111560083
 10
54.06584582716758
 20
-71.1771627971943
 42
-0.1555611759150717
 10
54.31029115524474
 20
-71.08714284803004
 42
0.1534022600164992
 10
54.3810516449513
 20
-71.06142279807177
 42
-0.2429370520533864
 10
54.57403479869644
 20
-71.29933269596152
 42
0.1978577828549306
 10
54.49684153719839
 20
-71.42150266995867
 42
0.2161313541339083
 10
54.5161398525729
 20
-71.57582259355878
 42
-0.1380076613635446
 10
54.54830371153042
 20
-71.86517244090528
 42
-0.1022765096374191
 10
54.34245501420228
 20
-71.94876241519491
 42
-0.0911956001638844
  0
LWPOLYLINE
  5
48B
330
18
100
AcDbEntity
  8
0
100
AcDbPolyline
 90
        3
 70
     0
 43
0.0
 10
54.33602224241077
 20
-71.94233244032028
 42
0.3749241567647923
 10
53.8149677272989
 20
-72.0194924397353
 42
0.1284412004672864
 10
53.70561060684332
 20
-72.25097228752054
 42
-0.8294918537223296
  0
LWPOLYLINE
  5
490
330
18
100
AcDbEntity
  8
0
100
AcDbPolyline
 90
        5
 70
     0
 43
0.0
 10
53.38397201726809
 20
-72.16738231323091
 42
0.1559763177923479
 10
53.35824093010207
 20
-71.85231249115604
 42
-0.2795166755847191
 10
53.19098886352295
 20
-71.33791269566903
 42
-0.2478592552448061
 10
53.52549299668119
 20
-70.8170829253074
 42
-0.4452129363351919
 10
54.02081642462705
 20
-71.12572277250766
 42
-1.193321007852833
  0
LWPOLYLINE
  5
497
330
18
100
AcDbEntity
  8
0
100
AcDbPolyline
 90
        6
 70
     0
 43
0.0
 10
53.61555180176226
 20
-72.00663241475616
 42
0.0605978455889867
 10
53.79566941192439
 20
-72.02592241460992
 42
0.4800902489886869
 10
53.88572821700545
 20
-71.91018241548739
 42
0.039952106023581
 10
53.93075761954598
 20
-71.6915625174514
 42
0.0617125191420538
 10
53.93075761954598
 20
-71.52438264410204
 42
-0.1271926124086368
 10
53.969354250295
 20
-71.22860274665104
 42
1.480663050230638
  0
LWPOLYLINE
  5
49F
330
18
100
AcDbEntity
  8
0
100
AcDbPolyline
 90
        3
 70
     0
 43
0.0
 10
53.28748044039552
 20
-71.0357028233434
 10
53.4032703326426
 20
-71.00355287374042
 42
0.0644718096827529
 10
53.47403082234915
 20
-71.49223261926916
 42
-1.317853435362489
  0
LWPOLYLINE
  5
4A4
330
18
100
AcDbEntity
  8
0
100
AcDbPolyline
 90
        4
 70
     0
 43
0.0
 10
54.41321550390882
 20
-71.49223261926916
 42
0.0440421837679829
 10
54.32315669882775
 20
-71.65298259297379
 42
0.1219568861004746
 10
54.31029115524474
 20
-71.72371254228429
 42
-0.228776531808752
 10
54.23953066553821
 20
-71.89732246573817
 42
-0.3843915645437043
  0
ARC
  5
4AA
330
18
100
AcDbEntity
  8
0
100
AcDbCircle
 10
54.08823063966758
 20
-72.26005649039021
 30
0.0
 40
0.3188605828255159
100
AcDbArc
 50
234.9312696762961
 51
314.1403881132078
  0
LWPOLYLINE
  5
4AB
330
18
100
AcDbEntity
  8
0
100
AcDbPolyline
 90
        5
 70
     0
 43
0.0
 10
54.25882898091272
 20
-71.1064327726539
 42
0.0168505382589087
 10
54.07227859895908
 20
-71.33791269566903
 42
0.2024768676312233
 10
54.05298028358457
 20
-71.41507269508405
 42
-0.0293983972801554
 10
53.98865256566953
 20
-71.84588251628143
 42
-0.2776144055147356
 10
53.90502653237996
 20
-71.93590246544568
 42
-0.1412343657828589
  0
ARC
  5
4B2
330
18
100
AcDbEntity
  8
0
100
AcDbCircle
 10
53.92988769885394
 20
-71.05043494142766
 30
0.0
 40
0.3686379207281177
100
AcDbArc
 50
52.18501926772653
 51
100.9289380795705
  0
LWPOLYLINE
  5
4B3
330
18
100
AcDbEntity
  8
0
100
AcDbPolyline
 90
        4
 70
     0
 43
0.0
 10
54.47754322182388
 20
-71.38292267025116
 10
54.45181213465786
 20
-71.40864264497952
 10
54.38748441674281
 20
-71.56296256857965
 10
54.29742561166175
 20
-71.92947241534117
  0
LWPOLYLINE
  5
4B9
330
18
100
AcDbEntity
  8
0
100
AcDbPolyline
 90
        7
 70
     0
 43
0.0
 10
54.5225726243644
 20
-71.19645279704804
 42
-0.6687399425885553
 10
54.42608104749183
 20
-71.29290272108692
 42
-0.2458591439304215
 10
54.36175332957679
 20
-71.2157427216719
 42
-0.9861872857078207
 10
54.44537936286636
 20
-71.19645279704804
 42
1.010623139910876
 10
54.32315669882775
 20
-71.20288277192267
 42
0.59789059536034
 10
54.40034996032582
 20
-71.33148272079441
 42
-0.5660352664544256
 10
54.45181213465786
 20
-71.40864264497952
 42
-0.6331355370605971
  0
LINE
  5
4C2
330
18
100
AcDbEntity
  8
0
100
AcDbLine
 10
53.22011260580626
 20
-69.48833145894394
 30
0.0
 11
53.22011260580626
 21
-69.58246658826138
 31
0.0
  0
LINE
  5
4C3
330
18
100
AcDbEntity
  8
0
100
AcDbLine
 10
53.68510872466439
 20
-69.47730259307632
 30
0.0
 11
53.68510872466439
 21
-69.55253496771937
 31
0.0
  0
ARC
  5
4C4
330
18
100
AcDbEntity
  8
0
100
AcDbCircle
 10
54.63891144270934
 20
-72.08490260954912
 30
0.0
 40
0.1733000271796393
100
AcDbArc
 50
2.493713802709488
 51
63.751587553519
  0
LWPOLYLINE
  5
4C5
330
18
100
AcDbEntity
  8
0
100
AcDbPolyline
 90
        2
 70
     0
 43
0.0
 10
56.0021582761839
 20
-71.7942245889092
 42
-0.099385623707129
 10
56.29068437972219
 20
-71.22795975668656
 42
2.066365015176146
  0
LINE
  5
4C9
330
18
100
AcDbEntity
  8
0
100
AcDbLine
 10
55.93615115624205
 20
-68.43554705609152
 30
0.0
 11
56.42295379629883
 21
-68.32741537890644
 31
0.0
  0
LINE
  5
4CA
330
18
100
AcDbEntity
  8
0
100
AcDbLine
 10
55.89558431545145
 20
-68.56395342274881
 30
0.0
 11
56.30801426724025
 21
-68.45582174556373
 31
0.0
  0
LINE
  5
4CB
330
18
100
AcDbEntity
  8
0
100
AcDbLine
 10
55.79416710336103
 20
-68.78021685441154
 30
0.0
 11
56.12546326345473
 21
-68.67884340705055
 31
0.0
  0
ARC
  5
4CC
330
18
100
AcDbEntity
  8
0
100
AcDbCircle
 10
55.81168234721623
 20
-68.82621470266099
 30
0.0
 40
0.320884829445148
100
AcDbArc
 50
336.1561536324544
 51
16.90439169594723
  0
ARC
  5
4CD
330
18
100
AcDbEntity
  8
0
100
AcDbCircle
 10
55.92447868995428
 20
-68.80436091802303
 30
0.0
 40
0.3726699879568295
100
AcDbArc
 50
6.845391131906382
 51
37.5046208576001
  0
LWPOLYLINE
  5
4CE
330
18
100
AcDbEntity
  8
0
100
AcDbPolyline
 90
        2
 70
     0
 43
0.0
 10
57.84660600988257
 20
-76.3210392790611
 42
0.0678338974373861
 10
57.16410818019649
 20
-75.76717113037719
 42
0.2801374553296905
  0
ARC
  5
4D2
330
18
100
AcDbEntity
  8
0
100
AcDbCircle
 10
57.55486296230941
 20
-75.77710833230398
 30
0.0
 40
0.2356298931645312
100
AcDbArc
 50
106.3673640218579
 51
165.9462001779275
  0
LINE
  5
4D3
330
18
100
AcDbEntity
  8
0
100
AcDbLine
 10
57.35331556909252
 20
-75.92252438970821
 30
0.0
 11
57.2992562522
 21
-76.21972194610075
 31
0.0
  0
LINE
  5
4D4
330
18
100
AcDbEntity
  8
0
100
AcDbLine
 10
57.170865649865
 20
-75.8009435746973
 30
0.0
 11
57.11680633297247
 21
-76.16568601973004
 31
0.0
  0
ARC
  5
4D5
330
18
100
AcDbEntity
  8
0
100
AcDbCircle
 10
57.77298465392373
 20
-76.79262395582409
 30
0.0
 40
1.075355816429145
100
AcDbArc
 50
94.00152303873737
 51
111.8025441137477
  0
LINE
  5
4D6
330
18
100
AcDbEntity
  8
0
100
AcDbLine
 10
57.46819145231829
 20
-75.88875194538811
 30
0.0
 11
57.8601208391057
 21
-75.9427878717588
 31
0.0
  0
LINE
  5
4D7
330
18
100
AcDbEntity
  8
0
100
AcDbLine
 10
57.85336347955109
 20
-76.07787764903925
 30
0.0
 11
57.6033395243218
 21
-75.99006927834844
 31
0.0
  0
ARC
  5
4D8
330
18
100
AcDbEntity
  8
0
100
AcDbCircle
 10
57.29078045065485
 20
-76.09551564449557
 30
0.0
 40
0.2089451263200149
100
AcDbArc
 50
318.768901216372
 51
28.18589576011622
  0
ARC
  5
4D9
330
18
100
AcDbEntity
  8
0
100
AcDbCircle
 10
57.00412974191099
 20
-76.27038061258092
 30
0.0
 40
0.6101033750881716
100
AcDbArc
 50
353.3244955988893
 51
18.39251997849222
  0
LWPOLYLINE
  5
4DA
330
18
100
AcDbEntity
  8
0
100
AcDbPolyline
 90
        3
 70
     0
 43
0.0
 10
57.33980073986939
 20
-74.87557846119959
 42
-0.1280037571722181
 10
57.73848759632532
 20
-73.82187801290993
 42
0.0855661234145683
 10
57.19789519819737
 20
-74.90259638573866
 42
-0.7427520487221877
  0
ARC
  5
4DF
330
18
100
AcDbEntity
  8
0
100
AcDbCircle
 10
57.40549259840707
 20
-74.47064076338091
 30
0.0
 40
0.4169003505759063
100
AcDbArc
 50
260.9340005077296
 51
313.2575708622978
  0
ARC
  5
4E0
330
18
100
AcDbEntity
  8
0
100
AcDbCircle
 10
57.45767736588036
 20
-74.66876309793612
 30
0.0
 40
0.347443622746036
100
AcDbArc
 50
247.7798572770837
 51
322.0706510466509
  0
ARC
  5
4E1
330
18
100
AcDbEntity
  8
0
100
AcDbCircle
 10
58.06389651463558
 20
-74.03126723725794
 30
0.0
 40
0.7665320701209055
100
AcDbArc
 50
171.3846764212128
 51
200.6384687241002
  0
LINE
  5
4E2
330
18
100
AcDbEntity
  8
0
100
AcDbLine
 10
56.65054544051479
 20
-75.13900357327201
 30
0.0
 11
56.74514913496281
 21
-74.7675066084582
 31
0.0
  0
LINE
  5
4E3
330
18
100
AcDbEntity
  8
0
100
AcDbLine
 10
56.52215472806589
 20
-74.94312334983982
 30
0.0
 11
56.63027325173704
 21
-74.61215334912719
 31
0.0
  0
ARC
  5
4E4
330
18
100
AcDbEntity
  8
0
100
AcDbCircle
 10
57.60686277585024
 20
-74.38731071099858
 30
0.0
 40
0.6215162705660259
100
AcDbArc
 50
197.9041710629704
 51
228.851272260334
  0
ARC
  5
4E5
330
18
100
AcDbEntity
  8
0
100
AcDbCircle
 10
57.74428283121236
 20
-74.23856643744837
 30
0.0
 40
0.5893180017507607
100
AcDbArc
 50
157.99519819709
 51
206.7787408887007
  0
ARC
  5
4E6
330
18
100
AcDbEntity
  8
0
100
AcDbCircle
 10
56.26939250570872
 20
-74.81818762340544
 30
0.0
 40
0.8776292482115282
100
AcDbArc
 50
8.632901072778594
 51
28.2517991846867
  0
ARC
  5
4E7
330
18
100
AcDbEntity
  8
0
100
AcDbCircle
 10
57.25331299291041
 20
-74.38360023699608
 30
0.0
 40
0.4279605624844211
100
AcDbArc
 50
282.5846909344027
 51
323.3315328453861
  0
ARC
  5
4E8
330
18
100
AcDbEntity
  8
0
100
AcDbCircle
 10
57.78643352132159
 20
-73.922275079943
 30
0.0
 40
0.342946306057702
100
AcDbArc
 50
165.3237174043954
 51
209.6743926808287
  0
ARC
  5
4E9
330
18
100
AcDbEntity
  8
0
100
AcDbCircle
 10
55.59153114413945
 20
-71.62158645220316
 30
0.0
 40
3.437564603419115
100
AcDbArc
 50
301.7537595862131
 51
306.3776837332903
  0
ARC
  5
4EA
330
18
100
AcDbEntity
  8
0
100
AcDbCircle
 10
56.99763281655754
 20
-72.90903969221019
 30
0.0
 40
1.459579464849697
100
AcDbArc
 50
289.9324490066675
 51
302.0547536738458
  0
LWPOLYLINE
  5
4EB
330
18
100
AcDbEntity
  8
0
100
AcDbPolyline
 90
       11
 70
     0
 43
0.0
 10
58.06633607812789
 20
-71.16128203641058
 42
-0.2935953513414927
 10
58.41225929565655
 20
-71.05638432351284
 42
-0.1705327823223723
 10
58.50165517836435
 20
-71.48763056275062
 42
0.0014775854113464
 10
58.43946665651553
 20
-71.9616129129906
 42
0.0102075945529194
 10
58.44335350131043
 20
-72.33069755033284
 42
0.0175925407115197
 10
58.21014679309472
 20
-72.0043490239928
 42
-0.0756120502824977
 10
58.09354343898687
 20
-71.85283007087725
 42
-0.2195997154413106
 10
58.07799639143046
 20
-71.63914951586618
 42
-0.2315992683525035
 10
58.33452372625131
 20
-71.46820507185731
 42
0.3289650741421917
 10
58.33841046050515
 20
-71.19624796657396
 42
0.2290827701726269
 10
58.07410954663557
 20
-71.39050303069173
 42
-0.6022952294210614
  0
ARC
  5
4F8
330
18
100
AcDbEntity
  8
0
100
AcDbCircle
 10
58.83323834336475
 20
-72.3206595461831
 30
0.0
 40
0.9090555602978513
100
AcDbArc
 50
112.9799803981831
 51
139.6752211125442
  0
ARC
  5
4F9
330
18
100
AcDbEntity
  8
0
100
AcDbCircle
 10
59.08485130078017
 20
-72.73855054803753
 30
0.0
 40
1.308061590408674
100
AcDbArc
 50
119.1729363845128
 51
135.5019165647186
  0
ARC
  5
4FA
330
18
100
AcDbEntity
  8
0
100
AcDbCircle
 10
58.56183659166614
 20
-72.14633297625626
 30
0.0
 40
0.4007745236206214
100
AcDbArc
 50
107.1956357191948
 51
144.0605886792088
  0
LWPOLYLINE
  5
4FB
330
18
100
AcDbEntity
  8
0
100
AcDbPolyline
 90
        2
 70
     0
 43
0.0
 10
58.44208627403535
 20
-69.55734363723784
 42
-0.0606261740650938
 10
58.20656779741587
 20
-71.06382950914093
 42
0.0686265515224094
  0
LWPOLYLINE
  5
4FF
330
18
100
AcDbEntity
  8
0
100
AcDbPolyline
 90
        4
 70
     0
 43
0.0
 10
56.61072755701025
 20
-70.97914460756716
 42
-0.2902530507891089
 10
56.59294738049425
 20
-70.55260430894536
 42
-0.0261543492727726
 10
57.01967172405367
 20
-70.30378915982597
 42
0.0379545188215433
 10
57.25081412593707
 20
-70.16160901013211
 42
-0.3243761730390568
  0
LWPOLYLINE
  5
505
330
18
100
AcDbEntity
  8
0
100
AcDbPolyline
 90
        4
 70
     0
 43
0.0
 10
56.68184837024962
 20
-71.06800714470338
 42
-0.1348892339956433
 10
56.50404649791423
 20
-71.37013983115052
 42
0.1867148680850384
 10
56.93077084147367
 20
-71.37013983115052
 42
0.337679734775156
 10
56.84186995889366
 20
-71.03246214489487
 42
0.3436716683147974
  0
ARC
  5
50B
330
18
100
AcDbEntity
  8
0
100
AcDbCircle
 10
56.62599371975747
 20
-70.99025031538246
 30
0.0
 40
0.3999351669078899
100
AcDbArc
 50
252.217440378773
 51
321.5424080791152
  0
LINE
  5
50C
330
18
100
AcDbEntity
  8
0
100
AcDbLine
 10
56.65959395784314
 20
-68.71939278599494
 30
0.0
 11
56.49056527102579
 21
-68.32065714908238
 31
0.0
  0
LWPOLYLINE
  5
50D
330
18
100
AcDbEntity
  8
0
100
AcDbPolyline
 90
        3
 70
     0
 43
0.0
 10
58.09971856773208
 20
-69.55065528623298
 42
0.0206127459763928
 10
57.8292725587104
 20
-69.17219426150005
 10
57.95097330131002
 20
-69.14516134220377
  0
LWPOLYLINE
  5
512
330
18
100
AcDbEntity
  8
0
100
AcDbPolyline
 90
        4
 70
     0
 43
0.0
 10
58.15760334260394
 20
-69.61066117456558
 10
57.97980157744391
 20
-69.62843371208478
 42
-0.08907040645838
 10
58.01536193047592
 20
-70.49928677161765
 42
0.1112506748930025
 10
58.17538351911995
 20
-69.61066117456558
 42
0.9574941329107481
  0
LWPOLYLINE
  5
518
330
18
100
AcDbEntity
  8
0
100
AcDbPolyline
 90
        2
 70
     0
 43
0.0
 10
58.12204298957194
 20
-69.61066117456558
 10
58.12204298957194
 20
-69.55734363723784
  0
ARC
  5
51C
330
18
100
AcDbEntity
  8
0
100
AcDbCircle
 10
58.44444750839443
 20
-72.07376465506111
 30
0.0
 40
0.1122622916873288
100
AcDbArc
 50
92.54293315827956
 51
168.2848719981713
  0
LWPOLYLINE
  5
51D
330
18
100
AcDbEntity
  8
0
100
AcDbPolyline
 90
       26
 70
     0
 43
0.0
 10
57.39349461828959
 20
-61.55181554869823
 10
57.31860696714136
 20
-61.60561783895232
 10
57.21866856234211
 20
-61.88389771638709
 42
-0.0293867741072609
 10
57.01165312155058
 20
-62.10509456989406
 42
0.1582182315170831
 10
56.97596084991387
 20
-62.47613445820203
 42
0.176287881935514
 10
57.27577628539371
 20
-62.94706959958745
 10
57.09017618547601
 20
-63.3894633066014
 10
56.89029937587753
 20
-63.10404803177754
 42
0.2113429344576544
 10
57.04734550372837
 20
-62.84717426891759
 42
0.2713486243635461
 10
56.86174551435172
 20
-62.39764524210698
 42
0.089476420470688
 10
56.16931475924477
 20
-62.21926069534209
 42
-0.1354323597001433
 10
55.96943783910522
 20
-62.14790687663612
 42
-0.0250666620609222
 10
56.05509931314156
 20
-62.39764524210698
 42
-0.1289533418724826
 10
56.06223783379356
 20
-62.69733123411659
 42
0.1723690465992638
 10
56.10506862608225
 20
-63.08977723699939
 42
0.4595170688085875
 10
56.80463779130012
 20
-63.27529718115338
 10
56.97596084991387
 20
-63.50362943204942
 10
56.79036086053723
 20
-64.06732458430804
 10
56.62617621203439
 20
-63.98883536821299
 42
0.0817120619607906
 10
56.54051473799806
 20
-63.66774318403617
 42
0.3304672387401203
 10
56.21214555153347
 20
-63.60352476271927
 42
0.1957564421294447
 10
55.66962240362538
 20
-64.1101368910501
 42
-0.0781802027661967
 10
56.15503782848186
 20
-64.23857381127628
 42
0.2359768207214719
 10
56.47626860483554
 20
-64.33133374455707
 42
0.4732812613919556
 10
56.59048394039768
 20
-64.12440768582825
 42
-0.1606042263262696
 10
56.76180699901142
 20
-64.22430301649812
 42
0.0263091304521385
  0
LWPOLYLINE
  5
539
330
18
100
AcDbEntity
  8
0
100
AcDbPolyline
 90
        4
 70
     0
 43
0.0
 10
53.89498737207328
 20
-63.06662002999299
 42
0.0120576807639141
 10
54.13928237823369
 20
-63.24810192073705
 42
-0.0686265515224094
 10
56.64628791004226
 20
-65.52298341308002
 42
0.1469919506713041
 10
54.43294206886143
 20
-64.88923912497175
 42
0.4863655031408923
  0
LINE
  5
53F
330
18
100
AcDbEntity
  8
0
100
AcDbLine
 10
56.05109068530064
 20
-68.24631654372506
 30
0.0
 11
56.47028185063049
 21
-68.24631654372506
 31
0.0
  0
LWPOLYLINE
  5
540
330
18
100
AcDbEntity
  8
0
100
AcDbPolyline
 90
        3
 70
     0
 43
0.0
 10
55.78600215976127
 20
-64.12641874759166
 42
0.0244345762891327
 10
56.69962843959027
 20
-65.1853057268244
 42
-0.0018002470754257
 10
56.72625116556119
 20
-65.20824097444216
 42
-0.0434150267715217
  0
LWPOLYLINE
  5
545
330
18
100
AcDbEntity
  8
0
100
AcDbPolyline
 90
        2
 70
     0
 43
0.0
 10
56.76180699901142
 20
-63.19680796505833
 42
0.0680929149485087
 10
56.12648396695607
 20
-62.35483293536493
 42
-2.403983047664688
  0
LINE
  5
549
330
18
100
AcDbEntity
  8
0
100
AcDbLine
 10
56.49054553559844
 20
-63.87466932035739
 30
0.0
 11
56.32636088709561
 21
-63.66060786423949
 31
0.0
  0
LWPOLYLINE
  5
54A
330
18
100
AcDbEntity
  8
0
100
AcDbPolyline
 90
        3
 70
     0
 43
0.0
 10
55.82666864201728
 20
-63.9602938562491
 42
-0.1546768044923481
 10
56.31208395633271
 20
-63.86753392296831
 42
-0.1880842703517328
 10
56.62617621203439
 20
-63.99597076560208
  0
LINE
  5
54F
330
18
100
AcDbEntity
  8
0
100
AcDbLine
 10
56.23356089240729
 20
-64.21003222171997
 30
0.0
 11
56.54765314810898
 21
-63.95315845886002
 31
0.0
  0
LINE
  5
550
330
18
100
AcDbEntity
  8
0
100
AcDbLine
 10
56.31208395633271
 20
-63.11831882655569
 30
0.0
 11
56.50482246636133
 21
-63.13258954374145
 31
0.0
  0
LINE
  5
551
330
18
100
AcDbEntity
  8
0
100
AcDbLine
 10
56.26925316404402
 20
-62.94706959958745
 30
0.0
 11
56.61189939181256
 21
-62.93279888240171
 31
0.0
  0
LINE
  5
552
330
18
100
AcDbEntity
  8
0
100
AcDbLine
 10
56.19073010011859
 20
-62.70446663150567
 30
0.0
 11
56.48340701494646
 21
-62.76154973302588
 31
0.0
  0
LWPOLYLINE
  5
553
330
18
100
AcDbEntity
  8
0
100
AcDbPolyline
 90
       11
 70
     0
 43
0.0
 10
56.52393663558149
 20
-60.66661246559192
 42
0.3128442123354155
 10
56.44031060229193
 20
-60.24223261926916
 42
0.1252051841882062
 10
56.04791152301014
 20
-60.01718274635854
 42
-0.1192943111560083
 10
55.8484955974735
 20
-59.92716279719429
 42
0.1555611759150717
 10
55.60405026939633
 20
-59.83714284803004
 42
-0.1534022600164992
 10
55.53328977968978
 20
-59.81142279807177
 42
0.2429370520533864
 10
55.34030662594464
 20
-60.04933269596152
 42
-0.1978577828549306
 10
55.41749988744269
 20
-60.17150266995867
 42
-0.2161313541339083
 10
55.39820157206818
 20
-60.32582259355878
 42
0.1380076613635446
 10
55.36603771311066
 20
-60.61517244090528
 42
0.1022765096374191
 10
55.57188641043881
 20
-60.69876241519491
 42
0.0911956001638844
  0
LWPOLYLINE
  5
560
330
18
100
AcDbEntity
  8
0
100
AcDbPolyline
 90
       14
 70
     0
 43
0.0
 10
56.1251047845082
 20
-61.41249210886417
 42
-0.1092291326632446
 10
55.67481075910288
 20
-61.68255203158681
 42
-0.1252385744535821
 10
55.13445792861649
 20
-61.61182200704641
 42
-0.2714943097715431
 10
55.04439912353543
 20
-61.49608208315379
 42
-0.0420344071450082
 10
54.941474667696
 20
-61.21959218555653
 42
-0.0934256168115493
 10
54.90931080873848
 20
-60.84665236392042
 42
-0.0560771898470727
 10
54.79995368828291
 20
-60.37726254301553
 42
-0.08432838863525
 10
54.87071417798945
 20
-60.17793264483328
 42
-0.281713510397918
 10
55.13445792861649
 20
-59.69568287417916
 42
0.076845870701826
 10
55.29527722340411
 20
-59.56708292530739
 42
-0.1088516124585345
 10
55.77773510776696
 20
-59.43205300156103
 42
0.0707503794846431
 10
56.00288212046962
 20
-59.38704302697892
 42
-0.1200477092282244
 10
56.51750386378998
 20
-59.33560300229227
 42
-0.3779055572280501
 10
56.6718903867861
 20
-59.51564297585066
 42
1.013887826661796
  0
LWPOLYLINE
  5
570
330
18
100
AcDbEntity
  8
0
100
AcDbPolyline
 90
        5
 70
     0
 43
0.0
 10
56.53036940737299
 20
-60.91738231323091
 42
-0.1559763177923479
 10
56.55610049453901
 20
-60.60231249115604
 42
0.2795166755847191
 10
56.72335256111813
 20
-60.08791269566903
 42
0.2478592552448061
 10
56.38884842795989
 20
-59.56708292530739
 42
0.4452129363351919
 10
55.89352500001403
 20
-59.87572277250764
 42
1.193321007852833
  0
LWPOLYLINE
  5
577
330
18
100
AcDbEntity
  8
0
100
AcDbPolyline
 90
        8
 70
     0
 43
0.0
 10
56.33095348183635
 20
-59.48349295101777
 42
-0.2898269386231135
 10
57.01282729173584
 20
-59.77927284846879
 42
-0.0953212941807623
 10
57.10931886860841
 20
-60.47371254228429
 42
-0.2858705086909236
 10
56.9613651174038
 20
-60.68590246544568
 42
-0.0437212853936499
 10
56.63329375603707
 20
-60.88523236362792
 42
0.2330451111258273
 10
56.48534000483246
 20
-61.07813228693555
 42
0.0584462927690436
 10
56.33095348183635
 20
-61.36748213428204
 42
-0.2342197866020754
 10
55.9707182615121
 20
-61.37391210915666
 42
-4.447886453548089
  0
LWPOLYLINE
  5
581
330
18
100
AcDbEntity
  8
0
100
AcDbPolyline
 90
        3
 70
     0
 43
0.0
 10
56.62686098424557
 20
-59.7857028233434
 10
56.51107109199848
 20
-59.75355287374042
 42
-0.0644718096827529
 10
56.44031060229193
 20
-60.24223261926916
 42
1.317853435362489
  0
LWPOLYLINE
  5
586
330
18
100
AcDbEntity
  8
0
100
AcDbPolyline
 90
        5
 70
     0
 43
0.0
 10
56.58826435349653
 20
-61.51537208300755
 10
56.43387783050043
 20
-61.48965210827918
 10
56.35025179721086
 20
-61.88831190464367
 10
56.17656695884024
 20
-61.65683198162853
 10
56.17013418704874
 20
-61.59253200719266
  0
LINE
  5
58D
330
18
100
AcDbEntity
  8
0
100
AcDbLine
 10
53.26379598412628
 20
-63.88900357327202
 30
0.0
 11
53.16919228967827
 21
-63.51750660845822
 31
0.0
  0
LWPOLYLINE
  5
58E
330
18
100
AcDbEntity
  8
0
100
AcDbPolyline
 90
        2
 70
     0
 43
0.0
 10
53.3110978313503
 20
-63.9497939421312
 42
-0.0481225018279491
 10
53.80438838225424
 20
-63.09197379456628
 42
-0.0481225018279491
  0
ARC
  5
592
330
18
100
AcDbEntity
  8
0
100
AcDbCircle
 10
53.69425075226864
 20
-64.13291804416987
 30
0.0
 40
0.4466971594586426
100
AcDbArc
 50
91.47466603738797
 51
128.0033002819094
  0
LINE
  5
593
330
18
100
AcDbEntity
  8
0
100
AcDbLine
 10
56.29780702556981
 20
-63.86039852557923
 30
0.0
 11
56.11220703619316
 21
-63.66060786423949
 31
0.0
  0
LINE
  5
594
330
18
100
AcDbEntity
  8
0
100
AcDbLine
 10
56.16217623859279
 20
-63.83185701361533
 30
0.0
 11
56.01226863139393
 21
-63.72482628555637
 31
0.0
  0
LWPOLYLINE
  5
595
330
18
100
AcDbEntity
  8
0
100
AcDbPolyline
 90
       10
 70
     0
 43
0.0
 10
54.42841518174008
 20
-67.65159224191453
 42
-0.1142200179479997
 10
54.79351718931113
 20
-67.80703152786809
 42
-0.0777706163780563
 10
54.84084524364278
 20
-67.85433913663656
 42
0.6889580829054152
 10
54.91521782179686
 20
-67.83406444716437
 42
0.2485401411790868
 10
54.74618913497949
 20
-67.42181235060366
 10
54.88141208443338
 20
-67.34071359271485
 10
54.65153302631621
 20
-67.22582360841312
 10
54.89493440140155
 20
-66.96225256798192
 42
0.6538855448417658
 10
54.84760634706991
 20
-66.85412089079682
 42
0.2223854851196537
 10
54.52983239383049
 20
-67.00280194692632
 42
2.137220760875124
  0
LWPOLYLINE
  5
5A1
330
18
100
AcDbEntity
  8
0
100
AcDbPolyline
 90
        6
 70
     0
 43
0.0
 10
53.03561873629668
 20
-66.04989130985505
 42
-0.1223232008824629
 10
53.38043721335854
 20
-66.13774837486051
 42
-0.2002894573629469
 10
53.46833210848078
 20
-66.24588005204559
 42
-0.0892669761427069
 10
53.5697494306851
 20
-66.61758276966189
 42
0.0267769098352787
 10
53.67116664277551
 20
-66.98252725745411
 42
0.1084271901462605
 10
53.81315069565654
 20
-67.21906537858905
 42
0.4311735729286271
  0
LWPOLYLINE
  5
5A9
330
18
100
AcDbEntity
  8
0
100
AcDbPolyline
 90
        9
 70
     0
 43
0.0
 10
53.64412200883918
 20
-66.04313308003099
 42
-0.1503864330019424
 10
53.87400106695634
 20
-66.3269788099344
 42
-0.1934589834148883
 10
53.87400106695634
 20
-66.55000047142121
 42
0.0215498964029538
 10
53.78610606172021
 20
-66.86763735044497
 42
0.2338907475560305
 10
53.84695643302001
 20
-67.1244501610521
 42
0.2288788582079058
 10
54.08359659456432
 20
-67.2325818382372
 42
0.4016120272165032
 10
54.15120806929127
 20
-67.1649995399965
 42
0.0256347664522559
 10
54.11740233192779
 20
-66.87439558026902
 42
0.1820024823060718
 10
53.90104559077879
 20
-66.50269286265272
 42
-2.810849211091839
  0
LWPOLYLINE
  5
5B4
330
18
100
AcDbEntity
  8
0
100
AcDbPolyline
 90
        3
 70
     0
 43
0.0
 10
53.39395953032671
 20
-67.2731312171816
 42
-0.1504299053097642
 10
53.36691489639036
 20
-67.05686786281141
 42
0.2441055018237746
 10
53.29254231823629
 20
-66.82032974167649
 42
-2.407681726555696
  0
LWPOLYLINE
  5
5B9
330
18
100
AcDbEntity
  8
0
100
AcDbPolyline
 90
        6
 70
     0
 43
0.0
 10
54.07007427759615
 20
-67.43532881025179
 42
0.1625870122334079
 10
54.26614759834985
 20
-67.17175776982059
 42
0.2414903790321798
 10
54.24586417795454
 20
-67.0433514031633
 42
-0.0131604571956079
 10
54.18501380665473
 20
-66.78653859255615
 42
0.0929671971124042
 10
54.13092464889595
 20
-66.66489037843035
 42
0.1051847001514654
 10
53.88076217038348
 20
-66.42835233458798
 42
-3.55911652572
  0
LWPOLYLINE
  5
5C1
330
18
100
AcDbEntity
  8
0
100
AcDbPolyline
 90
        5
 70
     0
 43
0.0
 10
54.14444696586413
 20
-66.27291297134187
 42
-0.2062839193577411
 10
54.43517628516722
 20
-66.79329682238021
 42
0.0344275229378709
 10
54.49602665646702
 20
-67.14472485052431
 42
-0.1956163555819305
 10
54.46222091910355
 20
-67.37450474183518
 42
-0.1719326581989268
 10
53.95513485865147
 20
-67.64483401209045
 42
13.37613550487318
  0
LWPOLYLINE
  5
5C8
330
18
100
AcDbEntity
  8
0
100
AcDbPolyline
 90
        7
 70
     0
 43
0.0
 10
54.44634183438484
 20
-65.04402135452202
 42
0.1239298406467769
 10
54.37201032871456
 20
-64.71305135380937
 42
0.0637210343850984
 10
54.06116969703814
 20
-64.76033276039903
 42
-0.3980010422014045
 10
53.55436442702497
 20
-64.49690764832661
 42
0.2133629293178502
 10
53.60166616413508
 20
-64.93594950178064
 42
0.3822798190233456
 10
53.83141793058661
 20
-65.01024883290934
 42
-0.0820565127163897
 10
54.44634183438484
 20
-65.03726683474098
 42
0.1042022450257261
  0
LINE
  5
5D1
330
18
100
AcDbEntity
  8
0
100
AcDbLine
 10
53.33812748979656
 20
-63.92953046008062
 30
0.0
 11
53.62193846302672
 21
-63.84847660917086
 31
0.0
  0
LWPOLYLINE
  5
5D2
330
18
100
AcDbEntity
  8
0
100
AcDbPolyline
 90
        4
 70
     0
 43
0.0
 10
56.32829779774946
 20
-67.82054798751623
 42
-0.1154701149022994
 10
55.94291225966919
 20
-67.68538339103487
 42
-0.0548849217879102
 10
55.79416710336103
 20
-67.50966933831654
 42
0.129683647914465
 10
55.46287083315345
 20
-67.21906537858905
 42
-4.250476998830321
  0
ARC
  5
5D8
330
18
100
AcDbEntity
  8
0
100
AcDbCircle
 10
55.71895657928842
 20
-67.03949344653191
 30
0.0
 40
0.4237865227917192
100
AcDbArc
 50
240.4883142264861
 51
273.7724245177001
  0
LINE
  5
5D9
330
18
100
AcDbEntity
  8
0
100
AcDbLine
 10
55.75360015245653
 20
-67.46236172954806
 30
0.0
 11
55.75360015245653
 21
-67.15148308034837
 31
0.0
  0
LINE
  5
5DA
330
18
100
AcDbEntity
  8
0
100
AcDbLine
 10
55.88206199848328
 20
-67.59076809620535
 30
0.0
 11
55.86853968151512
 21
-67.24609829788533
 31
0.0
  0
ARC
  5
5DB
330
18
100
AcDbEntity
  8
0
100
AcDbCircle
 10
57.10192468277814
 20
-67.22721370348669
 30
0.0
 40
1.105483172606217
100
AcDbArc
 50
186.5976658803279
 51
206.4245440083352
  0
ARC
  5
5DC
330
18
100
AcDbEntity
  8
0
100
AcDbCircle
 10
55.8658073915572
 20
-67.62594625135074
 30
0.0
 40
0.4948828826227323
100
AcDbArc
 50
281.3493561964541
 51
331.6298944290327
  0
ARC
  5
5DD
330
18
100
AcDbEntity
  8
0
100
AcDbCircle
 10
55.92390941943356
 20
-67.65974770507359
 30
0.0
 40
0.3132755115114048
100
AcDbArc
 50
261.0737749152122
 51
324.6896172089752
  0
ARC
  5
5DE
330
18
100
AcDbEntity
  8
0
100
AcDbCircle
 10
55.87868019340382
 20
-65.86933033354849
 30
0.0
 40
1.728754656176072
100
AcDbArc
 50
259.7496526897493
 51
268.5433410893532
  0
ARC
  5
5DF
330
18
100
AcDbEntity
  8
0
100
AcDbCircle
 10
55.82450056071383
 20
-67.48157802516151
 30
0.0
 40
0.402038940356704
100
AcDbArc
 50
253.9035658832933
 51
309.1144218265824
  0
LINE
  5
5E0
330
18
100
AcDbEntity
  8
0
100
AcDbLine
 10
56.27420852987679
 20
-67.78675683839589
 30
0.0
 11
56.18631363475453
 21
-67.50966933831654
 31
0.0
  0
LINE
  5
5E1
330
18
100
AcDbEntity
  8
0
100
AcDbLine
 10
55.9194686367056
 20
-64.0173769577693
 30
0.0
 11
56.15503782848186
 21
-63.85326312819015
 31
0.0
  0
LINE
  5
5E2
330
18
100
AcDbEntity
  8
0
100
AcDbLine
 10
56.01226863139393
 20
-64.15294919779215
 30
0.0
 11
56.34777622796943
 21
-63.8960754349322
 31
0.0
  0
LINE
  5
5E3
330
18
100
AcDbEntity
  8
0
100
AcDbLine
 10
53.58815144502584
 20
-63.42969823776741
 30
0.0
 11
53.76384389458485
 21
-63.36215334912719
 31
0.0
  0
ARC
  5
5E4
330
18
100
AcDbEntity
  8
0
100
AcDbCircle
 10
53.75731354068688
 20
-64.1880351069633
 30
0.0
 40
0.645796215682231
100
AcDbArc
 50
94.82202524866147
 51
114.1065630367403
  0
LINE
  5
5E5
330
18
100
AcDbEntity
  8
0
100
AcDbLine
 10
53.39218669657519
 20
-63.69312334983982
 30
0.0
 11
53.28406817290403
 21
-63.36215334912719
 31
0.0
  0
LINE
  5
5E6
330
18
100
AcDbEntity
  8
0
100
AcDbLine
 10
53.53409212813332
 20
-63.47022520186857
 30
0.0
 11
53.44624590335381
 21
-63.22706357184673
 31
0.0
  0
LINE
  5
5E7
330
18
100
AcDbEntity
  8
0
100
AcDbLine
 10
53.61518099335821
 20
-63.32838090480707
 30
0.0
 11
53.58139397535733
 21
-63.19329112752662
 31
0.0
  0
LINE
  5
5E8
330
18
100
AcDbEntity
  8
0
100
AcDbLine
 10
53.68275502935997
 20
-63.28109949821743
 30
0.0
 11
53.77060136425336
 21
-63.2540814963858
 31
0.0
  0
LWPOLYLINE
  5
5E9
330
18
100
AcDbEntity
  8
0
100
AcDbPolyline
 90
        2
 70
     0
 43
0.0
 10
53.91218314845718
 20
-60.54422458890922
 42
0.0993856237071294
 10
53.62365704491889
 20
-59.97795975668656
 42
-2.066365015176146
  0
LWPOLYLINE
  5
5ED
330
18
100
AcDbEntity
  8
0
100
AcDbPolyline
 90
        4
 70
     0
 43
0.0
 10
53.92842415302714
 20
-61.3452455140441
 42
-0.3273378330737096
 10
53.67699768164225
 20
-60.81326781641092
 42
0.1474467292292345
 10
53.51697598582287
 20
-60.19122990599744
 42
-0.1097261172144482
 10
53.25027323090747
 20
-60.15568483095904
 42
-5.638187915043237
  0
ARC
  5
5F3
330
18
100
AcDbEntity
  8
0
100
AcDbCircle
 10
53.28834770488361
 20
-59.74025031538245
 30
0.0
 40
0.3999351669078899
100
AcDbArc
 50
218.4575919208848
 51
287.7825596212269
  0
LWPOLYLINE
  5
5F4
330
18
100
AcDbEntity
  8
0
100
AcDbPolyline
 90
        4
 70
     0
 43
0.0
 10
53.23249305439146
 20
-59.8180071447034
 42
0.1348892339956433
 10
53.41029492672685
 20
-60.12013983115052
 42
-0.1867148680850384
 10
52.98357058316741
 20
-60.12013983115052
 42
-0.337679734775156
 10
53.07247146574744
 20
-59.78246214489487
 42
-0.3436716683147974
  0
LWPOLYLINE
  5
5FA
330
18
100
AcDbEntity
  8
0
100
AcDbPolyline
 90
        4
 70
     0
 43
0.0
 10
53.69477785815825
 20
-60.81326781641092
 10
53.42807510324285
 20
-60.7777227413725
 42
-0.890478458857858
 10
53.42807510324285
 20
-60.56445266729151
 42
-0.1392709739936244
 10
53.66568696142801
 20
-60.60304818057577
 42
-0.7855800887510883
  0
LWPOLYLINE
  5
600
330
18
100
AcDbEntity
  8
0
100
AcDbPolyline
 90
        7
 70
     0
 43
0.0
 10
56.30522239467033
 20
-61.43178210871792
 10
56.18299973063175
 20
-61.54109205773591
 42
-0.0227219639229175
 10
56.11867201271669
 20
-61.6761219814823
 42
-0.0707486880942276
 10
55.99644934867811
 20
-61.84330193006156
 42
-0.0967534735566549
 10
55.91282331538855
 20
-61.90117192962281
 42
-0.0269102346341185
 10
55.80989896672448
 20
-61.93975192933031
 42
0.0889909885202597
 10
55.53972255148129
 20
-62.08121182795131
  0
LWPOLYLINE
  5
609
330
18
100
AcDbEntity
  8
0
100
AcDbPolyline
 90
        3
 70
     0
 43
0.0
 10
55.54615532327279
 20
-62.07478185307668
 10
55.64264690014535
 20
-61.75971195577192
 10
55.67481075910288
 20
-61.68255203158681
  0
LINE
  5
60E
330
18
100
AcDbEntity
  8
0
100
AcDbLine
 10
56.41202247167302
 20
-62.66165432476361
 30
0.0
 11
56.36919167938432
 21
-62.36910365255067
 31
0.0
  0
LINE
  5
60F
330
18
100
AcDbEntity
  8
0
100
AcDbLine
 10
56.19073010011859
 20
-62.53321748212982
 30
0.0
 11
56.33349929720654
 21
-62.57602978887189
 31
0.0
  0
ARC
  5
610
330
18
100
AcDbEntity
  8
0
100
AcDbCircle
 10
56.62897290853515
 20
-62.93072744309346
 30
0.0
 40
1.457322949769377
100
AcDbArc
 50
108.351783141576
 51
135.4076315479857
  0
LWPOLYLINE
  5
611
330
18
100
AcDbEntity
  8
0
100
AcDbPolyline
 90
        4
 70
     0
 43
0.0
 10
55.43679820281721
 20
-60.13292267025116
 10
55.46252928998322
 20
-60.15864264497952
 10
55.52685700789828
 20
-60.31296256857965
 10
55.61691581297934
 20
-60.67947241534115
  0
LWPOLYLINE
  5
617
330
18
100
AcDbEntity
  8
0
100
AcDbPolyline
 90
        7
 70
     0
 43
0.0
 10
55.39176880027667
 20
-59.94645279704804
 42
0.6687399425885553
 10
55.48826037714924
 20
-60.04290272108691
 42
0.2458591439304215
 10
55.55258809506429
 20
-59.9657427216719
 42
0.9861872857078207
 10
55.46896206177473
 20
-59.94645279704804
 42
-1.010623139910876
 10
55.59118472581332
 20
-59.95288277192265
 42
-0.59789059536034
 10
55.51399146431527
 20
-60.08148272079441
 42
0.5660352664544256
 10
55.46252928998322
 20
-60.15864264497952
 42
0.6331355370605971
  0
LWPOLYLINE
  5
620
330
18
100
AcDbEntity
  8
0
100
AcDbPolyline
 90
        3
 70
     0
 43
0.0
 10
54.91574358052998
 20
-60.84665236392042
 42
-0.2891477551267568
 10
55.20521841832304
 20
-61.0588422870818
 42
0.4670380260963495
 10
55.62978135656234
 20
-61.20030218570278
 42
0.0009356169916199
  0
LWPOLYLINE
  5
625
330
18
100
AcDbEntity
  8
0
100
AcDbPolyline
 90
        5
 70
     0
 43
0.0
 10
55.13445792861649
 20
-59.83714284803004
 42
0.1822681583426621
 10
54.91574358052998
 20
-60.0750526706899
 42
0.2046088149621425
 10
54.92217635232148
 20
-60.38369259312005
 42
0.2050944684223198
 10
55.23094950548906
 20
-60.66661246559192
 42
0.132388649134869
 10
55.57831918223031
 20
-60.69233244032029
 42
-0.0949534615155838
  0
LWPOLYLINE
  5
62C
330
18
100
AcDbEntity
  8
0
100
AcDbPolyline
 90
        4
 70
     0
 43
0.0
 10
55.50112592073226
 20
-60.24223261926916
 42
-0.0440421837679829
 10
55.59118472581332
 20
-60.40298259297379
 42
-0.1219568861004746
 10
55.60405026939633
 20
-60.47371254228429
 42
0.228776531808752
 10
55.67481075910288
 20
-60.64732246573817
 42
0.3843915645437043
  0
ARC
  5
632
330
18
100
AcDbEntity
  8
0
100
AcDbCircle
 10
55.62941247231012
 20
-59.854422719678
 30
0.0
 40
0.5056632902305946
100
AcDbArc
 50
160.1623571490441
 51
240.3033973470471
  0
ARC
  5
633
330
18
100
AcDbEntity
  8
0
100
AcDbCircle
 10
55.27542998193175
 20
-60.83490260954912
 30
0.0
 40
0.1733000271796393
100
AcDbArc
 50
116.248412446481
 51
177.5062861972905
  0
LWPOLYLINE
  5
634
330
18
100
AcDbEntity
  8
0
100
AcDbPolyline
 90
        6
 70
     0
 43
0.0
 10
56.29878962287882
 20
-60.75663241475616
 42
-0.0605978455889867
 10
56.11867201271669
 20
-60.77592241460992
 42
-0.4800902489886869
 10
56.02861320763563
 20
-60.6601824154874
 42
-0.039952106023581
 10
55.9835838050951
 20
-60.4415625174514
 42
-0.0617125191420538
 10
55.9835838050951
 20
-60.27438264410204
 42
0.1271926124086368
 10
55.94498717434607
 20
-59.97860274665104
 42
-1.480663050230638
  0
LWPOLYLINE
  5
63C
330
18
100
AcDbEntity
  8
0
100
AcDbPolyline
 90
        5
 70
     0
 43
0.0
 10
55.65551244372836
 20
-59.85643277265389
 42
-0.0168505382589087
 10
55.84206282568199
 20
-60.08791269566903
 42
-0.2024768676312233
 10
55.86136114105651
 20
-60.16507269508404
 42
0.0293983972801554
 10
55.92568885897156
 20
-60.59588251628142
 42
0.2776144055147356
 10
56.00931489226112
 20
-60.68590246544568
 42
0.1412343657828589
  0
LWPOLYLINE
  5
643
330
18
100
AcDbEntity
  8
0
100
AcDbPolyline
 90
        3
 70
     0
 43
0.0
 10
55.57831918223031
 20
-60.69233244032029
 42
-0.3749241567647923
 10
56.09937369734218
 20
-60.7694924397353
 42
-0.1284412004672864
 10
56.20873081779777
 20
-61.00097228752054
 42
0.8294918537223296
  0
ARC
  5
648
330
18
100
AcDbEntity
  8
0
100
AcDbCircle
 10
56.01732947033259
 20
-61.41039038230701
 30
0.0
 40
0.4321175124052097
100
AcDbArc
 50
60.81716876449608
 51
151.8811096898871
  0
ARC
  5
649
330
18
100
AcDbEntity
  8
0
100
AcDbCircle
 10
55.8261107849735
 20
-61.01005649039021
 30
0.0
 40
0.3188605828255159
100
AcDbArc
 50
225.8596118867922
 51
305.0687303237038
  0
ARC
  5
64A
330
18
100
AcDbEntity
  8
0
100
AcDbCircle
 10
55.98445372578714
 20
-59.80043494142766
 30
0.0
 40
0.3686379207281177
100
AcDbArc
 50
79.07106192042944
 51
127.8149807322734
  0
LWPOLYLINE
  5
64B
330
18
100
AcDbEntity
  8
0
100
AcDbPolyline
 90
       18
 70
     0
 43
0.0
 10
56.94740698838807
 20
-64.85935198746272
 42
-0.0443760913465588
 10
56.91885312686227
 20
-64.28138604042593
 42
0.0050484916219588
 10
57.19725311092723
 20
-64.22430301649812
 42
0.2005997278199228
 10
57.49706854640709
 20
-64.53112440589679
 42
0.2717311032318026
 10
57.82543773287167
 20
-64.48831217674714
 42
-0.2813024123881758
 10
58.21805316303984
 20
-64.25284452846202
 42
-0.1101262566809176
 10
58.0181762429003
 20
-64.00310616299115
 42
0.2009393157148788
 10
57.84685318428655
 20
-63.85326312819015
 42
0.0567228809050533
 10
58.17522237075114
 20
-63.58211864814446
 42
-0.1282977034138111
 10
58.30371463707618
 20
-63.50362943204942
 42
0.1019329688791726
 10
57.78260694058296
 20
-63.19680796505833
 42
0.3354508680526863
 10
57.21866856234211
 20
-63.41086949876862
 42
0.094720320703732
 10
57.38285310030388
 20
-62.99701730371859
 42
0.0498543301398823
 10
57.76833000982007
 20
-62.98274650894043
 42
0.1272362601728964
 10
57.98248386072251
 20
-62.69733123411659
 42
0.0375150736242722
 10
57.89682238668618
 20
-62.17644838860002
 42
0.0473085558305193
 10
57.59700695120632
 20
-61.74119007897517
 10
57.55326070165018
 20
-61.47882564328815
  0
LINE
  5
65F
330
18
100
AcDbEntity
  8
0
100
AcDbLine
 10
57.37571469019296
 20
-63.48935863727126
 30
0.0
 11
57.53989933869578
 21
-63.80331550165142
 31
0.0
  0
LWPOLYLINE
  5
660
330
18
100
AcDbEntity
  8
0
100
AcDbPolyline
 90
        5
 70
     0
 43
0.0
 10
57.84685318428655
 20
-63.85326312819015
 42
-0.1338609247136417
 10
57.38999162095586
 20
-63.81758621883717
 42
-0.4989915918491664
 10
57.32574548779333
 20
-63.61066016010835
 10
57.14014549841669
 20
-63.57498325075538
 42
0.0283343975362131
 10
56.97596084991387
 20
-64.1101368910501
 42
-3.417809899720462
  0
LINE
  5
667
330
18
100
AcDbEntity
  8
0
100
AcDbLine
 10
57.5470377488067
 20
-63.48935863727126
 30
0.0
 11
57.71836080742044
 21
-63.76050319490936
 31
0.0
  0
ARC
  5
668
330
18
100
AcDbEntity
  8
0
100
AcDbCircle
 10
59.56631041376549
 20
-68.37564540925446
 30
0.0
 40
2.824232761895465
100
AcDbArc
 50
141.5016484470787
 51
162.28812301673
  0
LINE
  5
669
330
18
100
AcDbEntity
  8
0
100
AcDbLine
 10
56.84890617516971
 20
-67.48939464884434
 30
0.0
 11
56.67311627481131
 21
-67.13796662070024
 31
0.0
  0
ARC
  5
66A
330
18
100
AcDbEntity
  8
0
100
AcDbCircle
 10
56.94057236327729
 20
-66.9542486794453
 30
0.0
 40
0.5651485951986402
100
AcDbArc
 50
264.1237071950861
 51
298.9358426610113
  0
LINE
  5
66B
330
18
100
AcDbEntity
  8
0
100
AcDbLine
 10
57.20048586577259
 20
-66.85412089079682
 30
0.0
 11
57.34246991865362
 21
-66.76626390308394
 31
0.0
  0
LINE
  5
66C
330
18
100
AcDbEntity
  8
0
100
AcDbLine
 10
56.9841291246236
 20
-67.21906537858905
 30
0.0
 11
57.25457502353137
 21
-67.11093370140396
 31
0.0
  0
ARC
  5
66D
330
18
100
AcDbEntity
  8
0
100
AcDbCircle
 10
55.75030502618094
 20
-63.04244502274443
 30
0.0
 40
4.481528794688252
100
AcDbArc
 50
285.1730462817993
 51
289.5209402069117
  0
LINE
  5
66E
330
18
100
AcDbEntity
  8
0
100
AcDbLine
 10
56.92327875332379
 20
-67.3474718225389
 30
0.0
 11
56.78129470044276
 21
-66.92846141886157
 31
0.0
  0
LINE
  5
66F
330
18
100
AcDbEntity
  8
0
100
AcDbLine
 10
57.0044125450189
 20
-67.14472485052431
 30
0.0
 11
56.93003996686482
 21
-66.87439558026902
 31
0.0
  0
LINE
  5
670
330
18
100
AcDbEntity
  8
0
100
AcDbLine
 10
57.09230744014115
 20
-67.0433514031633
 30
0.0
 11
57.31542539483118
 21
-66.93521964868565
 31
0.0
  0
LINE
  5
671
330
18
100
AcDbEntity
  8
0
100
AcDbLine
 10
57.11259086053645
 20
-66.96901079780598
 30
0.0
 11
57.08554633671401
 21
-66.77302213290801
 31
0.0
  0
LINE
  5
672
330
18
100
AcDbEntity
  8
0
100
AcDbLine
 10
57.19372465223156
 20
-66.82032974167649
 30
0.0
 11
57.18696354880443
 21
-66.62434099948597
 31
0.0
  0
LWPOLYLINE
  5
673
330
18
100
AcDbEntity
  8
0
100
AcDbPolyline
 90
        2
 70
     0
 43
0.0
 10
57.06162243449127
 20
-64.18862610714512
 42
-0.1195711324376108
 10
57.9753454506116
 20
-64.21003222171997
 42
0.131467313942055
  0
LWPOLYLINE
  5
677
330
18
100
AcDbEntity
  8
0
100
AcDbPolyline
 90
        4
 70
     0
 43
0.0
 10
56.97596084991387
 20
-64.1101368910501
 10
57.16156083929051
 20
-64.03878307234413
 10
57.1829762907054
 20
-63.99597076560208
 42
-0.1777218985358029
 10
57.38999162095586
 20
-63.81758621883717
 42
-1.444086396823232
  0
LWPOLYLINE
  5
67D
330
18
100
AcDbEntity
  8
0
100
AcDbPolyline
 90
        7
 70
     0
 43
0.0
 10
56.81177620141104
 20
-65.06627812378393
 10
57.13300697776471
 20
-65.81549322019654
 42
0.5467376603499026
 10
57.21866856234211
 20
-65.82976393738229
 42
0.048922715039796
 10
57.26863776474174
 20
-65.47299484385248
 42
-0.254623724211786
 10
57.06162243449127
 20
-65.25893338773459
 42
-0.1500089860703346
 10
57.07589936525417
 20
-64.74518586201469
 42
0.1392791557668802
 10
56.81891472206302
 20
-65.05200732900577
 42
1.542526322477891
  0
LWPOLYLINE
  5
686
330
18
100
AcDbEntity
  8
0
100
AcDbPolyline
 90
        3
 70
     0
 43
0.0
 10
56.76180699901142
 20
-64.22430301649812
 10
56.76180699901142
 20
-64.75232125940377
 42
0.1206356515517117
 10
56.7403916581376
 20
-65.29461029708757
 42
0.8170942866686225
  0
LINE
  5
68B
330
18
100
AcDbEntity
  8
0
100
AcDbLine
 10
57.83257625352365
 20
-64.18862610714512
 30
0.0
 11
57.94679158908579
 21
-64.11727228843918
 31
0.0
  0
LINE
  5
68C
330
18
100
AcDbEntity
  8
0
100
AcDbLine
 10
57.56131467956961
 20
-64.15294919779215
 30
0.0
 11
57.73263773818334
 21
-64.42409367783785
 31
0.0
  0
LINE
  5
68D
330
18
100
AcDbEntity
  8
0
100
AcDbLine
 10
57.39713003106678
 20
-64.15294919779215
 30
0.0
 11
57.58273002044342
 21
-64.40982296065211
 31
0.0
  0
LINE
  5
68E
330
18
100
AcDbEntity
  8
0
100
AcDbLine
 10
57.38999162095586
 20
-64.14581380040307
 30
0.0
 11
57.5470377488067
 21
-63.96742925363817
 31
0.0
  0
LINE
  5
68F
330
18
100
AcDbEntity
  8
0
100
AcDbLine
 10
57.67553001513174
 20
-64.13867840301399
 30
0.0
 11
57.83257625352365
 21
-64.33133374455707
 31
0.0
  0
LINE
  5
690
330
18
100
AcDbEntity
  8
0
100
AcDbLine
 10
57.83971466363457
 20
-63.97456465102725
 30
0.0
 11
57.67553001513174
 21
-64.13867840301399
 31
0.0
  0
LWPOLYLINE
  5
691
330
18
100
AcDbEntity
  8
0
100
AcDbPolyline
 90
        3
 70
     0
 43
0.0
 10
58.27531196210166
 20
-60.2978649806529
 42
-0.0962866584836924
 10
58.06870246002393
 20
-60.93767535335567
 42
-0.4040292795451161
 10
56.46848614488223
 20
-61.52416826396062
 42
-4.730610073077646
  0
LWPOLYLINE
  5
696
330
18
100
AcDbEntity
  8
0
100
AcDbPolyline
 90
        7
 70
     0
 43
0.0
 10
56.59294738049425
 20
-61.50639572644141
 42
-0.3838590667675373
 10
56.75296896913827
 20
-61.13317304037725
 42
-0.295450391316447
 10
57.00189154753767
 20
-61.16871804018576
 42
0.2290065676766355
 10
57.19747359638907
 20
-61.22203557751349
 42
0.3099255006748023
 10
57.23303394942107
 20
-61.18649057770497
 42
0.343697748485301
 10
56.78852942934564
 20
-60.95544789087488
 42
0.2344270782908736
 10
56.64628791004226
 20
-61.06208296553032
 42
1.624050646441661
  0
LWPOLYLINE
  5
69F
330
18
100
AcDbEntity
  8
0
100
AcDbPolyline
 90
        3
 70
     0
 43
0.0
 10
57.11159163689089
 20
-63.49649403466034
 42
-0.0801639228658221
 10
57.59700695120632
 20
-63.46795252269643
 42
0.1880431802603599
 10
58.01103772224831
 20
-63.48935863727126
 42
0.1880431802603599
  0
LINE
  5
6A4
330
18
100
AcDbEntity
  8
0
100
AcDbLine
 10
57.31860696714136
 20
-61.88389771638709
 30
0.0
 11
57.47565309499219
 21
-62.05514686576292
 31
0.0
  0
LWPOLYLINE
  5
6A5
330
18
100
AcDbEntity
  8
0
100
AcDbPolyline
 90
        3
 70
     0
 43
0.0
 10
57.31860696714136
 20
-62.91852808762356
 42
0.1784948655282679
 10
57.48279161564418
 20
-62.38337444732883
 42
-0.0538746515784961
 10
57.5184838872809
 20
-61.6983777722331
 42
-0.8518139348432473
  0
LINE
  5
6AA
330
18
100
AcDbEntity
  8
0
100
AcDbLine
 10
57.47565309499219
 20
-62.22639601513876
 30
0.0
 11
57.26863776474174
 21
-62.0337407511881
 31
0.0
  0
LINE
  5
6AB
330
18
100
AcDbEntity
  8
0
100
AcDbLine
 10
57.29005310561555
 20
-62.69733123411659
 30
0.0
 11
57.38999162095586
 21
-62.7544143356368
 31
0.0
  0
LINE
  5
6AC
330
18
100
AcDbEntity
  8
0
100
AcDbLine
 10
57.1829762907054
 20
-62.34769753797586
 30
0.0
 11
57.44709934400746
 21
-62.62597741541063
 31
0.0
  0
LINE
  5
6AD
330
18
100
AcDbEntity
  8
0
100
AcDbLine
 10
57.21866856234211
 20
-62.19785450317485
 30
0.0
 11
57.48279161564418
 21
-62.44045754884904
 31
0.0
  0
LINE
  5
6AE
330
18
100
AcDbEntity
  8
0
100
AcDbLine
 10
56.62617621203439
 20
-62.93279888240171
 30
0.0
 11
56.67614552497508
 21
-62.54748827690798
 31
0.0
  0
LINE
  5
6AF
330
18
100
AcDbEntity
  8
0
100
AcDbLine
 10
56.50482246636133
 20
-63.13258954374145
 30
0.0
 11
56.66900700432311
 21
-63.08977723699939
 31
0.0
  0
LINE
  5
6B0
330
18
100
AcDbEntity
  8
0
100
AcDbLine
 10
56.49054553559844
 20
-62.76154973302588
 30
0.0
 11
56.51909939712425
 21
-62.38337444732883
 31
0.0
  0
LINE
  5
6B1
330
18
100
AcDbEntity
  8
0
100
AcDbLine
 10
56.7261147273747
 20
-63.12545414635237
 30
0.0
 11
56.81891472206302
 21
-62.70446663150567
 31
0.0
  0
LINE
  5
6B2
330
18
100
AcDbEntity
  8
0
100
AcDbLine
 10
57.17583777005342
 20
-62.55462359670467
 30
0.0
 11
57.29005310561555
 21
-62.69733123411659
 31
0.0
  0
LINE
  5
6B3
330
18
100
AcDbEntity
  8
0
100
AcDbLine
 10
57.85399159439747
 20
-63.53217094401331
 30
0.0
 11
57.95392999919672
 21
-63.63920167207226
 31
0.0
  0
LINE
  5
6B4
330
18
100
AcDbEntity
  8
0
100
AcDbLine
 10
57.504206956518
 20
-62.11222996728314
 30
0.0
 11
57.62556081273213
 21
-61.89103311377617
 31
0.0
  0
LINE
  5
6B5
330
18
100
AcDbEntity
  8
0
100
AcDbLine
 10
57.6041454718583
 20
-63.46081712530736
 30
0.0
 11
57.77546853047205
 21
-63.28956797593153
 31
0.0
  0
LINE
  5
6B6
330
18
100
AcDbEntity
  8
0
100
AcDbLine
 10
57.40426855171875
 20
-63.45368172791828
 30
0.0
 11
57.504206956518
 21
-63.33238028267358
 31
0.0
  0
LINE
  5
6B7
330
18
100
AcDbEntity
  8
0
100
AcDbLine
 10
57.77546853047205
 20
-63.49649403466034
 30
0.0
 11
57.88968386603419
 21
-63.33238028267358
 31
0.0
  0
LINE
  5
6B8
330
18
100
AcDbEntity
  8
0
100
AcDbLine
 10
57.67553001513174
 20
-63.50362943204942
 30
0.0
 11
57.83971466363457
 21
-63.69628477359248
 31
0.0
  0
LINE
  5
6B9
330
18
100
AcDbEntity
  8
0
100
AcDbLine
 10
57.6041454718583
 20
-62.4832697779987
 30
0.0
 11
57.77546853047205
 21
-62.35483293536493
 31
0.0
  0
LINE
  5
6BA
330
18
100
AcDbEntity
  8
0
100
AcDbLine
 10
57.40426855171875
 20
-62.77582045021162
 30
0.0
 11
57.70408387665754
 21
-62.66165432476361
 31
0.0
  0
LINE
  5
6BB
330
18
100
AcDbEntity
  8
0
100
AcDbLine
 10
57.48279161564418
 20
-62.44045754884904
 30
0.0
 11
57.71122239730953
 21
-62.01233455902086
 31
0.0
  0
LINE
  5
6BC
330
18
100
AcDbEntity
  8
0
100
AcDbLine
 10
57.44709934400746
 20
-62.61170669822488
 30
0.0
 11
57.6041454718583
 21
-62.4832697779987
 31
0.0
  0
LINE
  5
6BD
330
18
100
AcDbEntity
  8
0
100
AcDbLine
 10
57.38999162095586
 20
-61.78400238571723
 30
0.0
 11
57.4899300257551
 21
-61.9409807403149
 31
0.0
  0
LWPOLYLINE
  5
6BE
330
18
100
AcDbEntity
  8
0
100
AcDbPolyline
 90
        4
 70
     0
 43
0.0
 10
56.82408978237764
 20
-60.93767535335567
 42
0.0237914854511304
 10
57.1619131361817
 20
-60.72440527927468
 42
-0.1740013095769437
 10
57.35749518503309
 20
-60.67108774194695
 42
0.0990114313739616
 10
57.1085726066337
 20
-60.47559005492537
 42
-4.191685387299907
  0
LWPOLYLINE
  5
6C4
330
18
100
AcDbEntity
  8
0
100
AcDbPolyline
 90
        3
 70
     0
 43
0.0
 10
58.38874574448734
 20
-59.90686968183962
 10
58.38874574448734
 20
-60.2978649806529
 10
58.27531196210166
 20
-60.2978649806529
  0
LWPOLYLINE
  5
6C9
330
18
100
AcDbEntity
  8
0
100
AcDbPolyline
 90
        2
 70
     0
 43
0.0
 10
58.27889998594827
 20
-59.90686968183962
 10
58.38874574448734
 20
-59.90686968183962
  0
TEXT
  5
6DA
330
18
100
AcDbEntity
  8
ADPDIM
100
AcDbText
 10
29.00678539844104
 20
-82.50721988063309
 30
0.0
 40
0.5
  1
J U L I U S  B L U M  &  C O . ,  I N C .      ( 8 0 0 )  5 2 6 - 6 2 9 3        W W W . J U L I U S B L U M . C O M        P A R T  N o .  5 7 2
 41
1.25
  7
ARIAL_WIDE
 72
     1
 11
54.74561554850925
 21
-82.00721988063309
 31
0.0
100
AcDbText
 73
     3
  0
DIMENSION
  5
839
330
18
100
AcDbEntity
  8
ADPDIM
 62
     3
100
AcDbDimension
  2
*D2
 10
58.39669846832201
 20
-57.51665382727932
 30
0.0
 11
54.89669846832201
 21
-57.51665382727932
 31
0.0
 70
    32
 71
     5
 42
7.0
  3
STANDARD
100
AcDbAlignedDimension
 13
51.39669846832202
 23
-58.5187287459175
 33
0.0
 14
58.39669846832201
 24
-59.67580132803473
 34
0.0
100
AcDbRotatedDimension
1001
ACAD
1000
DSTYLE
1002
{
1070
   276
1070
     2
1070
   277
1070
     5
1070
    41
1040
0.125
1070
    73
1070
     0
1070
    74
1070
     0
1070
    78
1070
     3
1070
   140
1040
0.125
1070
   141
1040
0.1875
1070
   142
1040
0.125
1070
   147
1040
0.125
1070
   171
1070
     1
1002
}
  0
ENDSEC
  0
SECTION
  2
OBJECTS
  0
DICTIONARY
  5
C
330
0
100
AcDbDictionary
281
     1
  3
ACAD_COLOR
350
833
  3
ACAD_GROUP
350
D
  3
ACAD_LAYOUT
350
6D3
  3
ACAD_MATERIAL
350
81E
  3
ACAD_MLINESTYLE
350
E
  3
ACAD_PLOTSETTINGS
350
6D4
  3
ACAD_PLOTSTYLENAME
350
6D1
  3
ACAD_TABLESTYLE
350
834
  3
ACAD_VISUALSTYLE
350
822
  3
AcDbVariableDictionary
350
734
  3
ASE_INDEX_DICTIONARY
350
870
  3
DWGPROPS
350
88E
  0
DICTIONARY
  5
72E
330
18
100
AcDbDictionary
280
     1
281
     1
  3
ACAD_LAYOUTSELFREF
360
818
  0
DICTIONARY
  5
72C
330
15
100
AcDbDictionary
280
     1
281
     1
  3
ACAD_LAYOUTSELFREF
360
817
  0
DICTIONARY
  5
833
102
{ACAD_REACTORS
330
C
102
}
330
C
100
AcDbDictionary
281
     1
  0
DICTIONARY
  5
D
102
{ACAD_REACTORS
330
C
102
}
330
C
100
AcDbDictionary
281
     1
  0
DICTIONARY
  5
6D3
102
{ACAD_REACTORS
330
C
102
}
330
C
100
AcDbDictionary
281
     1
  3
Layout1
350
6D6
  3
Model
350
6D5
  0
DICTIONARY
  5
81E
102
{ACAD_REACTORS
330
C
102
}
330
C
100
AcDbDictionary
281
     1
  3
ByBlock
350
820
  3
ByLayer
350
81F
  3
Global
350
821
  0
DICTIONARY
  5
E
102
{ACAD_REACTORS
330
C
102
}
330
C
100
AcDbDictionary
281
     1
  3
STANDARD
350
1B
  0
DICTIONARY
  5
6D4
102
{ACAD_REACTORS
330
C
102
}
330
C
100
AcDbDictionary
281
     1
  0
ACDBDICTIONARYWDFLT
  5
6D1
102
{ACAD_REACTORS
330
C
102
}
330
C
100
AcDbDictionary
281
     1
  3
Normal
350
6D2
100
AcDbDictionaryWithDefault
340
6D2
  0
DICTIONARY
  5
834
102
{ACAD_REACTORS
330
C
102
}
330
C
100
AcDbDictionary
281
     1
  3
Standard
350
835
  0
DICTIONARY
  5
822
102
{ACAD_REACTORS
330
C
102
}
330
C
100
AcDbDictionary
281
     1
  3
2dWireframe
350
828
  3
3D Hidden
350
82A
  3
3dWireframe
350
829
  3
Basic
350
827
  3
Brighten
350
82E
  3
ColorChange
350
832
  3
Conceptual
350
82B
  3
Dim
350
82D
  3
Facepattern
350
831
  3
Flat
350
823
  3
FlatWithEdges
350
824
  3
Gouraud
350
825
  3
GouraudWithEdges
350
826
  3
Linepattern
350
830
  3
Realistic
350
82C
  3
Thicken
350
82F
  0
DICTIONARY
  5
734
102
{ACAD_REACTORS
330
C
102
}
330
C
100
AcDbDictionary
281
     1
  3
CTABLESTYLE
350
88B
  3
DIMASSOC
350
735
  3
INDEXCTL
350
88D
  3
SORTENTS
350
88C
  0
DICTIONARY
  5
870
102
{ACAD_REACTORS
330
C
102
}
330
C
100
AcDbDictionary
281
     1
  3
ASEBlockHierarchyIndexRecord
350
872
1001
DCO15
1040
1568308121.016
  0
XRECORD
  5
88E
102
{ACAD_REACTORS
330
C
102
}
330
C
100
AcDbXrecord
280
     1
  1
DWGPROPS COOKIE
  2

  3

  4

  6

  7

  8
Yu Hu
  9

300
=
301
=
302
=
303
=
304
=
305
=
306
=
307
=
308
=
309
=
 40
0.0073433564814815
 41
2450408.698185567
 42
2453954.926215463
  1

 90
        0
  0
XRECORD
  5
818
102
{ACAD_REACTORS
330
72E
102
}
330
72E
100
AcDbXrecord
280
     1
340
18
  0
XRECORD
  5
817
102
{ACAD_REACTORS
330
72C
102
}
330
72C
100
AcDbXrecord
280
     1
340
15
  0
LAYOUT
  5
6D6
102
{ACAD_XDICTIONARY
360
891
102
}
102
{ACAD_REACTORS
330
6D3
102
}
330
6D3
100
AcDbPlotSettings
  1

  2
Fax
  4

  6

 40
0.0
 41
0.0
 42
0.0
 43
0.0
 44
0.0
 45
0.0
 46
0.0
 47
0.0
 48
0.0
 49
0.0
140
0.0
141
0.0
142
1.0
143
1.0
 70
   688
 72
     0
 73
     0
 74
     5
  7
Default R14 pen assignments.ctb
 75
    16
147
1.0
148
0.0
149
0.0
100
AcDbLayout
  1
Layout1
 70
     1
 71
     1
 10
0.0
 20
0.0
 11
12.0
 21
9.0
 12
0.0
 22
0.0
 32
0.0
 14
1.000000000000000E+20
 24
1.000000000000000E+20
 34
1.000000000000000E+20
 15
-1.000000000000000E+20
 25
-1.000000000000000E+20
 35
-1.000000000000000E+20
146
0.0
 13
0.0
 23
0.0
 33
0.0
 16
1.0
 26
0.0
 36
0.0
 17
0.0
 27
1.0
 37
0.0
 76
     0
330
15
  0
LAYOUT
  5
6D5
102
{ACAD_XDICTIONARY
360
88F
102
}
102
{ACAD_REACTORS
330
6D3
102
}
330
6D3
100
AcDbPlotSettings
  1

  2
Fax
  4

  6

 40
0.0
 41
0.0
 42
0.0
 43
0.0
 44
0.0
 45
0.0
 46
0.0
 47
0.0
 48
0.0
 49
0.0
140
0.0
141
0.0
142
1.0
143
1.0
 70
  1712
 72
     0
 73
     0
 74
     0
  7
Default R14 pen assignments.ctb
 75
     0
147
1.0
148
0.0
149
0.0
100
AcDbLayout
  1
Model
 70
     1
 71
     0
 10
0.0
 20
0.0
 11
12.0
 21
9.0
 12
0.0
 22
0.0
 32
0.0
 14
0.0
 24
0.0
 34
0.0
 15
0.0
 25
0.0
 35
0.0
146
0.0
 13
0.0
 23
0.0
 33
0.0
 16
1.0
 26
0.0
 36
0.0
 17
0.0
 27
1.0
 37
0.0
 76
     0
330
18
331
7F2
  0
MATERIAL
  5
820
102
{ACAD_XDICTIONARY
360
895
102
}
102
{ACAD_REACTORS
330
81E
102
}
330
81E
100
AcDbMaterial
  1
ByBlock
  0
MATERIAL
  5
81F
102
{ACAD_XDICTIONARY
360
893
102
}
102
{ACAD_REACTORS
330
81E
102
}
330
81E
100
AcDbMaterial
  1
ByLayer
  0
MATERIAL
  5
821
102
{ACAD_XDICTIONARY
360
897
102
}
102
{ACAD_REACTORS
330
81E
102
}
330
81E
100
AcDbMaterial
  1
Global
  0
MLINESTYLE
  5
1B
102
{ACAD_REACTORS
330
E
102
}
330
E
100
AcDbMlineStyle
  2
STANDARD
 70
     0
  3

 62
     0
 51
90.0
 52
90.0
 71
     2
 49
0.5
 62
   256
  6
BYLAYER
 49
-0.5
 62
   256
  6
BYLAYER
  0
ACDBPLACEHOLDER
  5
6D2
102
{ACAD_REACTORS
330
6D1
102
}
330
6D1
  0
TABLESTYLE
  5
835
102
{ACAD_XDICTIONARY
360
899
102
}
102
{ACAD_REACTORS
330
834
102
}
330
834
100
AcDbTableStyle
  3
Standard
 70
     0
 71
     0
 40
0.06
 41
0.06
280
     0
281
     0
  7
STANDARD
140
0.18
170
     2
 62
     0
 63
     7
283
     0
274
    -2
284
     1
 64
     0
275
    -2
285
     1
 65
     0
276
    -2
286
     1
 66
     0
277
    -2
287
     1
 67
     0
278
    -2
288
     1
 68
     0
279
    -2
289
     1
 69
     0
  7
STANDARD
140
0.25
170
     5
 62
     0
 63
     7
283
     0
274
    -2
284
     1
 64
     0
275
    -2
285
     1
 65
     0
276
    -2
286
     1
 66
     0
277
    -2
287
     1
 67
     0
278
    -2
288
     1
 68
     0
279
    -2
289
     1
 69
     0
  7
STANDARD
140
0.18
170
     5
 62
     0
 63
     7
283
     0
274
    -2
284
     1
 64
     0
275
    -2
285
     1
 65
     0
276
    -2
286
     1
 66
     0
277
    -2
287
     1
 67
     0
278
    -2
288
     1
 68
     0
279
    -2
289
     1
 69
     0
  0
VISUALSTYLE
  5
828
102
{ACAD_REACTORS
330
822
102
}
330
822
100
AcDbVisualStyle
  2
2dWireframe
 70
     4
 71
     0
 72
     2
 73
     0
 90
        0
 40
-0.6
 41
-30.0
 62
     5
 63
     7
 74
     1
 91
        4
 64
     7
 65
   257
 75
     1
175
     1
 42
1.0
 92
        0
 66
   257
 43
1.0
 76
     1
 77
     6
 78
     2
 67
     7
 79
     5
170
     0
171
     0
290
     0
174
     0
 93
        1
 44
0.0
173
     0
291
     0
 45
0.0
1001
ACAD
1000
AcDbSavedByObjectVersion
1070
     0
  0
VISUALSTYLE
  5
82A
102
{ACAD_REACTORS
330
822
102
}
330
822
100
AcDbVisualStyle
  2
3D Hidden
 70
     6
 71
     1
 72
     2
 73
     2
 90
        0
 40
-0.6
 41
-30.0
 62
     5
 63
     7
 74
     2
 91
        2
 64
     7
 65
   257
 75
     2
175
     1
 42
40.0
 92
        0
 66
   257
 43
1.0
 76
     1
 77
     6
 78
     2
 67
     7
 79
     3
170
     0
171
     0
290
     0
174
     0
 93
        1
 44
0.0
173
     0
291
     0
 45
0.0
1001
ACAD
1000
AcDbSavedByObjectVersion
1070
     0
  0
VISUALSTYLE
  5
829
102
{ACAD_REACTORS
330
822
102
}
330
822
100
AcDbVisualStyle
  2
3dWireframe
 70
     5
 71
     0
 72
     2
 73
     0
 90
        0
 40
-0.6
 41
-30.0
 62
     5
 63
     7
 74
     1
 91
        4
 64
     7
 65
   257
 75
     1
175
     1
 42
1.0
 92
        0
 66
   257
 43
1.0
 76
     1
 77
     6
 78
     2
 67
     7
 79
     5
170
     0
171
     0
290
     0
174
     0
 93
        1
 44
0.0
173
     0
291
     0
 45
0.0
1001
ACAD
1000
AcDbSavedByObjectVersion
1070
     0
  0
VISUALSTYLE
  5
827
102
{ACAD_REACTORS
330
822
102
}
330
822
100
AcDbVisualStyle
  2
Basic
 70
     7
 71
     1
 72
     0
 73
     1
 90
        0
 40
-0.6
 41
-30.0
 62
     5
 63
     7
 74
     0
 91
        4
 64
     7
 65
   257
 75
     1
175
     1
 42
1.0
 92
        8
 66
     7
 43
1.0
 76
     1
 77
     6
 78
     2
 67
     7
 79
     5
170
     0
171
     0
290
     0
174
     0
 93
        1
 44
0.0
173
     0
291
     1
 45
0.0
1001
ACAD
1000
AcDbSavedByObjectVersion
1070
     0
  0
VISUALSTYLE
  5
82E
102
{ACAD_REACTORS
330
822
102
}
330
822
100
AcDbVisualStyle
  2
Brighten
 70
    12
 71
     2
 72
     2
 73
     0
 90
        0
 40
-0.6
 41
-30.0
 62
     5
 63
     7
 74
     1
 91
        4
 64
     7
 65
   257
 75
     1
175
     1
 42
1.0
 92
        8
 66
     7
 43
1.0
 76
     1
 77
     6
 78
     2
 67
     7
 79
     5
170
     0
171
     0
290
     0
174
     0
 93
        1
 44
50.0
173
     0
291
     1
 45
0.0
1001
ACAD
1000
AcDbSavedByObjectVersion
1070
     0
  0
VISUALSTYLE
  5
832
102
{ACAD_REACTORS
330
822
102
}
330
822
100
AcDbVisualStyle
  2
ColorChange
 70
    16
 71
     2
 72
     2
 73
     3
 90
        0
 40
-0.6
 41
-30.0
 62
     5
 63
     8
 74
     1
 91
        4
 64
     7
 65
   257
 75
     1
175
     1
 42
1.0
 92
        8
 66
     8
 43
1.0
 76
     1
 77
     6
 78
     2
 67
     7
 79
     5
170
     0
171
     0
290
     0
174
     0
 93
        1
 44
0.0
173
     0
291
     1
 45
0.0
1001
ACAD
1000
AcDbSavedByObjectVersion
1070
     0
  0
VISUALSTYLE
  5
82B
102
{ACAD_REACTORS
330
822
102
}
330
822
100
AcDbVisualStyle
  2
Conceptual
 70
     9
 71
     3
 72
     2
 73
     0
 90
        0
 40
-0.6
 41
-30.0
 62
     5
 63
     7
 74
     2
 91
        2
 64
     7
 65
   257
 75
     1
175
     1
 42
40.0
 92
        8
 66
     7
 43
1.0
 76
     1
 77
     6
 78
     2
 67
     7
 79
     3
170
     0
171
     0
290
     0
174
     0
 93
        1
 44
0.0
173
     0
291
     0
 45
0.0
1001
ACAD
1000
AcDbSavedByObjectVersion
1070
     0
  0
VISUALSTYLE
  5
82D
102
{ACAD_REACTORS
330
822
102
}
330
822
100
AcDbVisualStyle
  2
Dim
 70
    11
 71
     2
 72
     2
 73
     0
 90
        0
 40
-0.6
 41
-30.0
 62
     5
 63
     7
 74
     1
 91
        4
 64
     7
 65
   257
 75
     1
175
     1
 42
1.0
 92
        8
 66
     7
 43
1.0
 76
     1
 77
     6
 78
     2
 67
     7
 79
     5
170
     0
171
     0
290
     0
174
     0
 93
        1
 44
-50.0
173
     0
291
     1
 45
0.0
1001
ACAD
1000
AcDbSavedByObjectVersion
1070
     0
  0
VISUALSTYLE
  5
831
102
{ACAD_REACTORS
330
822
102
}
330
822
100
AcDbVisualStyle
  2
Facepattern
 70
    15
 71
     2
 72
     2
 73
     0
 90
        0
 40
-0.6
 41
-30.0
 62
     5
 63
     7
 74
     1
 91
        4
 64
     7
 65
   257
 75
     1
175
     1
 42
1.0
 92
        8
 66
     7
 43
1.0
 76
     1
 77
     6
 78
     2
 67
     7
 79
     5
170
     0
171
     0
290
     0
174
     0
 93
        1
 44
0.0
173
     0
291
     1
 45
0.0
1001
ACAD
1000
AcDbSavedByObjectVersion
1070
     0
  0
VISUALSTYLE
  5
823
102
{ACAD_REACTORS
330
822
102
}
330
822
100
AcDbVisualStyle
  2
Flat
 70
     0
 71
     2
 72
     1
 73
     1
 90
        2
 40
-0.6
 41
30.0
 62
     5
 63
     7
 74
     0
 91
        4
 64
     7
 65
   257
 75
     1
175
     1
 42
1.0
 92
        8
 66
     7
 43
1.0
 76
     1
 77
     6
 78
     2
 67
     7
 79
     5
170
     0
171
     0
290
     0
174
     0
 93
       13
 44
0.0
173
     0
291
     1
 45
0.0
1001
ACAD
1000
AcDbSavedByObjectVersion
1070
     0
  0
VISUALSTYLE
  5
824
102
{ACAD_REACTORS
330
822
102
}
330
822
100
AcDbVisualStyle
  2
FlatWithEdges
 70
     1
 71
     2
 72
     1
 73
     1
 90
        2
 40
-0.6
 41
30.0
 62
     5
 63
     7
 74
     1
 91
        4
 64
     7
 65
   257
 75
     1
175
     1
 42
1.0
 92
        0
 66
   257
 43
1.0
 76
     1
 77
     6
 78
     2
 67
     7
 79
     5
170
     0
171
     0
290
     0
174
     0
 93
       13
 44
0.0
173
     0
291
     1
 45
0.0
1001
ACAD
1000
AcDbSavedByObjectVersion
1070
     0
  0
VISUALSTYLE
  5
825
102
{ACAD_REACTORS
330
822
102
}
330
822
100
AcDbVisualStyle
  2
Gouraud
 70
     2
 71
     2
 72
     2
 73
     1
 90
        2
 40
-0.6
 41
30.0
 62
     5
 63
     7
 74
     0
 91
        4
 64
     7
 65
   257
 75
     1
175
     1
 42
1.0
 92
        0
 66
     7
 43
1.0
 76
     1
 77
     6
 78
     2
 67
     7
 79
     5
170
     0
171
     0
290
     0
174
     0
 93
       13
 44
0.0
173
     0
291
     1
 45
0.0
1001
ACAD
1000
AcDbSavedByObjectVersion
1070
     0
  0
VISUALSTYLE
  5
826
102
{ACAD_REACTORS
330
822
102
}
330
822
100
AcDbVisualStyle
  2
GouraudWithEdges
 70
     3
 71
     2
 72
     2
 73
     1
 90
        2
 40
-0.6
 41
30.0
 62
     5
 63
     7
 74
     1
 91
        4
 64
     7
 65
   257
 75
     1
175
     1
 42
1.0
 92
        0
 66
   257
 43
1.0
 76
     1
 77
     6
 78
     2
 67
     7
 79
     5
170
     0
171
     0
290
     0
174
     0
 93
       13
 44
0.0
173
     0
291
     1
 45
0.0
1001
ACAD
1000
AcDbSavedByObjectVersion
1070
     0
  0
VISUALSTYLE
  5
830
102
{ACAD_REACTORS
330
822
102
}
330
822
100
AcDbVisualStyle
  2
Linepattern
 70
    14
 71
     2
 72
     2
 73
     0
 90
        0
 40
-0.6
 41
-30.0
 62
     5
 63
     7
 74
     1
 91
        4
 64
     7
 65
   257
 75
     7
175
     7
 42
1.0
 92
        8
 66
     7
 43
1.0
 76
     1
 77
     6
 78
     2
 67
     7
 79
     5
170
     0
171
     0
290
     0
174
     0
 93
        1
 44
0.0
173
     0
291
     1
 45
0.0
1001
ACAD
1000
AcDbSavedByObjectVersion
1070
     0
  0
VISUALSTYLE
  5
82C
102
{ACAD_REACTORS
330
822
102
}
330
822
100
AcDbVisualStyle
  2
Realistic
 70
     8
 71
     2
 72
     2
 73
     0
 90
        0
 40
-0.6
 41
-30.0
 62
     5
 63
     7
 74
     1
 91
        0
 64
     7
 65
   257
 75
     1
175
     1
 42
1.0
 92
        8
 66
     8
 43
1.0
 76
     1
 77
     6
 78
     2
 67
     7
 79
     5
170
     0
171
     0
290
     0
174
     0
 93
       13
 44
0.0
173
     0
291
     0
 45
0.0
1001
ACAD
1000
AcDbSavedByObjectVersion
1070
     0
  0
VISUALSTYLE
  5
82F
102
{ACAD_REACTORS
330
822
102
}
330
822
100
AcDbVisualStyle
  2
Thicken
 70
    13
 71
     2
 72
     2
 73
     0
 90
        0
 40
-0.6
 41
-30.0
 62
     5
 63
     7
 74
     1
 91
        4
 64
     7
 65
   257
 75
     1
175
     1
 42
1.0
 92
       12
 66
     7
 43
1.0
 76
     1
 77
     6
 78
     2
 67
     7
 79
     5
170
     0
171
     0
290
     0
174
     0
 93
        1
 44
0.0
173
     0
291
     1
 45
0.0
1001
ACAD
1000
AcDbSavedByObjectVersion
1070
     0
  0
DICTIONARYVAR
  5
88B
102
{ACAD_REACTORS
330
734
102
}
330
734
100
DictionaryVariables
280
     0
  1
STANDARD
  0
DICTIONARYVAR
  5
735
102
{ACAD_REACTORS
330
734
102
}
330
734
100
DictionaryVariables
280
     0
  1
1
  0
DICTIONARYVAR
  5
88D
102
{ACAD_REACTORS
330
734
102
}
330
734
100
DictionaryVariables
280
     0
  1
0
  0
DICTIONARYVAR
  5
88C
102
{ACAD_REACTORS
330
734
102
}
330
734
100
DictionaryVariables
280
     0
  1
127
  0
XRECORD
  5
872
102
{ACAD_REACTORS
330
870
102
}
330
870
100
AcDbXrecord
280
     1
  0
DICTIONARY
  5
891
330
6D6
100
AcDbDictionary
280
     1
281
     1
  3
ACAD_XREC_ROUNDTRIP
360
892
  0
DICTIONARY
  5
88F
330
6D5
100
AcDbDictionary
280
     1
281
     1
  3
ACAD_XREC_ROUNDTRIP
360
890
  0
DICTIONARY
  5
895
330
820
100
AcDbDictionary
280
     1
281
     1
  3
ACAD_XREC_ROUNDTRIP
360
896
  0
DICTIONARY
  5
893
330
81F
100
AcDbDictionary
280
     1
281
     1
  3
ACAD_XREC_ROUNDTRIP
360
894
  0
DICTIONARY
  5
897
330
821
100
AcDbDictionary
280
     1
281
     1
  3
ACAD_XREC_ROUNDTRIP
360
898
  0
DICTIONARY
  5
899
330
835
100
AcDbDictionary
280
     1
281
     1
  3
ACAD_XREC_ROUNDTRIP
360
89A
  0
XRECORD
  5
892
102
{ACAD_REACTORS
330
891
102
}
330
891
100
AcDbXrecord
280
     1
102
SHADEPLOT
 70
     0
102
SHADEPLOTRESLEVEL
 70
     2
102
SHADEPLOTCUSTOMDPI
 70
   300
  0
XRECORD
  5
890
102
{ACAD_REACTORS
330
88F
102
}
330
88F
100
AcDbXrecord
280
     1
102
SHADEPLOT
 70
     0
102
SHADEPLOTRESLEVEL
 70
     2
102
SHADEPLOTCUSTOMDPI
 70
   300
  0
XRECORD
  5
896
102
{ACAD_REACTORS
330
895
102
}
330
895
100
AcDbXrecord
280
     1
102
MATERIAL
148
0.0
149
0.0
149
0.0
 93
        0
 94
       63
282
     0
 72
     1
 77
     1
171
     1
175
     1
179
     1
273
     0
  0
XRECORD
  5
894
102
{ACAD_REACTORS
330
893
102
}
330
893
100
AcDbXrecord
280
     1
102
MATERIAL
148
0.0
149
0.0
149
0.0
 93
        0
 94
       63
282
     0
 72
     1
 77
     1
171
     1
175
     1
179
     1
273
     0
  0
XRECORD
  5
898
102
{ACAD_REACTORS
330
897
102
}
330
897
100
AcDbXrecord
280
     1
102
MATERIAL
148
0.0
149
0.0
149
0.0
 93
        0
 94
       63
282
     0
 72
     1
 77
     1
171
     1
175
     1
179
     1
273
     0
  0
XRECORD
  5
89A
102
{ACAD_REACTORS
330
899
102
}
330
899
100
AcDbXrecord
280
     1
102
ACAD_ROUNDTRIP_PRE2007_TABLESTYLE
 90
      512
 91
        0
  1

 92
      512
 93
        0
  2

 94
      512
 95
        0
  3

  0
ENDSEC
  0
EOF
