  0
SECTION
  2
HEADER
  9
$ACADVER
  1
AC1014
  9
$ACADMAINTVER
 70
     9
  9
$DWGCODEPAGE
  3
ANSI_1252
  9
$INSBASE
 10
21.27323946847563
 20
-80.67142842148042
 30
0.0
  9
$EXTMIN
 10
-8.629566478542972
 20
-82.45264205498871
 30
0.0
  9
$EXTMAX
 10
42.84809382159345
 20
-58.73407260667503
 30
0.0
  9
$LIMMIN
 10
0.0
 20
0.0
  9
$LIMMAX
 10
36.0
 20
36.0
  9
$ORTHOMODE
 70
     1
  9
$REGENMODE
 70
     1
  9
$FILLMODE
 70
     1
  9
$QTEXTMODE
 70
     0
  9
$MIRRTEXT
 70
     1
  9
$DRAGMODE
 70
     0
  9
$LTSCALE
 40
1.0
  9
$OSMODE
 70
    37
  9
$ATTMODE
 70
     1
  9
$TEXTSIZE
 40
0.2
  9
$TRACEWID
 40
0.05
  9
$TEXTSTYLE
  7
STANDARD
  9
$CLAYER
  8
ADPDIM
  9
$CELTYPE
  6
BYLAYER
  9
$CECOLOR
 62
   256
  9
$CELTSCALE
 40
1.0
  9
$DELOBJ
 70
     1
  9
$DISPSILH
 70
     0
  9
$DIMSCALE
 40
1.0
  9
$DIMASZ
 40
0.125
  9
$DIMEXO
 40
0.0625
  9
$DIMDLI
 40
0.38
  9
$DIMRND
 40
0.0
  9
$DIMDLE
 40
0.0
  9
$DIMEXE
 40
0.18
  9
$DIMTP
 40
0.0
  9
$DIMTM
 40
0.0
  9
$DIMTXT
 40
0.125
  9
$DIMCEN
 40
0.1875
  9
$DIMTSZ
 40
0.125
  9
$DIMTOL
 70
     0
  9
$DIMLIM
 70
     0
  9
$DIMTIH
 70
     0
  9
$DIMTOH
 70
     0
  9
$DIMSE1
 70
     0
  9
$DIMSE2
 70
     0
  9
$DIMTAD
 70
     0
  9
$DIMZIN
 70
     3
  9
$DIMBLK
  1

  9
$DIMASO
 70
     1
  9
$DIMSHO
 70
     1
  9
$DIMPOST
  1

  9
$DIMAPOST
  1

  9
$DIMALT
 70
     0
  9
$DIMALTD
 70
     1
  9
$DIMALTF
 40
25.4
  9
$DIMLFAC
 40
1.0
  9
$DIMTOFL
 70
     0
  9
$DIMTVP
 40
0.0
  9
$DIMTIX
 70
     0
  9
$DIMSOXD
 70
     0
  9
$DIMSAH
 70
     0
  9
$DIMBLK1
  1

  9
$DIMBLK2
  1

  9
$DIMSTYLE
  2
STANDARD
  9
$DIMCLRD
 70
     0
  9
$DIMCLRE
 70
     0
  9
$DIMCLRT
 70
     0
  9
$DIMTFAC
 40
1.0
  9
$DIMGAP
 40
0.125
  9
$DIMJUST
 70
     0
  9
$DIMSD1
 70
     0
  9
$DIMSD2
 70
     0
  9
$DIMTOLJ
 70
     1
  9
$DIMTZIN
 70
     0
  9
$DIMALTZ
 70
     0
  9
$DIMALTTZ
 70
     0
  9
$DIMFIT
 70
     3
  9
$DIMUPT
 70
     0
  9
$DIMUNIT
 70
     2
  9
$DIMDEC
 70
     4
  9
$DIMTDEC
 70
     4
  9
$DIMALTU
 70
     2
  9
$DIMALTTD
 70
     2
  9
$DIMTXSTY
  7
STANDARD
  9
$DIMAUNIT
 70
     0
  9
$LUNITS
 70
     5
  9
$LUPREC
 70
     4
  9
$SKETCHINC
 40
0.1
  9
$FILLETRAD
 40
0.062
  9
$AUNITS
 70
     0
  9
$AUPREC
 70
     0
  9
$MENU
  1
acad
  9
$ELEVATION
 40
0.0
  9
$PELEVATION
 40
0.0
  9
$THICKNESS
 40
0.0
  9
$LIMCHECK
 70
     0
  9
$BLIPMODE
 70
     0
  9
$CHAMFERA
 40
0.0
  9
$CHAMFERB
 40
0.0
  9
$CHAMFERC
 40
0.0
  9
$CHAMFERD
 40
0.0
  9
$SKPOLY
 70
     0
  9
$TDCREATE
 40
2450408.696339699
  9
$TDUPDATE
 40
2452297.073160081
  9
$TDINDWG
 40
0.0109433681
  9
$TDUSRTIMER
 40
0.0109433681
  9
$USRTIMER
 70
     1
  9
$ANGBASE
 50
0.0
  9
$ANGDIR
 70
     0
  9
$PDMODE
 70
     0
  9
$PDSIZE
 40
0.0
  9
$PLINEWID
 40
0.0
  9
$COORDS
 70
     2
  9
$SPLFRAME
 70
     0
  9
$SPLINETYPE
 70
     6
  9
$SPLINESEGS
 70
     8
  9
$ATTDIA
 70
     0
  9
$ATTREQ
 70
     1
  9
$HANDLING
 70
 22529
  9
$HANDSEED
  5
76E
  9
$SURFTAB1
 70
     6
  9
$SURFTAB2
 70
     6
  9
$SURFTYPE
 70
     6
  9
$SURFU
 70
     6
  9
$SURFV
 70
     6
  9
$UCSNAME
  2

  9
$UCSORG
 10
0.0
 20
0.0
 30
0.0
  9
$UCSXDIR
 10
1.0
 20
0.0
 30
0.0
  9
$UCSYDIR
 10
0.0
 20
1.0
 30
0.0
  9
$PUCSNAME
  2

  9
$PUCSORG
 10
0.0
 20
0.0
 30
0.0
  9
$PUCSXDIR
 10
1.0
 20
0.0
 30
0.0
  9
$PUCSYDIR
 10
0.0
 20
1.0
 30
0.0
  9
$USERI1
 70
     0
  9
$USERI2
 70
     0
  9
$USERI3
 70
     0
  9
$USERI4
 70
     0
  9
$USERI5
 70
     0
  9
$USERR1
 40
0.0
  9
$USERR2
 40
0.0
  9
$USERR3
 40
0.0
  9
$USERR4
 40
0.0
  9
$USERR5
 40
0.0
  9
$WORLDVIEW
 70
     1
  9
$SHADEDGE
 70
     3
  9
$SHADEDIF
 70
    70
  9
$TILEMODE
 70
     1
  9
$MAXACTVP
 70
    15
  9
$PINSBASE
 10
0.0
 20
0.0
 30
0.0
  9
$PLIMCHECK
 70
     0
  9
$PEXTMIN
 10
1.000000000000000E+20
 20
1.000000000000000E+20
 30
1.000000000000000E+20
  9
$PEXTMAX
 10
-1.000000000000000E+20
 20
-1.000000000000000E+20
 30
-1.000000000000000E+20
  9
$PLIMMIN
 10
0.0
 20
0.0
  9
$PLIMMAX
 10
12.0
 20
9.0
  9
$UNITMODE
 70
     0
  9
$VISRETAIN
 70
     0
  9
$PLINEGEN
 70
     0
  9
$PSLTSCALE
 70
     1
  9
$TREEDEPTH
 70
  3020
  9
$PICKSTYLE
 70
     1
  9
$CMLSTYLE
  2
STANDARD
  9
$CMLJUST
 70
     0
  9
$CMLSCALE
 40
1.0
  9
$PROXYGRAPHICS
 70
     1
  9
$MEASUREMENT
 70
     0
  0
ENDSEC
  0
SECTION
  2
CLASSES
  0
CLASS
  1
ACDBDICTIONARYWDFLT
  2
AcDbDictionaryWithDefault
  3
AutoCAD 2000
 90
        0
280
     0
281
     0
  0
CLASS
  1
ACDBPLACEHOLDER
  2
AcDbPlaceHolder
  3
AutoCAD 2000
 90
        0
280
     0
281
     0
  0
CLASS
  1
LAYOUT
  2
AcDbLayout
  3
AutoCAD 2000
 90
        0
280
     0
281
     0
  0
CLASS
  1
DICTIONARYVAR
  2
AcDbDictionaryVar
  3
AutoCAD 2000
 90
        0
280
     0
281
     0
  0
CLASS
  1
LONG_TRANSACTION
  2
AcDbLongTransaction
  3
AutoCAD 2000
 90
        0
280
     0
281
     0
  0
CLASS
  1
LWPOLYLINE
  2
AcDbPolyline
  3
AutoCAD 2000
 90
        0
280
     0
281
     1
  0
CLASS
  1
HATCH
  2
AcDbHatch
  3
AutoCAD 2000
 90
        0
280
     0
281
     1
  0
CLASS
  1
XRECORD
  2
AcDbXrecord
  3
AutoCAD 2000
 90
        0
280
     0
281
     0
  0
CLASS
  1
LONG_TRANSACTION
  2
AcDbLongTransaction
  3
AutoCAD 2000
 90
        0
280
     0
281
     0
  0
CLASS
  1
LWPOLYLINE
  2
AcDbPolyline
  3
AutoCAD 2000
 90
        0
280
     0
281
     1
  0
CLASS
  1
HATCH
  2
AcDbHatch
  3
AutoCAD 2000
 90
        0
280
     0
281
     1
  0
CLASS
  1
XRECORD
  2
AcDbXrecord
  3
AutoCAD 2000
 90
        0
280
     0
281
     0
  0
CLASS
  1
LONG_TRANSACTION
  2
AcDbLongTransaction
  3
AutoCAD 2000
 90
        0
280
     0
281
     0
  0
CLASS
  1
LWPOLYLINE
  2
AcDbPolyline
  3
AutoCAD 2000
 90
        0
280
     0
281
     1
  0
CLASS
  1
HATCH
  2
AcDbHatch
  3
AutoCAD 2000
 90
        0
280
     0
281
     1
  0
CLASS
  1
XRECORD
  2
AcDbXrecord
  3
AutoCAD 2000
 90
        0
280
     0
281
     0
  0
CLASS
  1
LONG_TRANSACTION
  2
AcDbLongTransaction
  3
AutoCAD 2000
 90
        0
280
     0
281
     0
  0
CLASS
  1
LWPOLYLINE
  2
AcDbPolyline
  3
AutoCAD 2000
 90
        0
280
     0
281
     1
  0
CLASS
  1
HATCH
  2
AcDbHatch
  3
AutoCAD 2000
 90
        0
280
     0
281
     1
  0
CLASS
  1
XRECORD
  2
AcDbXrecord
  3
AutoCAD 2000
 90
        0
280
     0
281
     0
  0
CLASS
  1
LONG_TRANSACTION
  2
AcDbLongTransaction
  3
AutoCAD 2000
 90
        0
280
     0
281
     0
  0
CLASS
  1
LWPOLYLINE
  2
AcDbPolyline
  3
AutoCAD 2000
 90
        0
280
     0
281
     1
  0
CLASS
  1
HATCH
  2
AcDbHatch
  3
AutoCAD 2000
 90
        0
280
     0
281
     1
  0
CLASS
  1
XRECORD
  2
AcDbXrecord
  3
AutoCAD 2000
 90
        0
280
     0
281
     0
  0
CLASS
  1
LONG_TRANSACTION
  2
AcDbLongTransaction
  3
AutoCAD 2000
 90
        0
280
     0
281
     0
  0
CLASS
  1
LWPOLYLINE
  2
AcDbPolyline
  3
AutoCAD 2000
 90
        0
280
     0
281
     1
  0
CLASS
  1
HATCH
  2
AcDbHatch
  3
AutoCAD 2000
 90
        0
280
     0
281
     1
  0
CLASS
  1
XRECORD
  2
AcDbXrecord
  3
AutoCAD 2000
 90
        0
280
     0
281
     0
  0
ENDSEC
  0
SECTION
  2
TABLES
  0
TABLE
  2
VPORT
  5
8
330
0
100
AcDbSymbolTable
 70
     2
  0
VPORT
  5
74B
330
8
100
AcDbSymbolTableRecord
100
AcDbViewportTableRecord
  2
*ACTIVE
 70
     0
 10
0.0
 20
0.0
 11
1.0
 21
1.0
 12
17.15112736652053
 22
-70.59346311150656
 13
0.0
 23
0.0
 14
0.5740882589684922
 24
0.5740882589684922
 15
0.5
 25
0.5
 16
0.0
 26
0.0
 36
1.0
 17
0.0
 27
0.0
 37
0.0
 40
32.99165391651031
 41
1.570528967254408
 42
50.0
 43
0.0
 44
0.0
 50
0.0
 51
0.0
 71
     0
 72
   100
 73
     1
 74
     0
 75
     0
 76
     0
 77
     0
 78
     0
  0
ENDTAB
  0
TABLE
  2
LTYPE
  5
5
330
0
100
AcDbSymbolTable
 70
     1
  0
LTYPE
  5
12
330
5
100
AcDbSymbolTableRecord
100
AcDbLinetypeTableRecord
  2
BYBLOCK
 70
     0
  3

 72
    65
 73
     0
 40
0.0
  0
LTYPE
  5
13
330
5
100
AcDbSymbolTableRecord
100
AcDbLinetypeTableRecord
  2
BYLAYER
 70
     0
  3

 72
    65
 73
     0
 40
0.0
  0
LTYPE
  5
14
330
5
100
AcDbSymbolTableRecord
100
AcDbLinetypeTableRecord
  2
CONTINUOUS
 70
     0
  3
Solid line
 72
    65
 73
     0
 40
0.0
  0
ENDTAB
  0
TABLE
  2
LAYER
  5
2
330
0
100
AcDbSymbolTable
 70
     3
  0
LAYER
  5
F
330
2
100
AcDbSymbolTableRecord
100
AcDbLayerTableRecord
  2
0
 70
     0
 62
     7
  6
CONTINUOUS
  0
LAYER
  5
CC
330
2
100
AcDbSymbolTableRecord
100
AcDbLayerTableRecord
  2
DEFPOINTS
 70
     0
 62
     7
  6
CONTINUOUS
  0
LAYER
  5
CD
330
2
100
AcDbSymbolTableRecord
100
AcDbLayerTableRecord
  2
ADPDIM
 70
     0
 62
     3
  6
CONTINUOUS
  0
ENDTAB
  0
TABLE
  2
STYLE
  5
3
330
0
100
AcDbSymbolTable
 70
     2
  0
STYLE
  5
10
330
3
100
AcDbSymbolTableRecord
100
AcDbTextStyleTableRecord
  2
STANDARD
 70
     0
 40
0.0
 41
1.0
 50
0.0
 71
     0
 42
0.2
  3
txt
  4

  0
STYLE
  5
603
330
3
100
AcDbSymbolTableRecord
100
AcDbTextStyleTableRecord
  2
ARIAL_WIDE
 70
     0
 40
0.0
 41
1.25
 50
0.0
 71
     0
 42
0.2
  3
ARIAL.TTF
  4

1001
ACAD
1000
Arial
1071
       34
  0
ENDTAB
  0
TABLE
  2
VIEW
  5
6
330
0
100
AcDbSymbolTable
 70
     0
  0
ENDTAB
  0
TABLE
  2
UCS
  5
7
330
0
100
AcDbSymbolTable
 70
     0
  0
ENDTAB
  0
TABLE
  2
APPID
  5
9
330
0
100
AcDbSymbolTable
 70
     1
  0
APPID
  5
11
330
9
100
AcDbSymbolTableRecord
100
AcDbRegAppTableRecord
  2
ACAD
 70
     0
  0
ENDTAB
  0
TABLE
  2
DIMSTYLE
  5
A
330
0
100
AcDbSymbolTable
 70
     1
  0
DIMSTYLE
105
5F7
330
A
100
AcDbSymbolTableRecord
100
AcDbDimStyleTableRecord
  2
STANDARD
 70
     0
  3

  4

  5

  6

  7

 40
1.0
 41
0.18
 42
0.0625
 43
0.38
 44
0.18
 45
0.0
 46
0.0
 47
0.0
 48
0.0
140
0.18
141
0.09
142
0.0
143
25.4
144
1.0
145
0.0
146
1.0
147
0.09
 71
     0
 72
     0
 73
     1
 74
     1
 75
     0
 76
     0
 77
     0
 78
     0
170
     0
171
     2
172
     0
173
     0
174
     0
175
     0
176
     0
177
     0
178
     0
270
     2
271
     4
272
     4
273
     2
274
     2
340
10
275
     0
280
     0
281
     0
282
     0
283
     1
284
     0
285
     0
286
     0
287
     3
288
     0
  0
ENDTAB
  0
TABLE
  2
BLOCK_RECORD
  5
1
330
0
100
AcDbSymbolTable
 70
     2
  0
BLOCK_RECORD
  5
18
102
{ACAD_XDICTIONARY
360
658
102
}
330
1
100
AcDbSymbolTableRecord
100
AcDbBlockTableRecord
  2
*MODEL_SPACE
  0
BLOCK_RECORD
  5
15
102
{ACAD_XDICTIONARY
360
656
102
}
330
1
100
AcDbSymbolTableRecord
100
AcDbBlockTableRecord
  2
*PAPER_SPACE
  0
BLOCK_RECORD
  5
C4
330
1
100
AcDbSymbolTableRecord
100
AcDbBlockTableRecord
  2
*D0
  0
BLOCK_RECORD
  5
C6
330
1
100
AcDbSymbolTableRecord
100
AcDbBlockTableRecord
  2
*D1
  0
ENDTAB
  0
ENDSEC
  0
SECTION
  2
BLOCKS
  0
BLOCK
  5
D0
330
18
100
AcDbEntity
  8
0
100
AcDbBlockBegin
  2
*MODEL_SPACE
 70
     0
 10
0.0
 20
0.0
 30
0.0
  3
*MODEL_SPACE
  1

  0
ENDBLK
  5
D1
330
18
100
AcDbEntity
  8
0
100
AcDbBlockEnd
  0
BLOCK
  5
CE
330
15
100
AcDbEntity
 67
     1
  8
0
100
AcDbBlockBegin
  2
*PAPER_SPACE
 70
     0
 10
0.0
 20
0.0
 30
0.0
  3
*PAPER_SPACE
  1

  0
ENDBLK
  5
CF
330
15
100
AcDbEntity
 67
     1
  8
0
100
AcDbBlockEnd
  0
BLOCK
  5
D3
330
C4
100
AcDbEntity
  8
0
100
AcDbBlockBegin
  2
*D0
 70
     1
 10
0.0
 20
0.0
 30
0.0
  3
*D0
  1

  0
LINE
  5
D4
330
C4
100
AcDbEntity
  8
0
  6
BYBLOCK
 62
     0
100
AcDbLine
 10
22.94782750940391
 20
-80.67137163179049
 30
0.0
 11
24.34548815131589
 21
-80.67137163179049
 31
0.0
  0
LINE
  5
D5
330
C4
100
AcDbEntity
  8
0
  6
BYBLOCK
 62
     0
100
AcDbLine
 10
22.94782750940391
 20
-59.67137163179049
 30
0.0
 11
24.34548815131589
 21
-59.67137163179049
 31
0.0
  0
LINE
  5
D6
330
C4
100
AcDbEntity
  8
0
  6
BYBLOCK
 62
     0
100
AcDbLine
 10
24.16548815131589
 20
-80.67137163179049
 30
0.0
 11
24.16548815131589
 21
-70.37970496512382
 31
0.0
  0
LINE
  5
D7
330
C4
100
AcDbEntity
  8
0
  6
BYBLOCK
 62
     0
100
AcDbLine
 10
24.16548815131589
 20
-59.67137163179049
 30
0.0
 11
24.16548815131589
 21
-69.96303829845716
 31
0.0
  0
LINE
  5
D8
330
C4
100
AcDbEntity
  8
0
  6
BYBLOCK
 62
     0
100
AcDbLine
 10
24.29048815131589
 20
-80.79637163179048
 30
0.0
 11
24.04048815131589
 21
-80.5463716317905
 31
0.0
  0
LINE
  5
D9
330
C4
100
AcDbEntity
  8
0
  6
BYBLOCK
 62
     0
100
AcDbLine
 10
24.29048815131589
 20
-59.79637163179049
 30
0.0
 11
24.04048815131589
 21
-59.54637163179049
 31
0.0
  0
TEXT
  5
DA
330
C4
100
AcDbEntity
  8
0
  6
BYBLOCK
 62
     0
100
AcDbText
 10
24.22798815131589
 20
-70.25470496512382
 30
0.0
 40
0.125
  1
21
 50
90.0
 72
     1
 11
24.16548815131589
 21
-70.17137163179049
 31
0.0
100
AcDbText
 73
     2
  0
POINT
  5
DB
330
C4
100
AcDbEntity
  8
DEFPOINTS
  6
BYBLOCK
 62
     0
100
AcDbPoint
 10
22.88532750940391
 20
-80.67137163179049
 30
0.0
  0
POINT
  5
DC
330
C4
100
AcDbEntity
  8
DEFPOINTS
  6
BYBLOCK
 62
     0
100
AcDbPoint
 10
22.88532750940391
 20
-59.67137163179049
 30
0.0
  0
POINT
  5
DD
330
C4
100
AcDbEntity
  8
DEFPOINTS
  6
BYBLOCK
 62
     0
100
AcDbPoint
 10
24.16548815131589
 20
-59.67137163179049
 30
0.0
  0
ENDBLK
  5
DE
330
C4
100
AcDbEntity
  8
0
100
AcDbBlockEnd
  0
BLOCK
  5
DF
330
C6
100
AcDbEntity
  8
0
100
AcDbBlockBegin
  2
*D1
 70
     1
 10
0.0
 20
0.0
 30
0.0
  3
*D1
  1

  0
LINE
  5
E0
330
C6
100
AcDbEntity
  8
0
  6
BYBLOCK
 62
     0
100
AcDbLine
 10
21.25703329330132
 20
-59.61966195196398
 30
0.0
 11
21.25703329330132
 21
-58.73407260667503
 31
0.0
  0
LINE
  5
E1
330
C6
100
AcDbEntity
  8
0
  6
BYBLOCK
 62
     0
100
AcDbLine
 10
12.75703329330132
 20
-61.34389466760955
 30
0.0
 11
12.75703329330132
 21
-58.73407260667503
 31
0.0
  0
LINE
  5
E2
330
C6
100
AcDbEntity
  8
0
  6
BYBLOCK
 62
     0
100
AcDbLine
 10
21.25703329330132
 20
-58.91407260667503
 30
0.0
 11
17.40286662663465
 21
-58.91407260667503
 31
0.0
  0
LINE
  5
E3
330
C6
100
AcDbEntity
  8
0
  6
BYBLOCK
 62
     0
100
AcDbLine
 10
12.75703329330132
 20
-58.91407260667503
 30
0.0
 11
16.61119995996798
 21
-58.91407260667503
 31
0.0
  0
LINE
  5
E4
330
C6
100
AcDbEntity
  8
0
  6
BYBLOCK
 62
     0
100
AcDbLine
 10
21.13203329330131
 20
-59.03907260667503
 30
0.0
 11
21.38203329330131
 21
-58.78907260667503
 31
0.0
  0
LINE
  5
E5
330
C6
100
AcDbEntity
  8
0
  6
BYBLOCK
 62
     0
100
AcDbLine
 10
12.63203329330131
 20
-59.03907260667503
 30
0.0
 11
12.88203329330132
 21
-58.78907260667503
 31
0.0
  0
TEXT
  5
E6
330
C6
100
AcDbEntity
  8
0
  6
BYBLOCK
 62
     0
100
AcDbText
 10
16.73619995996798
 20
-58.97657260667504
 30
0.0
 40
0.125
  1
8 1/2
 72
     1
 11
17.00703329330131
 21
-58.91407260667503
 31
0.0
100
AcDbText
 73
     2
  0
POINT
  5
E7
330
C6
100
AcDbEntity
  8
DEFPOINTS
  6
BYBLOCK
 62
     0
100
AcDbPoint
 10
21.25703329330132
 20
-59.68216195196398
 30
0.0
  0
POINT
  5
E8
330
C6
100
AcDbEntity
  8
DEFPOINTS
  6
BYBLOCK
 62
     0
100
AcDbPoint
 10
12.75703329330132
 20
-61.40639466760955
 30
0.0
  0
POINT
  5
E9
330
C6
100
AcDbEntity
  8
DEFPOINTS
  6
BYBLOCK
 62
     0
100
AcDbPoint
 10
12.75703329330132
 20
-58.91407260667503
 30
0.0
  0
ENDBLK
  5
EA
330
C6
100
AcDbEntity
  8
0
100
AcDbBlockEnd
  0
ENDSEC
  0
SECTION
  2
ENTITIES
  0
DIMENSION
  5
EB
330
18
100
AcDbEntity
  8
ADPDIM
100
AcDbDimension
  2
*D1
 10
12.75703329330132
 20
-58.91407260667503
 30
0.0
 11
17.00703329330131
 21
-58.91407260667503
 31
0.0
100
AcDbAlignedDimension
 13
21.25703329330132
 23
-59.68216195196398
 33
0.0
 14
12.75703329330132
 24
-61.40639466760955
 34
0.0
100
AcDbRotatedDimension
  0
LWPOLYLINE
  5
EC
330
18
100
AcDbEntity
  8
0
100
AcDbPolyline
 90
        4
 70
     0
 43
0.0
 10
17.32709833604535
 20
-75.19295440075253
 42
-0.2696391858189889
 10
16.23971718436846
 20
-71.94981830764598
 42
-0.6265437270551583
 10
21.04524024267576
 20
-71.40637389504274
 42
-0.3283351554478432
 10
20.72954889263718
 20
-74.03594368053683
 42
-0.4327438493487658
  0
LWPOLYLINE
  5
F2
330
18
100
AcDbEntity
  8
0
100
AcDbPolyline
 90
        5
 70
     0
 43
0.0
 10
18.62494024621426
 20
-75.78899017986903
 42
-0.1163006124397248
 10
16.83602294982991
 20
-73.96582178552759
 42
-0.419650251853598
 10
17.52002073337979
 20
-70.77527713192586
 42
-0.4585392175668704
 10
20.94000975727947
 20
-71.9673487631504
 42
-0.3860773333259338
 10
20.0455511090873
 20
-74.33396157009507
 42
-0.2407718469569671
  0
LWPOLYLINE
  5
F9
330
18
100
AcDbEntity
  8
0
100
AcDbPolyline
 90
       26
 70
     0
 43
0.0
 10
17.43232871529136
 20
-79.06718718398441
 42
-0.1189351814560674
 10
16.15202516628003
 20
-80.53974624926279
 42
-0.3820691626776007
 10
14.2578773844994
 20
-80.03136274766839
 10
14.06495498716496
 20
-80.13654555368646
 42
0.336604188153271
 10
13.80187893289966
 20
-79.73334485811014
 42
-0.1797732706657129
 10
13.57387960094952
 20
-79.277552723029
 42
-0.2110837690408199
 10
13.83695565521481
 20
-79.04965672848
 42
-0.2044466579503954
 10
13.8895709509881
 20
-78.45362087637195
 42
-0.0598496247649805
 10
14.01233979754196
 20
-78.2783162483362
 10
14.01233979754196
 20
-78.20819435332696
 10
14.2052621948764
 20
-78.17313344231812
 42
0.0272557780242778
 10
14.36310786989569
 20
-77.96276790327353
 42
0.1046586161382755
 10
14.43326152682654
 20
-77.78746320224621
 42
-0.3026615671333451
 10
14.64372239146883
 20
-77.85758509725545
 42
-0.0384200345771914
 10
14.59110709569555
 20
-78.05042018079562
 42
-0.0302042470285127
 10
14.76649113187242
 20
-78.69904739941692
 42
-0.3007831175280434
 10
14.55603026723012
 20
-79.22496135651575
 42
-0.0710454843305695
 10
14.76649113187242
 20
-79.3126137070294
 42
-0.5687924317358397
 10
14.76649113187242
 20
-79.43532696855189
 42
0.2660102568050624
 10
14.67879911378398
 20
-80.11901509818205
 42
-1.496141210647567
 10
14.60864556300341
 20
-80.11901509818205
 42
-0.4279894080080491
 10
14.46833824914169
 20
-79.90864948614589
 42
0.0333113422019525
 10
14.45079988798412
 20
-79.43532696855189
 42
0.6547188460968372
 10
13.97726296907653
 20
-79.50544879056957
 42
0.2454213459736761
 10
14.13510864409582
 20
-79.85605811963264
 42
-0.1477689062217795
 10
14.2578773844994
 20
-80.03136274766839
 42
-1.381262626113255
  0
LWPOLYLINE
  5
115
330
18
100
AcDbEntity
  8
0
100
AcDbPolyline
 90
       21
 70
     0
 43
0.0
 10
17.29202150757992
 20
-75.59615509632886
 42
-0.1603699343751702
 10
16.59048525672219
 20
-75.22801531176137
 42
-0.1230515189014331
 10
16.16956363358788
 20
-75.26307622277021
 42
0.1771277723621994
 10
16.09940997665702
 20
-75.91170344139152
 42
0.2359721554325244
 10
16.15202516628003
 20
-75.8941729858871
 42
0.0384516953647754
 10
16.36248603092232
 20
-75.64874646284211
 42
-0.0989756059807079
 10
16.97633026369163
 20
-75.70133790234693
 42
0.4788028891828399
 10
17.3095598687375
 20
-75.59615509632886
 42
-0.1384150662586479
 10
20.39631918144103
 20
-78.05042018079562
 42
0.2657503877818194
 10
18.27417217386053
 20
-77.73487183573296
 42
0.0905232774524059
 10
16.60802372403004
 20
-79.80346668012782
 42
-0.145705477363739
 10
16.0117179585686
 20
-79.82099720862379
 42
0.4832301725919921
 10
16.27479401283389
 20
-79.54050970157841
 42
0.4740151101536451
 10
16.08187150934917
 20
-79.15483953449807
 42
-0.283151280650458
 10
15.94156430163774
 20
-78.804230205435
 42
0.5909457793730255
 10
15.76618026546087
 20
-78.6639864884081
 42
0.1694007876397298
 10
15.41541219310715
 20
-78.97953483347077
 42
0.088322012730179
 10
15.29264334655329
 20
-79.34767461803824
 42
0.6040144687134913
 10
15.90648747317231
 20
-79.87358857513706
 42
0.3384403258381936
 10
16.29233237399147
 20
-80.03136274766839
 42
-0.1330363918920411
 10
16.48525487747618
 20
-80.03136274766839
 42
-7.516740237599827
  0
LWPOLYLINE
  5
12C
330
18
100
AcDbEntity
  8
0
100
AcDbPolyline
 90
        4
 70
     0
 43
0.0
 10
15.04710565344557
 20
-74.07100459154566
 42
-0.1018381517208886
 10
15.66094988621487
 20
-74.31643111459066
 42
0.0473664322299496
 10
17.3095598687375
 20
-75.19295440075253
 42
-0.0945446244829046
 10
18.08124977652609
 20
-75.70133790234693
 42
-2.464029270820235
  0
LWPOLYLINE
  5
132
330
18
100
AcDbEntity
  8
0
100
AcDbPolyline
 90
       21
 70
     0
 43
0.0
 10
16.80227841349803
 20
-65.06401478447464
 42
0.1603699343751702
 10
17.50381466435576
 20
-64.69587499990715
 42
0.1230515189014331
 10
17.92473628749007
 20
-64.73093591091599
 42
-0.1771277723621994
 10
17.99488994442093
 20
-65.3795631295373
 42
-0.2359721554325244
 10
17.94227475479792
 20
-65.36203267403287
 42
-0.0384516953647754
 10
17.73181389015563
 20
-65.11660615098789
 42
0.0989756059807079
 10
17.11796965738633
 20
-65.16919759049272
 42
-0.4788028891828399
 10
16.78474005234045
 20
-65.06401478447464
 42
0.1384150662586479
 10
13.69798073963693
 20
-67.51827986894141
 42
-0.2657503877818194
 10
15.82012774721742
 20
-67.20273152387874
 42
-0.0905232774524059
 10
17.48627619704791
 20
-69.2713263682736
 42
0.145705477363739
 10
18.08258196250936
 20
-69.28885689676959
 42
-0.4832301725919921
 10
17.81950590824406
 20
-69.00836938972419
 42
-0.4740151101536451
 10
18.01242841172878
 20
-68.62269922264385
 42
0.283151280650458
 10
18.15273561944021
 20
-68.27208989358078
 42
-0.5909457793730255
 10
18.32811965561708
 20
-68.13184617655387
 42
-0.1694007876397298
 10
18.67888772797081
 20
-68.44739452161654
 42
-0.088322012730179
 10
18.80165657452467
 20
-68.81553430618402
 42
-0.6040144687134913
 10
18.18781244790564
 20
-69.34144826328284
 42
-0.3384403258381936
 10
17.80196754708649
 20
-69.49922243581418
 42
0.1330363918920411
 10
17.60904504360177
 20
-69.49922243581418
 42
7.516740237599827
  0
LWPOLYLINE
  5
149
330
18
100
AcDbEntity
  8
0
100
AcDbPolyline
 90
        5
 70
     0
 43
0.0
 10
15.4693596748637
 20
-65.25684986801481
 42
0.1163006124397248
 10
17.25827697124804
 20
-63.43368147367337
 42
0.419650251853598
 10
16.57427918769816
 20
-60.24313682007164
 42
0.4585392175668704
 10
13.15429016379848
 20
-61.43520845129618
 42
0.3860773333259338
 10
14.04874881199065
 20
-63.80182125824085
 42
0.2407718469569671
  0
LWPOLYLINE
  5
150
330
18
100
AcDbEntity
  8
0
100
AcDbPolyline
 90
        4
 70
     0
 43
0.0
 10
19.04719426763239
 20
-63.53886427969145
 42
0.1018381517208886
 10
18.43335003486308
 20
-63.78429080273644
 42
-0.0473664322299496
 10
16.78474005234045
 20
-64.66081408889832
 42
0.0945446244829046
 10
16.01305014455187
 20
-65.16919759049272
 42
2.464029270820235
  0
LWPOLYLINE
  5
156
330
18
100
AcDbEntity
  8
0
100
AcDbPolyline
 90
       26
 70
     0
 43
0.0
 10
16.66197120578659
 20
-68.53504687213019
 42
0.1189351814560674
 10
17.94227475479792
 20
-70.00760593740857
 42
0.3820691626776007
 10
19.83642253657855
 20
-69.49922243581418
 10
20.02934493391299
 20
-69.60440524183225
 42
-0.336604188153271
 10
20.29242098817829
 20
-69.20120454625592
 42
0.1797732706657129
 10
20.52042032012843
 20
-68.74541241117478
 42
0.2110837690408199
 10
20.25734426586314
 20
-68.51751641662578
 42
0.2044466579503954
 10
20.20472897008986
 20
-67.92148056451772
 42
0.0598496247649805
 10
20.081960123536
 20
-67.74617593648198
 10
20.081960123536
 20
-67.67605404147274
 10
19.88903772620155
 20
-67.6409931304639
 42
-0.0272557780242778
 10
19.73119205118226
 20
-67.43062759141931
 42
-0.1046586161382755
 10
19.66103839425141
 20
-67.25532289039199
 42
0.3026615671333451
 10
19.45057752960912
 20
-67.32544478540123
 42
0.0384200345771914
 10
19.5031928253824
 20
-67.51827986894141
 42
0.0302042470285127
 10
19.32780878920554
 20
-68.16690708756272
 42
0.3007831175280434
 10
19.53826965384783
 20
-68.69282104466153
 42
0.0710454843305695
 10
19.32780878920554
 20
-68.78047339517518
 42
0.5687924317358397
 10
19.32780878920554
 20
-68.90318665669768
 42
-0.2660102568050624
 10
19.41550080729397
 20
-69.58687478632782
 42
1.496141210647567
 10
19.48565435807455
 20
-69.58687478632782
 42
0.4279894080080491
 10
19.62596167193626
 20
-69.37650917429168
 42
-0.0333113422019525
 10
19.64350003309384
 20
-68.90318665669768
 42
-0.6547188460968372
 10
20.11703695200143
 20
-68.97330847871535
 42
-0.2454213459736761
 10
19.95919127698213
 20
-69.32391780777841
 42
0.1477689062217795
 10
19.83642253657855
 20
-69.49922243581418
 42
1.381262626113255
  0
LWPOLYLINE
  5
172
330
18
100
AcDbEntity
  8
0
100
AcDbPolyline
 90
       13
 70
     0
 43
0.0
 10
19.23878447898356
 20
-71.70439178460099
 10
19.25632284014113
 20
-71.4940262455564
 10
19.15109246089513
 20
-71.3713129840339
 42
-0.2401594060889833
 10
18.85293957816441
 20
-71.58167859607006
 42
0.3114721735543541
 10
18.55478669543368
 20
-71.47649579005198
 42
-0.2440345554908853
 10
18.15140332730667
 20
-71.38884343953832
 42
0.4807248665748418
 10
17.48494401106464
 20
-71.68686132909657
 42
0.3634031924407167
 10
17.76555842648751
 20
-72.17771437518655
 42
0.181411573287881
 10
17.8707889118838
 20
-72.68609787678094
 42
-0.015142494631865
 10
17.2569446791145
 20
-72.49326272024922
 42
0.565400275049429
 10
17.0464838144722
 20
-72.66856742127652
 42
0.3147469757636841
 10
17.46740554375679
 20
-73.2470727448886
 42
-0.2280587078654015
 10
17.67786640839908
 20
-73.65027344046493
 42
-1.033169338606365
  0
LWPOLYLINE
  5
181
330
18
100
AcDbEntity
  8
0
100
AcDbPolyline
 90
        4
 70
     0
 43
0.0
 10
16.7672015850326
 20
-64.66081408889832
 42
0.2696391858189889
 10
17.85458273670949
 20
-61.41767799579176
 42
0.6265437270551583
 10
13.0490596784022
 20
-60.87423358318853
 42
0.3283351554478432
 10
13.36475102844077
 20
-63.50380336868261
 42
0.4327438493487658
  0
ARC
  5
187
330
18
100
AcDbEntity
  8
0
100
AcDbCircle
 10
15.6787076394032
 20
-77.55910158220757
 30
0.0
 40
0.4006960996397114
100
AcDbArc
 50
156.884349822474
 51
241.1828526860152
  0
LWPOLYLINE
  5
188
330
18
100
AcDbEntity
  8
0
100
AcDbPolyline
 90
        4
 70
     0
 43
0.0
 10
15.85387228354931
 20
-77.5245062236968
 42
0.2972110241483108
 10
15.52064257235315
 20
-77.31414068465221
 42
0.5445592714800938
 10
15.43295055426472
 20
-77.45438440167913
 42
0.0909094038388028
 10
15.62587305774944
 20
-77.6472194852193
 42
-3.210815665442932
  0
ARC
  5
18E
330
18
100
AcDbEntity
  8
0
100
AcDbCircle
 10
15.22892992249177
 20
-77.47776850806985
 30
0.0
 40
0.7666754962584358
100
AcDbArc
 50
356.5049942551871
 51
35.39950282624261
  0
ARC
  5
18F
330
18
100
AcDbEntity
  8
0
100
AcDbCircle
 10
15.10315436085725
 20
-77.76127406037566
 30
0.0
 40
0.9219461977231343
100
AcDbArc
 50
14.88104487594753
 51
47.06936129147257
  0
LWPOLYLINE
  5
190
330
18
100
AcDbEntity
  8
0
100
AcDbPolyline
 90
        2
 70
     0
 43
0.0
 10
15.87141064470688
 20
-76.68304392153533
 42
-0.1563085961396765
 10
15.01202882498014
 20
-77.5595672076972
 42
-0.2474553926200325
  0
ARC
  5
194
330
18
100
AcDbEntity
  8
0
100
AcDbCircle
 10
14.77949579431223
 20
-77.09658569724564
 30
0.0
 40
1.913361279741497
100
AcDbArc
 50
146.2801597703228
 51
239.8824403822488
  0
LWPOLYLINE
  5
195
330
18
100
AcDbEntity
  8
0
100
AcDbPolyline
 90
       15
 70
     0
 43
0.0
 10
14.17018536641097
 20
-76.27984322595899
 42
0.1753589194772699
 10
13.6791100863458
 20
-77.03365325059839
 42
0.4670780996250873
 10
13.9421861406111
 20
-77.38426250666989
 42
-0.0784263289799045
 10
14.48587671644955
 20
-77.43685394617471
 42
0.147088895138865
 10
15.02956729228799
 20
-77.5595672076972
 42
0.3432304479135056
 10
14.90679844573413
 20
-77.84005464175102
 42
0.5586625753249022
 10
15.25756651808786
 20
-78.06795063630004
 42
-0.4804890469864789
 10
15.78371862661845
 20
-78.24325533732736
 42
0.2883584869484705
 10
15.66094988621487
 20
-77.73487183573296
 42
-0.4143998917784301
 10
15.66094988621487
 20
-77.47191485718355
 42
-0.3600802114840282
 10
15.90648747317231
 20
-77.62968902971488
 42
0.2517608581942611
 10
16.09940997665702
 20
-77.89264600826429
 42
0.314623291359641
 10
16.20464035590303
 20
-77.87511555275987
 10
16.09940997665702
 20
-77.84005464175102
 10
16.02925631972617
 20
-77.71734138022853
  0
LWPOLYLINE
  5
1A6
330
18
100
AcDbEntity
  8
0
100
AcDbPolyline
 90
        4
 70
     0
 43
0.0
 10
13.85449412252267
 20
-78.47115133187635
 42
-0.2345239875174416
 10
13.13541951050736
 20
-77.22648833413856
 42
-0.3886402566289407
 10
14.73141440955727
 20
-75.24554576726579
 42
-0.1150287062102737
 10
16.16956363358788
 20
-75.26307622277021
 42
6.703955181316959
  0
LWPOLYLINE
  5
1AC
330
18
100
AcDbEntity
  8
0
100
AcDbPolyline
 90
       12
 70
     0
 43
0.0
 10
15.76618026546087
 20
-77.06871416160723
 42
-0.2802985741085332
 10
16.08187150934917
 20
-77.03365325059839
 42
-0.3587214021048889
 10
16.02925631972617
 20
-77.59462811870604
 42
0.586444166016182
 10
16.0643331481916
 20
-77.71734138022853
 42
0.1889133025519325
 10
16.18710199474546
 20
-77.69981092472412
 42
-0.0784930315851779
 10
16.23971718436846
 20
-77.48944531268796
 42
0.1035604212769121
 10
16.45017804901075
 20
-77.0161227221024
 42
0.519119910098652
 10
16.23971718436846
 20
-76.78822672755339
 42
-0.5589431466963772
 10
15.85387228354931
 20
-76.31490413696784
 42
-0.3050008090424543
 10
16.20464035590303
 20
-76.05194715841843
 42
0.4770547681373218
 10
15.187412861157
 20
-75.87664253038268
 42
0.0553601771242843
 10
14.59110709569555
 20
-75.91170344139152
 42
-0.0848712555214172
  0
ARC
  5
1BA
330
18
100
AcDbEntity
  8
0
100
AcDbCircle
 10
13.33713363658442
 20
-98.3602226211525
 30
0.0
 40
20.54332996534179
100
AcDbArc
 50
84.04618334797143
 51
85.0780558314347
  0
LWPOLYLINE
  5
1BB
330
18
100
AcDbEntity
  8
0
100
AcDbPolyline
 90
        3
 70
     0
 43
0.0
 10
14.76649113187242
 20
-78.76916929442616
 42
0.0960968705159082
 10
15.46802738273015
 20
-78.62892557739925
 42
0.2506675167592873
 10
15.8012570939263
 20
-78.22572488182292
 42
1.222369237865263
  0
ARC
  5
1C0
330
18
100
AcDbEntity
  8
0
100
AcDbCircle
 10
15.46916349869519
 20
-79.27469349771247
 30
0.0
 40
1.170714952673596
100
AcDbArc
 50
228.6900909966115
 51
319.7344646668751
  0
ARC
  5
1C1
330
18
100
AcDbEntity
  8
0
100
AcDbCircle
 10
14.78331222649996
 20
-77.79266062040132
 30
0.0
 40
1.274989620930612
100
AcDbArc
 50
268.4557598481169
 51
303.4213339895306
  0
LWPOLYLINE
  5
1C2
330
18
100
AcDbEntity
  8
0
100
AcDbPolyline
 90
        4
 70
     0
 43
0.0
 10
14.45079988798412
 20
-79.90864948614589
 42
0.2019986241439397
 10
14.32803104143026
 20
-79.5580402300744
 42
0.4871454176266149
 10
14.08249334832254
 20
-79.57557068557881
 42
0.17841836932375
 10
14.17018536641097
 20
-79.87358857513706
 42
0.5626033210213065
  0
LWPOLYLINE
  5
1C8
330
18
100
AcDbEntity
  8
0
100
AcDbPolyline
 90
        5
 70
     0
 43
0.0
 10
13.83695565521481
 20
-79.08471763948883
 42
0.3005420446431691
 10
14.10003181563039
 20
-79.18990044550691
 42
-0.1426314728383253
 10
14.53849190607255
 20
-79.22496135651575
 42
0.0830748831564435
 10
14.22280066218425
 20
-78.73410831042576
 42
-0.1700663135366061
 10
14.02987815869953
 20
-78.2783162483362
 42
0.9384396032605316
  0
LWPOLYLINE
  5
1CF
330
18
100
AcDbEntity
  8
0
100
AcDbPolyline
 90
        3
 70
     0
 43
0.0
 10
14.2052621948764
 20
-78.19066389782253
 42
0.1297994746220581
 10
14.36310786989569
 20
-78.7516387659302
 42
-0.099858363947208
 10
14.52095354491497
 20
-79.20743090101133
 42
-1.144231567609045
  0
ARC
  5
1D4
330
18
100
AcDbEntity
  8
0
100
AcDbCircle
 10
13.84903170227112
 20
-79.3678898407748
 30
0.0
 40
0.1620990663003702
100
AcDbArc
 50
81.84257824192382
 51
253.0888377082245
  0
ARC
  5
1D5
330
18
100
AcDbEntity
  8
0
100
AcDbCircle
 10
16.00810708146
 20
-77.59462811870604
 30
0.0
 40
0.798036958118606
100
AcDbArc
 50
169.8785161242227
 51
203.2912776030486
  0
ARC
  5
1D6
330
18
100
AcDbEntity
  8
0
100
AcDbCircle
 10
15.51182362344087
 20
-77.77113773324979
 30
0.0
 40
0.4296428313001215
100
AcDbArc
 50
139.0315577104626
 51
196.4281231918391
  0
LWPOLYLINE
  5
1D7
330
18
100
AcDbEntity
  8
0
100
AcDbPolyline
 90
        3
 70
     0
 43
0.0
 10
15.97664113010317
 20
-79.73334485811014
 42
-0.36294775266936
 10
15.8012570939263
 20
-78.78669974993059
 42
0.314315089249479
 10
15.88894911201474
 20
-79.82099720862379
 42
-2.132040245621408
  0
LINE
  5
1DC
330
18
100
AcDbEntity
  8
0
100
AcDbLine
 10
15.8012570939263
 20
-79.75087531361456
 30
0.0
 11
15.45048902157257
 21
-79.68075341860533
 31
0.0
  0
ARC
  5
1DD
330
18
100
AcDbEntity
  8
0
100
AcDbCircle
 10
19.52671722217723
 20
-73.14805976066704
 30
0.0
 40
6.232335351324603
100
AcDbArc
 50
229.577652097857
 51
231.8689826895099
  0
LINE
  5
1DE
330
18
100
AcDbEntity
  8
0
100
AcDbLine
 10
15.92402594048016
 20
-79.04965672848
 30
0.0
 11
15.71356507583787
 21
-79.11977855049767
 31
0.0
  0
LINE
  5
1DF
330
18
100
AcDbEntity
  8
0
100
AcDbLine
 10
16.09940997665702
 20
-79.40026598455149
 30
0.0
 11
15.92402594048016
 21
-79.6982839471013
 31
0.0
  0
LINE
  5
1E0
330
18
100
AcDbEntity
  8
0
100
AcDbLine
 10
15.95910276894559
 20
-79.22496135651575
 30
0.0
 11
15.76618026546087
 21
-79.45285742405632
 31
0.0
  0
LINE
  5
1E1
330
18
100
AcDbEntity
  8
0
100
AcDbLine
 10
15.66094988621487
 20
-79.522979246074
 30
0.0
 11
15.39787372579929
 21
-79.41779644005592
 31
0.0
  0
LINE
  5
1E2
330
18
100
AcDbEntity
  8
0
100
AcDbLine
 10
15.64341141890701
 20
-79.18990044550691
 30
0.0
 11
15.43295055426472
 21
-79.01459574447959
 31
0.0
  0
LWPOLYLINE
  5
1E3
330
18
100
AcDbEntity
  8
0
100
AcDbPolyline
 90
        2
 70
     0
 43
0.0
 10
15.83633392239173
 20
-78.64645603290367
 42
0.2686959386052415
 10
16.02925631972617
 20
-77.85758509725545
 42
0.7489455754527742
  0
LINE
  5
1E7
330
18
100
AcDbEntity
  8
0
100
AcDbLine
 10
15.87274293684043
 20
-68.58763823864345
 30
0.0
 11
15.74997409028657
 21
-68.28962034908521
 31
0.0
  0
ARC
  5
1E8
330
18
100
AcDbEntity
  8
0
100
AcDbCircle
 10
14.98542666543801
 20
-68.14270735643153
 30
0.0
 40
0.2010251928297385
100
AcDbArc
 50
262.9477544403007
 51
337.5425398259162
  0
ARC
  5
1E9
330
18
100
AcDbEntity
  8
0
100
AcDbCircle
 10
14.59297758935941
 20
-68.43862929386434
 30
0.0
 40
0.6183585819623545
100
AcDbArc
 50
339.2448538417845
 51
20.75514615821552
  0
LWPOLYLINE
  5
1EA
330
18
100
AcDbEntity
  8
0
100
AcDbPolyline
 90
        3
 70
     0
 43
0.0
 10
15.66228207219813
 20
-68.27208989358078
 42
-0.1725286964149721
 10
16.55674072039031
 20
-68.58763823864345
 42
0.3332427190853175
 10
15.71489726182114
 20
-68.16690708756272
 42
11.08905338963003
  0
LWPOLYLINE
  5
1EF
330
18
100
AcDbEntity
  8
0
100
AcDbPolyline
 90
        3
 70
     0
 43
0.0
 10
14.78536178516354
 20
-68.39480315510328
 42
0.2113977239705442
 10
14.10136400161366
 20
-68.97330847871535
 42
-0.3416475383772448
 10
14.68013140591753
 20
-68.32468126009406
 42
-0.0921721062796368
  0
ARC
  5
1F4
330
18
100
AcDbEntity
  8
0
100
AcDbCircle
 10
15.41915926133643
 20
-68.57328507979983
 30
0.0
 40
1.468227034127888
100
AcDbArc
 50
168.8602782832468
 51
204.5654245980811
  0
ARC
  5
1F5
330
18
100
AcDbEntity
  8
0
100
AcDbCircle
 10
16.13564510256159
 20
-69.70513248883017
 30
0.0
 40
3.004022209854429
100
AcDbArc
 50
141.4693734573688
 51
158.1610258910078
  0
ARC
  5
1F6
330
18
100
AcDbEntity
  8
0
100
AcDbCircle
 10
13.14778449135241
 20
-68.10235579156418
 30
0.0
 40
0.5246623756851986
100
AcDbArc
 50
292.3403375766227
 51
349.0554072416315
  0
LWPOLYLINE
  5
1F7
330
18
100
AcDbEntity
  8
0
100
AcDbPolyline
 90
       14
 70
     0
 43
0.0
 10
16.13581899110572
 20
-67.86888919800446
 42
-0.3481439923799896
 10
16.64443273847874
 20
-68.37727269959886
 42
-0.0578563017389503
 10
16.64443273847874
 20
-68.76294293967077
 42
-0.9841664549094284
 10
16.46904870230188
 20
-68.74541241117478
 42
0.3005381053682652
 10
16.18843428687901
 20
-68.65776013365269
 42
-0.1847185365027705
 10
15.59212841526728
 20
-68.62269922264385
 42
-0.5737734800527843
 10
15.55705169295213
 20
-68.28962034908521
 10
15.38166755062499
 20
-68.21949845407598
 10
15.38166755062499
 20
-68.74541241117478
 42
-0.5399366945823006
 10
15.66228207219813
 20
-69.16614363524708
 42
-0.1732663473111027
 10
15.48689803602127
 20
-69.60440524183225
 42
0.2546254360931864
 10
15.13612996366754
 20
-70.00760593740857
 42
-0.5560534548463006
 10
14.66259304475995
 20
-69.46416152480534
 42
-0.1908033985926786
 10
14.75028506284839
 20
-68.9207171122021
 42
-0.5684115247207471
  0
ARC
  5
207
330
18
100
AcDbEntity
  8
0
100
AcDbCircle
 10
19.18195832915873
 20
-69.87204216927621
 30
0.0
 40
6.353790731612652
100
AcDbArc
 50
158.7662982033439
 51
183.1115633760198
  0
LINE
  5
208
330
18
100
AcDbEntity
  8
0
100
AcDbLine
 10
13.6264948967228
 20
-71.82710504612349
 30
0.0
 11
13.43357239323808
 21
-71.82710504612349
 31
0.0
  0
LINE
  5
209
330
18
100
AcDbEntity
  8
0
100
AcDbLine
 10
13.76680210443424
 20
-71.98487929164638
 30
0.0
 11
13.53880277248409
 21
-71.98487929164638
 31
0.0
  0
LWPOLYLINE
  5
20A
330
18
100
AcDbEntity
  8
0
100
AcDbPolyline
 90
        3
 70
     0
 43
0.0
 10
14.13510864409582
 20
-71.89722694113273
 42
-0.0800984288039531
 10
13.48618758286109
 20
-71.66933087359216
 42
0.1615051821988555
 10
14.10003181563039
 20
-72.05500111366406
 42
-8.268446181402397
  0
LWPOLYLINE
  5
20F
330
18
100
AcDbEntity
  8
0
100
AcDbPolyline
 90
       13
 70
     0
 43
0.0
 10
13.48618758286109
 20
-72.17771437518655
 42
0.1056047289419585
 10
14.45079988798412
 20
-73.42237737292435
 42
-0.1059873361914043
 10
14.34556940258783
 20
-72.45820180924038
 42
0.229608224999216
 10
14.2052621948764
 20
-72.07253156916848
 42
-0.5574826067794315
 10
13.66157161903795
 20
-72.24783627019579
 42
-0.4369819929459729
 10
13.38095720361508
 20
-72.00240974715079
 42
-0.0808042054442319
 10
13.27572671821879
 20
-71.45896533454756
 42
0.0399181535260876
 10
14.06495498716496
 20
-71.4940262455564
 42
-0.3820732391646894
 10
14.17018536641097
 20
-71.58167859607006
 42
-0.2816758016337624
 10
14.27541585180725
 20
-71.94981830764598
 10
14.43326152682654
 20
-72.05500111366406
 10
14.52095354491497
 20
-71.84463557461945
 10
14.2578773844994
 20
-71.66933087359216
  0
ARC
  5
21E
330
18
100
AcDbEntity
  8
0
100
AcDbCircle
 10
16.26696125252344
 20
-70.97375563224044
 30
0.0
 40
3.434799261448986
100
AcDbArc
 50
183.1240873584945
 51
220.6654446756195
  0
ARC
  5
21F
330
18
100
AcDbEntity
  8
0
100
AcDbCircle
 10
18.85178107135763
 20
-68.75317068967814
 30
0.0
 40
6.842480435351914
100
AcDbArc
 50
220.6654446756194
 51
244.1785122343494
  0
ARC
  5
220
330
18
100
AcDbEntity
  8
0
100
AcDbCircle
 10
15.46238465395161
 20
-77.70409677850199
 30
0.0
 40
2.821435674840415
100
AcDbArc
 50
81.66440753095308
 51
143.7163017093482
  0
ARC
  5
221
330
18
100
AcDbEntity
  8
0
100
AcDbCircle
 10
12.88415502548118
 20
-70.69126669631561
 30
0.0
 40
0.2939573703225873
100
AcDbArc
 50
346.9291841837339
 51
51.96719453675025
  0
LINE
  5
222
330
18
100
AcDbEntity
  8
0
100
AcDbLine
 10
13.46864922170351
 20
-70.31948506983628
 30
0.0
 11
13.46864922170351
 21
-71.03823411047526
 31
0.0
  0
LINE
  5
223
330
18
100
AcDbEntity
  8
0
100
AcDbLine
 10
12.83726662777664
 20
-70.2143022638182
 30
0.0
 11
12.83726662777664
 21
-71.16094737199777
 31
0.0
  0
LINE
  5
224
330
18
100
AcDbEntity
  8
0
100
AcDbLine
 10
13.25818835706122
 20
-71.23106926700699
 30
0.0
 11
13.18803470013036
 21
-71.21353881150257
 31
0.0
  0
LINE
  5
225
330
18
100
AcDbEntity
  8
0
100
AcDbLine
 10
13.18803470013036
 20
-71.21353881150257
 30
0.0
 11
13.27572671821879
 21
-71.47649579005198
 31
0.0
  0
LINE
  5
226
330
18
100
AcDbEntity
  8
0
100
AcDbLine
 10
13.46864922170351
 20
-71.03823411047526
 30
0.0
 11
13.25818835706122
 21
-71.23106926700699
 31
0.0
  0
ARC
  5
227
330
18
100
AcDbEntity
  8
0
100
AcDbCircle
 10
15.6849941598907
 20
-70.88922516569614
 30
0.0
 40
2.51793285941919
100
AcDbArc
 50
177.006834384464
 51
187.4003437579881
  0
LINE
  5
228
330
18
100
AcDbEntity
  8
0
100
AcDbLine
 10
13.0652658535765
 20
-70.4597287868632
 30
0.0
 11
13.18803470013036
 21
-70.30195461433186
 31
0.0
  0
LINE
  5
229
330
18
100
AcDbEntity
  8
0
100
AcDbLine
 10
13.18803470013036
 20
-70.31948506983628
 30
0.0
 11
13.18803470013036
 21
-70.2143022638182
 31
0.0
  0
LINE
  5
22A
330
18
100
AcDbEntity
  8
0
100
AcDbLine
 10
13.46864922170351
 20
-70.33701552534068
 30
0.0
 11
13.0652658535765
 21
-70.4597287868632
 31
0.0
  0
LINE
  5
22B
330
18
100
AcDbEntity
  8
0
100
AcDbLine
 10
13.18803470013036
 20
-70.31948506983628
 30
0.0
 11
13.46864922170351
 21
-70.33701552534068
 31
0.0
  0
ARC
  5
22C
330
18
100
AcDbEntity
  8
0
100
AcDbCircle
 10
17.856128016182
 20
-69.8461748892052
 30
0.0
 40
4.681264047411517
100
AcDbArc
 50
164.4044226343644
 51
184.5112565337221
  0
LWPOLYLINE
  5
22D
330
18
100
AcDbEntity
  8
0
100
AcDbPolyline
 90
        9
 70
     0
 43
0.0
 10
16.18710199474546
 20
-72.17771437518655
 42
-0.2061154774780762
 10
15.31018170771086
 20
-72.63350643727612
 42
-0.3707781585625302
 10
14.83664478880327
 20
-72.28289718120463
 42
0.2950099870597036
 10
14.53849190607255
 20
-72.63350643727612
 42
0.1595344370219173
 10
14.64372239146883
 20
-73.19448137837534
 42
-0.0085842559755546
 10
14.99449046382256
 20
-73.86063905250107
 10
15.134797671534
 20
-73.82557806850067
 42
-0.1978123665323979
 10
15.38033536464172
 20
-74.05347413604125
 42
0.640076295855237
 10
15.48556574388773
 20
-74.05347413604125
 42
-1.517863769029194
  0
ARC
  5
238
330
18
100
AcDbEntity
  8
0
100
AcDbCircle
 10
15.54721784732999
 20
-78.38020979558854
 30
0.0
 40
1.469500541505336
100
AcDbArc
 50
88.98465141118954
 51
138.2550500956911
  0
ARC
  5
239
330
18
100
AcDbEntity
  8
0
100
AcDbCircle
 10
15.54844038592364
 20
-78.51940529090869
 30
0.0
 40
1.801315165472744
100
AcDbArc
 50
89.76847029574189
 51
123.4312786610721
  0
LWPOLYLINE
  5
23A
330
18
100
AcDbEntity
  8
0
100
AcDbPolyline
 90
        8
 70
     0
 43
0.0
 10
15.22248968962243
 20
-76.73563528804859
 42
0.319971158647534
 10
15.04710565344557
 20
-76.27984322595899
 42
0.1153007379553775
 10
14.2578773844994
 20
-75.80652063537344
 42
0.8673509037171612
 10
14.13510864409582
 20
-75.85911207487827
 42
-0.0516075900921459
 10
14.18772383371882
 20
-76.12206905342766
 42
0.6596704461173553
 10
14.2052621948764
 20
-76.26231277045459
 42
0.1944949609276194
 10
14.34556940258783
 20
-76.85834854957107
 42
0.2047714931127663
 10
14.57356873453798
 20
-76.998592266598
 42
-13.53526833388298
  0
LWPOLYLINE
  5
244
330
18
100
AcDbEntity
  8
0
100
AcDbPolyline
 90
        3
 70
     0
 43
0.0
 10
15.22248968962243
 20
-76.59539157102166
 42
0.2891764240045069
 10
14.73141440955727
 20
-76.36749557647267
 42
0.0062471490162866
 10
14.18772383371882
 20
-76.27984322595899
 42
0.073807516246879
  0
LWPOLYLINE
  5
249
330
18
100
AcDbEntity
  8
0
100
AcDbPolyline
 90
        3
 70
     0
 43
0.0
 10
15.187412861157
 20
-76.47267830949918
 42
0.2158868882467308
 10
14.73141440955727
 20
-76.29737368146343
 42
0.0000001224127574
 10
14.17018536641097
 20
-76.15712996443651
 42
0.1230514116092108
  0
ARC
  5
24E
330
18
100
AcDbEntity
  8
0
100
AcDbCircle
 10
15.27939017302159
 20
-75.99059052765719
 30
0.0
 40
0.1510884678725753
100
AcDbArc
 50
119.5171348941449
 51
196.862124430463
  0
LWPOLYLINE
  5
24F
330
18
100
AcDbEntity
  8
0
100
AcDbPolyline
 90
        3
 70
     0
 43
0.0
 10
15.134797671534
 20
-73.84310859699666
 10
15.04710565344557
 20
-74.03594368053683
 10
14.97695199651471
 20
-73.84310859699666
  0
LINE
  5
254
330
18
100
AcDbEntity
  8
0
100
AcDbLine
 10
16.53787006709919
 20
-75.26307622277021
 30
0.0
 11
16.20464035590303
 21
-75.68380737385095
 31
0.0
  0
LINE
  5
255
330
18
100
AcDbEntity
  8
0
100
AcDbLine
 10
16.20464035590303
 20
-75.68380737385095
 30
0.0
 11
16.09940997665702
 21
-75.91170344139152
 31
0.0
  0
LWPOLYLINE
  5
256
330
18
100
AcDbEntity
  8
0
100
AcDbPolyline
 90
        3
 70
     0
 43
0.0
 10
15.46802738273015
 20
-74.07100459154566
 10
15.62587305774944
 20
-74.15865694205932
 10
15.66094988621487
 20
-74.3514920255995
  0
LINE
  5
25B
330
18
100
AcDbEntity
  8
0
100
AcDbLine
 10
15.15366832482512
 20
-69.18367409075151
 30
0.0
 11
15.36412918946741
 21
-69.41157008530051
 31
0.0
  0
LINE
  5
25C
330
18
100
AcDbEntity
  8
0
100
AcDbLine
 10
15.24136034291355
 20
-68.8856561282017
 30
0.0
 11
15.5219748644867
 21
-69.18367409075151
 31
0.0
  0
LINE
  5
25D
330
18
100
AcDbEntity
  8
0
100
AcDbLine
 10
15.43295055426472
 20
-71.79204413511465
 30
0.0
 11
15.16987449999943
 21
-72.05500111366406
 31
0.0
  0
LINE
  5
25E
330
18
100
AcDbEntity
  8
0
100
AcDbLine
 10
15.45048902157257
 20
-72.40561044272713
 30
0.0
 11
15.187412861157
 21
-72.17771437518655
 31
0.0
  0
LWPOLYLINE
  5
25F
330
18
100
AcDbEntity
  8
0
100
AcDbPolyline
 90
        3
 70
     0
 43
0.0
 10
15.01202882498014
 20
-72.09006202467289
 42
-0.0530032341902107
 10
15.97664113010317
 20
-72.10759248017732
 42
-0.0215786586312123
 10
14.90679844573413
 20
-72.21277528619539
  0
LWPOLYLINE
  5
264
330
18
100
AcDbEntity
  8
0
100
AcDbPolyline
 90
        3
 70
     0
 43
0.0
 10
15.24002815693028
 20
-71.61673950707889
 42
-0.235972395034205
 10
15.81879545508388
 20
-71.77451367961023
 42
0.5839249870526376
 10
16.23971718436846
 20
-71.93228785214156
 42
2.746289348813184
  0
LWPOLYLINE
  5
269
330
18
100
AcDbEntity
  8
0
100
AcDbPolyline
 90
       10
 70
     0
 43
0.0
 10
14.18772383371882
 20
-71.59920905157448
 42
-0.205343046036048
 10
14.29295421296483
 20
-71.14341691649333
 42
-0.1671578723973533
 10
14.69633758109184
 20
-70.86292948243951
 42
0.4229873277266102
 10
14.94187527419956
 20
-70.40713742034992
 42
-0.3784769463692125
 10
15.29264334655329
 20
-71.09082554998008
 42
-0.099063442419778
 10
15.24002815693028
 20
-71.61673950707889
 42
-0.4287787682544161
 10
14.67879911378398
 20
-71.89722694113273
 10
14.64372239146883
 20
-72.16018391968212
 10
14.8191064276457
 20
-72.10759248017732
 10
14.85418314996085
 20
-71.91475739663714
  0
LINE
  5
275
330
18
100
AcDbEntity
  8
0
100
AcDbLine
 10
14.57356873453798
 20
-71.72192231309697
 30
0.0
 11
14.41572305951869
 21
-71.3713129840339
 31
0.0
  0
LINE
  5
276
330
18
100
AcDbEntity
  8
0
100
AcDbLine
 10
14.10003181563039
 20
-71.89722694113273
 30
0.0
 11
14.04741651985711
 21
-71.59920905157448
 31
0.0
  0
LINE
  5
277
330
18
100
AcDbEntity
  8
0
100
AcDbLine
 10
13.85449412252267
 20
-71.84463557461945
 30
0.0
 11
13.83695565521481
 21
-71.61673950707889
 31
0.0
  0
LINE
  5
278
330
18
100
AcDbEntity
  8
0
100
AcDbLine
 10
14.01233979754196
 20
-72.07253156916848
 30
0.0
 11
13.6791100863458
 21
-72.16018391968212
 31
0.0
  0
LINE
  5
279
330
18
100
AcDbEntity
  8
0
100
AcDbLine
 10
13.71418691481123
 20
-71.77451367961023
 30
0.0
 11
13.6791100863458
 21
-71.58167859607006
 31
0.0
  0
LINE
  5
27A
330
18
100
AcDbEntity
  8
0
100
AcDbLine
 10
15.134797671534
 20
-71.47649579005198
 30
0.0
 11
14.8717216172687
 21
-71.51155670106082
 31
0.0
  0
LINE
  5
27B
330
18
100
AcDbEntity
  8
0
100
AcDbLine
 10
15.01202882498014
 20
-71.09082554998008
 30
0.0
 11
15.24002815693028
 21
-70.96811228845758
 31
0.0
  0
LINE
  5
27C
330
18
100
AcDbEntity
  8
0
100
AcDbLine
 10
14.97695199651471
 20
-71.35378252852949
 30
0.0
 11
15.20495132846486
 21
-71.21353881150257
 31
0.0
  0
LINE
  5
27D
330
18
100
AcDbEntity
  8
0
100
AcDbLine
 10
14.94187527419956
 20
-70.985642743962
 30
0.0
 11
14.8717216172687
 21
-70.82786857143067
 31
0.0
  0
LINE
  5
27E
330
18
100
AcDbEntity
  8
0
100
AcDbLine
 10
15.15233613884185
 20
-71.82710504612349
 30
0.0
 11
15.02956729228799
 21
-72.09006202467289
 31
0.0
  0
LINE
  5
27F
330
18
100
AcDbEntity
  8
0
100
AcDbLine
 10
15.22248968962243
 20
-72.42314089823153
 30
0.0
 11
14.99449046382256
 21
-72.23030574169981
 31
0.0
  0
LINE
  5
280
330
18
100
AcDbEntity
  8
0
100
AcDbLine
 10
14.83664478880327
 20
-71.28366063352025
 30
0.0
 11
14.73141440955727
 21
-71.03823411047526
 31
0.0
  0
LINE
  5
281
330
18
100
AcDbEntity
  8
0
100
AcDbLine
 10
14.71387594224941
 20
-71.56414806757408
 30
0.0
 11
14.52095354491497
 21
-71.17847790049373
 31
0.0
  0
LWPOLYLINE
  5
282
330
18
100
AcDbEntity
  8
0
100
AcDbPolyline
 90
        3
 70
     0
 43
0.0
 10
14.57356873453798
 20
-71.77451367961023
 42
0.1098018479809379
 10
14.99449046382256
 20
-70.86292948243951
 42
-0.1197976860102981
 10
14.74895277071484
 20
-71.75698322410581
 42
-0.1197976860102981
  0
LINE
  5
287
330
18
100
AcDbEntity
  8
0
100
AcDbLine
 10
14.88925997842628
 20
-71.70439178460099
 30
0.0
 11
14.78402959918027
 21
-71.79204413511465
 31
0.0
  0
ARC
  5
288
330
18
100
AcDbEntity
  8
0
100
AcDbCircle
 10
14.96323400074636
 20
-70.93593760501684
 30
0.0
 40
2.045776346977099
100
AcDbArc
 50
96.46896443773004
 51
108.0498041500501
  0
LINE
  5
289
330
18
100
AcDbEntity
  8
0
100
AcDbLine
 10
14.08382564045608
 20
-68.55257732763461
 30
0.0
 11
14.25920967663294
 21
-68.57010778313903
 31
0.0
  0
LINE
  5
28A
330
18
100
AcDbEntity
  8
0
100
AcDbLine
 10
14.17151765854451
 20
-68.34221171559846
 30
0.0
 11
14.46967054127524
 21
-68.4123336106077
 31
0.0
  0
ARC
  5
28B
330
18
100
AcDbEntity
  8
0
100
AcDbCircle
 10
15.29485514232023
 20
-70.47294268927372
 30
0.0
 40
1.768843117272062
100
AcDbArc
 50
123.0815623989787
 51
133.2076906196469
  0
LINE
  5
28C
330
18
100
AcDbEntity
  8
0
100
AcDbLine
 10
14.3293633335638
 20
-68.9207171122021
 30
0.0
 11
14.31182486625595
 21
-68.72788195567037
 31
0.0
  0
ARC
  5
28D
330
18
100
AcDbEntity
  8
0
100
AcDbCircle
 10
14.39712146570507
 20
-68.54614895089163
 30
0.0
 40
0.5993854601691111
100
AcDbArc
 50
345.8356509627285
 51
19.89173332131637
  0
LINE
  5
28E
330
18
100
AcDbEntity
  8
0
100
AcDbLine
 10
14.99582264980583
 20
-68.67529058915711
 30
0.0
 11
15.17120679213297
 21
-68.65776013365269
 31
0.0
  0
LINE
  5
28F
330
18
100
AcDbEntity
  8
0
100
AcDbLine
 10
14.89059227055982
 20
-68.95577802321094
 30
0.0
 11
15.17120679213297
 21
-68.8856561282017
 31
0.0
  0
LWPOLYLINE
  5
290
330
18
100
AcDbEntity
  8
0
100
AcDbPolyline
 90
        3
 70
     0
 43
0.0
 10
15.27643717137898
 20
-68.86812567269728
 42
0.2108491687986261
 10
15.10105313520211
 20
-69.95501457089531
 42
-0.3300500003538938
 10
15.17120679213297
 20
-68.8856561282017
 42
-0.4632899219915191
  0
LINE
  5
295
330
18
100
AcDbEntity
  8
0
100
AcDbLine
 10
15.08351466789426
 20
-69.46416152480534
 30
0.0
 11
15.20628351444812
 21
-69.56934433082341
 31
0.0
  0
LINE
  5
296
330
18
100
AcDbEntity
  8
0
100
AcDbLine
 10
14.76782342400596
 20
-68.69282104466153
 30
0.0
 11
14.76782342400596
 21
-68.35974224409445
 31
0.0
  0
LINE
  5
297
330
18
100
AcDbEntity
  8
0
100
AcDbLine
 10
14.52228573089824
 20
-68.81553430618402
 30
0.0
 11
14.53982419820609
 21
-68.53504687213019
 31
0.0
  0
LINE
  5
298
330
18
100
AcDbEntity
  8
0
100
AcDbLine
 10
14.78536178516354
 20
-69.55181387531898
 30
0.0
 11
14.97828428864825
 21
-69.48169198030974
 31
0.0
  0
ARC
  5
299
330
18
100
AcDbEntity
  8
0
100
AcDbCircle
 10
14.69773633369068
 20
-68.61384486232087
 30
0.0
 40
0.2914522129063082
100
AcDbArc
 50
276.8992305527454
 51
344.2777232914342
  0
LINE
  5
29A
330
18
100
AcDbEntity
  8
0
100
AcDbLine
 10
14.82043861362897
 20
-69.25379591276918
 30
0.0
 11
15.01336111711368
 21
-69.20120454625592
 31
0.0
  0
LINE
  5
29B
330
18
100
AcDbEntity
  8
0
100
AcDbLine
 10
15.62587305774944
 20
-71.8796964856283
 30
0.0
 11
15.57325776197616
 21
-72.00240974715079
 31
0.0
  0
LINE
  5
29C
330
18
100
AcDbEntity
  8
0
100
AcDbLine
 10
15.85387228354931
 20
-71.9673487631504
 30
0.0
 11
15.67848824737244
 21
-72.03747065815964
 31
0.0
  0
LINE
  5
29D
330
18
100
AcDbEntity
  8
0
100
AcDbLine
 10
15.73110343699545
 20
-72.31795809221345
 30
0.0
 11
15.55571940081858
 21
-72.21277528619539
 31
0.0
  0
LINE
  5
29E
330
18
100
AcDbEntity
  8
0
100
AcDbLine
 10
16.10074216264029
 20
-68.60516869414787
 30
0.0
 11
15.99551178339429
 21
-68.32468126009406
 31
0.0
  0
LINE
  5
29F
330
18
100
AcDbEntity
  8
0
100
AcDbLine
 10
16.31120302728259
 20
-68.60516869414787
 30
0.0
 11
16.31120302728259
 21
-68.4123336106077
 31
0.0
  0
LWPOLYLINE
  5
2A0
330
18
100
AcDbEntity
  8
0
100
AcDbPolyline
 90
        5
 70
     0
 43
0.0
 10
13.41736621806377
 20
-63.25837684563762
 42
-0.297349596615246
 10
13.85582630850594
 20
-62.41691454347614
 42
-0.0661154320748096
 10
14.29428650509837
 20
-62.24160991544039
 42
-0.8047646974528246
 10
14.34690169472138
 20
-62.3467926484669
 42
-0.0175902546582519
 10
14.41705535165223
 20
-63.2408463901332
 42
0.9577744361359982
  0
LWPOLYLINE
  5
2A7
330
18
100
AcDbEntity
  8
0
100
AcDbPolyline
 90
        2
 70
     0
 43
0.0
 10
12.99644448877919
 20
-63.60898617470069
 42
0.2373318369514915
 10
13.68044227232907
 20
-64.27514384882641
 42
0.1542790301302646
  0
LWPOLYLINE
  5
2AB
330
18
100
AcDbEntity
  8
0
100
AcDbPolyline
 90
        2
 70
     0
 43
0.0
 10
13.61028872154849
 20
-64.0998391477991
 42
-0.2416104523967523
 10
12.97890612762162
 20
-63.60898617470069
 42
-1.568830328206643
  0
LINE
  5
2AF
330
18
100
AcDbEntity
  8
0
100
AcDbLine
 10
13.54013506461764
 20
-63.03048077809705
 30
0.0
 11
13.80321111888293
 21
-63.27590730114204
 31
0.0
  0
LINE
  5
2B0
330
18
100
AcDbEntity
  8
0
100
AcDbLine
 10
13.46998140768678
 20
-66.67681756677992
 30
0.0
 11
13.78567275772536
 21
-66.92224408982491
 31
0.0
  0
LINE
  5
2B1
330
18
100
AcDbEntity
  8
0
100
AcDbLine
 10
13.75059592925993
 20
-66.6592871112755
 30
0.0
 11
13.46998140768678
 21
-66.67681756677992
 31
0.0
  0
LWPOLYLINE
  5
2B2
330
18
100
AcDbEntity
  8
0
100
AcDbPolyline
 90
        8
 70
     0
 43
0.0
 10
13.46998140768678
 20
-66.67681756677992
 42
0.3028892351556847
 10
13.43490468537163
 20
-66.88718310582451
 42
0.0575204140971091
 10
13.27705901035234
 20
-67.25532289039199
 42
0.0357034713241745
 10
13.24198218188691
 20
-67.41309706292333
 42
0.0738278781919157
 10
13.24198218188691
 20
-67.55334077995025
 42
0.0989759145478452
 10
13.3998278569062
 20
-67.57087130844621
 42
-0.1914021956629972
 10
13.78567275772536
 20
-66.92224408982491
 42
0.0204080899317648
 10
13.75059592925993
 20
-66.67681756677992
 42
-1.201772093143377
  0
LWPOLYLINE
  5
2BC
330
18
100
AcDbEntity
  8
0
100
AcDbPolyline
 90
        6
 70
     0
 43
0.0
 10
13.20690535342148
 20
-64.38032665484448
 42
-0.6262096440054888
 10
13.85582630850594
 20
-64.9062406119433
 42
-0.0000002016933547
 10
14.06628717314823
 20
-65.01142334496981
 42
0.0187512009408847
 10
13.92597996543679
 20
-64.39785711034891
 42
0.0000002241475479
 10
13.68044227232907
 20
-64.25761339332199
 10
13.57521189308307
 20
-64.36279612634852
  0
LWPOLYLINE
  5
2C4
330
18
100
AcDbEntity
  8
0
100
AcDbPolyline
 90
       11
 70
     0
 43
0.0
 10
13.73305756810235
 20
-63.88947360875452
 42
0.2156907642176929
 10
13.36475102844077
 20
-63.48627291317819
 42
-0.1886138772104146
 10
12.96136766031376
 20
-63.36355965165569
 42
0.4425230942113447
 10
12.85613728106776
 20
-63.38109010716012
 42
0.1007793853523658
 10
12.99644448877919
 20
-64.11736967629508
 42
0.4760227905882886
 10
13.20690535342148
 20
-64.36279612634852
 42
-0.4687361670298915
 10
12.8385988137599
 20
-64.29267430433083
 42
0.1294333353916904
 10
12.92629093799861
 20
-64.95883197845656
 42
0.5800337402469842
 10
13.85582630850594
 20
-65.08154523997905
 42
-0.0383958903524797
 10
14.04874881199065
 20
-65.18672804599713
 42
-0.1449948664502861
 10
13.75059592925993
 20
-66.6592871112755
 42
1.662513820911976
  0
LWPOLYLINE
  5
2D1
330
18
100
AcDbEntity
  8
0
100
AcDbPolyline
 90
        2
 70
     0
 43
0.0
 10
12.90875247069076
 20
-64.50303991636698
 42
0.253677529443903
 10
13.75059592925993
 20
-65.06401478447464
 42
0.0454912839326834
  0
LWPOLYLINE
  5
2D5
330
18
100
AcDbEntity
  8
0
100
AcDbPolyline
 90
        2
 70
     0
 43
0.0
 10
13.78567275772536
 20
-64.92377106744772
 42
-0.1519613584022763
 10
12.90875247069076
 20
-64.485509387871
 42
-0.1519613584022763
  0
LINE
  5
2D9
330
18
100
AcDbEntity
  8
0
100
AcDbLine
 10
13.17182852495606
 20
-63.81935171374528
 30
0.0
 11
13.24198218188691
 21
-63.55639473519587
 31
0.0
  0
LINE
  5
2DA
330
18
100
AcDbEntity
  8
0
100
AcDbLine
 10
13.31213583881777
 20
-63.97712595926816
 30
0.0
 11
13.36475102844077
 21
-63.67910799671836
 31
0.0
  0
LINE
  5
2DB
330
18
100
AcDbEntity
  8
0
100
AcDbLine
 10
13.20690535342148
 20
-64.64328363339389
 30
0.0
 11
13.22444382072934
 21
-64.50303991636698
 31
0.0
  0
LINE
  5
2DC
330
18
100
AcDbEntity
  8
0
100
AcDbLine
 10
13.03152131724462
 20
-64.08230869229469
 30
0.0
 11
13.31213583881777
 21
-64.08230869229469
 31
0.0
  0
LINE
  5
2DD
330
18
100
AcDbEntity
  8
0
100
AcDbLine
 10
13.18936699226391
 20
-64.27514384882641
 30
0.0
 11
13.54013506461764
 21
-64.22255240932159
 31
0.0
  0
LINE
  5
2DE
330
18
100
AcDbEntity
  8
0
100
AcDbLine
 10
13.54013506461764
 20
-64.04724778128585
 30
0.0
 11
13.54013506461764
 21
-63.83688224224125
 31
0.0
  0
LINE
  5
2DF
330
18
100
AcDbEntity
  8
0
100
AcDbLine
 10
12.92629093799861
 20
-63.87194315325009
 30
0.0
 11
13.11921333533305
 21
-63.90700406425892
 31
0.0
  0
LINE
  5
2E0
330
18
100
AcDbEntity
  8
0
100
AcDbLine
 10
12.97890612762162
 20
-64.8711796279429
 30
0.0
 11
13.22444382072934
 21
-64.85364917243848
 31
0.0
  0
LINE
  5
2E1
330
18
100
AcDbEntity
  8
0
100
AcDbLine
 10
13.17182852495606
 20
-65.06401478447464
 30
0.0
 11
13.34721256113292
 21
-64.97636243396098
 31
0.0
  0
LINE
  5
2E2
330
18
100
AcDbEntity
  8
0
100
AcDbLine
 10
13.4524430465292
 20
-64.80105780592523
 30
0.0
 11
13.41736621806377
 21
-64.45044847686216
 31
0.0
  0
LWPOLYLINE
  5
2E3
330
18
100
AcDbEntity
  8
0
100
AcDbPolyline
 90
       10
 70
     0
 43
0.0
 10
15.50443639717885
 20
-63.94206497526777
 42
0.1231191064092126
 10
16.24104947650201
 20
-62.99541986708821
 42
0.2361744710576757
 10
16.27612630496744
 20
-62.55715826050305
 42
0.084266168619015
 10
15.837666108375
 20
-62.48703636549382
 42
0.6699780968337201
 10
15.80258927990957
 20
-62.57468871600747
 42
0.0622857463058098
 10
15.837666108375
 20
-63.04801130659303
 42
-0.4143462094502468
 10
15.71489726182114
 20
-63.38109010716012
 42
-0.2194411386434466
 10
15.66228207219813
 20
-63.38109010716012
 42
0.0809750791729907
 10
15.45182120755584
 20
-62.83764569455688
 42
-0.4088173996924357
 10
15.50443639717885
 20
-62.62728008252072
 42
-0.2819016442384878
  0
LINE
  5
2EF
330
18
100
AcDbEntity
  8
0
100
AcDbLine
 10
14.41705535165223
 20
-63.85441269774567
 30
0.0
 11
14.31182486625595
 21
-63.50380336868261
 31
0.0
  0
LWPOLYLINE
  5
2F0
330
18
100
AcDbEntity
  8
0
100
AcDbPolyline
 90
        2
 70
     0
 43
0.0
 10
14.08382564045608
 20
-63.55639473519587
 42
0.1401160006156626
 10
14.15397929738694
 20
-64.02971732578143
 42
0.6446661035575796
  0
LWPOLYLINE
  5
2F4
330
18
100
AcDbEntity
  8
0
100
AcDbPolyline
 90
        7
 70
     0
 43
0.0
 10
13.96105679390222
 20
-63.73169943622318
 10
13.94351843274465
 20
-63.60898617470069
 42
0.1622543141626548
 10
14.22413284816752
 20
-63.39862056266453
 42
-0.1462642952907919
 10
14.39951688434438
 20
-63.25837684563762
 42
-0.114379385363941
 10
14.97828428864825
 20
-63.08307221760187
 42
-0.0938751447064837
 10
14.96074592749068
 20
-63.81935171374528
 42
-0.2805383430608318
 10
14.92566909902525
 20
-64.06477823679026
 42
2.119125520659394
  0
LWPOLYLINE
  5
2FD
330
18
100
AcDbEntity
  8
0
100
AcDbPolyline
 90
        9
 70
     0
 43
0.0
 10
14.94320746018282
 20
-63.83688224224125
 42
0.2450075415202048
 10
15.55705169295213
 20
-63.57392526369185
 42
0.385277435327869
 10
15.53951322564427
 20
-63.22331593462878
 42
-0.3648877377216837
 10
15.24136034291355
 20
-62.8551761500613
 42
-0.2421329086130201
 10
15.36412918946741
 20
-62.62728008252072
 42
-0.4059310932493938
 10
14.94320746018282
 20
-62.43444499898056
 42
-0.1097237842367619
 10
14.38197852318681
 20
-62.36432310397132
 42
-0.4824458674304091
 10
14.38197852318681
 20
-61.82087869136808
 42
-0.3845705786247512
 10
14.83797708093682
 20
-61.15472101724236
 42
-0.1186853300671879
  0
LWPOLYLINE
  5
308
330
18
100
AcDbEntity
  8
0
100
AcDbPolyline
 90
        3
 70
     0
 43
0.0
 10
14.27674803779052
 20
-63.94206497526777
 42
0.1196440948530965
 10
14.83797708093682
 20
-63.29343775664646
 42
-0.1623008871198547
 10
14.34690169472138
 20
-64.02971732578143
 42
2.915743970328522
  0
ARC
  5
30D
330
18
100
AcDbEntity
  8
0
100
AcDbCircle
 10
14.7930678139648
 20
-65.42253184521617
 30
0.0
 40
0.6837564106212716
100
AcDbArc
 50
15.5423077679304
 51
49.0324170705945
  0
ARC
  5
30E
330
18
100
AcDbEntity
  8
0
100
AcDbCircle
 10
14.79581651918617
 20
-65.40643720284116
 30
0.0
 40
0.5763370899053754
100
AcDbArc
 50
350.4278091816505
 51
53.80917840291259
  0
LWPOLYLINE
  5
30F
330
18
100
AcDbEntity
  8
0
100
AcDbPolyline
 90
        6
 70
     0
 43
0.0
 10
14.45213218011766
 20
-67.30791432989682
 42
-0.2070570060865343
 10
16.13581899110572
 20
-67.83382828699562
 42
-0.0237862832167728
 10
15.66228207219813
 20
-67.93901102002215
 42
0.3971352764430145
 10
15.55705169295213
 20
-68.07925473704905
 42
-0.320346816232014
 10
15.38166755062499
 20
-67.99160245952696
 42
0.371606808994674
 10
14.43459371280981
 20
-67.30791432989682
 42
23.15659066248932
  0
LWPOLYLINE
  5
317
330
18
100
AcDbEntity
  8
0
100
AcDbPolyline
 90
        6
 70
     0
 43
0.0
 10
15.06597630673669
 20
-64.9938928894654
 42
-0.2704549675526322
 10
14.94320746018282
 20
-65.3795631295373
 42
0.3718073477870162
 10
14.66259304475995
 20
-65.92300754214054
 10
14.78536178516354
 20
-65.90547708663611
 10
15.38166755062499
 20
-65.48474593555538
 10
15.48689803602127
 20
-65.25684986801481
 42
0.5522658922107665
  0
LWPOLYLINE
  5
31F
330
18
100
AcDbEntity
  8
0
100
AcDbPolyline
 90
       14
 70
     0
 43
0.0
 10
14.46967054127524
 20
-64.20502195381718
 10
14.34690169472138
 20
-64.11736967629508
 42
0.2456611413012705
 10
14.17151765854451
 20
-64.41538756585332
 42
0.1206871260071977
 10
14.25920967663294
 20
-64.8711796279429
 42
0.0099995872307934
 10
14.41705535165223
 20
-64.67834454440273
 42
-0.2603474964523338
 10
14.50474736974067
 20
-64.22255240932159
 42
-0.2691965971885177
 10
14.94320746018282
 20
-64.06477823679026
 42
0.2199258570032009
 10
15.48689803602127
 20
-63.92453451976336
 42
-0.3119882060077189
 10
15.38166755062499
 20
-64.31020475983524
 42
-0.1127269432636214
 10
15.27643717137898
 20
-64.78352735042081
 42
-0.1400374543294966
 10
14.96074592749068
 20
-65.02895380047424
 42
-0.3975226299856578
 10
14.46967054127524
 20
-64.83611871693407
 42
0.1926633800243885
 10
14.29428650509837
 20
-65.62498965258228
 42
-0.1828122091394166
 10
13.96105679390222
 20
-66.6242261272751
 42
2.104225752514619
  0
LWPOLYLINE
  5
32F
330
18
100
AcDbEntity
  8
0
100
AcDbPolyline
 90
        2
 70
     0
 43
0.0
 10
15.38166755062499
 20
-64.0998391477991
 42
-0.3134236141041419
 10
14.53982419820609
 20
-64.76599682192483
 42
-0.3134236141041419
  0
LWPOLYLINE
  5
333
330
18
100
AcDbEntity
  8
0
100
AcDbPolyline
 90
        2
 70
     0
 43
0.0
 10
14.52228573089824
 20
-64.66081408889832
 42
0.2234937883062391
 10
15.36412918946741
 20
-64.0998391477991
 42
-0.5643282311540821
  0
ARC
  5
337
330
18
100
AcDbEntity
  8
0
100
AcDbCircle
 10
17.47611636422006
 20
-69.45688764327449
 30
0.0
 40
4.528048079436475
100
AcDbArc
 50
128.6989133383974
 51
141.2751451016526
  0
LINE
  5
338
330
18
100
AcDbEntity
  8
0
100
AcDbLine
 10
14.41705535165223
 20
-68.21949845407598
 30
0.0
 11
14.71520823438296
 21
-68.27208989358078
 31
0.0
  0
ARC
  5
339
330
18
100
AcDbEntity
  8
0
100
AcDbCircle
 10
14.55858033945618
 20
-68.78272665637831
 30
0.0
 40
0.7612730419577165
100
AcDbArc
 50
71.28046131513446
 51
139.6286449644496
  0
ARC
  5
33A
330
18
100
AcDbEntity
  8
0
100
AcDbCircle
 10
14.46090136069645
 20
-68.25010204923632
 30
0.0
 40
0.7360655662725783
100
AcDbArc
 50
41.36128011645388
 51
138.6387198835461
  0
LINE
  5
33B
330
18
100
AcDbEntity
  8
0
100
AcDbLine
 10
13.75059592925993
 20
-67.83382828699562
 30
0.0
 11
13.87336477581379
 21
-67.97407200402254
 31
0.0
  0
LINE
  5
33C
330
18
100
AcDbEntity
  8
0
100
AcDbLine
 10
13.90844160427922
 20
-67.76370639198638
 30
0.0
 11
13.89090313697137
 21
-67.97407200402254
 31
0.0
  0
ARC
  5
33D
330
18
100
AcDbEntity
  8
0
100
AcDbCircle
 10
14.13628133179849
 20
-68.44756059828547
 30
0.0
 40
0.5332934533572584
100
AcDbArc
 50
117.3947556868777
 51
152.579296618903
  0
ARC
  5
33E
330
18
100
AcDbEntity
  8
0
100
AcDbCircle
 10
14.63847628241172
 20
-67.89501731024569
 30
0.0
 40
0.3972168130172976
100
AcDbArc
 50
309.3981999225198
 51
19.30382765295966
  0
ARC
  5
33F
330
18
100
AcDbEntity
  8
0
100
AcDbCircle
 10
14.77531418736445
 20
-68.14313237558396
 30
0.0
 40
0.0859550391960825
100
AcDbArc
 50
316.8042521783529
 51
71.2804613151346
  0
LINE
  5
340
330
18
100
AcDbEntity
  8
0
100
AcDbLine
 10
14.83797708093682
 20
-68.20196799857154
 30
0.0
 11
14.89059227055982
 21
-68.20196799857154
 31
0.0
  0
LINE
  5
341
330
18
100
AcDbEntity
  8
0
100
AcDbLine
 10
14.45213218011766
 20
-63.97712595926816
 30
0.0
 11
14.85551544209439
 21
-63.95959543077219
 31
0.0
  0
LWPOLYLINE
  5
342
330
18
100
AcDbEntity
  8
0
100
AcDbPolyline
 90
        2
 70
     0
 43
0.0
 10
14.29428650509837
 20
-64.18749149831277
 10
14.43459371280981
 20
-64.18749149831277
  0
LINE
  5
346
330
18
100
AcDbEntity
  8
0
100
AcDbLine
 10
13.75059592925993
 20
-63.90700406425892
 30
0.0
 11
13.89090313697137
 21
-63.95959543077219
 31
0.0
  0
LINE
  5
347
330
18
100
AcDbEntity
  8
0
100
AcDbLine
 10
14.04874881199065
 20
-64.18749149831277
 30
0.0
 11
13.99613362236765
 21
-64.02971732578143
 31
0.0
  0
LINE
  5
348
330
18
100
AcDbEntity
  8
0
100
AcDbLine
 10
14.10136400161366
 20
-64.06477823679026
 30
0.0
 11
14.04874881199065
 21
-64.18749149831277
 31
0.0
  0
LINE
  5
349
330
18
100
AcDbEntity
  8
0
100
AcDbLine
 10
13.89090313697137
 20
-64.24008293781757
 30
0.0
 11
13.73305756810235
 21
-64.11736967629508
 31
0.0
  0
LINE
  5
34A
330
18
100
AcDbEntity
  8
0
100
AcDbLine
 10
13.89090313697137
 20
-63.97712595926816
 30
0.0
 11
14.10136400161366
 21
-64.06477823679026
 31
0.0
  0
LINE
  5
34B
330
18
100
AcDbEntity
  8
0
100
AcDbLine
 10
13.73305756810235
 20
-64.11736967629508
 30
0.0
 11
13.73305756810235
 21
-63.92453451976336
 31
0.0
  0
LINE
  5
34C
330
18
100
AcDbEntity
  8
0
100
AcDbLine
 10
13.89090313697137
 20
-63.95959543077219
 30
0.0
 11
13.89090313697137
 21
-64.24008293781757
 31
0.0
  0
LINE
  5
34D
330
18
100
AcDbEntity
  8
0
100
AcDbLine
 10
13.61028872154849
 20
-64.88871008344732
 30
0.0
 11
13.62782708270607
 21
-64.57316173838465
 31
0.0
  0
LINE
  5
34E
330
18
100
AcDbEntity
  8
0
100
AcDbLine
 10
15.04843794557911
 20
-64.41538756585332
 30
0.0
 11
15.10105313520211
 21
-64.11736967629508
 31
0.0
  0
LINE
  5
34F
330
18
100
AcDbEntity
  8
0
100
AcDbLine
 10
14.9081306317174
 20
-64.53810082737581
 30
0.0
 11
14.9081306317174
 21
-64.0998391477991
 31
0.0
  0
LINE
  5
350
330
18
100
AcDbEntity
  8
0
100
AcDbLine
 10
15.10105313520211
 20
-64.50303991636698
 30
0.0
 11
15.2588988102214
 21
-64.5205703718714
 31
0.0
  0
LINE
  5
351
330
18
100
AcDbEntity
  8
0
100
AcDbLine
 10
14.68013140591753
 20
-64.60822264939349
 30
0.0
 11
14.68013140591753
 21
-64.18749149831277
 31
0.0
  0
LINE
  5
352
330
18
100
AcDbEntity
  8
0
100
AcDbLine
 10
14.5924393878291
 20
-63.76676034723202
 30
0.0
 11
14.9081306317174
 21
-63.78429080273644
 31
0.0
  0
LINE
  5
353
330
18
100
AcDbEntity
  8
0
100
AcDbLine
 10
14.87305380325197
 20
-64.71340545541157
 30
0.0
 11
15.20628351444812
 21
-64.71340545541157
 31
0.0
  0
LINE
  5
354
330
18
100
AcDbEntity
  8
0
100
AcDbLine
 10
14.60997774898667
 20
-64.80105780592523
 30
0.0
 11
15.01336111711368
 21
-64.88871008344732
 31
0.0
  0
LINE
  5
355
330
18
100
AcDbEntity
  8
0
100
AcDbLine
 10
16.03058861185972
 20
-68.16690708756272
 30
0.0
 11
16.36381832305587
 21
-68.04419382604021
 31
0.0
  0
LINE
  5
356
330
18
100
AcDbEntity
  8
0
100
AcDbLine
 10
15.71489726182114
 20
-68.13184617655387
 30
0.0
 11
16.08320380148272
 21
-67.92148056451772
 31
0.0
  0
LINE
  5
357
330
18
100
AcDbEntity
  8
0
100
AcDbLine
 10
16.27612630496744
 20
-68.25455943807637
 30
0.0
 11
16.59181754885574
 21
-68.20196799857154
 31
0.0
  0
LWPOLYLINE
  5
358
330
18
100
AcDbEntity
  8
0
100
AcDbPolyline
 90
        2
 70
     0
 43
0.0
 10
15.24136034291355
 20
-61.04953828421584
 42
-0.1907275367003047
 10
15.97797342223671
 20
-61.62804360782792
 42
0.5743406790196435
  0
LWPOLYLINE
  5
35C
330
18
100
AcDbEntity
  8
0
100
AcDbPolyline
 90
        3
 70
     0
 43
0.0
 10
15.32905236100198
 20
-62.64481061101671
 42
0.0536463121376291
 10
16.13581899110572
 20
-62.3467926484669
 42
0.0678863193501778
 10
16.24104947650201
 20
-62.13642710942231
 42
-0.7158219112117673
  0
LWPOLYLINE
  5
361
330
18
100
AcDbEntity
  8
0
100
AcDbPolyline
 90
        6
 70
     0
 43
0.0
 10
16.08320380148272
 20
-61.45273897979215
 42
-0.0515921866731093
 10
15.82012774721742
 20
-61.80334823586367
 42
-0.1666333840836781
 10
15.59212841526728
 20
-61.92606149738615
 42
0.3212386472590292
 10
15.2588988102214
 20
-62.2591403709448
 42
0.1414061117266934
 10
15.34659082830984
 20
-62.60974962701631
 42
0.2287823523652178
 10
14.94320746018282
 20
-62.43444499898056
 42
50.16704749165192
  0
LWPOLYLINE
  5
369
330
18
100
AcDbEntity
  8
0
100
AcDbPolyline
 90
        5
 70
     0
 43
0.0
 10
15.31151399984441
 20
-61.08459919522468
 42
-0.1140643017539192
 10
15.13612996366754
 20
-61.64557406333234
 42
0.3493106138184725
 10
15.18874515329055
 20
-62.01371384789982
 42
-0.2123023960969801
 10
15.2588988102214
 20
-61.68063497434117
 42
0.1888566721305049
 10
15.39920601793284
 20
-61.13719056173794
 42
-1.128564462512196
  0
LWPOLYLINE
  5
370
330
18
100
AcDbEntity
  8
0
100
AcDbPolyline
 90
       13
 70
     0
 43
0.0
 10
14.85551544209439
 20
-61.17225147274678
 10
14.83797708093682
 20
-60.96188593370218
 10
14.94320746018282
 20
-60.83917267217969
 42
0.2401594060889833
 10
15.24136034291355
 20
-61.04953828421584
 42
-0.3114721735543541
 10
15.53951322564427
 20
-60.94435547819776
 42
0.2440345554908853
 10
15.94289659377128
 20
-60.85670312768411
 42
-0.4807248665748418
 10
16.60935591001331
 20
-61.15472101724236
 42
-0.3634031924407167
 10
16.32874149459044
 20
-61.64557406333234
 42
-0.181411573287881
 10
16.22351100919416
 20
-62.15395756492672
 42
0.015142494631865
 10
16.83735524196346
 20
-61.961122408395
 42
-0.565400275049429
 10
17.04781610660575
 20
-62.13642710942231
 42
-0.3147469757636841
 10
16.62689437732116
 20
-62.71493243303439
 42
0.2280587078654015
 10
16.41643351267887
 20
-63.11813312861071
 42
1.033169338606365
  0
LWPOLYLINE
  5
37F
330
18
100
AcDbEntity
  8
0
100
AcDbPolyline
 90
        2
 70
     0
 43
0.0
 10
14.83797708093682
 20
-61.17225147274678
 42
0.1143356415643654
 10
14.97828428864825
 20
-61.99618339239539
 42
0.6655382248084289
  0
LWPOLYLINE
  5
383
330
18
100
AcDbEntity
  8
0
100
AcDbPolyline
 90
        2
 70
     0
 43
0.0
 10
14.38197852318681
 20
-61.83840914687251
 42
-0.3026615630804436
 10
14.80290025247139
 20
-61.69816542984559
 42
-0.3026615630804436
  0
LINE
  5
387
330
18
100
AcDbEntity
  8
0
100
AcDbLine
 10
14.52228573089824
 20
-63.64404708570952
 30
0.0
 11
14.43459371280981
 21
-63.45121200216936
 31
0.0
  0
LINE
  5
388
330
18
100
AcDbEntity
  8
0
100
AcDbLine
 10
13.6629039111715
 20
-62.82011523905246
 30
0.0
 11
13.87336477581379
 21
-63.01295032259263
 31
0.0
  0
LINE
  5
389
330
18
100
AcDbEntity
  8
0
100
AcDbLine
 10
13.75059592925993
 20
-62.57468871600747
 30
0.0
 11
13.94351843274465
 21
-62.78505432804362
 31
0.0
  0
LINE
  5
38A
330
18
100
AcDbEntity
  8
0
100
AcDbLine
 10
13.94351843274465
 20
-62.45197545448498
 30
0.0
 11
13.99613362236765
 21
-62.62728008252072
 31
0.0
  0
LINE
  5
38B
330
18
100
AcDbEntity
  8
0
100
AcDbLine
 10
14.10136400161366
 20
-62.62728008252072
 30
0.0
 11
14.27674803779052
 21
-62.57468871600747
 31
0.0
  0
LINE
  5
38C
330
18
100
AcDbEntity
  8
0
100
AcDbLine
 10
14.06628717314823
 20
-62.83764569455688
 30
0.0
 11
14.27674803779052
 21
-62.78505432804362
 31
0.0
  0
LINE
  5
38D
330
18
100
AcDbEntity
  8
0
100
AcDbLine
 10
13.9785951550598
 20
-63.04801130659303
 30
0.0
 11
14.29428650509837
 21
-62.97788941158379
 31
0.0
  0
LINE
  5
38E
330
18
100
AcDbEntity
  8
0
100
AcDbLine
 10
13.78567275772536
 20
-63.50380336868261
 30
0.0
 11
13.7681342904175
 21
-63.64404708570952
 31
0.0
  0
LINE
  5
38F
330
18
100
AcDbEntity
  8
0
100
AcDbLine
 10
13.68044227232907
 20
-63.53886427969145
 30
0.0
 11
13.78567275772536
 21
-63.50380336868261
 31
0.0
  0
LINE
  5
390
330
18
100
AcDbEntity
  8
0
100
AcDbLine
 10
13.9785951550598
 20
-63.27590730114204
 30
0.0
 11
14.27674803779052
 21
-63.20578547912436
 31
0.0
  0
LWPOLYLINE
  5
391
330
18
100
AcDbEntity
  8
0
100
AcDbPolyline
 90
        3
 70
     0
 43
0.0
 10
13.90844160427922
 20
-63.46874245767377
 42
-0.0757092454919167
 10
14.18905601970209
 20
-62.50456682099823
 42
0.2309810798552808
 10
13.78567275772536
 20
-63.39862056266453
 42
0.9702845115339686
  0
LINE
  5
396
330
18
100
AcDbEntity
  8
0
100
AcDbLine
 10
14.66259304475995
 20
-63.53886427969145
 30
0.0
 11
14.68013140591753
 21
-63.29343775664646
 31
0.0
  0
LINE
  5
397
330
18
100
AcDbEntity
  8
0
100
AcDbLine
 10
14.75028506284839
 20
-63.55639473519587
 30
0.0
 11
14.96074592749068
 21
-63.53886427969145
 31
0.0
  0
ARC
  5
398
330
18
100
AcDbEntity
  8
0
100
AcDbCircle
 10
15.0994992188914
 20
-62.60291511332088
 30
0.0
 40
0.6067337108098507
100
AcDbArc
 50
65.96787101873612
 51
121.18156304924
  0
LWPOLYLINE
  5
399
330
18
100
AcDbEntity
  8
0
100
AcDbPolyline
 90
        4
 70
     0
 43
0.0
 10
16.15335745841358
 20
-62.27667082644923
 42
0.0383874429576204
 10
16.53920235923273
 20
-62.2591403709448
 42
-0.6043197436648927
 10
16.69704803425202
 20
-62.48703636549382
 42
0.027318980474424
 10
16.52166389192488
 20
-62.87270660556572
 42
1.463858568072652
  0
LWPOLYLINE
  5
39F
330
18
100
AcDbEntity
  8
0
100
AcDbPolyline
 90
        3
 70
     0
 43
0.0
 10
16.10074216264029
 20
-62.3818536324673
 42
-0.6499926507363419
 10
16.41643351267887
 20
-62.71493243303439
 42
0.098644818543459
 10
16.34627985574802
 20
-63.06554176209745
 42
1.000829670018596
  0
LWPOLYLINE
  5
3A4
330
18
100
AcDbEntity
  8
0
100
AcDbPolyline
 90
        3
 70
     0
 43
0.0
 10
16.31120302728259
 20
-61.66310451883675
 42
0.1035198503426542
 10
15.5219748644867
 20
-62.29420128195364
 42
0.359356370815403
 10
15.5219748644867
 20
-62.59221917151189
 42
0.4712845306343877
  0
LWPOLYLINE
  5
3A9
330
18
100
AcDbEntity
  8
0
100
AcDbPolyline
 90
        3
 70
     0
 43
0.0
 10
15.71489726182114
 20
-62.55715826050305
 42
0.0902101860504378
 10
15.74997409028657
 20
-62.99541986708821
 42
-0.5117154705095929
 10
15.67982053950599
 20
-63.36355965165569
 42
4.508495353281309
  0
LWPOLYLINE
  5
3AE
330
18
100
AcDbEntity
  8
0
100
AcDbPolyline
 90
        3
 70
     0
 43
0.0
 10
15.66228207219813
 20
-63.38109010716012
 42
0.0502821935889841
 10
15.59212841526728
 20
-62.97788941158379
 42
-0.5697031858707146
 10
15.71489726182114
 20
-62.55715826050305
 42
-0.1262603383195069
  0
LWPOLYLINE
  5
3B3
330
18
100
AcDbEntity
  8
0
100
AcDbPolyline
 90
        2
 70
     0
 43
0.0
 10
16.39889504537102
 20
-63.13566358411512
 10
16.25858783765958
 20
-62.99541986708821
  0
LWPOLYLINE
  5
3B7
330
18
100
AcDbEntity
  8
0
100
AcDbPolyline
 90
        3
 70
     0
 43
0.0
 10
16.52166389192488
 20
-62.24160991544039
 42
-0.585360415784645
 10
16.8198167746556
 20
-62.27667082644923
 42
-0.6225166777801955
 10
16.69704803425202
 20
-62.41691454347614
 42
-7.593364400506332
  0
LINE
  5
3BC
330
18
100
AcDbEntity
  8
0
100
AcDbLine
 10
20.62431851339117
 20
-77.20895787863414
 30
0.0
 11
20.30862716335259
 21
-77.45438440167913
 31
0.0
  0
LWPOLYLINE
  5
3BD
330
18
100
AcDbEntity
  8
0
100
AcDbPolyline
 90
        8
 70
     0
 43
0.0
 10
20.62431851339117
 20
-77.20895787863414
 42
-0.3028892351556847
 10
20.65939523570632
 20
-77.41932341767872
 42
-0.0575204140971091
 10
20.81724091072561
 20
-77.78746320224621
 42
-0.0357034713241745
 10
20.85231773919104
 20
-77.94523737477755
 42
-0.0738278781919157
 10
20.85231773919104
 20
-78.08548109180446
 42
-0.0989759145478452
 10
20.69447206417175
 20
-78.10301162030043
 42
0.1914021956629972
 10
20.30862716335259
 20
-77.45438440167913
 42
-0.0204080899317648
 10
20.34370399181803
 20
-77.20895787863414
 42
1.201772093143377
  0
DIMENSION
  5
3C7
330
18
100
AcDbEntity
  8
ADPDIM
100
AcDbDimension
  2
*D0
 10
22.55340011038761
 20
-59.67142842148041
 30
0.0
 11
22.55340011038761
 21
-70.17142842148041
 31
0.0
 12
-1.612088040928281
 22
-0.0000567896899213
 32
0.0
100
AcDbAlignedDimension
 13
21.27323946847563
 23
-80.67142842148042
 33
0.0
 14
21.27323946847563
 24
-59.67142842148041
 34
0.0
 50
90.0
100
AcDbRotatedDimension
  0
ARC
  5
3C8
330
18
100
AcDbEntity
  8
0
100
AcDbCircle
 10
17.95865481851637
 20
-80.2372728006844
 30
0.0
 40
3.004022209854429
100
AcDbArc
 50
21.83897410899211
 51
38.53062654263115
  0
LWPOLYLINE
  5
3C9
330
18
100
AcDbEntity
  8
0
100
AcDbPolyline
 90
       18
 70
     0
 43
0.0
 10
19.09847727127213
 20
-79.20743090101133
 10
18.92309312894498
 20
-79.18990044550691
 42
-0.1831297649730915
 10
18.92309312894498
 20
-78.7516387659302
 42
0.3374836225548318
 10
19.13355399358727
 20
-78.87435202745269
 42
0.1497011815995373
 10
19.1160156324297
 20
-79.22496135651575
 42
0.3027678148813269
 10
19.36155332553742
 20
-79.43532696855189
 42
-0.0505739979294794
 10
19.76493658751415
 20
-79.522979246074
 42
-0.0442123434935101
 10
20.01047428062187
 20
-79.71581440260573
 42
0.1570658926553197
 10
20.11570476601816
 20
-78.82176066093943
 42
0.3073926975299544
 10
19.29139966860656
 20
-78.59386459339886
 42
0.5456491498731193
 10
19.25632284014113
 20
-78.73410831042576
 10
19.20370765051813
 20
-78.73410831042576
 42
-0.314846134824012
 10
19.08093880396427
 20
-78.29584670384061
 42
-0.4519241557824873
 10
20.18585831679874
 20
-78.29584670384061
 10
20.20339678410659
 20
-78.50621231587677
 42
-0.1547391103822654
 10
20.43139600990646
 20
-78.73410831042576
 42
0.252644631764469
 10
20.74708735994503
 20
-79.11977855049767
 42
-0.0875978435036284
 10
20.90493292881404
 20
-80.69752042179413
 42
-0.9276445100358056
  0
LINE
  5
3DD
330
18
100
AcDbEntity
  8
0
100
AcDbLine
 10
19.20370765051813
 20
-79.48791833506516
 30
0.0
 11
18.92309312894498
 21
-79.41779644005592
 31
0.0
  0
LINE
  5
3DE
330
18
100
AcDbEntity
  8
0
100
AcDbLine
 10
19.0107852531837
 20
-79.99630183665956
 30
0.0
 11
18.88801640662983
 21
-80.10148464267762
 31
0.0
  0
LWPOLYLINE
  5
3DF
330
18
100
AcDbEntity
  8
0
100
AcDbPolyline
 90
        3
 70
     0
 43
0.0
 10
18.81786274969898
 20
-79.40026598455149
 42
-0.2108491687986261
 10
18.99324678587584
 20
-80.48715488274954
 42
0.3300500003538938
 10
18.92309312894498
 20
-79.41779644005592
 42
0.4632899219915191
  0
LINE
  5
3E4
330
18
100
AcDbEntity
  8
0
100
AcDbLine
 10
18.94063159625284
 20
-79.71581440260573
 30
0.0
 11
18.73017073161054
 21
-79.94371039715473
 31
0.0
  0
LWPOLYLINE
  5
3E5
330
18
100
AcDbEntity
  8
0
100
AcDbPolyline
 90
        6
 70
     0
 43
0.0
 10
19.64216774096029
 20
-77.84005464175102
 42
0.2070570060865343
 10
17.95848092997223
 20
-78.36596859884984
 42
0.0237862832167728
 10
18.43201784887982
 20
-78.47115133187635
 42
-0.3971352764430145
 10
18.53724822812583
 20
-78.61139504890328
 42
0.320346816232014
 10
18.71263237045297
 20
-78.52374277138117
 42
-0.371606808994674
 10
19.65970620826814
 20
-77.84005464175102
 42
-23.15659066248932
  0
LWPOLYLINE
  5
3ED
330
18
100
AcDbEntity
  8
0
100
AcDbPolyline
 90
       14
 70
     0
 43
0.0
 10
17.95848092997223
 20
-78.40102950985869
 42
0.3481439923799896
 10
17.44986718259921
 20
-78.90941301145308
 42
0.0578563017389503
 10
17.44986718259921
 20
-79.29508325152498
 42
0.9841664549094284
 10
17.62525121877607
 20
-79.277552723029
 42
-0.3005381053682652
 10
17.90586563419895
 20
-79.18990044550691
 42
0.1847185365027705
 10
18.50217150581068
 20
-79.15483953449807
 42
0.5737734800527843
 10
18.53724822812583
 20
-78.82176066093943
 10
18.71263237045297
 20
-78.7516387659302
 10
18.71263237045297
 20
-79.277552723029
 42
0.5399366945823006
 10
18.43201784887982
 20
-79.6982839471013
 42
0.1732663473111027
 10
18.60740188505668
 20
-80.13654555368646
 42
-0.2546254360931864
 10
18.95816995741041
 20
-80.53974624926279
 42
0.5560534548463006
 10
19.431706876318
 20
-79.99630183665956
 42
0.1908033985926786
 10
19.34401485822957
 20
-79.45285742405632
 42
0.5684115247207471
  0
LINE
  5
3FD
330
18
100
AcDbEntity
  8
0
100
AcDbLine
 10
18.06371130921824
 20
-78.69904739941692
 30
0.0
 11
17.73048159802208
 21
-78.57633413789443
 31
0.0
  0
LWPOLYLINE
  5
3FE
330
18
100
AcDbEntity
  8
0
100
AcDbPolyline
 90
        3
 70
     0
 43
0.0
 10
18.43201784887982
 20
-78.804230205435
 42
0.1725286964149721
 10
17.53755920068765
 20
-79.11977855049767
 42
-0.3332427190853175
 10
18.37940265925682
 20
-78.69904739941692
 42
-11.08905338963003
  0
LINE
  5
403
330
18
100
AcDbEntity
  8
0
100
AcDbLine
 10
17.99355775843766
 20
-79.1373090060021
 30
0.0
 11
18.09878813768366
 21
-78.85682157194826
 31
0.0
  0
LINE
  5
404
330
18
100
AcDbEntity
  8
0
100
AcDbLine
 10
18.37940265925682
 20
-78.6639864884081
 30
0.0
 11
18.01109611959523
 21
-78.45362087637195
 31
0.0
  0
LINE
  5
405
330
18
100
AcDbEntity
  8
0
100
AcDbLine
 10
17.78309689379537
 20
-79.1373090060021
 30
0.0
 11
17.78309689379537
 21
-78.94447392246192
 31
0.0
  0
LINE
  5
406
330
18
100
AcDbEntity
  8
0
100
AcDbLine
 10
17.81817361611052
 20
-78.78669974993059
 30
0.0
 11
17.50248237222221
 21
-78.73410831042576
 31
0.0
  0
LINE
  5
407
330
18
100
AcDbEntity
  8
0
100
AcDbLine
 10
18.22155698423753
 20
-79.11977855049767
 30
0.0
 11
18.34432583079139
 21
-78.82176066093943
 31
0.0
  0
LINE
  5
408
330
18
100
AcDbEntity
  8
0
100
AcDbLine
 10
18.85293957816441
 20
-79.41779644005592
 30
0.0
 11
18.57232505659126
 21
-79.71581440260573
 31
0.0
  0
LINE
  5
409
330
18
100
AcDbEntity
  8
0
100
AcDbLine
 10
19.27386130744899
 20
-79.7859362246234
 30
0.0
 11
19.08093880396427
 21
-79.73334485811014
 31
0.0
  0
LINE
  5
40A
330
18
100
AcDbEntity
  8
0
100
AcDbLine
 10
19.30893813591442
 20
-80.0839541871732
 30
0.0
 11
19.1160156324297
 21
-80.01383229216397
 31
0.0
  0
LINE
  5
40B
330
18
100
AcDbEntity
  8
0
100
AcDbLine
 10
19.92278226253344
 20
-78.87435202745269
 30
0.0
 11
19.62462937980271
 21
-78.94447392246192
 31
0.0
  0
LWPOLYLINE
  5
40C
330
18
100
AcDbEntity
  8
0
100
AcDbPolyline
 90
        3
 70
     0
 43
0.0
 10
19.30893813591442
 20
-78.92694346695749
 42
-0.2113977239705442
 10
19.9929359194643
 20
-79.50544879056957
 42
0.3416475383772448
 10
19.41416851516042
 20
-78.85682157194826
 42
0.0921721062796368
  0
LINE
  5
411
330
18
100
AcDbEntity
  8
0
100
AcDbLine
 10
19.67724456942572
 20
-78.7516387659302
 30
0.0
 11
19.379091686695
 21
-78.804230205435
 31
0.0
  0
LINE
  5
412
330
18
100
AcDbEntity
  8
0
100
AcDbLine
 10
19.76493658751415
 20
-79.45285742405632
 30
0.0
 11
19.782475054822
 21
-79.26002226752459
 31
0.0
  0
LINE
  5
413
330
18
100
AcDbEntity
  8
0
100
AcDbLine
 10
19.57201419017971
 20
-79.34767461803824
 30
0.0
 11
19.55447572287186
 21
-79.06718718398441
 31
0.0
  0
LINE
  5
414
330
18
100
AcDbEntity
  8
0
100
AcDbLine
 10
19.32647649707199
 20
-79.22496135651575
 30
0.0
 11
19.32647649707199
 21
-78.89188255594866
 31
0.0
  0
LINE
  5
415
330
18
100
AcDbEntity
  8
0
100
AcDbLine
 10
20.34370399181803
 20
-78.36596859884984
 30
0.0
 11
20.22093514526417
 21
-78.50621231587677
 31
0.0
  0
LINE
  5
416
330
18
100
AcDbEntity
  8
0
100
AcDbLine
 10
20.01047428062187
 20
-79.08471763948883
 30
0.0
 11
19.83509024444501
 21
-79.10224809499325
 31
0.0
  0
LWPOLYLINE
  5
417
330
18
100
AcDbEntity
  8
0
100
AcDbPolyline
 90
        2
 70
     0
 43
0.0
 10
21.27323946847563
 20
-80.6799899662897
 42
0.0986897326696091
 10
20.83477937803347
 20
-78.10301162030043
 42
0.6881983632786446
  0
LINE
  5
41B
330
18
100
AcDbEntity
  8
0
100
AcDbLine
 10
21.27323946847563
 20
-80.67142842148042
 30
0.0
 11
20.84701542667708
 21
-80.67142842148042
 31
0.0
  0
LWPOLYLINE
  5
41C
330
18
100
AcDbEntity
  8
0
100
AcDbPolyline
 90
        3
 70
     0
 43
0.0
 10
19.88903772620155
 20
-67.65852358596831
 42
-0.1297994746220581
 10
19.73119205118226
 20
-68.21949845407598
 42
0.099858363947208
 10
19.57334637616298
 20
-68.67529058915711
 42
1.144231567609045
  0
LWPOLYLINE
  5
421
330
18
100
AcDbEntity
  8
0
100
AcDbPolyline
 90
        3
 70
     0
 43
0.0
 10
18.11765879097479
 20
-69.20120454625592
 42
0.36294775266936
 10
18.29304282715165
 20
-68.25455943807637
 42
-0.314315089249479
 10
18.20535080906322
 20
-69.28885689676959
 42
2.132040245621408
  0
LWPOLYLINE
  5
426
330
18
100
AcDbEntity
  8
0
100
AcDbPolyline
 90
        5
 70
     0
 43
0.0
 10
20.25734426586314
 20
-68.55257732763461
 42
-0.3005420446431691
 10
19.99426810544756
 20
-68.65776013365269
 42
0.1426314728383253
 10
19.5558080150054
 20
-68.69282104466153
 42
-0.0830748831564435
 10
19.8714992588937
 20
-68.20196799857154
 42
0.1700663135366061
 10
20.06442176237842
 20
-67.74617593648198
 42
-0.9384396032605316
  0
LWPOLYLINE
  5
42D
330
18
100
AcDbEntity
  8
0
100
AcDbPolyline
 90
        8
 70
     0
 43
0.0
 10
20.90626522094759
 20
-59.78734475798205
 10
20.90626522094759
 20
-59.68216195196398
 10
21.25703329330132
 20
-59.68216195196398
 10
21.25703329330132
 20
-60.62880706014354
 42
-0.1652860479489222
 10
20.43272830204
 20
-62.67987152202555
 42
-0.1029565973115712
 10
18.22288927637107
 20
-64.38032665484448
 42
-0.2775684050111868
 10
20.90626522094759
 20
-65.5022763910598
 42
-0.4327504568052787
 10
20.27488262702071
 20
-68.21949845407598
 42
3.716794353251612
  0
LWPOLYLINE
  5
437
330
18
100
AcDbEntity
  8
0
100
AcDbPolyline
 90
        6
 70
     0
 43
0.0
 10
20.88739456765647
 20
-74.9124669666987
 42
0.6262096440054888
 10
20.23847361257202
 20
-75.43838092379752
 42
0.0000002016933547
 10
20.02801274792973
 20
-75.54356365682403
 42
-0.0187512009408847
 10
20.16831995564116
 20
-74.92999742220312
 42
-0.0000002241475479
 10
20.41385764874888
 20
-74.78975370517621
 10
20.51908802799489
 20
-74.89493643820272
  0
LWPOLYLINE
  5
43F
330
18
100
AcDbEntity
  8
0
100
AcDbPolyline
 90
        2
 70
     0
 43
0.0
 10
20.30862716335259
 20
-75.45591137930194
 42
0.1519613584022763
 10
21.18554745038719
 20
-75.01764969972523
 42
0.1519613584022763
  0
LWPOLYLINE
  5
443
330
18
100
AcDbEntity
  8
0
100
AcDbPolyline
 90
        2
 70
     0
 43
0.0
 10
21.18554745038719
 20
-75.03518022822119
 42
-0.253677529443903
 10
20.34370399181803
 20
-75.59615509632886
 42
-0.0454912839326834
  0
LINE
  5
447
330
18
100
AcDbEntity
  8
0
100
AcDbLine
 10
20.90493292881404
 20
-74.80728416068062
 30
0.0
 11
20.55416485646032
 21
-74.75469272117582
 31
0.0
  0
LWPOLYLINE
  5
448
330
18
100
AcDbEntity
  8
0
100
AcDbPolyline
 90
        2
 70
     0
 43
0.0
 10
20.48401119952946
 20
-74.63197945965332
 42
0.2416104523967523
 10
21.11539379345634
 20
-74.14112648655489
 42
1.568830328206643
  0
LWPOLYLINE
  5
44C
330
18
100
AcDbEntity
  8
0
100
AcDbPolyline
 90
        2
 70
     0
 43
0.0
 10
21.09785543229876
 20
-74.14112648655489
 42
-0.2373318369514915
 10
20.41385764874888
 20
-74.80728416068062
 42
-0.1542790301302646
  0
LWPOLYLINE
  5
450
330
18
100
AcDbEntity
  8
0
100
AcDbPolyline
 90
        5
 70
     0
 43
0.0
 10
20.67693370301417
 20
-73.79051715749183
 42
0.297349596615246
 10
20.23847361257202
 20
-72.94905485533035
 42
0.0661154320748096
 10
19.80001341597958
 20
-72.7737502272946
 42
0.8047646974528246
 10
19.74739822635658
 20
-72.87893296032112
 42
0.0175902546582519
 10
19.67724456942572
 20
-73.77298670198742
 42
-0.9577744361359982
  0
LWPOLYLINE
  5
457
330
18
100
AcDbEntity
  8
0
100
AcDbPolyline
 90
       11
 70
     0
 43
0.0
 10
20.3612423529756
 20
-74.42161392060872
 42
-0.2156907642176929
 10
20.72954889263718
 20
-74.01841322503241
 42
0.1886138772104146
 10
21.13293226076419
 20
-73.89569996350991
 42
-0.4425230942113447
 10
21.2381626400102
 20
-73.91323041901433
 42
-0.1007793853523658
 10
21.09785543229876
 20
-74.64950998814929
 42
-0.4760227905882886
 10
20.88739456765647
 20
-74.89493643820272
 42
0.4687361670298915
 10
21.25570110731805
 20
-74.82481461618505
 42
-0.1294333353916904
 10
21.16800898307934
 20
-75.49097229031078
 42
-0.5800337402469842
 10
20.23847361257202
 20
-75.61368555183327
 42
0.0383958903524797
 10
20.0455511090873
 20
-75.71886835785135
 42
0.1449948664502861
 10
20.34370399181803
 20
-77.19142742312972
 42
-1.662513820911976
  0
LWPOLYLINE
  5
464
330
18
100
AcDbEntity
  8
0
100
AcDbPolyline
 90
        9
 70
     0
 43
0.0
 10
19.15109246089513
 20
-74.36902255409546
 42
-0.2450075415202048
 10
18.53724822812583
 20
-74.10606557554605
 42
-0.385277435327869
 10
18.55478669543368
 20
-73.75545624648299
 42
0.3648877377216837
 10
18.85293957816441
 20
-73.38731646191551
 42
0.2421329086130201
 10
18.73017073161054
 20
-73.15942039437494
 42
0.4059310932493938
 10
19.15109246089513
 20
-72.96658531083477
 42
0.1097237842367619
 10
19.71232139789115
 20
-72.89646341582553
 42
0.4824458674304091
 10
19.71232139789115
 20
-72.3530190032223
 42
0.3845705786247512
 10
19.25632284014113
 20
-71.68686132909657
 42
0.1186853300671879
  0
LWPOLYLINE
  5
46F
330
18
100
AcDbEntity
  8
0
100
AcDbPolyline
 90
        3
 70
     0
 43
0.0
 10
17.78309689379537
 20
-72.19524483069097
 42
-0.1035198503426542
 10
18.57232505659126
 20
-72.82634159380785
 42
-0.359356370815403
 10
18.57232505659126
 20
-73.1243594833661
 42
-0.4712845306343877
  0
LWPOLYLINE
  5
474
330
18
100
AcDbEntity
  8
0
100
AcDbPolyline
 90
        3
 70
     0
 43
0.0
 10
18.76524756007597
 20
-73.17695092287093
 42
-0.0536463121376291
 10
17.95848092997223
 20
-72.87893296032112
 42
-0.0678863193501778
 10
17.85325044457595
 20
-72.66856742127652
 42
0.7158219112117673
  0
LWPOLYLINE
  5
479
330
18
100
AcDbEntity
  8
0
100
AcDbPolyline
 90
        6
 70
     0
 43
0.0
 10
18.01109611959523
 20
-71.98487929164638
 42
0.0515921866731093
 10
18.27417217386053
 20
-72.33548854771789
 42
0.1666333840836781
 10
18.50217150581068
 20
-72.45820180924038
 42
-0.3212386472590292
 10
18.83540111085655
 20
-72.79128068279902
 42
-0.1414061117266934
 10
18.74770909276812
 20
-73.14188993887052
 42
-0.2287823523652178
 10
19.15109246089513
 20
-72.96658531083477
 42
-50.16704749165192
  0
LWPOLYLINE
  5
481
330
18
100
AcDbEntity
  8
0
100
AcDbPolyline
 90
        3
 70
     0
 43
0.0
 10
17.99355775843766
 20
-72.91399394432152
 42
0.6499926507363419
 10
17.67786640839908
 20
-73.2470727448886
 42
-0.098644818543459
 10
17.74802006532994
 20
-73.59768207395166
 42
-1.000829670018596
  0
LWPOLYLINE
  5
486
330
18
100
AcDbEntity
  8
0
100
AcDbPolyline
 90
        3
 70
     0
 43
0.0
 10
17.57263602915307
 20
-72.7737502272946
 42
0.585360415784645
 10
17.27448314642235
 20
-72.80881113830344
 42
0.6225166777801955
 10
17.39725188682593
 20
-72.94905485533035
 42
7.593364400506332
  0
LWPOLYLINE
  5
48B
330
18
100
AcDbEntity
  8
0
100
AcDbPolyline
 90
        4
 70
     0
 43
0.0
 10
17.94094246266438
 20
-72.80881113830344
 42
-0.0383874429576204
 10
17.55509756184522
 20
-72.79128068279902
 42
0.6043197436648927
 10
17.39725188682593
 20
-73.01917667734802
 42
-0.027318980474424
 10
17.57263602915307
 20
-73.40484691741993
 42
-1.463858568072652
  0
LINE
  5
491
330
18
100
AcDbEntity
  8
0
100
AcDbLine
 10
19.22124611782598
 20
-75.24554576726579
 30
0.0
 11
18.88801640662983
 21
-75.24554576726579
 31
0.0
  0
LINE
  5
492
330
18
100
AcDbEntity
  8
0
100
AcDbLine
 10
18.99324678587584
 20
-75.03518022822119
 30
0.0
 11
18.83540111085655
 21
-75.05271068372562
 31
0.0
  0
LWPOLYLINE
  5
493
330
18
100
AcDbEntity
  8
0
100
AcDbPolyline
 90
        2
 70
     0
 43
0.0
 10
19.57201419017971
 20
-75.19295440075253
 42
-0.2234937883062391
 10
18.73017073161054
 20
-74.63197945965332
 42
0.5643282311540821
  0
LWPOLYLINE
  5
497
330
18
100
AcDbEntity
  8
0
100
AcDbPolyline
 90
        2
 70
     0
 43
0.0
 10
18.71263237045297
 20
-74.63197945965332
 42
0.3134236141041419
 10
19.55447572287186
 20
-75.29813713377905
 42
0.3134236141041419
  0
LWPOLYLINE
  5
49B
330
18
100
AcDbEntity
  8
0
100
AcDbPolyline
 90
       14
 70
     0
 43
0.0
 10
19.62462937980271
 20
-74.73716226567138
 10
19.74739822635658
 20
-74.64950998814929
 42
-0.2456611413012705
 10
19.92278226253344
 20
-74.94752787770754
 42
-0.1206871260071977
 10
19.83509024444501
 20
-75.40331993979712
 42
-0.0099995872307934
 10
19.67724456942572
 20
-75.21048485625695
 42
0.2603474964523338
 10
19.58955255133729
 20
-74.75469272117582
 42
0.2691965971885177
 10
19.15109246089513
 20
-74.59691854864448
 42
-0.2199258570032009
 10
18.60740188505668
 20
-74.45667483161756
 42
0.3119882060077189
 10
18.71263237045297
 20
-74.84234507168946
 42
0.1127269432636214
 10
18.81786274969898
 20
-75.31566766227503
 42
0.1400374543294966
 10
19.13355399358727
 20
-75.56109411232846
 42
0.3975226299856578
 10
19.62462937980271
 20
-75.36825902878828
 42
-0.1926633800243885
 10
19.80001341597958
 20
-76.15712996443651
 42
0.1828122091394166
 10
20.13324312717573
 20
-77.15636643912933
 42
-2.104225752514619
  0
LWPOLYLINE
  5
4AB
330
18
100
AcDbEntity
  8
0
100
AcDbPolyline
 90
        6
 70
     0
 43
0.0
 10
19.02832361434127
 20
-75.52603320131962
 42
0.2704549675526322
 10
19.15109246089513
 20
-75.91170344139152
 42
-0.3718073477870162
 10
19.431706876318
 20
-76.45514785399476
 10
19.30893813591442
 20
-76.43761739849033
 10
18.71263237045297
 20
-76.0168862474096
 10
18.60740188505668
 20
-75.78899017986903
 42
-0.5522658922107665
  0
ARC
  5
4B3
330
18
100
AcDbEntity
  8
0
100
AcDbCircle
 10
19.29848340189178
 20
-75.93857751469538
 30
0.0
 40
0.5763370899053754
100
AcDbArc
 50
126.1908215970874
 51
189.5721908183493
  0
ARC
  5
4B4
330
18
100
AcDbEntity
  8
0
100
AcDbCircle
 10
19.30123210711315
 20
-75.95467215707039
 30
0.0
 40
0.6837564106212716
100
AcDbArc
 50
130.9675829294054
 51
164.4576922320695
  0
LWPOLYLINE
  5
4B5
330
18
100
AcDbEntity
  8
0
100
AcDbPolyline
 90
       10
 70
     0
 43
0.0
 10
18.58986352389911
 20
-74.47420528712199
 42
-0.1231191064092126
 10
17.85325044457595
 20
-73.52756017894242
 42
-0.2361744710576757
 10
17.81817361611052
 20
-73.08929857235726
 42
-0.084266168619015
 10
18.25663381270295
 20
-73.01917667734802
 42
-0.6699780968337201
 10
18.29171064116838
 20
-73.10682902786169
 42
-0.0622857463058098
 10
18.25663381270295
 20
-73.58015161844725
 42
0.4143462094502468
 10
18.37940265925682
 20
-73.91323041901433
 42
0.2194411386434466
 10
18.43201784887982
 20
-73.91323041901433
 42
-0.0809750791729907
 10
18.64247871352211
 20
-73.36978600641109
 42
0.4088173996924357
 10
18.58986352389911
 20
-73.15942039437494
 42
0.2819016442384878
  0
LWPOLYLINE
  5
4C1
330
18
100
AcDbEntity
  8
0
100
AcDbPolyline
 90
        2
 70
     0
 43
0.0
 10
17.69540487570693
 20
-73.66780389596934
 10
17.83571208341837
 20
-73.52756017894242
  0
LWPOLYLINE
  5
4C5
330
18
100
AcDbEntity
  8
0
100
AcDbPolyline
 90
        3
 70
     0
 43
0.0
 10
18.37940265925682
 20
-73.08929857235726
 42
-0.0902101860504378
 10
18.34432583079139
 20
-73.52756017894242
 42
0.5117154705095929
 10
18.41447938157197
 20
-73.89569996350991
 42
-4.508495353281309
  0
LWPOLYLINE
  5
4CA
330
18
100
AcDbEntity
  8
0
100
AcDbPolyline
 90
        3
 70
     0
 43
0.0
 10
18.43201784887982
 20
-73.91323041901433
 42
-0.0502821935889841
 10
18.50217150581068
 20
-73.51002972343801
 42
0.5697031858707146
 10
18.37940265925682
 20
-73.08929857235726
 42
0.1262603383195069
  0
LINE
  5
4CF
330
18
100
AcDbEntity
  8
0
100
AcDbLine
 10
20.64185687454874
 20
-75.33319811777944
 30
0.0
 11
20.67693370301417
 21
-74.98258878871638
 31
0.0
  0
LINE
  5
4D0
330
18
100
AcDbEntity
  8
0
100
AcDbLine
 10
20.48401119952946
 20
-75.42085039530154
 30
0.0
 11
20.46647283837188
 21
-75.10530205023887
 31
0.0
  0
ARC
  5
4D1
330
18
100
AcDbEntity
  8
0
100
AcDbCircle
 10
16.61818355685789
 20
-79.98902795512872
 30
0.0
 40
4.528048079436475
100
AcDbArc
 50
38.72485489834733
 51
51.30108666160253
  0
LINE
  5
4D2
330
18
100
AcDbEntity
  8
0
100
AcDbLine
 10
19.48432217209128
 20
-75.33319811777944
 30
0.0
 11
19.08093880396427
 21
-75.42085039530154
 31
0.0
  0
LINE
  5
4D3
330
18
100
AcDbEntity
  8
0
100
AcDbLine
 10
20.34370399181803
 20
-77.19142742312972
 30
0.0
 11
20.62431851339117
 21
-77.20895787863414
 31
0.0
  0
LWPOLYLINE
  5
4D4
330
18
100
AcDbEntity
  8
0
100
AcDbPolyline
 90
        7
 70
     0
 43
0.0
 10
20.13324312717573
 20
-74.26383974807738
 10
20.15078148833331
 20
-74.14112648655489
 42
-0.1622543141626548
 10
19.87016707291044
 20
-73.93076087451875
 42
0.1462642952907919
 10
19.69478303673357
 20
-73.79051715749183
 42
0.114379385363941
 10
19.1160156324297
 20
-73.61521252945609
 42
0.0938751447064837
 10
19.13355399358727
 20
-74.3514920255995
 42
0.2805383430608318
 10
19.1686308220527
 20
-74.59691854864448
 42
-2.119125520659394
  0
LINE
  5
4DD
330
18
100
AcDbEntity
  8
0
100
AcDbLine
 10
20.11570476601816
 20
-73.80804761299626
 30
0.0
 11
19.81755188328743
 21
-73.73792579097858
 31
0.0
  0
LINE
  5
4DE
330
18
100
AcDbEntity
  8
0
100
AcDbLine
 10
20.11570476601816
 20
-73.58015161844725
 30
0.0
 11
19.80001341597958
 21
-73.51002972343801
 31
0.0
  0
LINE
  5
4DF
330
18
100
AcDbEntity
  8
0
100
AcDbLine
 10
20.02801274792973
 20
-73.36978600641109
 30
0.0
 11
19.81755188328743
 21
-73.31719463989784
 31
0.0
  0
LINE
  5
4E0
330
18
100
AcDbEntity
  8
0
100
AcDbLine
 10
19.9929359194643
 20
-73.15942039437494
 30
0.0
 11
19.81755188328743
 21
-73.10682902786169
 31
0.0
  0
LINE
  5
4E1
330
18
100
AcDbEntity
  8
0
100
AcDbLine
 10
19.431706876318
 20
-74.07100459154566
 30
0.0
 11
19.41416851516042
 21
-73.82557806850067
 31
0.0
  0
LINE
  5
4E2
330
18
100
AcDbEntity
  8
0
100
AcDbLine
 10
19.57201419017971
 20
-74.17618739756374
 30
0.0
 11
19.65970620826814
 21
-73.98335231402356
 31
0.0
  0
LINE
  5
4E3
330
18
100
AcDbEntity
  8
0
100
AcDbLine
 10
19.34401485822957
 20
-74.08853504705009
 30
0.0
 11
19.13355399358727
 21
-74.07100459154566
 31
0.0
  0
LINE
  5
4E4
330
18
100
AcDbEntity
  8
0
100
AcDbLine
 10
19.50186053324886
 20
-74.29890065908622
 30
0.0
 11
19.18616928936056
 21
-74.31643111459066
 31
0.0
  0
LWPOLYLINE
  5
4E5
330
18
100
AcDbEntity
  8
0
100
AcDbPolyline
 90
        2
 70
     0
 43
0.0
 10
19.80001341597958
 20
-74.71963181016697
 10
19.65970620826814
 20
-74.71963181016697
  0
LINE
  5
4E9
330
18
100
AcDbEntity
  8
0
100
AcDbLine
 10
19.41416851516042
 20
-75.14036296124771
 30
0.0
 11
19.41416851516042
 21
-74.71963181016697
 31
0.0
  0
LINE
  5
4EA
330
18
100
AcDbEntity
  8
0
100
AcDbLine
 10
19.04586197549884
 20
-74.94752787770754
 30
0.0
 11
18.99324678587584
 21
-74.64950998814929
 31
0.0
  0
LINE
  5
4EB
330
18
100
AcDbEntity
  8
0
100
AcDbLine
 10
19.18616928936056
 20
-75.07024113923003
 30
0.0
 11
19.18616928936056
 21
-74.63197945965332
 31
0.0
  0
LINE
  5
4EC
330
18
100
AcDbEntity
  8
0
100
AcDbLine
 10
19.64216774096029
 20
-74.50926627112238
 30
0.0
 11
19.23878447898356
 21
-74.49173574262641
 31
0.0
  0
LWPOLYLINE
  5
4ED
330
18
100
AcDbEntity
  8
0
100
AcDbPolyline
 90
        3
 70
     0
 43
0.0
 10
19.81755188328743
 20
-74.47420528712199
 42
-0.1196440948530965
 10
19.25632284014113
 20
-73.82557806850067
 42
0.1623008871198547
 10
19.74739822635658
 20
-74.56185763763564
 42
-2.915743970328522
  0
LINE
  5
4F2
330
18
100
AcDbEntity
  8
0
100
AcDbLine
 10
19.67724456942572
 20
-74.3865530095999
 30
0.0
 11
19.782475054822
 21
-74.03594368053683
 31
0.0
  0
LINE
  5
4F3
330
18
100
AcDbEntity
  8
0
100
AcDbLine
 10
20.15078148833331
 20
-72.98411576633919
 30
0.0
 11
20.09816629871031
 21
-73.15942039437494
 31
0.0
  0
LINE
  5
4F4
330
18
100
AcDbEntity
  8
0
100
AcDbLine
 10
20.34370399181803
 20
-73.10682902786169
 30
0.0
 11
20.15078148833331
 21
-73.31719463989784
 31
0.0
  0
LINE
  5
4F5
330
18
100
AcDbEntity
  8
0
100
AcDbLine
 10
20.43139600990646
 20
-73.35225555090667
 30
0.0
 11
20.22093514526417
 21
-73.54509063444685
 31
0.0
  0
LINE
  5
4F6
330
18
100
AcDbEntity
  8
0
100
AcDbLine
 10
20.41385764874888
 20
-74.07100459154566
 30
0.0
 11
20.30862716335259
 21
-74.03594368053683
 31
0.0
  0
LINE
  5
4F7
330
18
100
AcDbEntity
  8
0
100
AcDbLine
 10
20.30862716335259
 20
-74.03594368053683
 30
0.0
 11
20.32616563066045
 21
-74.17618739756374
 31
0.0
  0
LINE
  5
4F8
330
18
100
AcDbEntity
  8
0
100
AcDbLine
 10
20.55416485646032
 20
-73.56262108995126
 30
0.0
 11
20.29108880219502
 21
-73.80804761299626
 31
0.0
  0
LINE
  5
4F9
330
18
100
AcDbEntity
  8
0
100
AcDbLine
 10
20.3612423529756
 20
-74.64950998814929
 30
0.0
 11
20.3612423529756
 21
-74.45667483161756
 31
0.0
  0
LINE
  5
4FA
330
18
100
AcDbEntity
  8
0
100
AcDbLine
 10
20.55416485646032
 20
-74.57938809314005
 30
0.0
 11
20.55416485646032
 21
-74.36902255409546
 31
0.0
  0
LINE
  5
4FB
330
18
100
AcDbEntity
  8
0
100
AcDbLine
 10
19.9929359194643
 20
-74.59691854864448
 30
0.0
 11
20.0455511090873
 21
-74.71963181016697
 31
0.0
  0
LINE
  5
4FC
330
18
100
AcDbEntity
  8
0
100
AcDbLine
 10
20.20339678410659
 20
-74.50926627112238
 30
0.0
 11
19.9929359194643
 21
-74.59691854864448
 31
0.0
  0
LINE
  5
4FD
330
18
100
AcDbEntity
  8
0
100
AcDbLine
 10
20.0455511090873
 20
-74.71963181016697
 30
0.0
 11
20.09816629871031
 21
-74.56185763763564
 31
0.0
  0
LINE
  5
4FE
330
18
100
AcDbEntity
  8
0
100
AcDbLine
 10
20.20339678410659
 20
-74.49173574262641
 30
0.0
 11
20.20339678410659
 21
-74.77222324967179
 31
0.0
  0
LINE
  5
4FF
330
18
100
AcDbEntity
  8
0
100
AcDbLine
 10
20.34370399181803
 20
-74.43914437611315
 30
0.0
 11
20.20339678410659
 21
-74.49173574262641
 31
0.0
  0
LINE
  5
500
330
18
100
AcDbEntity
  8
0
100
AcDbLine
 10
20.20339678410659
 20
-74.77222324967179
 30
0.0
 11
20.3612423529756
 21
-74.64950998814929
 31
0.0
  0
LWPOLYLINE
  5
501
330
18
100
AcDbEntity
  8
0
100
AcDbPolyline
 90
        3
 70
     0
 43
0.0
 10
20.18585831679874
 20
-74.00088276952799
 42
0.0757092454919167
 10
19.90524390137586
 20
-73.03670713285246
 42
-0.2309810798552808
 10
20.30862716335259
 20
-73.93076087451875
 42
-0.9702845115339686
  0
LWPOLYLINE
  5
506
330
18
100
AcDbEntity
  8
0
100
AcDbPolyline
 90
        2
 70
     0
 43
0.0
 10
20.01047428062187
 20
-74.08853504705009
 42
-0.1401160006156626
 10
19.94032062369102
 20
-74.56185763763564
 42
-0.6446661035575796
  0
ARC
  5
50A
330
18
100
AcDbEntity
  8
0
100
AcDbCircle
 10
18.62513642238276
 20
-68.74255318585825
 30
0.0
 40
1.170714952673596
100
AcDbArc
 50
220.2655353331249
 51
311.3099090033883
  0
ARC
  5
50B
330
18
100
AcDbEntity
  8
0
100
AcDbCircle
 10
19.31098769457799
 20
-67.2605203085471
 30
0.0
 40
1.274989620930612
100
AcDbArc
 50
236.5786660104693
 51
271.544240151883
  0
ARC
  5
50C
330
18
100
AcDbEntity
  8
0
100
AcDbCircle
 10
18.99480070218656
 20
-73.1350554251751
 30
0.0
 40
0.6067337108098507
100
AcDbArc
 50
58.81843695075993
 51
114.0321289812638
  0
LWPOLYLINE
  5
50D
330
18
100
AcDbEntity
  8
0
100
AcDbPolyline
 90
        5
 70
     0
 43
0.0
 10
18.78278592123355
 20
-71.61673950707889
 42
0.1140643017539192
 10
18.95816995741041
 20
-72.17771437518655
 42
-0.3493106138184725
 10
18.90555476778741
 20
-72.54585415975403
 42
0.2123023960969801
 10
18.83540111085655
 20
-72.21277528619539
 42
-0.1888566721305049
 10
18.69509390314512
 20
-71.66933087359216
 42
1.128564462512196
  0
LWPOLYLINE
  5
514
330
18
100
AcDbEntity
  8
0
100
AcDbPolyline
 90
        2
 70
     0
 43
0.0
 10
18.85293957816441
 20
-71.58167859607006
 42
0.1907275367003047
 10
18.11632649884124
 20
-72.16018391968212
 42
-0.5743406790196435
  0
LINE
  5
518
330
18
100
AcDbEntity
  8
0
100
AcDbLine
 10
17.99488994442093
 20
-68.86812567269728
 30
0.0
 11
18.17027398059779
 21
-69.16614363524708
 31
0.0
  0
LINE
  5
519
330
18
100
AcDbEntity
  8
0
100
AcDbLine
 10
18.45088850217094
 20
-68.65776013365269
 30
0.0
 11
18.66134936681323
 21
-68.48245543262539
 31
0.0
  0
LINE
  5
51A
330
18
100
AcDbEntity
  8
0
100
AcDbLine
 10
18.17027398059779
 20
-68.51751641662578
 30
0.0
 11
18.38073484524008
 21
-68.58763823864345
 31
0.0
  0
LINE
  5
51B
330
18
100
AcDbEntity
  8
0
100
AcDbLine
 10
18.43335003486308
 20
-68.99083893421978
 30
0.0
 11
18.69642619527866
 21
-68.8856561282017
 31
0.0
  0
LINE
  5
51C
330
18
100
AcDbEntity
  8
0
100
AcDbLine
 10
18.29304282715165
 20
-69.21873500176035
 30
0.0
 11
18.64381089950538
 21
-69.14861310675111
 31
0.0
  0
LINE
  5
51D
330
18
100
AcDbEntity
  8
0
100
AcDbLine
 10
18.13519715213236
 20
-68.69282104466153
 30
0.0
 11
18.32811965561708
 21
-68.9207171122021
 31
0.0
  0
LWPOLYLINE
  5
51E
330
18
100
AcDbEntity
  8
0
100
AcDbPolyline
 90
        2
 70
     0
 43
0.0
 10
19.25632284014113
 20
-71.70439178460099
 42
-0.1143356415643654
 10
19.1160156324297
 20
-72.52832370424961
 42
-0.6655382248084289
  0
LWPOLYLINE
  5
522
330
18
100
AcDbEntity
  8
0
100
AcDbPolyline
 90
        2
 70
     0
 43
0.0
 10
19.71232139789115
 20
-72.37054945872673
 42
0.3026615630804436
 10
19.29139966860656
 20
-72.23030574169981
 42
0.3026615630804436
  0
LWPOLYLINE
  5
526
330
18
100
AcDbEntity
  8
0
100
AcDbPolyline
 90
        4
 70
     0
 43
0.0
 10
19.64350003309384
 20
-69.37650917429168
 42
-0.2019986241439397
 10
19.7662688796477
 20
-69.02589991822018
 42
-0.4871454176266149
 10
20.01180657275541
 20
-69.04343037372459
 42
-0.17841836932375
 10
19.92411455466698
 20
-69.34144826328284
 42
-0.5626033210213065
  0
ARC
  5
52C
330
18
100
AcDbEntity
  8
0
100
AcDbCircle
 10
20.24526821880683
 20
-68.8357495289206
 30
0.0
 40
0.1620990663003702
100
AcDbArc
 50
286.9111622917754
 51
98.15742175807619
  0
LINE
  5
52D
330
18
100
AcDbEntity
  8
0
100
AcDbLine
 10
20.88739456765647
 20
-75.17542394524811
 30
0.0
 11
20.86985610034862
 21
-75.03518022822119
 31
0.0
  0
LINE
  5
52E
330
18
100
AcDbEntity
  8
0
100
AcDbLine
 10
20.9224713961219
 20
-75.59615509632886
 30
0.0
 11
20.74708735994503
 21
-75.50850274581519
 31
0.0
  0
LINE
  5
52F
330
18
100
AcDbEntity
  8
0
100
AcDbLine
 10
21.11539379345634
 20
-75.40331993979712
 30
0.0
 11
20.86985610034862
 21
-75.3857894842927
 31
0.0
  0
LINE
  5
530
330
18
100
AcDbEntity
  8
0
100
AcDbLine
 10
20.9224713961219
 20
-74.3514920255995
 30
0.0
 11
20.85231773919104
 21
-74.08853504705009
 31
0.0
  0
LINE
  5
531
330
18
100
AcDbEntity
  8
0
100
AcDbLine
 10
21.16800898307934
 20
-74.4040834651043
 30
0.0
 11
20.9750865857449
 21
-74.43914437611315
 31
0.0
  0
LINE
  5
532
330
18
100
AcDbEntity
  8
0
100
AcDbLine
 10
21.06277860383333
 20
-74.61444900414889
 30
0.0
 11
20.78216408226019
 21
-74.61444900414889
 31
0.0
  0
LINE
  5
533
330
18
100
AcDbEntity
  8
0
100
AcDbLine
 10
20.78216408226019
 20
-74.50926627112238
 30
0.0
 11
20.72954889263718
 21
-74.21124830857258
 31
0.0
  0
LWPOLYLINE
  5
534
330
18
100
AcDbEntity
  8
0
100
AcDbPolyline
 90
        3
 70
     0
 43
0.0
 10
20.62565069937444
 20
-59.80487521348648
 10
21.02903406750145
 20
-59.92758847500898
 10
20.90626522094759
 20
-59.76981430247764
  0
LWPOLYLINE
  5
539
330
18
100
AcDbEntity
  8
0
100
AcDbPolyline
 90
        6
 70
     0
 43
0.0
 10
20.92380358210517
 20
-59.78734475798205
 10
20.62565069937444
 20
-59.78734475798205
 10
20.62565069937444
 20
-60.50609379862105
 10
20.83611156401673
 20
-60.69892895515278
 10
20.90626522094759
 20
-60.68139849964836
 10
20.81857320285916
 20
-60.94435547819776
  0
LWPOLYLINE
  5
541
330
18
100
AcDbEntity
  8
0
100
AcDbPolyline
 90
       13
 70
     0
 43
0.0
 10
20.60811233821687
 20
-61.64557406333234
 42
-0.1056047289419585
 10
19.64350003309384
 20
-62.89023706107014
 42
0.1059873361914043
 10
19.74873051849012
 20
-61.92606149738615
 42
-0.229608224999216
 10
19.88903772620155
 20
-61.54039125731426
 42
0.5574826067794315
 10
20.43272830204
 20
-61.71569595834156
 42
0.4369819929459729
 10
20.71334271746287
 20
-61.47026943529659
 42
0.0808042054442319
 10
20.81857320285916
 20
-60.92682502269335
 42
-0.0399181535260876
 10
20.02934493391299
 20
-60.96188593370218
 42
0.3820732391646894
 10
19.92411455466698
 20
-61.04953828421584
 42
0.2816758016337624
 10
19.8188840692707
 20
-61.41767799579176
 10
19.66103839425141
 20
-61.52286080180984
 10
19.57334637616298
 20
-61.31249526276525
 10
19.83642253657855
 20
-61.13719056173794
  0
LWPOLYLINE
  5
550
330
18
100
AcDbEntity
  8
0
100
AcDbPolyline
 90
        4
 70
     0
 43
0.0
 10
20.23980579855528
 20
-67.93901102002215
 42
0.2345239875174416
 10
20.95888041057059
 20
-66.69434802228434
 42
0.3886402566289407
 10
19.36288551152069
 20
-64.71340545541157
 42
0.1150287062102737
 10
17.92473628749007
 20
-64.73093591091599
 42
-6.703955181316959
  0
LWPOLYLINE
  5
556
330
18
100
AcDbEntity
  8
0
100
AcDbPolyline
 90
        3
 70
     0
 43
0.0
 10
18.6262725383478
 20
-63.53886427969145
 10
18.46842686332851
 20
-63.6265166302051
 10
18.43335003486308
 20
-63.81935171374528
  0
ARC
  5
55B
330
18
100
AcDbEntity
  8
0
100
AcDbCircle
 10
18.81490974805636
 20
-65.45845021580297
 30
0.0
 40
0.1510884678725753
100
AcDbArc
 50
343.137875569537
 51
60.4828651058551
  0
LWPOLYLINE
  5
55C
330
18
100
AcDbEntity
  8
0
100
AcDbPolyline
 90
        3
 70
     0
 43
0.0
 10
18.90688705992095
 20
-65.94053799764495
 42
-0.2158868882467308
 10
19.36288551152069
 20
-65.76523336960921
 42
-0.0000001224127574
 10
19.92411455466698
 20
-65.62498965258228
 42
-0.1230514116092108
  0
ARC
  5
561
330
18
100
AcDbEntity
  8
0
100
AcDbCircle
 10
18.58247629763708
 20
-67.23899742139557
 30
0.0
 40
0.4296428313001215
100
AcDbArc
 50
343.5718768081609
 51
40.96844228953736
  0
LWPOLYLINE
  5
562
330
18
100
AcDbEntity
  8
0
100
AcDbPolyline
 90
        3
 70
     0
 43
0.0
 10
18.87181023145552
 20
-66.06325125916744
 42
-0.2891764240045069
 10
19.36288551152069
 20
-65.83535526461844
 42
-0.0062471490162866
 10
19.90657608735913
 20
-65.74770291410477
 42
-0.073807516246879
  0
LWPOLYLINE
  5
567
330
18
100
AcDbEntity
  8
0
100
AcDbPolyline
 90
        8
 70
     0
 43
0.0
 10
18.87181023145552
 20
-66.20349497619436
 42
-0.319971158647534
 10
19.04719426763239
 20
-65.74770291410477
 42
-0.1153007379553775
 10
19.83642253657855
 20
-65.27438032351922
 42
-0.8673509037171612
 10
19.95919127698213
 20
-65.32697176302405
 42
0.0516075900921459
 10
19.90657608735913
 20
-65.58992874157344
 42
-0.6596704461173553
 10
19.88903772620155
 20
-65.73017245860036
 42
-0.1944949609276194
 10
19.74873051849012
 20
-66.32620823771685
 42
-0.2047714931127663
 10
19.52073118653998
 20
-66.46645195474377
 42
13.53526833388298
  0
LWPOLYLINE
  5
571
330
18
100
AcDbEntity
  8
0
100
AcDbPolyline
 90
        2
 70
     0
 43
0.0
 10
18.22288927637107
 20
-66.1509036096811
 42
0.1563085961396765
 10
19.08227109609781
 20
-67.02742689584297
 42
0.2474553926200325
  0
LWPOLYLINE
  5
575
330
18
100
AcDbEntity
  8
0
100
AcDbPolyline
 90
       12
 70
     0
 43
0.0
 10
18.32811965561708
 20
-66.53657384975301
 42
0.2802985741085332
 10
18.01242841172878
 20
-66.50151293874417
 42
0.3587214021048889
 10
18.06504360135178
 20
-67.06248780685182
 42
-0.586444166016182
 10
18.02996677288635
 20
-67.18520106837431
 42
-0.1889133025519325
 10
17.90719792633249
 20
-67.1676706128699
 42
0.0784930315851779
 10
17.85458273670949
 20
-66.95730500083374
 42
-0.1035604212769121
 10
17.6441218720672
 20
-66.48398241024819
 42
-0.519119910098652
 10
17.85458273670949
 20
-66.25608641569918
 42
0.5589431466963772
 10
18.24042763752865
 20
-65.78276382511361
 42
0.3050008090424543
 10
17.88965956517492
 20
-65.5198068465642
 42
-0.4770547681373218
 10
18.90688705992095
 20
-65.34450221852846
 42
-0.0553601771242843
 10
19.5031928253824
 20
-65.3795631295373
 42
0.0848712555214172
  0
ARC
  5
583
330
18
100
AcDbEntity
  8
0
100
AcDbCircle
 10
20.75716628449353
 20
-87.82808230929829
 30
0.0
 40
20.54332996534179
100
AcDbArc
 50
94.92194416856532
 51
95.95381665202856
  0
ARC
  5
584
330
18
100
AcDbEntity
  8
0
100
AcDbCircle
 10
18.54585953515431
 20
-67.98726497905447
 30
0.0
 40
1.801315165472744
100
AcDbArc
 50
56.56872133892788
 51
90.23152970425812
  0
ARC
  5
585
330
18
100
AcDbEntity
  8
0
100
AcDbCircle
 10
18.54708207374796
 20
-67.84806948373432
 30
0.0
 40
1.469500541505336
100
AcDbArc
 50
41.7449499043089
 51
91.01534858881047
  0
LWPOLYLINE
  5
586
330
18
100
AcDbEntity
  8
0
100
AcDbPolyline
 90
        3
 70
     0
 43
0.0
 10
19.32780878920554
 20
-68.23702898257194
 42
-0.0960968705159082
 10
18.6262725383478
 20
-68.09678526554503
 42
-0.2506675167592873
 10
18.29304282715165
 20
-67.69358456996872
 42
-1.222369237865263
  0
LWPOLYLINE
  5
58B
330
18
100
AcDbEntity
  8
0
100
AcDbPolyline
 90
       15
 70
     0
 43
0.0
 10
19.92411455466698
 20
-65.74770291410477
 42
-0.1753589194772699
 10
20.41518983473215
 20
-66.50151293874417
 42
-0.4670780996250873
 10
20.15211378046685
 20
-66.85212219481567
 42
0.0784263289799045
 10
19.6084232046284
 20
-66.90471363432049
 42
-0.147088895138865
 10
19.06473262878996
 20
-67.02742689584297
 42
-0.3432304479135056
 10
19.18750147534382
 20
-67.30791432989682
 42
-0.5586625753249022
 10
18.8367334029901
 20
-67.53581032444582
 42
0.4804890469864789
 10
18.3105812944595
 20
-67.71111502547313
 42
-0.2883584869484705
 10
18.43335003486308
 20
-67.20273152387874
 42
0.4143998917784301
 10
18.43335003486308
 20
-66.93977454532933
 42
0.3600802114840282
 10
18.18781244790564
 20
-67.09754871786066
 42
-0.2517608581942611
 10
17.99488994442093
 20
-67.36050569641007
 42
-0.314623291359641
 10
17.88965956517492
 20
-67.34297524090564
 10
17.99488994442093
 20
-67.30791432989682
 10
18.06504360135178
 20
-67.18520106837431
  0
LWPOLYLINE
  5
59C
330
18
100
AcDbEntity
  8
0
100
AcDbPolyline
 90
        2
 70
     0
 43
0.0
 10
18.25796599868622
 20
-68.11431572104945
 42
-0.2686959386052415
 10
18.06504360135178
 20
-67.32544478540123
 42
-0.7489455754527742
  0
ARC
  5
5A0
330
18
100
AcDbEntity
  8
0
100
AcDbCircle
 10
18.08619283961795
 20
-67.06248780685182
 30
0.0
 40
0.798036958118606
100
AcDbArc
 50
336.7087223969513
 51
10.12148387577724
  0
LWPOLYLINE
  5
5A1
330
18
100
AcDbEntity
  8
0
100
AcDbPolyline
 90
        4
 70
     0
 43
0.0
 10
18.24042763752865
 20
-66.99236591184258
 42
-0.2972110241483108
 10
18.5736573487248
 20
-66.782000372798
 42
-0.5445592714800938
 10
18.66134936681323
 20
-66.92224408982491
 42
-0.0909094038388028
 10
18.46842686332851
 20
-67.11507917336508
 42
3.210815665442932
  0
ARC
  5
5A7
330
18
100
AcDbEntity
  8
0
100
AcDbCircle
 10
18.9911455602207
 20
-67.22913374852145
 30
0.0
 40
0.9219461977231343
100
AcDbArc
 50
132.9306387085274
 51
165.1189551240524
  0
ARC
  5
5A8
330
18
100
AcDbEntity
  8
0
100
AcDbCircle
 10
18.86536999858618
 20
-66.94562819621565
 30
0.0
 40
0.7666754962584358
100
AcDbArc
 50
144.6004971737574
 51
183.4950057448129
  0
ARC
  5
5A9
330
18
100
AcDbEntity
  8
0
100
AcDbCircle
 10
18.41559228167475
 20
-67.02696127035335
 30
0.0
 40
0.4006960996397114
100
AcDbArc
 50
298.8171473139847
 51
23.11565017752601
  0
ARC
  5
5AA
330
18
100
AcDbEntity
  8
0
100
AcDbCircle
 10
14.56758269890072
 20
-62.61591944881282
 30
0.0
 40
6.232335351324603
100
AcDbArc
 50
308.1310173104899
 51
310.4223479021429
  0
LINE
  5
5AB
330
18
100
AcDbEntity
  8
0
100
AcDbLine
 10
17.55642985397876
 20
-64.73093591091599
 30
0.0
 11
17.88965956517492
 21
-65.15166706199673
 31
0.0
  0
LINE
  5
5AC
330
18
100
AcDbEntity
  8
0
100
AcDbLine
 10
17.88965956517492
 20
-65.15166706199673
 30
0.0
 11
17.99488994442093
 21
-65.3795631295373
 31
0.0
  0
LINE
  5
5AD
330
18
100
AcDbEntity
  8
0
100
AcDbLine
 10
19.11734792456324
 20
-60.82164221667527
 30
0.0
 11
18.8893485926131
 21
-60.68139849964836
 31
0.0
  0
LINE
  5
5AE
330
18
100
AcDbEntity
  8
0
100
AcDbLine
 10
19.08227109609781
 20
-60.55868523812586
 30
0.0
 11
18.85427176414767
 21
-60.43597197660337
 31
0.0
  0
LWPOLYLINE
  5
5AF
330
18
100
AcDbEntity
  8
0
100
AcDbPolyline
 90
       10
 70
     0
 43
0.0
 10
19.90657608735913
 20
-61.06706873972026
 42
0.205343046036048
 10
19.80134570811312
 20
-60.61127660463912
 42
0.1671578723973533
 10
19.39796233998611
 20
-60.33078917058529
 42
-0.4229873277266102
 10
19.15242464687839
 20
-59.87499710849572
 42
0.3784769463692125
 10
18.80165657452467
 20
-60.55868523812586
 42
0.099063442419778
 10
18.85427176414767
 20
-61.08459919522468
 42
0.4287787682544161
 10
19.41550080729397
 20
-61.36508662927851
 10
19.45057752960912
 20
-61.62804360782792
 10
19.27519349343225
 20
-61.5754521683231
 10
19.2401167711171
 20
-61.38261708478292
  0
LWPOLYLINE
  5
5BB
330
18
100
AcDbEntity
  8
0
100
AcDbPolyline
 90
        3
 70
     0
 43
0.0
 10
19.08227109609781
 20
-61.55792171281868
 42
0.0530032341902107
 10
18.11765879097479
 20
-61.5754521683231
 42
0.0215786586312123
 10
19.18750147534382
 20
-61.68063497434117
  0
LWPOLYLINE
  5
5C0
330
18
100
AcDbEntity
  8
0
100
AcDbPolyline
 90
        9
 70
     0
 43
0.0
 10
17.90719792633249
 20
-61.64557406333234
 42
0.2061154774780762
 10
18.78411821336709
 20
-62.10136612542192
 42
0.3707781585625302
 10
19.25765513227468
 20
-61.75075686935041
 42
-0.2950099870597036
 10
19.5558080150054
 20
-62.10136612542192
 42
-0.1595344370219173
 10
19.45057752960912
 20
-62.66234106652112
 42
0.0085842559755546
 10
19.09980945725539
 20
-63.32849874064685
 10
18.95950224954395
 20
-63.29343775664646
 42
0.1978123665323979
 10
18.71396455643624
 20
-63.52133382418703
 42
-0.640076295855237
 10
18.60873417719022
 20
-63.52133382418703
 42
1.517863769029194
  0
LINE
  5
5CB
330
18
100
AcDbEntity
  8
0
100
AcDbLine
 10
18.87181023145552
 20
-61.89100058637732
 30
0.0
 11
19.09980945725539
 21
-61.69816542984559
 31
0.0
  0
LINE
  5
5CC
330
18
100
AcDbEntity
  8
0
100
AcDbLine
 10
18.46842686332851
 20
-61.34755617377408
 30
0.0
 11
18.5210421591018
 21
-61.47026943529659
 31
0.0
  0
LINE
  5
5CD
330
18
100
AcDbEntity
  8
0
100
AcDbLine
 10
18.24042763752865
 20
-61.43520845129618
 30
0.0
 11
18.41581167370551
 21
-61.50533034630542
 31
0.0
  0
LWPOLYLINE
  5
5CE
330
18
100
AcDbEntity
  8
0
100
AcDbPolyline
 90
        3
 70
     0
 43
0.0
 10
18.85427176414767
 20
-61.08459919522468
 42
0.235972395034205
 10
18.27550446599407
 20
-61.24237336775602
 42
-0.5839249870526376
 10
17.85458273670949
 20
-61.40014754028735
 42
-2.746289348813184
  0
LINE
  5
5D3
330
18
100
AcDbEntity
  8
0
100
AcDbLine
 10
18.66134936681323
 20
-61.25990382326043
 30
0.0
 11
18.92442542107853
 21
-61.52286080180984
 31
0.0
  0
LINE
  5
5D4
330
18
100
AcDbEntity
  8
0
100
AcDbLine
 10
18.36319648408251
 20
-61.78581778035925
 30
0.0
 11
18.53858052025937
 21
-61.68063497434117
 31
0.0
  0
LINE
  5
5D5
330
18
100
AcDbEntity
  8
0
100
AcDbLine
 10
18.64381089950538
 20
-61.8734701308729
 30
0.0
 11
18.90688705992095
 21
-61.64557406333234
 31
0.0
  0
LINE
  5
5D6
330
18
100
AcDbEntity
  8
0
100
AcDbLine
 10
18.9419637822361
 20
-61.29496473426927
 30
0.0
 11
19.06473262878996
 21
-61.55792171281868
 31
0.0
  0
LWPOLYLINE
  5
5D7
330
18
100
AcDbEntity
  8
0
100
AcDbPolyline
 90
        3
 70
     0
 43
0.0
 10
19.95919127698213
 20
-61.36508662927851
 42
0.0800984288039531
 10
20.60811233821687
 20
-61.13719056173794
 42
-0.1615051821988555
 10
19.99426810544756
 20
-61.52286080180984
 42
8.268446181402397
  0
LWPOLYLINE
  5
5DC
330
18
100
AcDbEntity
  8
0
100
AcDbPolyline
 90
        3
 70
     0
 43
0.0
 10
18.95950224954395
 20
-63.31096828514244
 10
19.04719426763239
 20
-63.50380336868261
 10
19.11734792456324
 20
-63.31096828514244
  0
LINE
  5
5E1
330
18
100
AcDbEntity
  8
0
100
AcDbLine
 10
20.32749781664372
 20
-61.45273897979215
 30
0.0
 11
20.55549714859386
 21
-61.45273897979215
 31
0.0
  0
LINE
  5
5E2
330
18
100
AcDbEntity
  8
0
100
AcDbLine
 10
20.081960123536
 20
-61.54039125731426
 30
0.0
 11
20.41518983473215
 21
-61.62804360782792
 31
0.0
  0
LINE
  5
5E3
330
18
100
AcDbEntity
  8
0
100
AcDbLine
 10
19.15242464687839
 20
-60.45350243210779
 30
0.0
 11
19.22257830380925
 21
-60.29572825957646
 31
0.0
  0
LINE
  5
5E4
330
18
100
AcDbEntity
  8
0
100
AcDbLine
 10
19.38042397882854
 20
-61.03200775571986
 30
0.0
 11
19.57334637616298
 21
-60.64633758863951
 31
0.0
  0
LINE
  5
5E5
330
18
100
AcDbEntity
  8
0
100
AcDbLine
 10
19.52073118653998
 20
-61.18978200124275
 30
0.0
 11
19.67857686155926
 21
-60.83917267217969
 31
0.0
  0
LINE
  5
5E6
330
18
100
AcDbEntity
  8
0
100
AcDbLine
 10
18.95950224954395
 20
-60.94435547819776
 30
0.0
 11
19.22257830380925
 21
-60.9794163892066
 31
0.0
  0
LINE
  5
5E7
330
18
100
AcDbEntity
  8
0
100
AcDbLine
 10
19.20503994265168
 20
-61.17225147274678
 30
0.0
 11
19.31027032189768
 21
-61.25990382326043
 31
0.0
  0
LINE
  5
5E8
330
18
100
AcDbEntity
  8
0
100
AcDbLine
 10
19.25765513227468
 20
-60.75152032166603
 30
0.0
 11
19.36288551152069
 21
-60.50609379862105
 31
0.0
  0
LWPOLYLINE
  5
5E9
330
18
100
AcDbEntity
  8
0
100
AcDbPolyline
 90
        3
 70
     0
 43
0.0
 10
19.52073118653998
 20
-61.24237336775602
 42
-0.1098018479809379
 10
19.09980945725539
 20
-60.33078917058529
 42
0.1197976860102981
 10
19.34534715036311
 20
-61.22484291225159
 42
0.1197976860102981
  0
LINE
  5
5EE
330
18
100
AcDbEntity
  8
0
100
AcDbLine
 10
19.99426810544756
 20
-61.36508662927851
 30
0.0
 11
20.04688340122084
 21
-61.06706873972026
 31
0.0
  0
LINE
  5
5EF
330
18
100
AcDbEntity
  8
0
100
AcDbLine
 10
20.38011300626672
 20
-61.24237336775602
 30
0.0
 11
20.41518983473215
 21
-61.04953828421584
 31
0.0
  0
LINE
  5
5F0
330
18
100
AcDbEntity
  8
0
100
AcDbLine
 10
20.23980579855528
 20
-61.31249526276525
 30
0.0
 11
20.25734426586314
 21
-61.08459919522468
 31
0.0
  0
LINE
  5
5F1
330
18
100
AcDbEntity
  8
0
100
AcDbLine
 10
20.46780502435515
 20
-61.29496473426927
 30
0.0
 11
20.66072752783987
 21
-61.29496473426927
 31
0.0
  0
LWPOLYLINE
  5
5F2
330
18
100
AcDbEntity
  8
0
100
AcDbPolyline
 90
        3
 70
     0
 43
0.0
 10
21.04657242865902
 20
-59.92758847500898
 42
0.4143462094502535
 10
20.92380358210517
 20
-60.22560636456722
 42
-0.0453813552188477
 10
20.90626522094759
 20
-60.68139849964836
 42
1.13828300019674
  0
TEXT
  5
604
330
18
100
AcDbEntity
  8
ADPDIM
100
AcDbText
 10
-8.629566478542972
 20
-82.30462022688504
 30
0.0
 40
0.5
  1
J U L I U S  B L U M  &  C O . ,  I N C .      ( 8 0 0 )  5 2 6 - 6 2 9 3        W W W . J U L I U S B L U M . C O M        P A R T  N o .  5 6 9
 41
1.25
  7
ARIAL_WIDE
 72
     1
 11
17.10926367152524
 21
-81.80462022688503
 31
0.0
100
AcDbText
 73
     3
  0
ENDSEC
  0
SECTION
  2
OBJECTS
  0
DICTIONARY
  5
C
330
0
100
AcDbDictionary
  3
ACAD_GROUP
350
D
  3
ACAD_LAYOUT
350
5FD
  3
ACAD_MLINESTYLE
350
E
  3
ACAD_PLOTSETTINGS
350
5FE
  3
ACAD_PLOTSTYLENAME
350
5FB
  3
ACDBHEADERROUNDTRIPXREC
350
74C
  3
ACDBVARIABLEDICTIONARY
350
65E
  0
DICTIONARY
  5
658
330
18
100
AcDbDictionary
280
     1
  3
ACAD_LAYOUTSELFREF
360
76D
  0
DICTIONARY
  5
656
330
15
100
AcDbDictionary
280
     1
  3
ACAD_LAYOUTSELFREF
360
76C
  0
DICTIONARY
  5
D
102
{ACAD_REACTORS
330
C
102
}
330
C
100
AcDbDictionary
  0
DICTIONARY
  5
5FD
102
{ACAD_REACTORS
330
C
102
}
330
C
100
AcDbDictionary
  0
DICTIONARY
  5
E
102
{ACAD_REACTORS
330
C
102
}
330
C
100
AcDbDictionary
  3
STANDARD
350
1B
  0
DICTIONARY
  5
5FE
102
{ACAD_REACTORS
330
C
102
}
330
C
100
AcDbDictionary
  0
ACDBDICTIONARYWDFLT
  5
5FB
102
{ACAD_REACTORS
330
C
102
}
330
C
100
AcDbDictionary
281
     1
  3
Normal
350
5FC
100
AcDbDictionaryWithDefault
340
5FC
  0
DICTIONARY
  5
74C
102
{ACAD_REACTORS
330
C
102
}
330
C
100
AcDbDictionary
  3
CEPSNTYPE
350
756
  3
FINGERPRINTGUID
350
757
  3
HYPERLINKBASE
350
74F
  3
INSUNITS
350
755
  3
LAYOUTDICT
350
751
  3
LWETCUNION
350
754
  3
PLOTSETDICT
350
752
  3
PLOTSTYLNAMDICT
350
753
  3
PSVPSCALE
350
759
  3
PUCSBASE
350
75C
  3
PUCSORGBACK
350
762
  3
PUCSORGBOTTOM
350
75E
  3
PUCSORGFRONT
350
761
  3
PUCSORGLEFT
350
75F
  3
PUCSORGRIGHT
350
760
  3
PUCSORGTOP
350
75D
  3
PUCSORTHOREF
350
75A
  3
PUCSORTHOVIEW
350
75B
  3
STYLESHEET
350
750
  3
TSTACKALIGN
350
74D
  3
TSTACKSIZE
350
74E
  3
UCSBASE
350
765
  3
UCSORGBACK
350
76B
  3
UCSORGBOTTOM
350
767
  3
UCSORGFRONT
350
76A
  3
UCSORGLEFT
350
768
  3
UCSORGRIGHT
350
769
  3
UCSORGTOP
350
766
  3
UCSORTHOREF
350
763
  3
UCSORTHOVIEW
350
764
  3
VERSIONGUID
350
758
  0
DICTIONARY
  5
65E
102
{ACAD_REACTORS
330
C
102
}
330
C
100
AcDbDictionary
  3
DIMASSOC
350
65F
  0
XRECORD
  5
76D
102
{ACAD_REACTORS
330
658
102
}
330
658
100
AcDbXrecord
340
18
  0
XRECORD
  5
76C
102
{ACAD_REACTORS
330
656
102
}
330
656
100
AcDbXrecord
340
15
  0
MLINESTYLE
  5
1B
102
{ACAD_REACTORS
330
E
102
}
330
E
100
AcDbMlineStyle
  2
STANDARD
 70
     0
  3

 62
     0
 51
90.0
 52
90.0
 71
     2
 49
0.5
 62
   256
  6
BYLAYER
 49
-0.5
 62
   256
  6
BYLAYER
  0
ACDBPLACEHOLDER
  5
5FC
102
{ACAD_REACTORS
330
5FB
102
}
330
5FB
100
AcDbPlaceHolder
280
     0
  0
XRECORD
  5
756
102
{ACAD_REACTORS
330
74C
102
}
330
74C
100
AcDbXrecord
 90
        0
  0
XRECORD
  5
757
102
{ACAD_REACTORS
330
74C
102
}
330
74C
100
AcDbXrecord
  1
{D78F1977-A1F8-47E9-A6A4-EEF535F865AD}
  0
XRECORD
  5
74F
102
{ACAD_REACTORS
330
74C
102
}
330
74C
100
AcDbXrecord
  1

  0
XRECORD
  5
755
102
{ACAD_REACTORS
330
74C
102
}
330
74C
100
AcDbXrecord
 90
        0
  0
XRECORD
  5
751
102
{ACAD_REACTORS
330
74C
102
}
330
74C
100
AcDbXrecord
340
5FD
  0
XRECORD
  5
754
102
{ACAD_REACTORS
330
74C
102
}
330
74C
100
AcDbXrecord
 90
    14877
  0
XRECORD
  5
752
102
{ACAD_REACTORS
330
74C
102
}
330
74C
100
AcDbXrecord
340
5FE
  0
XRECORD
  5
753
102
{ACAD_REACTORS
330
74C
102
}
330
74C
100
AcDbXrecord
340
5FB
  0
XRECORD
  5
759
102
{ACAD_REACTORS
330
74C
102
}
330
74C
100
AcDbXrecord
 40
0.0
  0
XRECORD
  5
75C
102
{ACAD_REACTORS
330
74C
102
}
330
74C
100
AcDbXrecord
340
0
  0
XRECORD
  5
762
102
{ACAD_REACTORS
330
74C
102
}
330
74C
100
AcDbXrecord
 10
0.0
 20
0.0
 30
0.0
  0
XRECORD
  5
75E
102
{ACAD_REACTORS
330
74C
102
}
330
74C
100
AcDbXrecord
 10
0.0
 20
0.0
 30
0.0
  0
XRECORD
  5
761
102
{ACAD_REACTORS
330
74C
102
}
330
74C
100
AcDbXrecord
 10
0.0
 20
0.0
 30
0.0
  0
XRECORD
  5
75F
102
{ACAD_REACTORS
330
74C
102
}
330
74C
100
AcDbXrecord
 10
0.0
 20
0.0
 30
0.0
  0
XRECORD
  5
760
102
{ACAD_REACTORS
330
74C
102
}
330
74C
100
AcDbXrecord
 10
0.0
 20
0.0
 30
0.0
  0
XRECORD
  5
75D
102
{ACAD_REACTORS
330
74C
102
}
330
74C
100
AcDbXrecord
 10
0.0
 20
0.0
 30
0.0
  0
XRECORD
  5
75A
102
{ACAD_REACTORS
330
74C
102
}
330
74C
100
AcDbXrecord
340
0
  0
XRECORD
  5
75B
102
{ACAD_REACTORS
330
74C
102
}
330
74C
100
AcDbXrecord
 70
     0
  0
XRECORD
  5
750
102
{ACAD_REACTORS
330
74C
102
}
330
74C
100
AcDbXrecord
  1

  0
XRECORD
  5
74D
102
{ACAD_REACTORS
330
74C
102
}
330
74C
100
AcDbXrecord
 90
        1
  0
XRECORD
  5
74E
102
{ACAD_REACTORS
330
74C
102
}
330
74C
100
AcDbXrecord
 90
       70
  0
XRECORD
  5
765
102
{ACAD_REACTORS
330
74C
102
}
330
74C
100
AcDbXrecord
340
0
  0
XRECORD
  5
76B
102
{ACAD_REACTORS
330
74C
102
}
330
74C
100
AcDbXrecord
 10
0.0
 20
0.0
 30
0.0
  0
XRECORD
  5
767
102
{ACAD_REACTORS
330
74C
102
}
330
74C
100
AcDbXrecord
 10
0.0
 20
0.0
 30
0.0
  0
XRECORD
  5
76A
102
{ACAD_REACTORS
330
74C
102
}
330
74C
100
AcDbXrecord
 10
0.0
 20
0.0
 30
0.0
  0
XRECORD
  5
768
102
{ACAD_REACTORS
330
74C
102
}
330
74C
100
AcDbXrecord
 10
0.0
 20
0.0
 30
0.0
  0
XRECORD
  5
769
102
{ACAD_REACTORS
330
74C
102
}
330
74C
100
AcDbXrecord
 10
0.0
 20
0.0
 30
0.0
  0
XRECORD
  5
766
102
{ACAD_REACTORS
330
74C
102
}
330
74C
100
AcDbXrecord
 10
0.0
 20
0.0
 30
0.0
  0
XRECORD
  5
763
102
{ACAD_REACTORS
330
74C
102
}
330
74C
100
AcDbXrecord
340
0
  0
XRECORD
  5
764
102
{ACAD_REACTORS
330
74C
102
}
330
74C
100
AcDbXrecord
 70
     0
  0
XRECORD
  5
758
102
{ACAD_REACTORS
330
74C
102
}
330
74C
100
AcDbXrecord
  1
{BF1B4C66-9614-4A8A-9361-AC232FC9750D}
  0
DICTIONARYVAR
  5
65F
102
{ACAD_REACTORS
330
65E
102
}
330
65E
100
DictionaryVariables
280
     0
  1
1
  0
ENDSEC
  0
EOF
