  0
SECTION
  2
HEADER
  9
$ACADVER
  1
AC1014
  9
$ACADMAINTVER
 70
     9
  9
$DWGCODEPAGE
  3
ANSI_1252
  9
$INSBASE
 10
75.26176713673621
 20
-58.21430189034486
 30
0.0
  9
$EXTMIN
 10
49.38480173772429
 20
-59.93525308044428
 30
0.0
  9
$EXTMAX
 10
100.8624620378607
 20
-28.23516519547918
 30
0.0
  9
$LIMMIN
 10
0.0
 20
0.0
  9
$LIMMAX
 10
36.0
 20
36.0
  9
$ORTHOMODE
 70
     1
  9
$REGENMODE
 70
     1
  9
$FILLMODE
 70
     1
  9
$QTEXTMODE
 70
     0
  9
$MIRRTEXT
 70
     1
  9
$DRAGMODE
 70
     0
  9
$LTSCALE
 40
1.0
  9
$OSMODE
 70
    37
  9
$ATTMODE
 70
     1
  9
$TEXTSIZE
 40
0.2
  9
$TRACEWID
 40
0.05
  9
$TEXTSTYLE
  7
STANDARD
  9
$CLAYER
  8
ADPDIM
  9
$CELTYPE
  6
BYLAYER
  9
$CECOLOR
 62
   256
  9
$CELTSCALE
 40
1.0
  9
$DELOBJ
 70
     1
  9
$DISPSILH
 70
     0
  9
$DIMSCALE
 40
1.0
  9
$DIMASZ
 40
0.125
  9
$DIMEXO
 40
0.0625
  9
$DIMDLI
 40
0.38
  9
$DIMRND
 40
0.0
  9
$DIMDLE
 40
0.0
  9
$DIMEXE
 40
0.18
  9
$DIMTP
 40
0.0
  9
$DIMTM
 40
0.0
  9
$DIMTXT
 40
0.125
  9
$DIMCEN
 40
0.1875
  9
$DIMTSZ
 40
0.125
  9
$DIMTOL
 70
     0
  9
$DIMLIM
 70
     0
  9
$DIMTIH
 70
     0
  9
$DIMTOH
 70
     0
  9
$DIMSE1
 70
     0
  9
$DIMSE2
 70
     0
  9
$DIMTAD
 70
     0
  9
$DIMZIN
 70
     3
  9
$DIMBLK
  1

  9
$DIMASO
 70
     1
  9
$DIMSHO
 70
     1
  9
$DIMPOST
  1

  9
$DIMAPOST
  1

  9
$DIMALT
 70
     0
  9
$DIMALTD
 70
     1
  9
$DIMALTF
 40
25.4
  9
$DIMLFAC
 40
1.0
  9
$DIMTOFL
 70
     0
  9
$DIMTVP
 40
0.0
  9
$DIMTIX
 70
     0
  9
$DIMSOXD
 70
     0
  9
$DIMSAH
 70
     0
  9
$DIMBLK1
  1

  9
$DIMBLK2
  1

  9
$DIMSTYLE
  2
STANDARD
  9
$DIMCLRD
 70
     0
  9
$DIMCLRE
 70
     0
  9
$DIMCLRT
 70
     0
  9
$DIMTFAC
 40
1.0
  9
$DIMGAP
 40
0.125
  9
$DIMJUST
 70
     0
  9
$DIMSD1
 70
     0
  9
$DIMSD2
 70
     0
  9
$DIMTOLJ
 70
     1
  9
$DIMTZIN
 70
     0
  9
$DIMALTZ
 70
     0
  9
$DIMALTTZ
 70
     0
  9
$DIMFIT
 70
     3
  9
$DIMUPT
 70
     0
  9
$DIMUNIT
 70
     2
  9
$DIMDEC
 70
     4
  9
$DIMTDEC
 70
     4
  9
$DIMALTU
 70
     2
  9
$DIMALTTD
 70
     2
  9
$DIMTXSTY
  7
STANDARD
  9
$DIMAUNIT
 70
     0
  9
$LUNITS
 70
     5
  9
$LUPREC
 70
     4
  9
$SKETCHINC
 40
0.1
  9
$FILLETRAD
 40
0.062
  9
$AUNITS
 70
     0
  9
$AUPREC
 70
     0
  9
$MENU
  1
acad
  9
$ELEVATION
 40
0.0
  9
$PELEVATION
 40
0.0
  9
$THICKNESS
 40
0.0
  9
$LIMCHECK
 70
     0
  9
$BLIPMODE
 70
     0
  9
$CHAMFERA
 40
0.0
  9
$CHAMFERB
 40
0.0
  9
$CHAMFERC
 40
0.0
  9
$CHAMFERD
 40
0.0
  9
$SKPOLY
 70
     0
  9
$TDCREATE
 40
2450408.682857245
  9
$TDUPDATE
 40
2452297.073131504
  9
$TDINDWG
 40
0.0115054861
  9
$TDUSRTIMER
 40
0.0115054861
  9
$USRTIMER
 70
     1
  9
$ANGBASE
 50
0.0
  9
$ANGDIR
 70
     0
  9
$PDMODE
 70
     0
  9
$PDSIZE
 40
0.0
  9
$PLINEWID
 40
0.0
  9
$COORDS
 70
     2
  9
$SPLFRAME
 70
     0
  9
$SPLINETYPE
 70
     6
  9
$SPLINESEGS
 70
     8
  9
$ATTDIA
 70
     0
  9
$ATTREQ
 70
     1
  9
$HANDLING
 70
 22529
  9
$HANDSEED
  5
92B
  9
$SURFTAB1
 70
     6
  9
$SURFTAB2
 70
     6
  9
$SURFTYPE
 70
     6
  9
$SURFU
 70
     6
  9
$SURFV
 70
     6
  9
$UCSNAME
  2

  9
$UCSORG
 10
0.0
 20
0.0
 30
0.0
  9
$UCSXDIR
 10
1.0
 20
0.0
 30
0.0
  9
$UCSYDIR
 10
0.0
 20
1.0
 30
0.0
  9
$PUCSNAME
  2

  9
$PUCSORG
 10
0.0
 20
0.0
 30
0.0
  9
$PUCSXDIR
 10
1.0
 20
0.0
 30
0.0
  9
$PUCSYDIR
 10
0.0
 20
1.0
 30
0.0
  9
$USERI1
 70
     0
  9
$USERI2
 70
     0
  9
$USERI3
 70
     0
  9
$USERI4
 70
     0
  9
$USERI5
 70
     0
  9
$USERR1
 40
0.0
  9
$USERR2
 40
0.0
  9
$USERR3
 40
0.0
  9
$USERR4
 40
0.0
  9
$USERR5
 40
0.0
  9
$WORLDVIEW
 70
     1
  9
$SHADEDGE
 70
     3
  9
$SHADEDIF
 70
    70
  9
$TILEMODE
 70
     1
  9
$MAXACTVP
 70
    15
  9
$PINSBASE
 10
0.0
 20
0.0
 30
0.0
  9
$PLIMCHECK
 70
     0
  9
$PEXTMIN
 10
1.000000000000000E+20
 20
1.000000000000000E+20
 30
1.000000000000000E+20
  9
$PEXTMAX
 10
-1.000000000000000E+20
 20
-1.000000000000000E+20
 30
-1.000000000000000E+20
  9
$PLIMMIN
 10
0.0
 20
0.0
  9
$PLIMMAX
 10
12.0
 20
9.0
  9
$UNITMODE
 70
     0
  9
$VISRETAIN
 70
     0
  9
$PLINEGEN
 70
     0
  9
$PSLTSCALE
 70
     1
  9
$TREEDEPTH
 70
  3020
  9
$PICKSTYLE
 70
     1
  9
$CMLSTYLE
  2
STANDARD
  9
$CMLJUST
 70
     0
  9
$CMLSCALE
 40
1.0
  9
$PROXYGRAPHICS
 70
     1
  9
$MEASUREMENT
 70
     0
  0
ENDSEC
  0
SECTION
  2
CLASSES
  0
CLASS
  1
ACDBDICTIONARYWDFLT
  2
AcDbDictionaryWithDefault
  3
AutoCAD 2000
 90
        0
280
     0
281
     0
  0
CLASS
  1
ACDBPLACEHOLDER
  2
AcDbPlaceHolder
  3
AutoCAD 2000
 90
        0
280
     0
281
     0
  0
CLASS
  1
LAYOUT
  2
AcDbLayout
  3
AutoCAD 2000
 90
        0
280
     0
281
     0
  0
CLASS
  1
DICTIONARYVAR
  2
AcDbDictionaryVar
  3
AutoCAD 2000
 90
        0
280
     0
281
     0
  0
CLASS
  1
LONG_TRANSACTION
  2
AcDbLongTransaction
  3
AutoCAD 2000
 90
        0
280
     0
281
     0
  0
CLASS
  1
LWPOLYLINE
  2
AcDbPolyline
  3
AutoCAD 2000
 90
        0
280
     0
281
     1
  0
CLASS
  1
HATCH
  2
AcDbHatch
  3
AutoCAD 2000
 90
        0
280
     0
281
     1
  0
CLASS
  1
XRECORD
  2
AcDbXrecord
  3
AutoCAD 2000
 90
        0
280
     0
281
     0
  0
CLASS
  1
LONG_TRANSACTION
  2
AcDbLongTransaction
  3
AutoCAD 2000
 90
        0
280
     0
281
     0
  0
CLASS
  1
LWPOLYLINE
  2
AcDbPolyline
  3
AutoCAD 2000
 90
        0
280
     0
281
     1
  0
CLASS
  1
HATCH
  2
AcDbHatch
  3
AutoCAD 2000
 90
        0
280
     0
281
     1
  0
CLASS
  1
XRECORD
  2
AcDbXrecord
  3
AutoCAD 2000
 90
        0
280
     0
281
     0
  0
CLASS
  1
LONG_TRANSACTION
  2
AcDbLongTransaction
  3
AutoCAD 2000
 90
        0
280
     0
281
     0
  0
CLASS
  1
LWPOLYLINE
  2
AcDbPolyline
  3
AutoCAD 2000
 90
        0
280
     0
281
     1
  0
CLASS
  1
HATCH
  2
AcDbHatch
  3
AutoCAD 2000
 90
        0
280
     0
281
     1
  0
CLASS
  1
XRECORD
  2
AcDbXrecord
  3
AutoCAD 2000
 90
        0
280
     0
281
     0
  0
CLASS
  1
LONG_TRANSACTION
  2
AcDbLongTransaction
  3
AutoCAD 2000
 90
        0
280
     0
281
     0
  0
CLASS
  1
LWPOLYLINE
  2
AcDbPolyline
  3
AutoCAD 2000
 90
        0
280
     0
281
     1
  0
CLASS
  1
HATCH
  2
AcDbHatch
  3
AutoCAD 2000
 90
        0
280
     0
281
     1
  0
CLASS
  1
XRECORD
  2
AcDbXrecord
  3
AutoCAD 2000
 90
        0
280
     0
281
     0
  0
CLASS
  1
LONG_TRANSACTION
  2
AcDbLongTransaction
  3
AutoCAD 2000
 90
        0
280
     0
281
     0
  0
CLASS
  1
LWPOLYLINE
  2
AcDbPolyline
  3
AutoCAD 2000
 90
        0
280
     0
281
     1
  0
CLASS
  1
HATCH
  2
AcDbHatch
  3
AutoCAD 2000
 90
        0
280
     0
281
     1
  0
CLASS
  1
XRECORD
  2
AcDbXrecord
  3
AutoCAD 2000
 90
        0
280
     0
281
     0
  0
CLASS
  1
LONG_TRANSACTION
  2
AcDbLongTransaction
  3
AutoCAD 2000
 90
        0
280
     0
281
     0
  0
CLASS
  1
LWPOLYLINE
  2
AcDbPolyline
  3
AutoCAD 2000
 90
        0
280
     0
281
     1
  0
CLASS
  1
HATCH
  2
AcDbHatch
  3
AutoCAD 2000
 90
        0
280
     0
281
     1
  0
CLASS
  1
XRECORD
  2
AcDbXrecord
  3
AutoCAD 2000
 90
        0
280
     0
281
     0
  0
ENDSEC
  0
SECTION
  2
TABLES
  0
TABLE
  2
VPORT
  5
8
330
0
100
AcDbSymbolTable
 70
     2
  0
VPORT
  5
908
330
8
100
AcDbSymbolTableRecord
100
AcDbViewportTableRecord
  2
*ACTIVE
 70
     0
 10
0.0
 20
0.0
 11
1.0
 21
1.0
 12
75.16510708191676
 22
-44.08699528553791
 13
0.0
 23
0.0
 14
0.5740882589684922
 24
0.5740882589684922
 15
0.5
 25
0.5
 16
0.0
 26
0.0
 36
1.0
 17
0.0
 27
0.0
 37
0.0
 40
32.99592975319724
 41
1.570528967254408
 42
50.0
 43
0.0
 44
0.0
 50
0.0
 51
0.0
 71
     0
 72
   100
 73
     1
 74
     0
 75
     0
 76
     0
 77
     0
 78
     0
  0
ENDTAB
  0
TABLE
  2
LTYPE
  5
5
330
0
100
AcDbSymbolTable
 70
     1
  0
LTYPE
  5
12
330
5
100
AcDbSymbolTableRecord
100
AcDbLinetypeTableRecord
  2
BYBLOCK
 70
     0
  3

 72
    65
 73
     0
 40
0.0
  0
LTYPE
  5
13
330
5
100
AcDbSymbolTableRecord
100
AcDbLinetypeTableRecord
  2
BYLAYER
 70
     0
  3

 72
    65
 73
     0
 40
0.0
  0
LTYPE
  5
14
330
5
100
AcDbSymbolTableRecord
100
AcDbLinetypeTableRecord
  2
CONTINUOUS
 70
     0
  3
Solid line
 72
    65
 73
     0
 40
0.0
  0
ENDTAB
  0
TABLE
  2
LAYER
  5
2
330
0
100
AcDbSymbolTable
 70
     3
  0
LAYER
  5
F
330
2
100
AcDbSymbolTableRecord
100
AcDbLayerTableRecord
  2
0
 70
     0
 62
     7
  6
CONTINUOUS
  0
LAYER
  5
B6
330
2
100
AcDbSymbolTableRecord
100
AcDbLayerTableRecord
  2
DEFPOINTS
 70
     0
 62
     7
  6
CONTINUOUS
  0
LAYER
  5
B7
330
2
100
AcDbSymbolTableRecord
100
AcDbLayerTableRecord
  2
ADPDIM
 70
     0
 62
     3
  6
CONTINUOUS
  0
ENDTAB
  0
TABLE
  2
STYLE
  5
3
330
0
100
AcDbSymbolTable
 70
     2
  0
STYLE
  5
10
330
3
100
AcDbSymbolTableRecord
100
AcDbTextStyleTableRecord
  2
STANDARD
 70
     0
 40
0.0
 41
1.0
 50
0.0
 71
     0
 42
0.2
  3
txt
  4

  0
STYLE
  5
7C0
330
3
100
AcDbSymbolTableRecord
100
AcDbTextStyleTableRecord
  2
ARIAL_WIDE
 70
     0
 40
0.0
 41
1.25
 50
0.0
 71
     0
 42
0.2
  3
ARIAL.TTF
  4

1001
ACAD
1000
Arial
1071
       34
  0
ENDTAB
  0
TABLE
  2
VIEW
  5
6
330
0
100
AcDbSymbolTable
 70
     0
  0
ENDTAB
  0
TABLE
  2
UCS
  5
7
330
0
100
AcDbSymbolTable
 70
     0
  0
ENDTAB
  0
TABLE
  2
APPID
  5
9
330
0
100
AcDbSymbolTable
 70
     1
  0
APPID
  5
11
330
9
100
AcDbSymbolTableRecord
100
AcDbRegAppTableRecord
  2
ACAD
 70
     0
  0
ENDTAB
  0
TABLE
  2
DIMSTYLE
  5
A
330
0
100
AcDbSymbolTable
 70
     1
  0
DIMSTYLE
105
7B4
330
A
100
AcDbSymbolTableRecord
100
AcDbDimStyleTableRecord
  2
STANDARD
 70
     0
  3

  4

  5

  6

  7

 40
1.0
 41
0.18
 42
0.0625
 43
0.38
 44
0.18
 45
0.0
 46
0.0
 47
0.0
 48
0.0
140
0.18
141
0.09
142
0.0
143
25.4
144
1.0
145
0.0
146
1.0
147
0.09
 71
     0
 72
     0
 73
     1
 74
     1
 75
     0
 76
     0
 77
     0
 78
     0
170
     0
171
     2
172
     0
173
     0
174
     0
175
     0
176
     0
177
     0
178
     0
270
     2
271
     4
272
     4
273
     2
274
     2
340
10
275
     0
280
     0
281
     0
282
     0
283
     1
284
     0
285
     0
286
     0
287
     3
288
     0
  0
ENDTAB
  0
TABLE
  2
BLOCK_RECORD
  5
1
330
0
100
AcDbSymbolTable
 70
     2
  0
BLOCK_RECORD
  5
18
102
{ACAD_XDICTIONARY
360
815
102
}
330
1
100
AcDbSymbolTableRecord
100
AcDbBlockTableRecord
  2
*MODEL_SPACE
  0
BLOCK_RECORD
  5
15
102
{ACAD_XDICTIONARY
360
813
102
}
330
1
100
AcDbSymbolTableRecord
100
AcDbBlockTableRecord
  2
*PAPER_SPACE
  0
BLOCK_RECORD
  5
AF
330
1
100
AcDbSymbolTableRecord
100
AcDbBlockTableRecord
  2
*D0
  0
BLOCK_RECORD
  5
B0
330
1
100
AcDbSymbolTableRecord
100
AcDbBlockTableRecord
  2
*D1
  0
ENDTAB
  0
ENDSEC
  0
SECTION
  2
BLOCKS
  0
BLOCK
  5
BA
330
18
100
AcDbEntity
  8
0
100
AcDbBlockBegin
  2
*MODEL_SPACE
 70
     0
 10
0.0
 20
0.0
 30
0.0
  3
*MODEL_SPACE
  1

  0
ENDBLK
  5
BB
330
18
100
AcDbEntity
  8
0
100
AcDbBlockEnd
  0
BLOCK
  5
B8
330
15
100
AcDbEntity
 67
     1
  8
0
100
AcDbBlockBegin
  2
*PAPER_SPACE
 70
     0
 10
0.0
 20
0.0
 30
0.0
  3
*PAPER_SPACE
  1

  0
ENDBLK
  5
B9
330
15
100
AcDbEntity
 67
     1
  8
0
100
AcDbBlockEnd
  0
BLOCK
  5
BD
330
AF
100
AcDbEntity
  8
0
100
AcDbBlockBegin
  2
*D0
 70
     1
 10
0.0
 20
0.0
 30
0.0
  3
*D0
  1

  0
LINE
  5
BE
330
AF
100
AcDbEntity
  8
0
  6
BYBLOCK
 62
     0
100
AcDbLine
 10
75.46065599942138
 20
-58.21430189034486
 30
0.0
 11
81.67988820556288
 21
-58.21430189034486
 31
0.0
  0
LINE
  5
BF
330
AF
100
AcDbEntity
  8
0
  6
BYBLOCK
 62
     0
100
AcDbLine
 10
79.43495304789724
 20
-30.21430189034485
 30
0.0
 11
81.6798882055629
 21
-30.21430189034485
 31
0.0
  0
LINE
  5
C0
330
AF
100
AcDbEntity
  8
0
  6
BYBLOCK
 62
     0
100
AcDbLine
 10
81.4998882055629
 20
-58.21430189034486
 30
0.0
 11
81.4998882055629
 21
-44.44346855701152
 31
0.0
  0
LINE
  5
C1
330
AF
100
AcDbEntity
  8
0
  6
BYBLOCK
 62
     0
100
AcDbLine
 10
81.4998882055629
 20
-30.21430189034485
 30
0.0
 11
81.4998882055629
 21
-43.98513522367819
 31
0.0
  0
LINE
  5
C2
330
AF
100
AcDbEntity
  8
0
  6
BYBLOCK
 62
     0
100
AcDbLine
 10
81.62488820556289
 20
-58.33930189034486
 30
0.0
 11
81.3748882055629
 21
-58.08930189034485
 31
0.0
  0
LINE
  5
C3
330
AF
100
AcDbEntity
  8
0
  6
BYBLOCK
 62
     0
100
AcDbLine
 10
81.62488820556289
 20
-30.33930189034485
 30
0.0
 11
81.3748882055629
 21
-30.08930189034485
 31
0.0
  0
TEXT
  5
C4
330
AF
100
AcDbEntity
  8
0
  6
BYBLOCK
 62
     0
100
AcDbText
 10
81.56238820556289
 20
-44.31846855701151
 30
0.0
 40
0.125
  1
28
 50
90.0
 72
     1
 11
81.4998882055629
 21
-44.21430189034485
 31
0.0
100
AcDbText
 73
     2
  0
POINT
  5
C5
330
AF
100
AcDbEntity
  8
DEFPOINTS
  6
BYBLOCK
 62
     0
100
AcDbPoint
 10
75.39815599942137
 20
-58.21430189034486
 30
0.0
  0
POINT
  5
C6
330
AF
100
AcDbEntity
  8
DEFPOINTS
  6
BYBLOCK
 62
     0
100
AcDbPoint
 10
79.37245304789724
 20
-30.21430189034485
 30
0.0
  0
POINT
  5
C7
330
AF
100
AcDbEntity
  8
DEFPOINTS
  6
BYBLOCK
 62
     0
100
AcDbPoint
 10
81.4998882055629
 20
-30.21430189034485
 30
0.0
  0
ENDBLK
  5
C8
330
AF
100
AcDbEntity
  8
0
100
AcDbBlockEnd
  0
BLOCK
  5
C9
330
B0
100
AcDbEntity
  8
0
100
AcDbBlockBegin
  2
*D1
 70
     1
 10
0.0
 20
0.0
 30
0.0
  3
*D1
  1

  0
LINE
  5
CA
330
B0
100
AcDbEntity
  8
0
  6
BYBLOCK
 62
     0
100
AcDbLine
 10
70.86271317378069
 20
-31.22398553622929
 30
0.0
 11
70.86271317378069
 21
-28.23516519547918
 31
0.0
  0
LINE
  5
CB
330
B0
100
AcDbEntity
  8
0
  6
BYBLOCK
 62
     0
100
AcDbLine
 10
79.36271317378069
 20
-29.84149779006195
 30
0.0
 11
79.36271317378069
 21
-28.23516519547918
 31
0.0
  0
LINE
  5
CC
330
B0
100
AcDbEntity
  8
0
  6
BYBLOCK
 62
     0
100
AcDbLine
 10
70.86271317378069
 20
-28.41516519547917
 30
0.0
 11
74.71687984044736
 21
-28.41516519547917
 31
0.0
  0
LINE
  5
CD
330
B0
100
AcDbEntity
  8
0
  6
BYBLOCK
 62
     0
100
AcDbLine
 10
79.36271317378069
 20
-28.41516519547917
 30
0.0
 11
75.50854650711402
 21
-28.41516519547917
 31
0.0
  0
LINE
  5
CE
330
B0
100
AcDbEntity
  8
0
  6
BYBLOCK
 62
     0
100
AcDbLine
 10
70.73771317378069
 20
-28.54016519547918
 30
0.0
 11
70.98771317378069
 21
-28.29016519547918
 31
0.0
  0
LINE
  5
CF
330
B0
100
AcDbEntity
  8
0
  6
BYBLOCK
 62
     0
100
AcDbLine
 10
79.23771317378069
 20
-28.54016519547918
 30
0.0
 11
79.48771317378069
 21
-28.29016519547918
 31
0.0
  0
TEXT
  5
D0
330
B0
100
AcDbEntity
  8
0
  6
BYBLOCK
 62
     0
100
AcDbText
 10
74.84187984044736
 20
-28.47766519547917
 30
0.0
 40
0.125
  1
8 1/2
 72
     1
 11
75.11271317378069
 21
-28.41516519547917
 31
0.0
100
AcDbText
 73
     2
  0
POINT
  5
D1
330
B0
100
AcDbEntity
  8
DEFPOINTS
  6
BYBLOCK
 62
     0
100
AcDbPoint
 10
70.86271317378069
 20
-31.28648553622928
 30
0.0
  0
POINT
  5
D2
330
B0
100
AcDbEntity
  8
DEFPOINTS
  6
BYBLOCK
 62
     0
100
AcDbPoint
 10
79.36271317378069
 20
-29.90399779006195
 30
0.0
  0
POINT
  5
D3
330
B0
100
AcDbEntity
  8
DEFPOINTS
  6
BYBLOCK
 62
     0
100
AcDbPoint
 10
79.36271317378069
 20
-28.41516519547917
 30
0.0
  0
ENDBLK
  5
D4
330
B0
100
AcDbEntity
  8
0
100
AcDbBlockEnd
  0
ENDSEC
  0
SECTION
  2
ENTITIES
  0
LWPOLYLINE
  5
D5
330
18
100
AcDbEntity
  8
0
100
AcDbPolyline
 90
        2
 70
     0
 43
0.0
 10
73.23026879838699
 20
-31.53978793653179
 42
-0.1907275367003047
 10
73.96688187771015
 20
-32.11829326014387
 42
0.5743406790196435
  0
LWPOLYLINE
  5
D9
330
18
100
AcDbEntity
  8
0
100
AcDbPolyline
 90
       10
 70
     0
 43
0.0
 10
73.49334485265228
 20
-34.43231462758372
 42
0.1231191064092126
 10
74.22995793197545
 20
-33.48566951940417
 42
0.2361744710576757
 10
74.26503476044088
 20
-33.047407912819
 42
0.084266168619015
 10
73.82657456384844
 20
-32.97728601780977
 42
0.6699780968337201
 10
73.79149773538301
 20
-33.06493836832342
 42
0.0622857463058098
 10
73.82657456384844
 20
-33.53826095890898
 42
-0.4143462094502468
 10
73.70380571729459
 20
-33.87133975947607
 42
-0.2194411386434466
 10
73.65119052767157
 20
-33.87133975947607
 42
0.0809750791729907
 10
73.44072966302928
 20
-33.32789534687283
 42
-0.4088173996924357
 10
73.49334485265228
 20
-33.11752973483668
 42
-0.2819016442384878
  0
LWPOLYLINE
  5
E5
330
18
100
AcDbEntity
  8
0
100
AcDbPolyline
 90
       13
 70
     0
 43
0.0
 10
72.84442389756783
 20
-31.66250112506272
 10
72.82688553641026
 20
-31.45213558601813
 10
72.93211591565627
 20
-31.32942232449564
 42
0.2401594060889833
 10
73.23026879838699
 20
-31.53978793653179
 42
-0.3114721735543541
 10
73.52842168111772
 20
-31.43460513051372
 42
0.2440345554908853
 10
73.93180504924472
 20
-31.34695278000006
 42
-0.4807248665748418
 10
74.59826436548675
 20
-31.64497066955831
 42
-0.3634031924407167
 10
74.31764995006388
 20
-32.13582371564828
 42
-0.181411573287881
 10
74.21241946466761
 20
-32.64420721724268
 42
0.015142494631865
 10
74.8262636974369
 20
-32.45137206071095
 42
-0.565400275049429
 10
75.03672456207919
 20
-32.62667676173826
 42
-0.3147469757636841
 10
74.61580283279459
 20
-33.20518208535033
 42
0.2280587078654015
 10
74.40534196815232
 20
-33.60838278092666
 42
1.033169338606365
  0
LWPOLYLINE
  5
F4
330
18
100
AcDbEntity
  8
0
100
AcDbPolyline
 90
        6
 70
     0
 43
0.0
 10
74.07211225695616
 20
-31.94298863210811
 42
-0.0515921866731093
 10
73.80903620269086
 20
-32.29359788817962
 42
-0.1666333840836781
 10
73.58103687074072
 20
-32.41631114970211
 42
0.3212386472590292
 10
73.24780726569485
 20
-32.74939002326076
 42
0.1414061117266934
 10
73.33549928378328
 20
-33.09999927933226
 42
0.2287823523652178
 10
72.93211591565627
 20
-32.92469465129651
 42
50.16704749165192
  0
LWPOLYLINE
  5
FC
330
18
100
AcDbEntity
  8
0
100
AcDbPolyline
 90
        3
 70
     0
 43
0.0
 10
74.30011148275602
 20
-32.1533541711527
 42
0.1035198503426542
 10
73.51088331996014
 20
-32.78445093426959
 42
0.359356370815403
 10
73.51088331996014
 20
-33.08246882382784
 42
0.4712845306343877
  0
LWPOLYLINE
  5
101
330
18
100
AcDbEntity
  8
0
100
AcDbPolyline
 90
        3
 70
     0
 43
0.0
 10
73.31796081647542
 20
-33.13506026333266
 42
0.0536463121376291
 10
74.12472744657917
 20
-32.83704230078285
 42
0.0678863193501778
 10
74.22995793197545
 20
-32.62667676173826
 42
-0.7158219112117673
  0
LWPOLYLINE
  5
106
330
18
100
AcDbEntity
  8
0
100
AcDbPolyline
 90
        4
 70
     0
 43
0.0
 10
74.75611004050604
 20
-35.15106374121427
 42
0.2696391858189889
 10
75.84349119218294
 20
-31.90792764810772
 42
0.6265437270551583
 10
71.03796813387564
 20
-31.36448323550448
 42
0.3283351554478432
 10
71.35365948391421
 20
-33.99405302099856
 42
0.4327438493487658
  0
LINE
  5
10C
330
18
100
AcDbEntity
  8
0
100
AcDbLine
 10
73.70380571729459
 20
-38.62209582886983
 30
0.0
 11
74.07211225695616
 21
-38.41173021683368
 31
0.0
  0
LWPOLYLINE
  5
10D
330
18
100
AcDbEntity
  8
0
100
AcDbPolyline
 90
        6
 70
     0
 43
0.0
 10
72.4410406355911
 20
-37.79816398221277
 42
-0.2070570060865343
 10
74.12472744657917
 20
-38.32407793931158
 42
-0.0237862832167728
 10
73.65119052767157
 20
-38.4292606723381
 42
0.3971352764430145
 10
73.54596014842556
 20
-38.56950438936501
 42
-0.320346816232014
 10
73.37057600609843
 20
-38.48185211184292
 42
0.371606808994674
 10
72.42350216828325
 20
-37.79816398221277
 42
23.15659066248932
  0
LINE
  5
115
330
18
100
AcDbEntity
  8
0
100
AcDbLine
 10
74.08965061811374
 20
-39.09541834646383
 30
0.0
 11
73.98442023886772
 21
-38.81493091241
 31
0.0
  0
LWPOLYLINE
  5
116
330
18
100
AcDbEntity
  8
0
100
AcDbPolyline
 90
        3
 70
     0
 43
0.0
 10
73.65119052767157
 20
-38.76233954589674
 42
-0.1725286964149721
 10
74.54564917586374
 20
-39.0778878909594
 42
0.3332427190853175
 10
73.70380571729459
 20
-38.65715673987867
 42
11.08905338963003
  0
LWPOLYLINE
  5
11B
330
18
100
AcDbEntity
  8
0
100
AcDbPolyline
 90
        3
 70
     0
 43
0.0
 10
73.22893661240373
 20
-42.10698915939484
 42
-0.235972395034205
 10
73.80770391055732
 20
-42.26476333192618
 42
0.5839249870526376
 10
74.22862563984191
 20
-42.42253750445751
 42
2.746289348813184
  0
LWPOLYLINE
  5
120
330
18
100
AcDbEntity
  8
0
100
AcDbPolyline
 90
       14
 70
     0
 43
0.0
 10
74.12472744657917
 20
-38.35913885032042
 42
-0.3481439923799896
 10
74.63334119395217
 20
-38.86752235191481
 42
-0.0578563017389503
 10
74.63334119395217
 20
-39.25319259198671
 42
-0.9841664549094284
 10
74.45795715777532
 20
-39.23566206349074
 42
0.3005381053682652
 10
74.17734274235245
 20
-39.14800978596865
 42
-0.1847185365027705
 10
73.58103687074072
 20
-39.1129488749598
 42
-0.5737734800527843
 10
73.54596014842556
 20
-38.77987000140116
 10
73.37057600609843
 20
-38.70974810639193
 10
73.37057600609843
 20
-39.23566206349074
 42
-0.5399366945823006
 10
73.65119052767157
 20
-39.65639328756304
 42
-0.1732663473111027
 10
73.4758064914947
 20
-40.09465489414821
 42
0.2546254360931864
 10
73.12503841914099
 20
-40.49785558972452
 42
-0.5560534548463006
 10
72.65150150023339
 20
-39.95441117712129
 42
-0.1908033985926786
 10
72.73919351832183
 20
-39.41096676451805
 42
-0.5684115247207471
  0
LWPOLYLINE
  5
130
330
18
100
AcDbEntity
  8
0
100
AcDbPolyline
 90
        4
 70
     0
 43
0.0
 10
77.03610272310583
 20
-34.0291139320074
 42
0.1018381517208886
 10
76.42225849033653
 20
-34.27454045505239
 42
-0.0473664322299496
 10
74.7736485078139
 20
-35.15106374121427
 42
0.0945446244829046
 10
74.0019586000253
 20
-35.65944724280866
 42
2.464029270820235
  0
LWPOLYLINE
  5
136
330
18
100
AcDbEntity
  8
0
100
AcDbPolyline
 90
        5
 70
     0
 43
0.0
 10
73.45826813033713
 20
-35.74709952033076
 42
0.1163006124397248
 10
75.24718542672149
 20
-33.92393112598933
 42
0.419650251853598
 10
74.5631876431716
 20
-30.73338647238759
 42
0.4585392175668704
 10
71.14319861927192
 20
-31.92545810361213
 42
0.3860773333259338
 10
72.0376572674641
 20
-34.29207091055681
 42
0.2407718469569671
  0
LWPOLYLINE
  5
13D
330
18
100
AcDbEntity
  8
0
100
AcDbPolyline
 90
       21
 70
     0
 43
0.0
 10
74.79118686897146
 20
-35.55426443679059
 42
0.1603699343751702
 10
75.49272311982921
 20
-35.1861246522231
 42
0.1230515189014331
 10
75.91364474296351
 20
-35.22118556323194
 42
-0.1771277723621994
 10
75.98379839989437
 20
-35.86981278185325
 42
-0.2359721554325244
 10
75.93118321027137
 20
-35.85228232634883
 42
-0.0384516953647754
 10
75.72072234562907
 20
-35.60685580330385
 42
0.0989756059807079
 10
75.10687811285977
 20
-35.65944724280866
 42
-0.4788028891828399
 10
74.7736485078139
 20
-35.55426443679059
 42
0.1384150662586479
 10
71.68688919511037
 20
-38.00852952125735
 42
-0.2657503877818194
 10
73.80903620269086
 20
-37.69298117619469
 42
-0.0905232774524059
 10
75.47518465252135
 20
-39.76157602058956
 42
0.145705477363739
 10
76.0714904179828
 20
-39.77910654908554
 42
-0.4832301725919921
 10
75.8084143637175
 20
-39.49861904204015
 42
-0.4740151101536451
 10
76.00133686720223
 20
-39.1129488749598
 42
0.283151280650458
 10
76.14164407491365
 20
-38.76233954589674
 42
-0.5909457793730255
 10
76.31702811109052
 20
-38.62209582886983
 42
-0.1694007876397298
 10
76.66779618344425
 20
-38.93764417393249
 42
-0.088322012730179
 10
76.7905650299981
 20
-39.30578395849998
 42
-0.6040144687134913
 10
76.17672090337908
 20
-39.83169791559879
 42
-0.3384403258381936
 10
75.79087600255992
 20
-39.98947208813012
 42
0.1330363918920411
 10
75.59795349907521
 20
-39.98947208813012
 42
7.516740237599827
  0
LWPOLYLINE
  5
154
330
18
100
AcDbEntity
  8
0
100
AcDbPolyline
 90
        4
 70
     0
 43
0.0
 10
73.036014108919
 20
-44.56125424386161
 42
-0.1018381517208886
 10
73.64985834168831
 20
-44.80668076690661
 42
0.0473664322299496
 10
75.29846832421094
 20
-45.68320405306848
 42
-0.0945446244829046
 10
76.07015823199953
 20
-46.19158755466288
 42
-2.464029270820235
  0
ARC
  5
15A
330
18
100
AcDbEntity
  8
0
100
AcDbCircle
 10
73.0920628163307
 20
-48.25152371269162
 30
0.0
 40
0.9219461977231343
100
AcDbArc
 50
14.88104487594753
 51
47.06936129147257
  0
ARC
  5
15B
330
18
100
AcDbEntity
  8
0
100
AcDbCircle
 10
73.21783837796522
 20
-47.96801816038581
 30
0.0
 40
0.7666754962584358
100
AcDbArc
 50
356.5049942551871
 51
35.39950282624261
  0
LWPOLYLINE
  5
15C
330
18
100
AcDbEntity
  8
0
100
AcDbPolyline
 90
       12
 70
     0
 43
0.0
 10
73.75508872093431
 20
-47.55896381392317
 42
-0.2802985741085332
 10
74.07077996482262
 20
-47.52390290291434
 42
-0.3587214021048889
 10
74.01816477519961
 20
-48.08487777102199
 42
0.586444166016182
 10
74.05324160366504
 20
-48.20759103254449
 42
0.1889133025519325
 10
74.17601045021889
 20
-48.19006057704007
 42
-0.0784930315851779
 10
74.22862563984191
 20
-47.97969496500392
 42
0.1035604212769121
 10
74.43908650448419
 20
-47.50637237441836
 42
0.519119910098652
 10
74.22862563984191
 20
-47.27847637986935
 42
-0.5589431466963772
 10
73.84278073902274
 20
-46.80515378928379
 42
-0.3050008090424543
 10
74.19354881137647
 20
-46.54219681073438
 42
0.4770547681373218
 10
73.17632131663045
 20
-46.36689218269864
 42
0.0553601771242843
 10
72.580015551169
 20
-46.40195309370747
 42
-0.0848712555214172
  0
LINE
  5
16A
330
18
100
AcDbEntity
  8
0
100
AcDbLine
 10
74.08831843213047
 20
-49.89051563686746
 30
0.0
 11
73.91293439595362
 21
-50.18853359941726
 31
0.0
  0
ARC
  5
16B
330
18
100
AcDbEntity
  8
0
100
AcDbCircle
 10
73.45807195416863
 20
-49.76494315002843
 30
0.0
 40
1.170714952673596
100
AcDbArc
 50
228.6900909966115
 51
319.7344646668751
  0
LWPOLYLINE
  5
16C
330
18
100
AcDbEntity
  8
0
100
AcDbPolyline
 90
        3
 70
     0
 43
0.0
 10
73.37712132691215
 20
-51.69538795637169
 42
-0.2548924670124561
 10
74.02186860224308
 20
-51.54666759448476
 42
0.2074171752168604
 10
73.41431826113349
 20
-51.80692833492599
 42
2.320572901615614
  0
LINE
  5
171
330
18
100
AcDbEntity
  8
0
100
AcDbLine
 10
73.92267677765286
 20
-51.55906087464492
 30
0.0
 11
74.02186860224308
 21
-51.64581455002675
 31
0.0
  0
LINE
  5
172
330
18
100
AcDbEntity
  8
0
100
AcDbLine
 10
73.81108576724162
 20
-52.74882462685322
 30
0.0
 11
74.10866144875952
 21
-52.81079159906258
 31
0.0
  0
LINE
  5
173
330
18
100
AcDbEntity
  8
0
100
AcDbLine
 10
73.9474747338004
 20
-52.92233183476476
 30
0.0
 11
74.08386349261196
 21
-52.93472525777706
 31
0.0
  0
LWPOLYLINE
  5
174
330
18
100
AcDbEntity
  8
0
100
AcDbPolyline
 90
        3
 70
     0
 43
0.0
 10
73.42671723920727
 20
-52.36463008484538
 42
0.2159884330080114
 10
74.05906553646442
 20
-53.1206258887009
 42
-0.0768112950908888
 10
73.50111110764993
 20
-52.24069642613091
 42
-1.527976729505711
  0
LWPOLYLINE
  5
179
330
18
100
AcDbEntity
  8
0
100
AcDbPolyline
 90
       21
 70
     0
 43
0.0
 10
75.28092996305336
 20
-46.08640474864481
 42
-0.1603699343751702
 10
74.57939371219564
 20
-45.71826496407732
 42
-0.1230515189014331
 10
74.15847208906132
 20
-45.75332587508616
 42
0.1771277723621994
 10
74.08831843213047
 20
-46.40195309370747
 42
0.2359721554325244
 10
74.14093362175347
 20
-46.38442263820305
 42
0.0384516953647754
 10
74.35139448639576
 20
-46.13899611515806
 42
-0.0989756059807079
 10
74.96523871916507
 20
-46.19158755466288
 42
0.4788028891828399
 10
75.29846832421094
 20
-46.08640474864481
 42
-0.1384150662586479
 10
78.38522763691447
 20
-48.54066983311158
 42
0.2657503877818194
 10
76.26308062933397
 20
-48.22512148804891
 42
0.0905232774524059
 10
74.59693217950349
 20
-50.29371633244378
 42
-0.145705477363739
 10
74.00062641404204
 20
-50.31124686093975
 42
0.4832301725919921
 10
74.26370246830733
 20
-50.03075935389436
 42
0.4740151101536451
 10
74.07077996482262
 20
-49.64508918681403
 42
-0.283151280650458
 10
73.93047275711118
 20
-49.29447985775095
 42
0.5909457793730255
 10
73.75508872093431
 20
-49.15423614072405
 42
0.1694007876397298
 10
73.4043206485806
 20
-49.46978448578671
 42
0.088322012730179
 10
73.28155180202672
 20
-49.83792427035419
 42
0.6040144687134913
 10
73.89539592864576
 20
-50.36383822745301
 42
0.3384403258381936
 10
74.2812408294649
 20
-50.52161239998435
 42
-0.1330363918920411
 10
74.47416333294963
 20
-50.52161239998435
 42
-7.516740237599827
  0
LWPOLYLINE
  5
190
330
18
100
AcDbEntity
  8
0
100
AcDbPolyline
 90
        2
 70
     0
 43
0.0
 10
73.82524237786518
 20
-49.13670568521962
 42
0.2686959386052415
 10
74.01816477519961
 20
-48.34783474957141
 42
0.7489455754527742
  0
LWPOLYLINE
  5
194
330
18
100
AcDbEntity
  8
0
100
AcDbPolyline
 90
       15
 70
     0
 43
0.0
 10
72.15909382188441
 20
-46.77009287827496
 42
0.1753589194772699
 10
71.66801854181925
 20
-47.52390290291434
 42
0.4670780996250873
 10
71.93109459608455
 20
-47.87451215898584
 42
-0.0784263289799045
 10
72.47478517192298
 20
-47.92710359849066
 42
0.147088895138865
 10
73.01847574776143
 20
-48.04981686001315
 42
0.3432304479135056
 10
72.89570690120758
 20
-48.33030429406698
 42
0.5586625753249022
 10
73.24647497356131
 20
-48.55820028861599
 42
-0.4804890469864789
 10
73.77262708209189
 20
-48.73350498964331
 42
0.2883584869484705
 10
73.64985834168831
 20
-48.22512148804891
 42
-0.4143998917784301
 10
73.64985834168831
 20
-47.9621645094995
 42
-0.3600802114840282
 10
73.89539592864576
 20
-48.11993868203083
 42
0.2517608581942611
 10
74.08831843213047
 20
-48.38289566058024
 42
0.314623291359641
 10
74.19354881137647
 20
-48.36536520507582
 10
74.08831843213047
 20
-48.33030429406698
 10
74.01816477519961
 20
-48.20759103254449
  0
LWPOLYLINE
  5
1A5
330
18
100
AcDbEntity
  8
0
100
AcDbPolyline
 90
       26
 70
     0
 43
0.0
 10
75.4212371707648
 20
-49.55743683630037
 42
-0.1189351814560674
 10
74.14093362175347
 20
-51.02999590157875
 42
-0.3820691626776007
 10
72.24678583997285
 20
-50.52161239998435
 10
72.0538634426384
 20
-50.62679520600242
 42
0.336604188153271
 10
71.7907873883731
 20
-50.2235945104261
 42
-0.1797732706657129
 10
71.56278805642296
 20
-49.76780237534495
 42
-0.2110837690408199
 10
71.82586411068825
 20
-49.53990638079595
 42
-0.2044466579503954
 10
71.87847940646154
 20
-48.9438705286879
 42
-0.0598496247649805
 10
72.0012482530154
 20
-48.76856590065215
 10
72.0012482530154
 20
-48.69844400564291
 10
72.19417065034983
 20
-48.66338309463407
 42
0.0272557780242778
 10
72.35201632536913
 20
-48.45301755558948
 42
0.1046586161382755
 10
72.42216998229998
 20
-48.27771285456217
 42
-0.3026615671333451
 10
72.63263084694227
 20
-48.34783474957141
 42
-0.0384200345771914
 10
72.580015551169
 20
-48.54066983311158
 42
-0.0302042470285127
 10
72.75539958734587
 20
-49.18929705173288
 42
-0.3007831175280434
 10
72.54493872270356
 20
-49.7152110088317
 42
-0.0710454843305695
 10
72.75539958734587
 20
-49.80286335934536
 42
-0.5687924317358397
 10
72.75539958734587
 20
-49.92557662086785
 42
0.2660102568050624
 10
72.66770756925743
 20
-50.609264750498
 42
-1.496141210647567
 10
72.59755401847684
 20
-50.609264750498
 42
-0.4279894080080491
 10
72.45724670461513
 20
-50.39889913846185
 42
0.0333113422019525
 10
72.43970834345756
 20
-49.92557662086785
 42
0.6547188460968372
 10
71.96617142454996
 20
-49.99569844288552
 42
0.2454213459736761
 10
72.12401709956925
 20
-50.34630777194859
 42
-0.1477689062217795
 10
72.24678583997285
 20
-50.52161239998435
 42
-1.381262626113255
  0
LWPOLYLINE
  5
1C1
330
18
100
AcDbEntity
  8
0
100
AcDbPolyline
 90
        4
 70
     0
 43
0.0
 10
71.84340257799611
 20
-48.96140098419231
 42
-0.2345239875174416
 10
71.1243279659808
 20
-47.7167379864545
 42
-0.3886402566289407
 10
72.72032286503071
 20
-45.73579541958174
 42
-0.1150287062102737
 10
74.15847208906132
 20
-45.75332587508616
 42
6.703955181316959
  0
LINE
  5
1C7
330
18
100
AcDbEntity
  8
0
100
AcDbLine
 10
74.30704509793997
 20
-55.40100643757549
 30
0.0
 11
73.95987350412696
 21
-55.46297326693272
 31
0.0
  0
LWPOLYLINE
  5
1C8
330
18
100
AcDbEntity
  8
0
100
AcDbPolyline
 90
        3
 70
     0
 43
0.0
 10
75.08818133982969
 20
-54.57065038135043
 42
-0.012574973347492
 10
74.35664121798231
 20
-54.38474989327873
 42
-0.1280882386240909
 10
73.74909087687273
 20
-54.14927571315782
 42
-3.097569624837253
  0
LWPOLYLINE
  5
1CD
330
18
100
AcDbEntity
  8
0
100
AcDbPolyline
 90
        3
 70
     0
 43
0.0
 10
73.73669189879895
 20
-53.92619509890135
 42
0.302692376681547
 10
74.30704530568721
 20
-54.17406255918242
 42
-0.0581486604745709
 10
75.75772657130817
 20
-54.33517634408166
 42
0.113875439742416
  0
LINE
  5
1D2
330
18
100
AcDbEntity
  8
0
100
AcDbLine
 10
74.10866144875952
 20
-57.71856711263485
 30
0.0
 11
73.91027759183184
 21
-57.76814051897978
 31
0.0
  0
LWPOLYLINE
  5
1D3
330
18
100
AcDbEntity
  8
0
100
AcDbPolyline
 90
        3
 70
     0
 43
0.0
 10
74.50542895486766
 20
-56.1198219723941
 42
-0.2752583528938244
 10
74.20785327334974
 20
-55.9215280613101
 42
0.278369252653617
 10
73.82348474531539
 20
-55.64887389785656
 42
0.0370098473095534
  0
LWPOLYLINE
  5
1D8
330
18
100
AcDbEntity
  8
0
100
AcDbPolyline
 90
        3
 70
     0
 43
0.0
 10
74.55502486716277
 20
-57.69378026661024
 42
-0.3042591997039256
 10
73.69949475683037
 20
-57.18565206588793
 42
0.3114109547846338
 10
74.51782793294142
 20
-57.78053394199208
 42
-80.65396381522827
  0
LWPOLYLINE
  5
1DD
330
18
100
AcDbEntity
  8
0
100
AcDbPolyline
 90
       32
 70
     0
 43
0.0
 10
75.12537827405103
 20
-58.21430189034486
 10
74.85260054868067
 20
-58.21430189034486
 42
0.3208114453379424
 10
74.542625889089
 20
-57.86728747452178
 42
-0.2875727265234176
 10
74.18305531720219
 20
-58.13994178082745
 42
-0.2274896352174416
 10
73.78628781109405
 20
-57.99122127608838
 42
-0.1737450534814045
 10
73.56310599801883
 20
-57.26001231825747
 42
-0.0749743589559421
 10
73.62510088838771
 20
-56.95017802861916
 42
-0.8603575747241915
 10
73.74909087687273
 20
-56.97496473179163
 42
0.3641976858573829
 10
74.00946941642207
 20
-57.12368523653069
 42
-0.3003804353758697
 10
74.64181771367922
 20
-57.4211261031567
 42
-0.2584628164707902
 10
74.65421669175299
 20
-57.71856711263485
 42
-0.1622550810031786
 10
74.81540361445934
 20
-57.83010734833701
 42
0.0575910909228191
 10
74.4806309987201
 20
-56.14460881841871
 42
0.2219402136424272
 10
74.39383815220366
 20
-55.84716780894056
 42
-0.0885556493075927
 10
74.2946461198662
 20
-55.42579314074796
 42
-0.2160847647890732
 10
73.82348474531539
 20
-55.63648047484426
 42
0.0827684105054249
 10
73.95987350412696
 20
-55.47536668994503
 42
0.2249450635838338
 10
72.37280347969442
 20
-55.12835227412195
 42
0.5268821009379085
 10
71.4800764351407
 20
-57.48309293251393
 42
0.4629299878606385
 10
73.12914155768935
 20
-57.59463331106824
 42
0.4267833985953721
 10
72.90595974461412
 20
-57.29719244444224
 42
-0.3999784754124889
 10
72.84396485424522
 20
-56.93778460560686
 42
-0.424598999490017
 10
72.48439428235844
 20
-56.67752372231348
 42
0.1080718773316116
 10
72.3852024577682
 20
-56.16939552159116
 42
-0.0569280900144396
 10
72.26121246928319
 20
-55.76041413355873
 42
-0.2882525670834711
 10
72.31080838157831
 20
-55.63648047484426
 42
-0.4510278228296768
 10
72.42239939198954
 20
-55.66126717801672
 42
0.0347298112897236
 10
72.6703789534651
 20
-55.76041413355873
 42
-0.5510797206500141
 10
72.84396485424522
 20
-55.87195451211303
 42
-0.1283631145176342
 10
73.37712132691215
 20
-56.10742869223393
 42
-0.2676792133373373
 10
73.45151519535481
 20
-56.54119664058671
 42
-0.4599799901817122
 10
73.67469680068282
 20
-56.91299790243439
 42
-0.7208542100738687
  0
LWPOLYLINE
  5
1FF
330
18
100
AcDbEntity
  8
0
100
AcDbPolyline
 90
       14
 70
     0
 43
0.0
 10
74.74100974601667
 20
-55.36382631139072
 42
-0.060411287578314
 10
74.70381281179533
 20
-55.07877872492488
 42
0.8675762258632936
 10
74.51782793294142
 20
-55.05399202175241
 42
-0.1160418124496896
 10
74.55502507490999
 20
-55.54972679946242
 42
-0.2761155095729721
 10
74.49302997679388
 20
-55.62408705183195
 42
-0.8146372635467415
 10
74.45583304257254
 20
-55.56212022247472
 42
0.0833010467476992
 10
74.23265143724454
 20
-55.06638530191257
 42
-0.1669198985447919
 10
74.09626247068574
 20
-54.66979747974457
 42
-0.0453407432998158
 10
74.64181792142645
 20
-54.64501063371996
 42
0.6595135442729944
 10
74.55502507490999
 20
-54.55825710119026
 42
0.0065761493592022
 10
74.04666655839062
 20
-54.4095365964512
 42
-0.203636777670243
 10
73.67469700843006
 20
-54.03773547745565
 42
-0.4290798814501723
 10
73.73669189879895
 20
-53.90140839572889
 42
-0.4311804662180553
 10
74.18305531720219
 20
-53.21977284424289
 42
-0.0886497182343471
  0
LWPOLYLINE
  5
20F
330
18
100
AcDbEntity
  8
0
100
AcDbPolyline
 90
       33
 70
     0
 43
0.0
 10
72.744773029655
 20
-54.75655101227427
 42
-0.1100212514810549
 10
71.70325824821595
 20
-53.5420005568935
 42
-0.100349596713142
 10
71.62886437977327
 20
-52.41420363404245
 42
0.1762498809773059
 10
71.67846029206839
 20
-52.06718921821937
 42
-0.1338812085650425
 10
71.38088461055048
 20
-52.20351629994613
 42
-0.432612277020929
 10
71.04611199481124
 20
-51.81932175793829
 42
0.0683354717098307
 10
70.95931914829479
 20
-51.38555366673339
 42
-0.2425459206109943
 10
70.98411710444235
 20
-51.21204645882184
 42
-0.0404580556069423
 10
71.64126335784705
 20
-51.37316038657322
 42
-0.1834830328764547
 10
71.87684414899607
 20
-51.80692833492599
 42
-0.4172160747371102
 10
71.75285416051107
 20
-51.96804226267737
 42
0.1089070081131051
 10
71.80245007280617
 20
-52.15394275074906
 42
-0.2352479147357096
 10
72.63318222699099
 20
-51.89368201030784
 42
0.2317323570512332
 10
73.24073256810059
 20
-51.70778137938399
 42
-0.5276987748562988
 10
73.27792950232193
 20
-51.31119341436384
 42
-0.1824406602926085
 10
73.78628781109405
 20
-51.23683330484645
 42
-0.2081186855232152
 10
74.36904019605609
 20
-51.65820797303906
 42
0.3313746917854749
 10
74.05906553646442
 20
-51.84410846111076
 42
-0.1657177439319349
 10
73.88547984343151
 20
-52.0424025150469
 42
-0.3432028951283708
 10
74.23265143724454
 20
-52.82318487922275
 42
0.1729616305021867
 10
74.26984837146587
 20
-53.19498614107043
 42
0.0096721659418337
 10
73.95987371187418
 20
-53.17019929504582
 42
-0.247233678112477
 10
73.48871212957615
 20
-53.00908551014659
 42
0.1990800911831811
 10
73.17873746998447
 20
-53.48003372753627
 42
-0.9060767152934673
 10
73.04234871117291
 20
-53.46764030452397
 42
0.1441612975997775
 10
72.81916689809768
 20
-53.19498614107043
 42
-0.2630324749521799
 10
72.50919244625322
 20
-52.57531741894168
 42
-0.4113251976982371
 10
72.79436894195011
 20
-52.31505667850044
 42
0.508587819733878
 10
72.45959632621087
 20
-52.0424025150469
 42
0.1953199100445963
 10
71.8644451709223
 20
-52.48856388641198
 42
0.2730013942003106
 10
72.06282882010274
 20
-53.69072106163258
 42
0.0038526473369747
 10
73.02994973309913
 20
-54.58304380436273
 42
-0.0711607045457316
 10
74.43846043541054
 20
-55.5008278650909
 42
-0.1738143566386679
  0
LWPOLYLINE
  5
232
330
18
100
AcDbEntity
  8
0
100
AcDbPolyline
 90
        9
 70
     0
 43
0.0
 10
74.17601045021889
 20
-42.66796402750251
 42
-0.2061154774780762
 10
73.2990901631843
 20
-43.12375608959208
 42
-0.3707781585625302
 10
72.82555324427672
 20
-42.77314683352058
 42
0.2950099870597036
 10
72.52740036154598
 20
-43.12375608959208
 42
0.1595344370219173
 10
72.63263084694227
 20
-43.68473103069129
 42
-0.0085842559755546
 10
72.983398919296
 20
-44.35088870481702
 10
73.12370612700743
 20
-44.31582772081663
 42
-0.1978123665323979
 10
73.36924382011516
 20
-44.5437237883572
 42
0.640076295855237
 10
73.47447419936116
 20
-44.5437237883572
 42
-1.517863769029194
  0
LWPOLYLINE
  5
23D
330
18
100
AcDbEntity
  8
0
100
AcDbPolyline
 90
        4
 70
     0
 43
0.0
 10
75.31600679151878
 20
-45.68320405306848
 42
-0.2696391858189889
 10
74.22862563984191
 20
-42.44006795996194
 42
-0.6265437270551583
 10
79.0341486981492
 20
-41.8966235473587
 42
-0.3283351554478432
 10
78.71845734811062
 20
-44.52619333285278
 42
-0.4327438493487658
  0
DIMENSION
  5
243
330
18
100
AcDbEntity
  8
ADPDIM
100
AcDbDimension
  2
*D1
 10
79.36271317378069
 20
-28.41516519547917
 30
0.0
 11
75.11271317378069
 21
-28.41516519547917
 31
0.0
100
AcDbAlignedDimension
 13
70.86271317378069
 23
-31.28648553622928
 33
0.0
 14
79.36271317378069
 24
-29.90399779006195
 34
0.0
100
AcDbRotatedDimension
  0
LINE
  5
244
330
18
100
AcDbEntity
  8
0
100
AcDbLine
 10
70.82617508325007
 20
-40.70455191613414
 30
0.0
 11
70.82617508325007
 21
-41.65119702431371
 31
0.0
  0
LINE
  5
245
330
18
100
AcDbEntity
  8
0
100
AcDbLine
 10
71.45755767717695
 20
-40.82726517765665
 30
0.0
 11
71.05417430904994
 21
-40.94997843917915
 31
0.0
  0
LINE
  5
246
330
18
100
AcDbEntity
  8
0
100
AcDbLine
 10
71.05417430904994
 20
-40.94997843917915
 30
0.0
 11
71.17694315560381
 21
-40.79220426664782
 31
0.0
  0
LINE
  5
247
330
18
100
AcDbEntity
  8
0
100
AcDbLine
 10
71.45755767717695
 20
-40.80973472215222
 30
0.0
 11
71.45755767717695
 21
-41.52848376279122
 31
0.0
  0
LWPOLYLINE
  5
248
330
18
100
AcDbEntity
  8
0
100
AcDbPolyline
 90
       10
 70
     0
 43
0.0
 10
72.17663228919227
 20
-42.08945870389043
 42
-0.205343046036048
 10
72.28186266843827
 20
-41.63366656880929
 42
-0.1671578723973533
 10
72.68524603656527
 20
-41.35317913475546
 42
0.4229873277266102
 10
72.930783729673
 20
-40.89738707266588
 42
-0.3784769463692125
 10
73.28155180202672
 20
-41.58107520229603
 42
-0.099063442419778
 10
73.22893661240373
 20
-42.10698915939484
 42
-0.4287787682544161
 10
72.66770756925743
 20
-42.38747659344868
 10
72.63263084694227
 20
-42.65043357199808
 10
72.80801488311914
 20
-42.59784213249327
 10
72.84309160543429
 20
-42.4050070489531
  0
LWPOLYLINE
  5
254
330
18
100
AcDbEntity
  8
0
100
AcDbPolyline
 90
        3
 70
     0
 43
0.0
 10
73.96554958557661
 20
-50.2235945104261
 42
-0.36294775266936
 10
73.79016554939974
 20
-49.27694940224654
 42
0.314315089249479
 10
73.87785756748818
 20
-50.31124686093975
 42
-2.132040245621408
  0
LINE
  5
259
330
18
100
AcDbEntity
  8
0
100
AcDbLine
 10
73.64985834168831
 20
-50.01322889838995
 30
0.0
 11
73.38678218127274
 21
-49.90804609237187
 31
0.0
  0
ARC
  5
25A
330
18
100
AcDbEntity
  8
0
100
AcDbCircle
 10
71.83794015774457
 20
-49.85813949309076
 30
0.0
 40
0.1620990663003702
100
AcDbArc
 50
81.84257824192382
 51
253.0888377082245
  0
LWPOLYLINE
  5
25B
330
18
100
AcDbEntity
  8
0
100
AcDbPolyline
 90
        4
 70
     0
 43
0.0
 10
72.43970834345756
 20
-50.39889913846185
 42
0.2019986241439397
 10
72.3169394969037
 20
-50.04828988239035
 42
0.4871454176266149
 10
72.07140180379598
 20
-50.06582033789476
 42
0.17841836932375
 10
72.15909382188441
 20
-50.36383822745301
 42
0.5626033210213065
  0
LWPOLYLINE
  5
261
330
18
100
AcDbEntity
  8
0
100
AcDbPolyline
 90
        4
 70
     0
 43
0.0
 10
73.47631315150238
 20
-57.47069965235377
 42
-0.363801199274609
 10
72.37280347969442
 20
-58.12754835781515
 42
-0.4019035975669829
 10
70.89732405017866
 20
-56.60316346994395
 42
-0.4166439695139637
 10
72.74483960212733
 20
-54.74760539362916
 42
-0.2464624066210316
  0
LWPOLYLINE
  5
267
330
18
100
AcDbEntity
  8
0
100
AcDbPolyline
 90
       10
 70
     0
 43
0.0
 10
73.56310599801883
 20
-57.47069965235377
 42
-1.116761747901816
 10
73.48871212957615
 20
-57.43351952616901
 42
0.067898193375471
 10
73.45151519535481
 20
-56.83863765006485
 42
0.5171907412150198
 10
73.35232316301736
 20
-57.03693156114886
 42
0.1926641203879326
 10
73.40191928305971
 20
-57.5202730586987
 42
-0.6439214459885314
 10
73.31512622879603
 20
-57.631813437253
 42
0.3891132965825507
 10
73.17873746998447
 20
-57.24761889524517
 42
0.1339022652619212
 10
72.967954634983
 20
-57.07411168733362
 42
0.0062910051326624
 10
73.14154053576314
 20
-57.37155269681177
 42
-0.3454684570896194
 10
73.12914155768935
 20
-57.47069965235377
 42
-0.4117105022093175
  0
ARC
  5
273
330
18
100
AcDbEntity
  8
0
100
AcDbCircle
 10
71.87720484388556
 20
-54.84212817964104
 30
0.0
 40
2.307899645418412
100
AcDbArc
 50
294.7646357578673
 51
312.5915542208296
  0
LINE
  5
274
330
18
100
AcDbEntity
  8
0
100
AcDbLine
 10
73.93507554797939
 20
-57.6194200142407
 30
0.0
 11
73.74909087687273
 21
-57.66899356343778
 31
0.0
  0
LINE
  5
275
330
18
100
AcDbEntity
  8
0
100
AcDbLine
 10
73.82348474531539
 20
-57.48309293251393
 30
0.0
 11
73.69949475683037
 21
-57.45830622934147
 31
0.0
  0
LWPOLYLINE
  5
276
330
18
100
AcDbEntity
  8
0
100
AcDbPolyline
 90
        3
 70
     0
 43
0.0
 10
72.856363832319
 20
-55.87195451211303
 42
-0.1737468850939521
 10
72.86876281039278
 20
-56.24375577396071
 10
72.79436894195011
 20
-56.67752372231348
  0
LWPOLYLINE
  5
27B
330
18
100
AcDbEntity
  8
0
100
AcDbPolyline
 90
        4
 70
     0
 43
0.0
 10
72.68277793153888
 20
-55.78520097958333
 42
-0.2080500652264177
 10
72.83156587617146
 20
-56.14460881841871
 42
-0.0695740309332034
 10
72.75717200772878
 20
-56.61555689295624
 10
72.83156587617146
 20
-56.86342435323732
  0
LINE
  5
281
330
18
100
AcDbEntity
  8
0
100
AcDbLine
 10
71.35608665440293
 20
-51.59624100082969
 30
0.0
 11
71.13290484132768
 21
-51.58384772066952
 31
0.0
  0
LINE
  5
282
330
18
100
AcDbEntity
  8
0
100
AcDbLine
 10
71.35608665440293
 20
-51.80692833492599
 30
0.0
 11
71.13290484132768
 21
-51.75735492858106
 31
0.0
  0
LINE
  5
283
330
18
100
AcDbEntity
  8
0
100
AcDbLine
 10
71.54207153325683
 20
-51.96804226267737
 30
0.0
 11
71.21969789559137
 21
-52.00522238886214
 31
0.0
  0
LINE
  5
284
330
18
100
AcDbEntity
  8
0
100
AcDbLine
 10
71.36848563247671
 20
-51.48470062227538
 30
0.0
 11
71.36848563247671
 21
-51.32358683737614
 31
0.0
  0
LINE
  5
285
330
18
100
AcDbEntity
  8
0
100
AcDbLine
 10
71.72805620436349
 20
-51.76974820874122
 30
0.0
 11
71.72805620436349
 21
-51.60863442384199
 31
0.0
  0
LINE
  5
286
330
18
100
AcDbEntity
  8
0
100
AcDbLine
 10
71.50487459903549
 20
-51.76974820874122
 30
0.0
 11
71.35608665440293
 21
-51.80692833492599
 31
0.0
  0
LWPOLYLINE
  5
287
330
18
100
AcDbEntity
  8
0
100
AcDbPolyline
 90
        3
 70
     0
 43
0.0
 10
71.62886437977327
 20
-52.0176156690223
 42
0.2780241797225366
 10
71.40568256669803
 20
-51.58384772066952
 42
-0.1079553141537122
 10
71.75285416051107
 20
-51.95564883966507
 42
0.569060989161696
  0
LINE
  5
28C
330
18
100
AcDbEntity
  8
0
100
AcDbLine
 10
71.57926846747816
 20
-51.60863442384199
 30
0.0
 11
71.51727357710928
 21
-51.37316038657322
 31
0.0
  0
LWPOLYLINE
  5
28D
330
18
100
AcDbEntity
  8
0
100
AcDbPolyline
 90
        7
 70
     0
 43
0.0
 10
72.84396506199247
 20
-52.37702350785768
 42
0.1073023233085025
 10
73.1043436015418
 20
-53.19498614107043
 42
-0.0470020324992206
 10
73.00515177695158
 20
-52.29026983247584
 10
72.95555586465646
 20
-52.07958264123167
 42
-0.0198051545982422
 10
73.33992439269081
 20
-52.31505667850044
 42
0.5352642040956888
 10
73.24073256810059
 20
-52.55053071576921
 42
0.1847593278773899
 10
73.50111110764993
 20
-53.00908551014659
 42
0.3587930709908342
  0
LINE
  5
296
330
18
100
AcDbEntity
  8
0
100
AcDbLine
 10
73.01755075502535
 20
-52.48856388641198
 30
0.0
 11
73.19113665580548
 21
-52.55053071576921
 31
0.0
  0
LINE
  5
297
330
18
100
AcDbEntity
  8
0
100
AcDbLine
 10
73.1043436015418
 20
-52.92233183476476
 30
0.0
 11
73.17873746998447
 21
-53.05865905934366
 31
0.0
  0
LINE
  5
298
330
18
100
AcDbEntity
  8
0
100
AcDbLine
 10
73.00515177695158
 20
-52.29026983247584
 30
0.0
 11
73.24073256810059
 21
-52.36463008484538
 31
0.0
  0
LINE
  5
299
330
18
100
AcDbEntity
  8
0
100
AcDbLine
 10
73.04234871117291
 20
-52.72403792368075
 30
0.0
 11
73.27792950232193
 21
-52.86036500540753
 31
0.0
  0
LINE
  5
29A
330
18
100
AcDbEntity
  8
0
100
AcDbLine
 10
72.83156587617146
 20
-52.52574401259675
 30
0.0
 11
72.64558120506477
 21
-52.72403792368075
 31
0.0
  0
LINE
  5
29B
330
18
100
AcDbEntity
  8
0
100
AcDbLine
 10
72.94315688658269
 20
-52.94711868078936
 30
0.0
 11
72.85636404006623
 21
-53.05865905934366
 31
0.0
  0
LINE
  5
29C
330
18
100
AcDbEntity
  8
0
100
AcDbLine
 10
72.88116199621379
 20
-52.72403792368075
 30
0.0
 11
72.68277813928611
 21
-52.86036500540753
 31
0.0
  0
LINE
  5
29D
330
18
100
AcDbEntity
  8
0
100
AcDbLine
 10
73.35232337076459
 20
-52.66207109432352
 30
0.0
 11
73.45151519535481
 21
-52.47617046339968
 31
0.0
  0
LINE
  5
29E
330
18
100
AcDbEntity
  8
0
100
AcDbLine
 10
73.55070722769227
 20
-52.37702350785768
 30
0.0
 11
73.88547984343151
 21
-52.37702350785768
 31
0.0
  0
LINE
  5
29F
330
18
100
AcDbEntity
  8
0
100
AcDbLine
 10
73.68709598650383
 20
-52.55053071576921
 30
0.0
 11
73.97227268994796
 21
-52.56292413878152
 31
0.0
  0
LINE
  5
2A0
330
18
100
AcDbEntity
  8
0
100
AcDbLine
 10
73.64989905228251
 20
-53.05865905934366
 30
0.0
 11
73.64989905228251
 21
-52.84797172524736
 31
0.0
  0
LINE
  5
2A1
330
18
100
AcDbEntity
  8
0
100
AcDbLine
 10
73.46391417342859
 20
-52.88515185143213
 30
0.0
 11
73.50111110764993
 21
-52.68685779749598
 31
0.0
  0
LINE
  5
2A2
330
18
100
AcDbEntity
  8
0
100
AcDbLine
 10
73.79016554939974
 20
-50.24112496593051
 30
0.0
 11
73.43939747704602
 21
-50.17100307092128
 31
0.0
  0
LINE
  5
2A3
330
18
100
AcDbEntity
  8
0
100
AcDbLine
 10
73.84828270146295
 20
-51.45991391910292
 30
0.0
 11
73.98467166802174
 21
-51.37316038657322
 31
0.0
  0
LINE
  5
2A4
330
18
100
AcDbEntity
  8
0
100
AcDbLine
 10
73.55070722769227
 20
-51.52188074846016
 30
0.0
 11
73.55070722769227
 21
-51.28640671119138
 31
0.0
  0
LINE
  5
2A5
330
18
100
AcDbEntity
  8
0
100
AcDbLine
 10
73.68709598650383
 20
-51.44752063894276
 30
0.0
 11
73.7614898549465
 21
-51.28640671119138
 31
0.0
  0
LINE
  5
2A6
330
18
100
AcDbEntity
  8
0
100
AcDbLine
 10
73.43911621728103
 20
-51.80692833492599
 30
0.0
 11
73.67469700843006
 21
-51.906075290468
 31
0.0
  0
LINE
  5
2A7
330
18
100
AcDbEntity
  8
0
100
AcDbLine
 10
73.57550518383984
 20
-51.70778137938399
 30
0.0
 11
73.82348474531539
 21
-51.80692833492599
 31
0.0
  0
LINE
  5
2A8
330
18
100
AcDbEntity
  8
0
100
AcDbLine
 10
73.79868678916783
 20
-51.58384772066952
 30
0.0
 11
73.92267677765286
 21
-51.70778137938399
 31
0.0
  0
LINE
  5
2A9
330
18
100
AcDbEntity
  8
0
100
AcDbLine
 10
73.37712132691215
 20
-51.64581455002675
 30
0.0
 11
73.33992439269081
 21
-51.37316038657322
 31
0.0
  0
LWPOLYLINE
  5
2AA
330
18
100
AcDbEntity
  8
0
100
AcDbPolyline
 90
        6
 70
     0
 43
0.0
 10
73.88547984343151
 20
-52.0424025150469
 42
-0.371076664287901
 10
73.52590927154472
 20
-52.07958264123167
 42
-0.016553261485736
 10
73.32752541461704
 20
-51.84410846111076
 42
0.0399282553895667
 10
73.17873746998447
 20
-51.94325541665276
 42
0.1650273121915921
 10
73.41431826113349
 20
-52.17872959677368
 42
-0.0553838988640641
 10
73.52590927154472
 20
-52.07958264123167
 42
-0.3179926608171722
  0
ARC
  5
2B2
330
18
100
AcDbEntity
  8
0
100
AcDbCircle
 10
73.45129310942505
 20
-48.19434643081795
 30
0.0
 40
2.821435674840415
100
AcDbArc
 50
81.66440753095308
 51
143.7163017093482
  0
ARC
  5
2B3
330
18
100
AcDbEntity
  8
0
100
AcDbCircle
 10
76.84068952683107
 20
-39.24342034199409
 30
0.0
 40
6.842480435351914
100
AcDbArc
 50
220.6654446756194
 51
244.1785122343494
  0
LWPOLYLINE
  5
2B4
330
18
100
AcDbEntity
  8
0
100
AcDbPolyline
 90
        3
 70
     0
 43
0.0
 10
73.17632131663045
 20
-46.96292796181512
 42
0.2158868882467308
 10
72.72032286503071
 20
-46.78762333377938
 42
0.0000001224127574
 10
72.15909382188441
 20
-46.64737961675245
 42
0.1230514116092108
  0
LWPOLYLINE
  5
2B9
330
18
100
AcDbEntity
  8
0
100
AcDbPolyline
 90
        3
 70
     0
 43
0.0
 10
73.21139814509587
 20
-47.08564122333762
 42
0.2891764240045069
 10
72.72032286503071
 20
-46.85774522878861
 42
0.0062471490162866
 10
72.17663228919227
 20
-46.77009287827496
 42
0.073807516246879
  0
LWPOLYLINE
  5
2BE
330
18
100
AcDbEntity
  8
0
100
AcDbPolyline
 90
        3
 70
     0
 43
0.0
 10
72.19417065034983
 20
-48.68091355013849
 42
0.1297994746220581
 10
72.35201632536913
 20
-49.24188841824615
 42
-0.099858363947208
 10
72.50986200038841
 20
-49.69768055332728
 42
-1.144231567609045
  0
LWPOLYLINE
  5
2C3
330
18
100
AcDbEntity
  8
0
100
AcDbPolyline
 90
        8
 70
     0
 43
0.0
 10
73.21139814509587
 20
-47.22588494036453
 42
0.319971158647534
 10
73.036014108919
 20
-46.77009287827496
 42
0.1153007379553775
 10
72.24678583997285
 20
-46.2967702876894
 42
0.8673509037171612
 10
72.12401709956925
 20
-46.34936172719421
 42
-0.0516075900921459
 10
72.17663228919227
 20
-46.61231870574362
 42
0.6596704461173553
 10
72.19417065034983
 20
-46.75256242277053
 42
0.1944949609276194
 10
72.33447785806127
 20
-47.34859820188702
 42
0.2047714931127663
 10
72.56247719001142
 20
-47.48884191891394
 42
-13.53526833388298
  0
LWPOLYLINE
  5
2CD
330
18
100
AcDbEntity
  8
0
100
AcDbPolyline
 90
        5
 70
     0
 43
0.0
 10
71.82586411068825
 20
-49.57496729180479
 42
0.3005420446431691
 10
72.08894027110384
 20
-49.68015009782286
 42
-0.1426314728383253
 10
72.52740036154598
 20
-49.7152110088317
 42
0.0830748831564435
 10
72.21170911765769
 20
-49.22435796274172
 42
-0.1700663135366061
 10
72.01878661417296
 20
-48.76856590065215
 42
0.9384396032605316
  0
ARC
  5
2D4
330
18
100
AcDbEntity
  8
0
100
AcDbCircle
 10
72.76840424978567
 20
-47.58683534956159
 30
0.0
 40
1.913361279741497
100
AcDbArc
 50
146.2801597703228
 51
239.8824403822488
  0
LWPOLYLINE
  5
2D5
330
18
100
AcDbEntity
  8
0
100
AcDbPolyline
 90
        2
 70
     0
 43
0.0
 10
73.86031910018032
 20
-47.17329357385128
 42
-0.1563085961396765
 10
73.00093728045358
 20
-48.04981686001315
 42
-0.2474553926200325
  0
ARC
  5
2D9
330
18
100
AcDbEntity
  8
0
100
AcDbCircle
 10
73.53612630280342
 20
-48.87045944790449
 30
0.0
 40
1.469500541505336
100
AcDbArc
 50
88.98465141118954
 51
138.2550500956911
  0
ARC
  5
2DA
330
18
100
AcDbEntity
  8
0
100
AcDbCircle
 10
73.50073207891433
 20
-48.26138738556575
 30
0.0
 40
0.4296428313001215
100
AcDbArc
 50
139.0315577104626
 51
196.4281231918391
  0
ARC
  5
2DB
330
18
100
AcDbEntity
  8
0
100
AcDbCircle
 10
71.32604209205786
 20
-68.85047227346845
 30
0.0
 40
20.54332996534179
100
AcDbArc
 50
84.04618334797143
 51
85.0780558314347
  0
ARC
  5
2DC
330
18
100
AcDbEntity
  8
0
100
AcDbCircle
 10
72.77222068197341
 20
-48.28291027271728
 30
0.0
 40
1.274989620930612
100
AcDbArc
 50
268.4557598481169
 51
303.4213339895306
  0
LWPOLYLINE
  5
2DD
330
18
100
AcDbEntity
  8
0
100
AcDbPolyline
 90
        3
 70
     0
 43
0.0
 10
72.75539958734587
 20
-49.25941894674212
 42
0.0960968705159082
 10
73.45693583820359
 20
-49.11917522971521
 42
0.2506675167592873
 10
73.79016554939974
 20
-48.71597453413889
 42
1.222369237865263
  0
LWPOLYLINE
  5
2E2
330
18
100
AcDbEntity
  8
0
100
AcDbPolyline
 90
        4
 70
     0
 43
0.0
 10
73.84278073902274
 20
-48.01475587601276
 42
0.2972110241483108
 10
73.5095510278266
 20
-47.80439033696817
 42
0.5445592714800938
 10
73.42185900973817
 20
-47.94463405399508
 42
0.0909094038388028
 10
73.61478151322287
 20
-48.13746913753526
 42
-3.210815665442932
  0
ARC
  5
2E8
330
18
100
AcDbEntity
  8
0
100
AcDbCircle
 10
77.51562567765067
 20
-43.63830941298298
 30
0.0
 40
6.232335351324603
100
AcDbArc
 50
229.577652097857
 51
231.8689826895099
  0
ARC
  5
2E9
330
18
100
AcDbEntity
  8
0
100
AcDbCircle
 10
73.66761609487665
 20
-48.04935123452352
 30
0.0
 40
0.4006960996397114
100
AcDbArc
 50
156.884349822474
 51
241.1828526860152
  0
ARC
  5
2EA
330
18
100
AcDbEntity
  8
0
100
AcDbCircle
 10
73.99701553693344
 20
-48.08487777102199
 30
0.0
 40
0.798036958118606
100
AcDbArc
 50
169.8785161242227
 51
203.2912776030486
  0
LINE
  5
2EB
330
18
100
AcDbEntity
  8
0
100
AcDbLine
 10
73.63231987438045
 20
-49.68015009782286
 30
0.0
 11
73.42185900973817
 21
-49.50484539679555
 31
0.0
  0
LINE
  5
2EC
330
18
100
AcDbEntity
  8
0
100
AcDbLine
 10
73.91293439595362
 20
-49.53990638079595
 30
0.0
 11
73.70247353131131
 21
-49.61002820281362
 31
0.0
  0
LINE
  5
2ED
330
18
100
AcDbEntity
  8
0
100
AcDbLine
 10
73.94801122441903
 20
-49.7152110088317
 30
0.0
 11
73.75508872093431
 21
-49.94310707637227
 31
0.0
  0
ARC
  5
2EE
330
18
100
AcDbEntity
  8
0
100
AcDbCircle
 10
73.26829862849503
 20
-46.48084017997314
 30
0.0
 40
0.1510884678725753
100
AcDbArc
 50
119.5171348941449
 51
196.862124430463
  0
ARC
  5
2EF
330
18
100
AcDbEntity
  8
0
100
AcDbCircle
 10
73.53734884139709
 20
-49.00965494322464
 30
0.0
 40
1.801315165472744
100
AcDbArc
 50
89.76847029574189
 51
123.4312786610721
  0
LWPOLYLINE
  5
2F0
330
18
100
AcDbEntity
  8
0
100
AcDbPolyline
 90
       13
 70
     0
 43
0.0
 10
71.47509603833452
 20
-42.66796402750251
 42
0.1056047289419585
 10
72.43970834345756
 20
-43.91262702524031
 42
-0.1059873361914043
 10
72.33447785806127
 20
-42.94845146155632
 42
0.229608224999216
 10
72.19417065034983
 20
-42.56278122148443
 42
-0.5574826067794315
 10
71.65048007451139
 20
-42.73808592251174
 42
-0.4369819929459729
 10
71.36986565908852
 20
-42.49265939946675
 42
-0.0808042054442319
 10
71.26463517369224
 20
-41.94921498686351
 42
0.0399181535260876
 10
72.0538634426384
 20
-41.98427589787235
 42
-0.3820732391646894
 10
72.15909382188441
 20
-42.07192824838601
 42
-0.2816758016337624
 10
72.2643243072807
 20
-42.44006795996194
 10
72.42216998229998
 20
-42.54525076598001
 10
72.50986200038841
 20
-42.33488522693542
 10
72.24678583997285
 20
-42.15958052590811
  0
ARC
  5
2FF
330
18
100
AcDbEntity
  8
0
100
AcDbCircle
 10
74.25586970799688
 20
-41.46400528455639
 30
0.0
 40
3.434799261448986
100
AcDbArc
 50
183.1240873584945
 51
220.6654446756195
  0
LINE
  5
300
330
18
100
AcDbEntity
  8
0
100
AcDbLine
 10
71.45755767717695
 20
-41.52848376279122
 30
0.0
 11
71.24709681253467
 21
-41.72131891932294
 31
0.0
  0
LINE
  5
301
330
18
100
AcDbEntity
  8
0
100
AcDbLine
 10
71.24709681253467
 20
-41.72131891932294
 30
0.0
 11
71.17694315560381
 21
-41.70378846381852
 31
0.0
  0
LINE
  5
302
330
18
100
AcDbEntity
  8
0
100
AcDbLine
 10
71.17694315560381
 20
-41.70378846381852
 30
0.0
 11
71.26463517369224
 21
-41.96674544236794
 31
0.0
  0
ARC
  5
303
330
18
100
AcDbEntity
  8
0
100
AcDbCircle
 10
73.67390261536414
 20
-41.3794748180121
 30
0.0
 40
2.51793285941919
100
AcDbArc
 50
177.006834384464
 51
187.4003437579881
  0
ARC
  5
304
330
18
100
AcDbEntity
  8
0
100
AcDbCircle
 10
70.87306348095461
 20
-41.18151634863155
 30
0.0
 40
0.2939573703225873
100
AcDbArc
 50
346.9291841837339
 51
51.96719453675025
  0
LINE
  5
305
330
18
100
AcDbEntity
  8
0
100
AcDbLine
 10
72.08894027110384
 20
-42.38747659344868
 30
0.0
 11
72.03632497533056
 21
-42.08945870389043
 31
0.0
  0
LINE
  5
306
330
18
100
AcDbEntity
  8
0
100
AcDbLine
 10
71.70309537028467
 20
-42.26476333192618
 30
0.0
 11
71.66801854181925
 21
-42.07192824838601
 31
0.0
  0
LINE
  5
307
330
18
100
AcDbEntity
  8
0
100
AcDbLine
 10
71.84340257799611
 20
-42.33488522693542
 30
0.0
 11
71.82586411068825
 21
-42.10698915939484
 31
0.0
  0
LWPOLYLINE
  5
308
330
18
100
AcDbEntity
  8
0
100
AcDbPolyline
 90
        3
 70
     0
 43
0.0
 10
72.12401709956925
 20
-42.38747659344868
 42
-0.0800984288039531
 10
71.47509603833452
 20
-42.15958052590811
 42
0.1615051821988555
 10
72.08894027110384
 20
-42.54525076598001
 42
-8.268446181402397
  0
LINE
  5
30D
330
18
100
AcDbEntity
  8
0
100
AcDbLine
 10
71.75571055990769
 20
-42.47512894396233
 30
0.0
 11
71.52771122795754
 21
-42.47512894396233
 31
0.0
  0
LINE
  5
30E
330
18
100
AcDbEntity
  8
0
100
AcDbLine
 10
71.61540335219624
 20
-42.31735469843944
 30
0.0
 11
71.42248084871153
 21
-42.31735469843944
 31
0.0
  0
LINE
  5
30F
330
18
100
AcDbEntity
  8
0
100
AcDbLine
 10
72.0012482530154
 20
-42.56278122148443
 30
0.0
 11
71.66801854181925
 21
-42.65043357199808
 31
0.0
  0
LWPOLYLINE
  5
310
330
18
100
AcDbEntity
  8
0
100
AcDbPolyline
 90
        3
 70
     0
 43
0.0
 10
73.12370612700743
 20
-44.33335824931261
 10
73.036014108919
 20
-44.52619333285278
 10
72.96586045198814
 20
-44.33335824931261
  0
LWPOLYLINE
  5
315
330
18
100
AcDbEntity
  8
0
100
AcDbPolyline
 90
        3
 70
     0
 43
0.0
 10
73.45693583820359
 20
-44.56125424386161
 10
73.61478151322287
 20
-44.64890659437528
 10
73.64985834168831
 20
-44.84174167791545
  0
LINE
  5
31A
330
18
100
AcDbEntity
  8
0
100
AcDbLine
 10
73.12370612700743
 20
-41.96674544236794
 30
0.0
 11
72.86063007274214
 21
-42.00180635337678
 31
0.0
  0
LINE
  5
31B
330
18
100
AcDbEntity
  8
0
100
AcDbLine
 10
72.96586045198814
 20
-41.84403218084544
 30
0.0
 11
73.19385978393829
 21
-41.70378846381852
 31
0.0
  0
LINE
  5
31C
330
18
100
AcDbEntity
  8
0
100
AcDbLine
 10
73.00093728045358
 20
-41.58107520229603
 30
0.0
 11
73.22893661240373
 21
-41.45836194077354
 31
0.0
  0
LINE
  5
31D
330
18
100
AcDbEntity
  8
0
100
AcDbLine
 10
73.14124459431529
 20
-42.31735469843944
 30
0.0
 11
73.01847574776143
 21
-42.58031167698884
 31
0.0
  0
LWPOLYLINE
  5
31E
330
18
100
AcDbEntity
  8
0
100
AcDbPolyline
 90
        3
 70
     0
 43
0.0
 10
73.00093728045358
 20
-42.58031167698884
 42
-0.0530032341902107
 10
73.96554958557661
 20
-42.59784213249327
 42
-0.0215786586312123
 10
72.89570690120758
 20
-42.70302493851135
  0
LINE
  5
323
330
18
100
AcDbEntity
  8
0
100
AcDbLine
 10
73.21139814509587
 20
-42.91339055054748
 30
0.0
 11
72.983398919296
 21
-42.72055539401576
 31
0.0
  0
LINE
  5
324
330
18
100
AcDbEntity
  8
0
100
AcDbLine
 10
72.930783729673
 20
-41.47589239627795
 30
0.0
 11
72.86063007274214
 21
-41.31811822374662
 31
0.0
  0
LINE
  5
325
330
18
100
AcDbEntity
  8
0
100
AcDbLine
 10
72.82555324427672
 20
-41.7739102858362
 30
0.0
 11
72.72032286503071
 21
-41.52848376279122
 31
0.0
  0
LINE
  5
326
330
18
100
AcDbEntity
  8
0
100
AcDbLine
 10
72.70278439772285
 20
-42.05439771989003
 30
0.0
 11
72.50986200038841
 21
-41.66872755280969
 31
0.0
  0
LINE
  5
327
330
18
100
AcDbEntity
  8
0
100
AcDbLine
 10
72.87816843389972
 20
-42.19464143691694
 30
0.0
 11
72.77293805465371
 21
-42.2822937874306
 31
0.0
  0
LWPOLYLINE
  5
328
330
18
100
AcDbEntity
  8
0
100
AcDbPolyline
 90
        3
 70
     0
 43
0.0
 10
72.56247719001142
 20
-42.26476333192618
 42
0.1098018479809379
 10
72.983398919296
 20
-41.35317913475546
 42
-0.1197976860102981
 10
72.73786122618829
 20
-42.24723287642176
 42
-0.1197976860102981
  0
LINE
  5
32D
330
18
100
AcDbEntity
  8
0
100
AcDbLine
 10
72.56247719001142
 20
-42.21217196541291
 30
0.0
 11
72.40463151499213
 21
-41.86156263634986
 31
0.0
  0
LINE
  5
32E
330
18
100
AcDbEntity
  8
0
100
AcDbLine
 10
73.61478151322287
 20
-42.36994613794425
 30
0.0
 11
73.5621662174496
 21
-42.49265939946675
 31
0.0
  0
LINE
  5
32F
330
18
100
AcDbEntity
  8
0
100
AcDbLine
 10
73.84278073902274
 20
-42.45759841546635
 30
0.0
 11
73.66739670284587
 21
-42.52772031047558
 31
0.0
  0
LINE
  5
330
330
18
100
AcDbEntity
  8
0
100
AcDbLine
 10
73.72001189246889
 20
-42.80820774452942
 30
0.0
 11
73.54462785629202
 21
-42.70302493851135
 31
0.0
  0
LINE
  5
331
330
18
100
AcDbEntity
  8
0
100
AcDbLine
 10
73.43939747704602
 20
-42.89586009504307
 30
0.0
 11
73.17632131663045
 21
-42.66796402750251
 31
0.0
  0
LINE
  5
332
330
18
100
AcDbEntity
  8
0
100
AcDbLine
 10
73.42185900973817
 20
-42.2822937874306
 30
0.0
 11
73.15878295547287
 21
-42.54525076598001
 31
0.0
  0
LWPOLYLINE
  5
333
330
18
100
AcDbEntity
  8
0
100
AcDbPolyline
 90
        2
 70
     0
 43
0.0
 10
72.82688553641026
 20
-31.66250112506272
 42
0.1143356415643654
 10
72.9671927441217
 20
-32.48643304471134
 42
0.6655382248084289
  0
LWPOLYLINE
  5
337
330
18
100
AcDbEntity
  8
0
100
AcDbPolyline
 90
        5
 70
     0
 43
0.0
 10
73.30042245531784
 20
-31.57484884754063
 42
-0.1140643017539192
 10
73.12503841914099
 20
-32.13582371564828
 42
0.3493106138184725
 10
73.17765360876399
 20
-32.50396350021577
 42
-0.2123023960969801
 10
73.24780726569485
 20
-32.17088462665712
 42
0.1888566721305049
 10
73.38811447340628
 20
-31.62744021405389
 42
-1.128564462512196
  0
LWPOLYLINE
  5
33E
330
18
100
AcDbEntity
  8
0
100
AcDbPolyline
 90
        9
 70
     0
 43
0.0
 10
72.93211591565627
 20
-34.3271318945572
 42
0.2450075415202048
 10
73.54596014842556
 20
-34.0641749160078
 42
0.385277435327869
 10
73.52842168111772
 20
-33.71356558694474
 42
-0.3648877377216837
 10
73.23026879838699
 20
-33.34542580237725
 42
-0.2421329086130201
 10
73.35303764494085
 20
-33.11752973483668
 42
-0.4059310932493938
 10
72.93211591565627
 20
-32.92469465129651
 42
-0.1097237842367619
 10
72.37088697866025
 20
-32.85457275628727
 42
-0.4824458674304091
 10
72.37088697866025
 20
-32.31112834368404
 42
-0.3845705786247512
 10
72.82688553641026
 20
-31.64497066955831
 42
-0.1186853300671879
  0
LWPOLYLINE
  5
349
330
18
100
AcDbEntity
  8
0
100
AcDbPolyline
 90
        6
 70
     0
 43
0.0
 10
73.05488476221012
 20
-35.48414254178135
 42
-0.2704549675526322
 10
72.93211591565627
 20
-35.86981278185325
 42
0.3718073477870162
 10
72.65150150023339
 20
-36.41325719445649
 10
72.77427024063698
 20
-36.39572673895207
 10
73.37057600609843
 20
-35.97499558787133
 10
73.4758064914947
 20
-35.74709952033076
 42
0.5522658922107665
  0
LWPOLYLINE
  5
351
330
18
100
AcDbEntity
  8
0
100
AcDbPolyline
 90
       14
 70
     0
 43
0.0
 10
72.45857899674868
 20
-34.69527160613313
 10
72.33581015019481
 20
-34.60761932861103
 42
0.2456611413012705
 10
72.16042611401795
 20
-34.90563721816927
 42
0.1206871260071977
 10
72.24811813210639
 20
-35.36142928025886
 42
0.0099995872307934
 10
72.40596380712567
 20
-35.16859419671868
 42
-0.2603474964523338
 10
72.4936558252141
 20
-34.71280206163754
 42
-0.2691965971885177
 10
72.93211591565627
 20
-34.55502788910621
 42
0.2199258570032009
 10
73.4758064914947
 20
-34.4147841720793
 42
-0.3119882060077189
 10
73.37057600609843
 20
-34.8004544121512
 42
-0.1127269432636214
 10
73.26534562685242
 20
-35.27377700273676
 42
-0.1400374543294966
 10
72.94965438296412
 20
-35.51920345279019
 42
-0.3975226299856578
 10
72.45857899674868
 20
-35.32636836925002
 42
0.1926633800243885
 10
72.28319496057181
 20
-36.11523930489824
 42
-0.1828122091394166
 10
71.94996524937566
 20
-37.11447577959106
 42
2.104225752514619
  0
LWPOLYLINE
  5
361
330
18
100
AcDbEntity
  8
0
100
AcDbPolyline
 90
       11
 70
     0
 43
0.0
 10
71.7219660235758
 20
-34.37972326107046
 42
0.2156907642176929
 10
71.35365948391421
 20
-33.97652256549414
 42
-0.1886138772104146
 10
70.9502761157872
 20
-33.85380930397164
 42
0.4425230942113447
 10
70.84504573654119
 20
-33.87133975947607
 42
0.1007793853523658
 10
70.98535294425264
 20
-34.60761932861103
 42
0.4760227905882886
 10
71.19581380889492
 20
-34.85304577866446
 42
-0.4687361670298915
 10
70.82750726923335
 20
-34.78292395664678
 42
0.1294333353916904
 10
70.91519939347205
 20
-35.44908163077252
 42
0.5800337402469842
 10
71.84473476397937
 20
-35.57179489229501
 42
-0.0383958903524797
 10
72.0376572674641
 20
-35.67697769831308
 42
-0.1449948664502861
 10
71.73950438473337
 20
-37.14953676359145
 42
1.662513820911976
  0
LINE
  5
36E
330
18
100
AcDbEntity
  8
0
100
AcDbLine
 10
72.16042611401795
 20
-38.83246136791441
 30
0.0
 11
72.45857899674868
 21
-38.90258326292365
 31
0.0
  0
LWPOLYLINE
  5
36F
330
18
100
AcDbEntity
  8
0
100
AcDbPolyline
 90
        3
 70
     0
 43
0.0
 10
72.77427024063698
 20
-38.88505280741923
 42
0.2113977239705442
 10
72.0902724570871
 20
-39.46355813103131
 42
-0.3416475383772448
 10
72.66903986139097
 20
-38.81493091241
 42
-0.0921721062796368
  0
LINE
  5
374
330
18
100
AcDbEntity
  8
0
100
AcDbLine
 10
72.07273409592952
 20
-39.04282697995057
 30
0.0
 11
72.24811813210639
 21
-39.06035743545499
 31
0.0
  0
ARC
  5
375
330
18
100
AcDbEntity
  8
0
100
AcDbCircle
 10
75.46502481969351
 20
-39.94713729559045
 30
0.0
 40
4.528048079436475
100
AcDbArc
 50
128.6989133383974
 51
141.2751451016526
  0
ARC
  5
376
330
18
100
AcDbEntity
  8
0
100
AcDbCircle
 10
73.28376359779366
 20
-40.96319234158968
 30
0.0
 40
1.768843117272062
100
AcDbArc
 50
123.0815623989787
 51
133.2076906196469
  0
ARC
  5
377
330
18
100
AcDbEntity
  8
0
100
AcDbCircle
 10
72.54748879492963
 20
-39.27297630869427
 30
0.0
 40
0.7612730419577165
100
AcDbArc
 50
71.28046131513446
 51
139.6286449644496
  0
ARC
  5
378
330
18
100
AcDbEntity
  8
0
100
AcDbCircle
 10
72.44980981616989
 20
-38.74035170155227
 30
0.0
 40
0.7360655662725783
100
AcDbArc
 50
41.36128011645388
 51
138.6387198835461
  0
ARC
  5
379
330
18
100
AcDbEntity
  8
0
100
AcDbCircle
 10
74.12455355803503
 20
-40.19538214114612
 30
0.0
 40
3.004022209854429
100
AcDbArc
 50
141.4693734573688
 51
158.1610258910078
  0
ARC
  5
37A
330
18
100
AcDbEntity
  8
0
100
AcDbCircle
 10
72.12518978727193
 20
-38.93781025060143
 30
0.0
 40
0.5332934533572584
100
AcDbArc
 50
117.3947556868777
 51
152.579296618903
  0
ARC
  5
37B
330
18
100
AcDbEntity
  8
0
100
AcDbCircle
 10
77.17086678463218
 20
-40.36229182159217
 30
0.0
 40
6.353790731612652
100
AcDbArc
 50
158.7662982033439
 51
183.1115633760198
  0
LINE
  5
37C
330
18
100
AcDbEntity
  8
0
100
AcDbLine
 10
71.17694315560381
 20
-40.80973472215222
 30
0.0
 11
71.45755767717695
 21
-40.82726517765665
 31
0.0
  0
ARC
  5
37D
330
18
100
AcDbEntity
  8
0
100
AcDbCircle
 10
75.84503647165544
 20
-40.33642454152115
 30
0.0
 40
4.681264047411517
100
AcDbArc
 50
164.4044226343644
 51
184.5112565337221
  0
LINE
  5
37E
330
18
100
AcDbEntity
  8
0
100
AcDbLine
 10
71.17694315560381
 20
-40.80973472215222
 30
0.0
 11
71.17694315560381
 21
-40.70455191613414
 31
0.0
  0
ARC
  5
37F
330
18
100
AcDbEntity
  8
0
100
AcDbCircle
 10
71.13669294682584
 20
-38.59260544388013
 30
0.0
 40
0.5246623756851986
100
AcDbArc
 50
292.3403375766227
 51
349.0554072416315
  0
ARC
  5
380
330
18
100
AcDbEntity
  8
0
100
AcDbCircle
 10
73.40806771680987
 20
-39.06353473211578
 30
0.0
 40
1.468227034127888
100
AcDbArc
 50
168.8602782832468
 51
204.5654245980811
  0
LWPOLYLINE
  5
381
330
18
100
AcDbEntity
  8
0
100
AcDbPolyline
 90
        8
 70
     0
 43
0.0
 10
71.45888986316022
 20
-37.16706721909587
 42
0.3028892351556847
 10
71.42381314084507
 20
-37.37743275814047
 42
0.0575204140971091
 10
71.26596746582578
 20
-37.74557254270794
 42
0.0357034713241745
 10
71.23089063736036
 20
-37.90334671523928
 42
0.0738278781919157
 10
71.23089063736036
 20
-38.0435904322662
 42
0.0989759145478452
 10
71.38873631237965
 20
-38.06112096076217
 42
-0.1914021956629972
 10
71.7745812131988
 20
-37.41249374214087
 42
0.0204080899317648
 10
71.73950438473337
 20
-37.16706721909587
 42
-1.201772093143377
  0
LINE
  5
38B
330
18
100
AcDbEntity
  8
0
100
AcDbLine
 10
71.73950438473337
 20
-37.14953676359145
 30
0.0
 11
71.45888986316022
 21
-37.16706721909587
 31
0.0
  0
LINE
  5
38C
330
18
100
AcDbEntity
  8
0
100
AcDbLine
 10
71.45888986316022
 20
-37.16706721909587
 30
0.0
 11
71.7745812131988
 21
-37.41249374214087
 31
0.0
  0
LINE
  5
38D
330
18
100
AcDbEntity
  8
0
100
AcDbLine
 10
71.73950438473337
 20
-38.32407793931158
 30
0.0
 11
71.86227323128723
 21
-38.46432165633849
 31
0.0
  0
LINE
  5
38E
330
18
100
AcDbEntity
  8
0
100
AcDbLine
 10
71.89735005975265
 20
-38.25395604430235
 30
0.0
 11
71.87981159244481
 21
-38.46432165633849
 31
0.0
  0
ARC
  5
38F
330
18
100
AcDbEntity
  8
0
100
AcDbCircle
 10
72.76422264283789
 20
-38.63338202789991
 30
0.0
 40
0.0859550391960825
100
AcDbArc
 50
316.8042521783529
 51
71.2804613151346
  0
ARC
  5
390
330
18
100
AcDbEntity
  8
0
100
AcDbCircle
 10
72.62738473788516
 20
-38.38526696256164
 30
0.0
 40
0.3972168130172976
100
AcDbArc
 50
309.3981999225198
 51
19.30382765295966
  0
LINE
  5
391
330
18
100
AcDbEntity
  8
0
100
AcDbLine
 10
72.98473110527926
 20
-39.16554024147306
 30
0.0
 11
73.16011524760641
 21
-39.14800978596865
 31
0.0
  0
ARC
  5
392
330
18
100
AcDbEntity
  8
0
100
AcDbCircle
 10
72.97433512091145
 20
-38.63295700874749
 30
0.0
 40
0.2010251928297385
100
AcDbArc
 50
262.9477544403007
 51
337.5425398259162
  0
LINE
  5
393
330
18
100
AcDbEntity
  8
0
100
AcDbLine
 10
72.87950072603327
 20
-39.44602767552689
 30
0.0
 11
73.16011524760641
 21
-39.37590578051765
 31
0.0
  0
LINE
  5
394
330
18
100
AcDbEntity
  8
0
100
AcDbLine
 10
73.0724231233677
 20
-39.95441117712129
 30
0.0
 11
73.19519196992157
 21
-40.05959398313936
 31
0.0
  0
LWPOLYLINE
  5
395
330
18
100
AcDbEntity
  8
0
100
AcDbPolyline
 90
        3
 70
     0
 43
0.0
 10
73.26534562685242
 20
-39.35837532501324
 42
0.2108491687986261
 10
73.08996159067556
 20
-40.44526422321126
 42
-0.3300500003538938
 10
73.16011524760641
 20
-39.37590578051765
 42
-0.4632899219915191
  0
LINE
  5
39A
330
18
100
AcDbEntity
  8
0
100
AcDbLine
 10
72.75673187947941
 20
-39.18307069697748
 30
0.0
 11
72.75673187947941
 21
-38.8499918964104
 31
0.0
  0
ARC
  5
39B
330
18
100
AcDbEntity
  8
0
100
AcDbCircle
 10
72.38602992117852
 20
-39.03639860320758
 30
0.0
 40
0.5993854601691111
100
AcDbArc
 50
345.8356509627285
 51
19.89173332131637
  0
LINE
  5
39C
330
18
100
AcDbEntity
  8
0
100
AcDbLine
 10
72.82688553641026
 20
-38.69221765088751
 30
0.0
 11
72.87950072603327
 21
-38.69221765088751
 31
0.0
  0
LINE
  5
39D
330
18
100
AcDbEntity
  8
0
100
AcDbLine
 10
72.40596380712567
 20
-38.70974810639193
 30
0.0
 11
72.70411668985641
 21
-38.76233954589674
 31
0.0
  0
LINE
  5
39E
330
18
100
AcDbEntity
  8
0
100
AcDbLine
 10
72.80934706910241
 20
-39.74404556508513
 30
0.0
 11
73.00226957258712
 21
-39.69145419857188
 31
0.0
  0
ARC
  5
39F
330
18
100
AcDbEntity
  8
0
100
AcDbCircle
 10
72.95214245621981
 20
-41.4261872573328
 30
0.0
 40
2.045776346977099
100
AcDbArc
 50
96.46896443773004
 51
108.0498041500501
  0
LINE
  5
3A0
330
18
100
AcDbEntity
  8
0
100
AcDbLine
 10
72.51119418637168
 20
-39.30578395849998
 30
0.0
 11
72.52873265367954
 21
-39.02529652444615
 31
0.0
  0
LINE
  5
3A1
330
18
100
AcDbEntity
  8
0
100
AcDbLine
 10
72.31827178903724
 20
-39.41096676451805
 30
0.0
 11
72.30073332172939
 21
-39.21813160798632
 31
0.0
  0
ARC
  5
3A2
330
18
100
AcDbEntity
  8
0
100
AcDbCircle
 10
72.68664478916412
 20
-39.10409451463682
 30
0.0
 40
0.2914522129063082
100
AcDbArc
 50
276.8992305527454
 51
344.2777232914342
  0
LINE
  5
3A3
330
18
100
AcDbEntity
  8
0
100
AcDbLine
 10
72.77427024063698
 20
-40.04206352763494
 30
0.0
 11
72.9671927441217
 21
-39.9719416326257
 31
0.0
  0
LINE
  5
3A4
330
18
100
AcDbEntity
  8
0
100
AcDbLine
 10
73.86165139231387
 20
-39.0778878909594
 30
0.0
 11
73.73888254576001
 21
-38.77987000140116
 31
0.0
  0
LINE
  5
3A5
330
18
100
AcDbEntity
  8
0
100
AcDbLine
 10
73.23026879838699
 20
-39.37590578051765
 30
0.0
 11
73.51088331996014
 21
-39.67392374306746
 31
0.0
  0
ARC
  5
3A6
330
18
100
AcDbEntity
  8
0
100
AcDbCircle
 10
72.58188604483286
 20
-38.92887894618029
 30
0.0
 40
0.6183585819623545
100
AcDbArc
 50
339.2448538417845
 51
20.75514615821552
  0
LINE
  5
3A7
330
18
100
AcDbEntity
  8
0
100
AcDbLine
 10
73.14257678029855
 20
-39.67392374306746
 30
0.0
 11
73.35303764494085
 21
-39.90181973761647
 31
0.0
  0
LWPOLYLINE
  5
3A8
330
18
100
AcDbEntity
  8
0
100
AcDbPolyline
 90
        5
 70
     0
 43
0.0
 10
71.40627467353723
 20
-33.74862649795357
 42
-0.297349596615246
 10
71.84473476397937
 20
-32.90716419579209
 42
-0.0661154320748096
 10
72.28319496057181
 20
-32.73185956775634
 42
-0.8047646974528246
 10
72.33581015019481
 20
-32.83704230078285
 42
-0.0175902546582519
 10
72.40596380712567
 20
-33.73109604244915
 42
0.9577744361359982
  0
LINE
  5
3AF
330
18
100
AcDbEntity
  8
0
100
AcDbLine
 10
71.96750361053324
 20
-33.76615695345799
 30
0.0
 11
72.26565649326396
 21
-33.69603513144031
 31
0.0
  0
LINE
  5
3B0
330
18
100
AcDbEntity
  8
0
100
AcDbLine
 10
71.96750361053324
 20
-33.53826095890898
 30
0.0
 11
72.28319496057181
 21
-33.46813906389974
 31
0.0
  0
LINE
  5
3B1
330
18
100
AcDbEntity
  8
0
100
AcDbLine
 10
72.05519562862168
 20
-33.32789534687283
 30
0.0
 11
72.26565649326396
 21
-33.27530398035957
 31
0.0
  0
LINE
  5
3B2
330
18
100
AcDbEntity
  8
0
100
AcDbLine
 10
72.0902724570871
 20
-33.11752973483668
 30
0.0
 11
72.26565649326396
 21
-33.06493836832342
 31
0.0
  0
LWPOLYLINE
  5
3B3
330
18
100
AcDbEntity
  8
0
100
AcDbPolyline
 90
        7
 70
     0
 43
0.0
 10
71.94996524937566
 20
-34.22194908853913
 10
71.93242688821809
 20
-34.09923582701664
 42
0.1622543141626548
 10
72.21304130364096
 20
-33.88887021498048
 42
-0.1462642952907919
 10
72.38842533981783
 20
-33.74862649795357
 42
-0.114379385363941
 10
72.9671927441217
 20
-33.57332186991782
 42
-0.0938751447064837
 10
72.94965438296412
 20
-34.30960136606123
 42
-0.2805383430608318
 10
72.91457755449869
 20
-34.55502788910621
 42
2.119125520659394
  0
LINE
  5
3BC
330
18
100
AcDbEntity
  8
0
100
AcDbLine
 10
71.17827544773735
 20
-34.76539350114236
 30
0.0
 11
71.52904352009108
 21
-34.71280206163754
 31
0.0
  0
LWPOLYLINE
  5
3BD
330
18
100
AcDbEntity
  8
0
100
AcDbPolyline
 90
        2
 70
     0
 43
0.0
 10
71.59919717702194
 20
-34.59008880011505
 42
-0.2416104523967523
 10
70.96781458309506
 20
-34.09923582701664
 42
-1.568830328206643
  0
LWPOLYLINE
  5
3C1
330
18
100
AcDbEntity
  8
0
100
AcDbPolyline
 90
        2
 70
     0
 43
0.0
 10
70.98535294425264
 20
-34.09923582701664
 42
0.2373318369514915
 10
71.66935072780251
 20
-34.76539350114236
 42
0.1542790301302646
  0
LINE
  5
3C5
330
18
100
AcDbEntity
  8
0
100
AcDbLine
 10
71.30104429429121
 20
-34.46737561158411
 30
0.0
 11
71.35365948391421
 21
-34.16935764903431
 31
0.0
  0
LINE
  5
3C6
330
18
100
AcDbEntity
  8
0
100
AcDbLine
 10
71.1607369804295
 20
-35.55426443679059
 30
0.0
 11
71.33612101660635
 21
-35.46661208627694
 31
0.0
  0
LWPOLYLINE
  5
3C7
330
18
100
AcDbEntity
  8
0
100
AcDbPolyline
 90
        2
 70
     0
 43
0.0
 10
71.7745812131988
 20
-35.41402071976367
 42
-0.1519613584022763
 10
70.89766092616421
 20
-34.97575904018695
 42
-0.1519613584022763
  0
LWPOLYLINE
  5
3CB
330
18
100
AcDbEntity
  8
0
100
AcDbPolyline
 90
        2
 70
     0
 43
0.0
 10
70.89766092616421
 20
-34.99328956868294
 42
0.253677529443903
 10
71.73950438473337
 20
-35.55426443679059
 42
0.0454912839326834
  0
LWPOLYLINE
  5
3CF
330
18
100
AcDbEntity
  8
0
100
AcDbPolyline
 90
        6
 70
     0
 43
0.0
 10
71.19581380889492
 20
-34.87057630716044
 42
-0.6262096440054888
 10
71.84473476397937
 20
-35.39649026425925
 42
-0.0000002016933547
 10
72.05519562862168
 20
-35.50167299728577
 42
0.0187512009408847
 10
71.91488842091023
 20
-34.88810676266486
 42
0.0000002241475479
 10
71.66935072780251
 20
-34.74786304563794
 10
71.56412034855652
 20
-34.85304577866446
  0
LINE
  5
3D7
330
18
100
AcDbEntity
  8
0
100
AcDbLine
 10
71.19581380889492
 20
-35.13353328570984
 30
0.0
 11
71.21335227620278
 21
-34.99328956868294
 31
0.0
  0
LINE
  5
3D8
330
18
100
AcDbEntity
  8
0
100
AcDbLine
 10
70.91519939347205
 20
-34.36219280556604
 30
0.0
 11
71.10812179080649
 21
-34.39725371657488
 31
0.0
  0
LINE
  5
3D9
330
18
100
AcDbEntity
  8
0
100
AcDbLine
 10
71.02042977271806
 20
-34.57255834461064
 30
0.0
 11
71.30104429429121
 21
-34.57255834461064
 31
0.0
  0
LINE
  5
3DA
330
18
100
AcDbEntity
  8
0
100
AcDbLine
 10
71.1607369804295
 20
-34.30960136606123
 30
0.0
 11
71.23089063736036
 21
-34.04664438751181
 31
0.0
  0
LINE
  5
3DB
330
18
100
AcDbEntity
  8
0
100
AcDbLine
 10
70.96781458309506
 20
-35.36142928025886
 30
0.0
 11
71.21335227620278
 21
-35.34389882475444
 31
0.0
  0
LINE
  5
3DC
330
18
100
AcDbEntity
  8
0
100
AcDbLine
 10
71.66935072780251
 20
-34.0291139320074
 30
0.0
 11
71.7745812131988
 21
-33.99405302099856
 31
0.0
  0
LINE
  5
3DD
330
18
100
AcDbEntity
  8
0
100
AcDbLine
 10
71.7745812131988
 20
-33.99405302099856
 30
0.0
 11
71.75704274589094
 21
-34.13429673802547
 31
0.0
  0
LINE
  5
3DE
330
18
100
AcDbEntity
  8
0
100
AcDbLine
 10
71.73950438473337
 20
-34.39725371657488
 30
0.0
 11
71.87981159244481
 21
-34.44984508308814
 31
0.0
  0
LINE
  5
3DF
330
18
100
AcDbEntity
  8
0
100
AcDbLine
 10
71.87981159244481
 20
-34.44984508308814
 30
0.0
 11
71.87981159244481
 21
-34.73033259013353
 31
0.0
  0
LINE
  5
3E0
330
18
100
AcDbEntity
  8
0
100
AcDbLine
 10
71.87981159244481
 20
-34.73033259013353
 30
0.0
 11
71.7219660235758
 21
-34.60761932861103
 31
0.0
  0
LINE
  5
3E1
330
18
100
AcDbEntity
  8
0
100
AcDbLine
 10
71.7219660235758
 20
-34.60761932861103
 30
0.0
 11
71.7219660235758
 21
-34.4147841720793
 31
0.0
  0
LINE
  5
3E2
330
18
100
AcDbEntity
  8
0
100
AcDbLine
 10
71.87981159244481
 20
-34.46737561158411
 30
0.0
 11
72.0902724570871
 21
-34.55502788910621
 31
0.0
  0
LINE
  5
3E3
330
18
100
AcDbEntity
  8
0
100
AcDbLine
 10
72.0902724570871
 20
-34.55502788910621
 30
0.0
 11
72.0376572674641
 21
-34.67774115062871
 31
0.0
  0
LINE
  5
3E4
330
18
100
AcDbEntity
  8
0
100
AcDbLine
 10
72.0376572674641
 20
-34.67774115062871
 30
0.0
 11
71.98504207784108
 21
-34.51996697809738
 31
0.0
  0
LINE
  5
3E5
330
18
100
AcDbEntity
  8
0
100
AcDbLine
 10
71.52904352009108
 20
-34.5374974336018
 30
0.0
 11
71.52904352009108
 21
-34.3271318945572
 31
0.0
  0
LINE
  5
3E6
330
18
100
AcDbEntity
  8
0
100
AcDbLine
 10
71.44135150200265
 20
-35.29130745824118
 30
0.0
 11
71.40627467353723
 21
-34.94069812917811
 31
0.0
  0
LWPOLYLINE
  5
3E7
330
18
100
AcDbEntity
  8
0
100
AcDbPolyline
 90
        2
 70
     0
 43
0.0
 10
72.07273409592952
 20
-34.04664438751181
 42
0.1401160006156626
 10
72.14288775286037
 20
-34.51996697809738
 42
0.6446661035575796
  0
LINE
  5
3EB
330
18
100
AcDbEntity
  8
0
100
AcDbLine
 10
71.59919717702194
 20
-35.37895973576328
 30
0.0
 11
71.61673553817951
 21
-35.06341139070061
 31
0.0
  0
LINE
  5
3EC
330
18
100
AcDbEntity
  8
0
100
AcDbLine
 10
71.65181236664494
 20
-33.3103648913684
 30
0.0
 11
71.86227323128723
 21
-33.50319997490858
 31
0.0
  0
LINE
  5
3ED
330
18
100
AcDbEntity
  8
0
100
AcDbLine
 10
71.52904352009108
 20
-33.520730430413
 30
0.0
 11
71.79211957435637
 21
-33.76615695345799
 31
0.0
  0
LINE
  5
3EE
330
18
100
AcDbEntity
  8
0
100
AcDbLine
 10
71.93242688821809
 20
-32.94222510680093
 30
0.0
 11
71.98504207784108
 21
-33.11752973483668
 31
0.0
  0
LINE
  5
3EF
330
18
100
AcDbEntity
  8
0
100
AcDbLine
 10
71.73950438473337
 20
-33.06493836832342
 30
0.0
 11
71.93242688821809
 21
-33.27530398035957
 31
0.0
  0
LWPOLYLINE
  5
3F0
330
18
100
AcDbEntity
  8
0
100
AcDbPolyline
 90
        3
 70
     0
 43
0.0
 10
71.89735005975265
 20
-33.95899210998972
 42
-0.0757092454919167
 10
72.17796447517553
 20
-32.99481647331418
 42
0.2309810798552808
 10
71.7745812131988
 20
-33.88887021498048
 42
0.9702845115339686
  0
LINE
  5
3F5
330
18
100
AcDbEntity
  8
0
100
AcDbLine
 10
72.65150150023339
 20
-34.0291139320074
 30
0.0
 11
72.66903986139097
 21
-33.7836874089624
 31
0.0
  0
LINE
  5
3F6
330
18
100
AcDbEntity
  8
0
100
AcDbLine
 10
72.51119418637168
 20
-34.13429673802547
 30
0.0
 11
72.42350216828325
 21
-33.9414616544853
 31
0.0
  0
LWPOLYLINE
  5
3F7
330
18
100
AcDbEntity
  8
0
100
AcDbPolyline
 90
        3
 70
     0
 43
0.0
 10
72.26565649326396
 20
-34.43231462758372
 42
0.1196440948530965
 10
72.82688553641026
 20
-33.7836874089624
 42
-0.1623008871198547
 10
72.33581015019481
 20
-34.51996697809738
 42
2.915743970328522
  0
LINE
  5
3FC
330
18
100
AcDbEntity
  8
0
100
AcDbLine
 10
72.86196225872541
 20
-35.20365510772752
 30
0.0
 11
73.19519196992157
 21
-35.20365510772752
 31
0.0
  0
LWPOLYLINE
  5
3FD
330
18
100
AcDbEntity
  8
0
100
AcDbPolyline
 90
        2
 70
     0
 43
0.0
 10
72.51119418637168
 20
-35.15106374121427
 42
0.2234937883062391
 10
73.35303764494085
 20
-34.59008880011505
 42
-0.5643282311540821
  0
LINE
  5
401
330
18
100
AcDbEntity
  8
0
100
AcDbLine
 10
73.08996159067556
 20
-34.99328956868294
 30
0.0
 11
73.24780726569485
 21
-35.01082002418735
 31
0.0
  0
LWPOLYLINE
  5
402
330
18
100
AcDbEntity
  8
0
100
AcDbPolyline
 90
        2
 70
     0
 43
0.0
 10
73.37057600609843
 20
-34.59008880011505
 42
-0.3134236141041419
 10
72.52873265367954
 20
-35.25624647424078
 42
-0.3134236141041419
  0
LINE
  5
406
330
18
100
AcDbEntity
  8
0
100
AcDbLine
 10
72.73919351832183
 20
-34.04664438751181
 30
0.0
 11
72.94965438296412
 21
-34.0291139320074
 31
0.0
  0
LWPOLYLINE
  5
407
330
18
100
AcDbEntity
  8
0
100
AcDbPolyline
 90
        2
 70
     0
 43
0.0
 10
72.28319496057181
 20
-34.67774115062871
 10
72.42350216828325
 20
-34.67774115062871
  0
LINE
  5
40B
330
18
100
AcDbEntity
  8
0
100
AcDbLine
 10
72.4410406355911
 20
-34.46737561158411
 30
0.0
 11
72.84442389756783
 21
-34.44984508308814
 31
0.0
  0
LINE
  5
40C
330
18
100
AcDbEntity
  8
0
100
AcDbLine
 10
72.58134784330254
 20
-34.25700999954797
 30
0.0
 11
72.89703908719085
 21
-34.27454045505239
 31
0.0
  0
LINE
  5
40D
330
18
100
AcDbEntity
  8
0
100
AcDbLine
 10
72.89703908719085
 20
-35.02835047969177
 30
0.0
 11
72.89703908719085
 21
-34.59008880011505
 31
0.0
  0
LINE
  5
40E
330
18
100
AcDbEntity
  8
0
100
AcDbLine
 10
72.66903986139097
 20
-35.09847230170945
 30
0.0
 11
72.66903986139097
 21
-34.67774115062871
 31
0.0
  0
LINE
  5
40F
330
18
100
AcDbEntity
  8
0
100
AcDbLine
 10
73.03734640105256
 20
-34.90563721816927
 30
0.0
 11
73.08996159067556
 21
-34.60761932861103
 31
0.0
  0
LINE
  5
410
330
18
100
AcDbEntity
  8
0
100
AcDbLine
 10
72.40596380712567
 20
-34.34466235006162
 30
0.0
 11
72.30073332172939
 21
-33.99405302099856
 31
0.0
  0
LINE
  5
411
330
18
100
AcDbEntity
  8
0
100
AcDbLine
 10
72.59888620446012
 20
-35.29130745824118
 30
0.0
 11
73.00226957258712
 21
-35.37895973576328
 31
0.0
  0
ARC
  5
412
330
18
100
AcDbEntity
  8
0
100
AcDbCircle
 10
72.78197626943825
 20
-35.91278149753212
 30
0.0
 40
0.6837564106212716
100
AcDbArc
 50
15.5423077679304
 51
49.0324170705945
  0
ARC
  5
413
330
18
100
AcDbEntity
  8
0
100
AcDbCircle
 10
72.78472497465961
 20
-35.89668685515711
 30
0.0
 40
0.5763370899053754
100
AcDbArc
 50
350.4278091816505
 51
53.80917840291259
  0
ARC
  5
414
330
18
100
AcDbEntity
  8
0
100
AcDbCircle
 10
73.08840767436485
 20
-33.09316476563683
 30
0.0
 40
0.6067337108098507
100
AcDbArc
 50
65.96787101873612
 51
121.18156304924
  0
LWPOLYLINE
  5
415
330
18
100
AcDbEntity
  8
0
100
AcDbPolyline
 90
        2
 70
     0
 43
0.0
 10
72.37088697866025
 20
-32.32865879918846
 42
-0.3026615630804436
 10
72.79180870794483
 20
-32.18841508216154
 42
-0.3026615630804436
  0
LWPOLYLINE
  5
419
330
18
100
AcDbEntity
  8
0
100
AcDbPolyline
 90
        3
 70
     0
 43
0.0
 10
73.65119052767157
 20
-33.87133975947607
 42
0.0502821935889841
 10
73.58103687074072
 20
-33.46813906389974
 42
-0.5697031858707146
 10
73.70380571729459
 20
-33.047407912819
 42
-0.1262603383195069
  0
LWPOLYLINE
  5
41E
330
18
100
AcDbEntity
  8
0
100
AcDbPolyline
 90
        3
 70
     0
 43
0.0
 10
73.70380571729459
 20
-33.047407912819
 42
0.0902101860504378
 10
73.73888254576001
 20
-33.48566951940417
 42
-0.5117154705095929
 10
73.66872899497943
 20
-33.85380930397164
 42
4.508495353281309
  0
LWPOLYLINE
  5
423
330
18
100
AcDbEntity
  8
0
100
AcDbPolyline
 90
       26
 70
     0
 43
0.0
 10
74.65087966126003
 20
-39.02529652444615
 42
0.1189351814560674
 10
75.93118321027137
 20
-40.49785558972452
 42
0.3820691626776007
 10
77.82533099205199
 20
-39.98947208813012
 10
78.01825338938643
 20
-40.09465489414821
 42
-0.336604188153271
 10
78.28132944365172
 20
-39.69145419857188
 42
0.1797732706657129
 10
78.50932877560187
 20
-39.23566206349074
 42
0.2110837690408199
 10
78.24625272133657
 20
-39.00776606894173
 42
0.2044466579503954
 10
78.1936374255633
 20
-38.41173021683368
 42
0.0598496247649805
 10
78.07086857900944
 20
-38.23642558879793
 10
78.07086857900944
 20
-38.16630369378869
 10
77.877946181675
 20
-38.13124278277985
 42
-0.0272557780242778
 10
77.72010050665571
 20
-37.92087724373526
 42
-0.1046586161382755
 10
77.64994684972485
 20
-37.74557254270794
 42
0.3026615671333451
 10
77.43948598508255
 20
-37.81569443771718
 42
0.0384200345771914
 10
77.49210128085585
 20
-38.00852952125735
 42
0.0302042470285127
 10
77.31671724467898
 20
-38.65715673987867
 42
0.3007831175280434
 10
77.52717810932127
 20
-39.18307069697748
 42
0.0710454843305695
 10
77.31671724467898
 20
-39.27072304749113
 42
0.5687924317358397
 10
77.31671724467898
 20
-39.39343630901364
 42
-0.2660102568050624
 10
77.40440926276741
 20
-40.07712443864378
 42
1.496141210647567
 10
77.47456281354799
 20
-40.07712443864378
 42
0.4279894080080491
 10
77.6148701274097
 20
-39.86675882660764
 42
-0.0333113422019525
 10
77.63240848856728
 20
-39.39343630901364
 42
-0.6547188460968372
 10
78.10594540747486
 20
-39.46355813103131
 42
-0.2454213459736761
 10
77.94809973245557
 20
-39.81416746009437
 42
0.1477689062217795
 10
77.82533099205199
 20
-39.98947208813012
 42
1.381262626113255
  0
LWPOLYLINE
  5
43F
330
18
100
AcDbEntity
  8
0
100
AcDbPolyline
 90
        5
 70
     0
 43
0.0
 10
76.6138487016877
 20
-46.27923983218497
 42
-0.1163006124397248
 10
74.82493140530334
 20
-44.45607143784354
 42
-0.419650251853598
 10
75.50892918885323
 20
-41.26552678424181
 42
-0.4585392175668704
 10
78.92891821275291
 20
-42.45759841546635
 42
-0.3860773333259338
 10
78.03445956456075
 20
-44.82421122241102
 42
-0.2407718469569671
  0
DIMENSION
  5
446
330
18
100
AcDbEntity
  8
ADPDIM
100
AcDbDimension
  2
*D0
 10
81.4998882055629
 20
-30.21430189034485
 30
0.0
 11
81.4998882055629
 21
-44.21430189034485
 31
0.0
100
AcDbAlignedDimension
 13
75.39815599942137
 23
-58.21430189034486
 33
0.0
 14
79.37245304789724
 24
-30.21430189034485
 34
0.0
 50
90.0
100
AcDbRotatedDimension
  0
LWPOLYLINE
  5
447
330
18
100
AcDbEntity
  8
0
100
AcDbPolyline
 90
        3
 70
     0
 43
0.0
 10
76.80677120517242
 20
-49.89051563686746
 42
-0.2108491687986261
 10
76.98215524134929
 20
-50.97740453506548
 42
0.3300500003538938
 10
76.91200158441842
 20
-49.90804609237187
 42
0.4632899219915191
  0
LINE
  5
44C
330
18
100
AcDbEntity
  8
0
100
AcDbLine
 10
76.84184803363784
 20
-49.90804609237187
 30
0.0
 11
76.56123351206471
 21
-50.20606405492168
 31
0.0
  0
LWPOLYLINE
  5
44D
330
18
100
AcDbEntity
  8
0
100
AcDbPolyline
 90
       14
 70
     0
 43
0.0
 10
75.94738938544567
 20
-48.89127916217464
 42
0.3481439923799896
 10
75.43877563807265
 20
-49.39966266376903
 42
0.0578563017389503
 10
75.43877563807265
 20
-49.78533290384094
 42
0.9841664549094284
 10
75.61415967424952
 20
-49.76780237534495
 42
-0.3005381053682652
 10
75.8947740896724
 20
-49.68015009782286
 42
0.1847185365027705
 10
76.49107996128411
 20
-49.64508918681403
 42
0.5737734800527843
 10
76.52615668359927
 20
-49.31201031325538
 10
76.70154082592642
 20
-49.24188841824615
 10
76.70154082592642
 20
-49.76780237534495
 42
0.5399366945823006
 10
76.42092630435326
 20
-50.18853359941726
 42
0.1732663473111027
 10
76.59631034053012
 20
-50.62679520600242
 42
-0.2546254360931864
 10
76.94707841288385
 20
-51.02999590157875
 42
0.5560534548463006
 10
77.42061533179144
 20
-50.48655148897551
 42
0.1908033985926786
 10
77.332923313703
 20
-49.94310707637227
 42
0.5684115247207471
  0
LWPOLYLINE
  5
45D
330
18
100
AcDbEntity
  8
0
100
AcDbPolyline
 90
       18
 70
     0
 43
0.0
 10
77.08738572674556
 20
-49.69768055332728
 10
76.91200158441842
 20
-49.68015009782286
 42
-0.1831297649730915
 10
76.91200158441842
 20
-49.24188841824615
 42
0.3374836225548318
 10
77.12246244906072
 20
-49.36460167976864
 42
0.1497011815995373
 10
77.10492408790314
 20
-49.7152110088317
 42
0.3027678148813269
 10
77.35046178101086
 20
-49.92557662086785
 42
-0.0505739979294794
 10
77.75384504298759
 20
-50.01322889838995
 42
-0.0442123434935101
 10
77.99938273609531
 20
-50.20606405492168
 42
0.1570658926553197
 10
78.1046132214916
 20
-49.31201031325538
 42
0.3073926975299544
 10
77.28030812408
 20
-49.08411424571482
 42
0.5456491498731193
 10
77.24523129561458
 20
-49.22435796274172
 10
77.19261610599158
 20
-49.22435796274172
 42
-0.314846134824012
 10
77.06984725943771
 20
-48.78609635615656
 42
-0.4519241557824873
 10
78.17476677227218
 20
-48.78609635615656
 10
78.19230523958004
 20
-48.99646196819271
 42
-0.1547391103822654
 10
78.42030446537989
 20
-49.22435796274172
 42
0.252644631764469
 10
78.73599581541848
 20
-49.61002820281362
 42
-0.0875978435036284
 10
78.89384138428749
 20
-51.18777007411008
 42
-0.9276445100358056
  0
LWPOLYLINE
  5
471
330
18
100
AcDbEntity
  8
0
100
AcDbPolyline
 90
        2
 70
     0
 43
0.0
 10
79.26214792394907
 20
-51.17023961860565
 42
0.0986897326696091
 10
78.82368783350691
 20
-48.59326127261638
 42
0.6881983632786446
  0
LINE
  5
475
330
18
100
AcDbEntity
  8
0
100
AcDbLine
 10
77.44398862807816
 20
-52.74882462685322
 30
0.0
 11
77.55557963848939
 21
-52.73643134669305
 31
0.0
  0
LINE
  5
476
330
18
100
AcDbEntity
  8
0
100
AcDbLine
 10
77.55557963848939
 20
-52.73643134669305
 30
0.0
 11
77.45638760615193
 21
-52.50095716657214
 31
0.0
  0
LWPOLYLINE
  5
477
330
18
100
AcDbEntity
  8
0
100
AcDbPolyline
 90
        4
 70
     0
 43
0.0
 10
77.56797861656316
 20
-55.78520097958333
 42
0.2080500652264177
 10
77.41919067193059
 20
-56.14460881841871
 42
0.0695740309332034
 10
77.49358454037326
 20
-56.61555689295624
 10
77.41919067193059
 20
-56.86342435323732
  0
LWPOLYLINE
  5
47D
330
18
100
AcDbEntity
  8
0
100
AcDbPolyline
 90
       32
 70
     0
 43
0.0
 10
75.12537827405103
 20
-58.21430189034486
 10
75.39815599942137
 20
-58.21430189034486
 42
-0.3208114453379424
 10
75.70813065901306
 20
-57.86728747452178
 42
0.2875727265234176
 10
76.06770123089986
 20
-58.13994178082745
 42
0.2274896352174416
 10
76.46446873700799
 20
-57.99122127608838
 42
0.1737450534814045
 10
76.68765055008321
 20
-57.26001231825747
 42
0.0749743589559421
 10
76.62565565971434
 20
-56.95017802861916
 42
0.8603575747241915
 10
76.50166567122932
 20
-56.97496473179163
 42
-0.3641976858573829
 10
76.24128713167998
 20
-57.12368523653069
 42
0.3003804353758697
 10
75.60893883442282
 20
-57.4211261031567
 42
0.2584628164707902
 10
75.59653985634906
 20
-57.71856711263485
 42
0.1622550810031786
 10
75.4353529336427
 20
-57.83010734833701
 42
-0.0575910909228191
 10
75.77012554938194
 20
-56.14460881841871
 42
-0.2219402136424272
 10
75.85691839589839
 20
-55.84716780894056
 42
0.0885556493075927
 10
75.95611042823586
 20
-55.42579314074796
 42
0.2160847647890732
 10
76.42727180278665
 20
-55.63648047484426
 42
-0.0827684105054249
 10
76.2908830439751
 20
-55.47536668994503
 42
-0.2249450635838338
 10
77.87795306840762
 20
-55.12835227412195
 42
-0.5268821009379085
 10
78.77068011296135
 20
-57.48309293251393
 42
-0.4629299878606385
 10
77.12161499041269
 20
-57.59463331106824
 42
-0.4267833985953721
 10
77.34479680348792
 20
-57.29719244444224
 42
0.3999784754124889
 10
77.40679169385682
 20
-56.93778460560686
 42
0.424598999490017
 10
77.76636226574362
 20
-56.67752372231348
 42
-0.1080718773316116
 10
77.86555409033384
 20
-56.16939552159116
 42
0.0569280900144396
 10
77.98954407881885
 20
-55.76041413355873
 42
0.2882525670834711
 10
77.93994816652375
 20
-55.63648047484426
 42
0.4510278228296768
 10
77.8283571561125
 20
-55.66126717801672
 42
-0.0347298112897236
 10
77.58037759463694
 20
-55.76041413355873
 42
0.5510797206500141
 10
77.40679169385682
 20
-55.87195451211303
 42
0.1283631145176342
 10
76.8736352211899
 20
-56.10742869223393
 42
0.2676792133373373
 10
76.79924135274723
 20
-56.54119664058671
 42
0.4599799901817122
 10
76.57605974741922
 20
-56.91299790243439
 42
0.7208542100738687
  0
LWPOLYLINE
  5
49F
330
18
100
AcDbEntity
  8
0
100
AcDbPolyline
 90
        5
 70
     0
 43
0.0
 10
76.77444339659968
 20
-57.47069965235377
 42
0.363801199274609
 10
77.87795306840762
 20
-58.12754835781515
 42
0.4019035975669829
 10
79.35343249792338
 20
-56.60316346994395
 42
0.5144965960713602
 10
76.92323134123224
 20
-54.84330468765611
 42
0.2464624066210316
 10
79.25424067333316
 20
-51.17486633263708
 42
-0.9204789707350435
  0
LWPOLYLINE
  5
4A6
330
18
100
AcDbEntity
  8
0
100
AcDbPolyline
 90
       25
 70
     0
 43
0.0
 10
75.5793421370695
 20
-55.49991060846863
 42
-0.0267918809068466
 10
75.72052963708684
 20
-55.35143288837842
 42
0.023674512219587
 10
76.68765055008321
 20
-54.47150342580843
 42
0.1453101590900286
 10
77.25800395697148
 20
-53.56678726006597
 10
77.25800395697148
 20
-53.05865905934366
 10
77.08441805619135
 20
-52.95951196094953
 42
-0.1860312936505972
 10
77.08441805619135
 20
-53.36849334898197
 42
-0.3998416842227453
 10
76.84883726504233
 20
-53.48003372753627
 42
-0.0232341994507287
 10
76.03050429667852
 20
-53.25695297042766
 42
0.0837605163326378
 10
76.20409019745864
 20
-52.98429880697412
 42
-0.235733700720553
 10
76.70004952815701
 20
-52.52574401259675
 42
-0.4097007322034039
 10
76.53886260545066
 20
-51.95564883966507
 42
-0.1737060704163135
 10
76.9480292973798
 20
-51.34837354054861
 42
-0.35738011030571
 10
77.18360988078159
 20
-51.36076696356091
 42
0.3276909688980304
 10
77.31999884734037
 20
-51.73256808255646
 42
-0.3268853631417134
 10
77.54318045266838
 20
-52.21590972295844
 42
-0.0976670783676525
 10
78.26232180418921
 20
-52.0300090920346
 42
-0.151385507812163
 10
78.60949339800223
 20
-52.41420363404245
 42
-0.522265930368473
 10
78.52270034373855
 20
-52.56292413878152
 42
0.1986800946386554
 10
78.1879277279993
 20
-52.77361147287782
 42
-0.3118705888833891
 10
77.92754918844997
 20
-53.00908551014659
 42
-0.2187631719947119
 10
77.66717044115338
 20
-52.89754513159229
 42
0.2121758430850473
 10
77.43158965000438
 20
-53.03387221331906
 42
-0.165496441172974
 10
77.25800395697148
 20
-54.12448900998535
 42
0.0970599325456841
 10
78.53509932181232
 20
-52.58771084195398
 42
-0.5932870701277951
  0
LWPOLYLINE
  5
4C1
330
18
100
AcDbEntity
  8
0
100
AcDbPolyline
 90
        4
 70
     0
 43
0.0
 10
75.65853474671794
 20
-54.54586367817796
 42
-0.0978525323442818
 10
75.2121713283147
 20
-54.68219075990473
 42
-0.0827362363190888
 10
74.92699462487057
 20
-54.57065038135043
 42
-0.0109433415496635
 10
74.44343406449876
 20
-54.50868355199319
 42
-13.36752467564525
  0
LWPOLYLINE
  5
4C7
330
18
100
AcDbEntity
  8
0
100
AcDbPolyline
 90
       13
 70
     0
 43
0.0
 10
76.25368610975375
 20
-53.30652651962473
 42
0.0178579537321955
 10
76.36527691241777
 20
-53.66593421560797
 42
-0.3079537006726952
 10
76.26608508782753
 20
-54.03773547745565
 42
-0.2734809792002646
 10
76.10489816512118
 20
-54.5210769750055
 42
-0.2078932237899432
 10
75.80732248360328
 20
-54.50868355199319
 42
0.4417366951152729
 10
75.6833327028655
 20
-54.55825710119026
 42
0.6438989978380773
 10
75.73292861516062
 20
-54.60783050753519
 42
-0.4417587268119032
 10
75.91891349401452
 20
-54.79373113845904
 42
-0.6415579477171187
 10
75.80732248360328
 20
-55.00441847255534
 42
-0.0083341979444001
 10
75.5717419002015
 20
-55.36382631139072
 42
0.1623472540821629
 10
75.60893883442282
 20
-55.57451364548702
 42
-0.7806907144437119
 10
75.48494884593782
 20
-55.67366060102902
 42
-0.2689811789859978
 10
75.47254986786405
 20
-55.35143288837842
 42
-0.0432445189988791
  0
LINE
  5
4D6
330
18
100
AcDbEntity
  8
0
100
AcDbLine
 10
75.77012554938194
 20
-57.6194200142407
 30
0.0
 11
75.80732248360328
 21
-57.38394597697194
 31
0.0
  0
LWPOLYLINE
  5
4D7
330
18
100
AcDbEntity
  8
0
100
AcDbPolyline
 90
        3
 70
     0
 43
0.0
 10
75.74532759323439
 20
-56.1198219723941
 42
0.2752583528938244
 10
76.0429032747523
 20
-55.9215280613101
 42
-0.278369252653617
 10
76.42727180278665
 20
-55.64887389785656
 42
-0.0370098473095534
  0
LWPOLYLINE
  5
4DC
330
18
100
AcDbEntity
  8
0
100
AcDbPolyline
 90
        3
 70
     0
 43
0.0
 10
75.69573168093928
 20
-57.69378026661024
 42
0.3042591997039256
 10
76.55126179127167
 20
-57.18565206588793
 42
-0.3114109547846338
 10
75.73292861516062
 20
-57.78053394199208
 42
80.65396381522827
  0
LINE
  5
4E1
330
18
100
AcDbEntity
  8
0
100
AcDbLine
 10
74.4806309987201
 20
-57.6194200142407
 30
0.0
 11
74.44343406449876
 21
-57.38394597697194
 31
0.0
  0
LINE
  5
4E2
330
18
100
AcDbEntity
  8
0
100
AcDbLine
 10
74.08386349261196
 20
-57.49548635552624
 30
0.0
 11
74.00946941642207
 21
-57.26001231825747
 31
0.0
  0
LINE
  5
4E3
330
18
100
AcDbEntity
  8
0
100
AcDbLine
 10
74.28224714179241
 20
-57.55745318488347
 30
0.0
 11
74.23265122949731
 21
-57.29719244444224
 31
0.0
  0
LINE
  5
4E4
330
18
100
AcDbEntity
  8
0
100
AcDbLine
 10
74.35664101023508
 20
-57.83010734833701
 30
0.0
 11
74.14585838298086
 21
-57.96643457291592
 31
0.0
  0
LWPOLYLINE
  5
4E5
330
18
100
AcDbEntity
  8
0
100
AcDbPolyline
 90
        8
 70
     0
 43
0.0
 10
74.55502507490999
 20
-55.32664618520595
 10
74.44343406449876
 20
-55.00441847255534
 10
74.44343406449876
 20
-54.89287809400104
 10
74.93939360294435
 20
-54.89287809400104
 10
75.08818133982969
 20
-54.80612456147134
 10
75.18737316441991
 20
-54.85569796781627
 10
75.46015088979027
 20
-54.8309112646438
 42
-0.5840878300831593
 10
75.52214578015915
 20
-55.19031910347918
 42
2.807598708402295
  0
ARC
  5
4EF
330
18
100
AcDbEntity
  8
0
100
AcDbCircle
 10
74.98225441366405
 20
-53.30706577633182
 30
0.0
 40
1.736429100708657
100
AcDbArc
 50
259.9426401724524
 51
282.1782314778536
  0
LWPOLYLINE
  5
4F0
330
18
100
AcDbEntity
  8
0
100
AcDbPolyline
 90
        4
 70
     0
 43
0.0
 10
74.53828856407359
 20
-55.59032297118201
 42
-0.0111060895719336
 10
74.7286107679429
 20
-55.77280755657103
 42
-0.1738143566386679
 10
75.12537827405103
 20
-56.61555689295624
 42
-0.1372139050553507
 10
75.46807913000212
 20
-55.64351705748389
 42
0.023674512219587
  0
LWPOLYLINE
  5
4F6
330
18
100
AcDbEntity
  8
0
100
AcDbPolyline
 90
        4
 70
     0
 43
0.0
 10
74.92699462487057
 20
-56.0206750168521
 42
0.2568163763934816
 10
74.92699462487057
 20
-55.72323415022609
 42
-0.1388162926804109
 10
74.88979769064925
 20
-55.56212022247472
 42
-0.051595902180699
 10
74.74100974601667
 20
-55.33903960821826
 42
-1.657550764602356
  0
LWPOLYLINE
  5
4FC
330
18
100
AcDbEntity
  8
0
100
AcDbPolyline
 90
        6
 70
     0
 43
0.0
 10
75.48494884593782
 20
-55.35143288837842
 10
75.52214578015915
 20
-55.17792568046687
 42
0.3509050812459591
 10
75.47254986786405
 20
-55.00441847255534
 42
0.6000296578351657
 10
75.37335804327381
 20
-55.05399202175241
 42
0.1072777260293336
 10
75.19977235024092
 20
-55.66126717801672
 42
0.0807741332478508
 10
75.23696928446226
 20
-56.04546172002457
 42
0.770576354010304
  0
LWPOLYLINE
  5
504
330
18
100
AcDbEntity
  8
0
100
AcDbPolyline
 90
       10
 70
     0
 43
0.0
 10
76.68765055008321
 20
-57.47069965235377
 42
1.116761747901816
 10
76.76204441852589
 20
-57.43351952616901
 42
-0.067898193375471
 10
76.79924135274723
 20
-56.83863765006485
 42
-0.5171907412150198
 10
76.89843338508469
 20
-57.03693156114886
 42
-0.1926641203879326
 10
76.84883726504233
 20
-57.5202730586987
 42
0.6439214459885314
 10
76.93563031930601
 20
-57.631813437253
 42
-0.3891132965825507
 10
77.07201907811757
 20
-57.24761889524517
 42
-0.1339022652619212
 10
77.28280191311904
 20
-57.07411168733362
 42
-0.0062910051326624
 10
77.10921601233891
 20
-57.37155269681177
 42
0.3454684570896194
 10
77.12161499041269
 20
-57.47069965235377
 42
0.4117105022093175
  0
ARC
  5
510
330
18
100
AcDbEntity
  8
0
100
AcDbCircle
 10
78.37355170421648
 20
-54.84212817964104
 30
0.0
 40
2.307899645418412
100
AcDbArc
 50
227.4084457791704
 51
245.2353642421326
  0
LINE
  5
511
330
18
100
AcDbEntity
  8
0
100
AcDbLine
 10
76.42727180278665
 20
-57.48309293251393
 30
0.0
 11
76.55126179127167
 21
-57.45830622934147
 31
0.0
  0
LINE
  5
512
330
18
100
AcDbEntity
  8
0
100
AcDbLine
 10
75.96850940630964
 20
-57.55745318488347
 30
0.0
 11
76.01810531860474
 21
-57.29719244444224
 31
0.0
  0
LINE
  5
513
330
18
100
AcDbEntity
  8
0
100
AcDbLine
 10
76.16689305549008
 20
-57.49548635552624
 30
0.0
 11
76.24128713167998
 21
-57.26001231825747
 31
0.0
  0
LINE
  5
514
330
18
100
AcDbEntity
  8
0
100
AcDbLine
 10
76.14209509934252
 20
-57.71856711263485
 30
0.0
 11
76.3404789562702
 21
-57.76814051897978
 31
0.0
  0
LINE
  5
515
330
18
100
AcDbEntity
  8
0
100
AcDbLine
 10
76.31568100012265
 20
-57.6194200142407
 30
0.0
 11
76.50166567122932
 21
-57.66899356343778
 31
0.0
  0
LINE
  5
516
330
18
100
AcDbEntity
  8
0
100
AcDbLine
 10
75.89411553786696
 20
-57.83010734833701
 30
0.0
 11
76.10489816512118
 21
-57.96643457291592
 31
0.0
  0
ARC
  5
517
330
18
100
AcDbEntity
  8
0
100
AcDbCircle
 10
78.0316561388542
 20
-57.43948955481238
 30
0.0
 40
2.8180575688881
100
AcDbArc
 50
112.8879083221509
 51
131.4311286054171
  0
LINE
  5
518
330
18
100
AcDbEntity
  8
0
100
AcDbLine
 10
75.94371145016207
 20
-55.40100643757549
 30
0.0
 11
76.2908830439751
 21
-55.46297326693272
 31
0.0
  0
LWPOLYLINE
  5
519
330
18
100
AcDbEntity
  8
0
100
AcDbPolyline
 90
        3
 70
     0
 43
0.0
 10
77.39439271578304
 20
-55.87195451211303
 42
0.1737468850939521
 10
77.38199373770926
 20
-56.24375577396071
 10
77.45638760615193
 20
-56.67752372231348
  0
LWPOLYLINE
  5
51E
330
18
100
AcDbEntity
  8
0
100
AcDbPolyline
 90
        4
 70
     0
 43
0.0
 10
76.0924991870474
 20
-53.13301916886106
 42
0.080097866876114
 10
75.80732248360328
 20
-53.04626563633136
 42
0.3506343490333749
 10
74.71621178986912
 20
-52.84797172524736
 42
0.1197227501929696
 10
74.23265143724454
 20
-53.08344576251613
 42
2.776207567416492
  0
ARC
  5
524
330
18
100
AcDbEntity
  8
0
100
AcDbCircle
 10
75.86311798880889
 20
-54.38827833972809
 30
0.0
 40
0.4993018571885422
100
AcDbArc
 50
64.24198654397841
 51
115.7580134560215
  0
LWPOLYLINE
  5
525
330
18
100
AcDbEntity
  8
0
100
AcDbPolyline
 90
        2
 70
     0
 43
0.0
 10
76.27848406590131
 20
-54.02534205444335
 42
0.2021491095963681
 10
75.36095906520003
 20
-53.2321662672552
 42
-6.318757941019501
  0
LWPOLYLINE
  5
529
330
18
100
AcDbEntity
  8
0
100
AcDbPolyline
 90
        2
 70
     0
 43
0.0
 10
75.98090838438341
 20
-53.52960713388121
 42
0.2037850840571322
 10
75.37335804327381
 20
-53.1206258887009
 42
-10.4711912209093
  0
ARC
  5
52D
330
18
100
AcDbEntity
  8
0
100
AcDbCircle
 10
74.44559481787826
 20
-53.76179662032487
 30
0.0
 40
0.9293128925153769
100
AcDbArc
 50
50.35002931083259
 51
73.07011990285561
  0
LWPOLYLINE
  5
52E
330
18
100
AcDbEntity
  8
0
100
AcDbPolyline
 90
        5
 70
     0
 43
0.0
 10
74.87739871257545
 20
-53.40567347516674
 42
0.1226688224022021
 10
75.26176724060981
 20
-53.83944142351951
 42
-0.2954395746999267
 10
75.32376213097871
 20
-54.23602938853965
 42
0.2717856522980926
 10
75.18737316441991
 20
-53.87662154970428
 42
-0.2955586955592201
 10
74.87739871257545
 20
-53.39328005215444
 42
0.495125334077826
  0
LWPOLYLINE
  5
535
330
18
100
AcDbEntity
  8
0
100
AcDbPolyline
 90
        5
 70
     0
 43
0.0
 10
75.10058031790347
 20
-53.07105233950383
 42
0.2654689835397445
 10
74.44343406449876
 20
-53.29413309661243
 42
0.1379581710083868
 10
74.40623713027743
 20
-53.71550776480504
 42
0.2804768110998101
 10
74.51782793294142
 20
-53.83944142351951
 42
0.0589300043540601
 10
74.61701996527889
 20
-54.18645583934258
 42
0.6656903475231308
  0
LWPOLYLINE
  5
53C
330
18
100
AcDbEntity
  8
0
100
AcDbPolyline
 90
        2
 70
     0
 43
0.0
 10
75.02618644946079
 20
-53.18259271805813
 42
0.452850030532336
 10
74.40623713027743
 20
-53.71550776480504
 42
1.010359676795782
  0
LWPOLYLINE
  5
540
330
18
100
AcDbEntity
  8
0
100
AcDbPolyline
 90
        3
 70
     0
 43
0.0
 10
75.03858542753457
 20
-53.18259271805813
 10
74.87739871257545
 20
-53.39328005215444
 42
0.1324466469631087
 10
74.51782793294142
 20
-53.83944142351951
 42
1.533313098118268
  0
ARC
  5
545
330
18
100
AcDbEntity
  8
0
100
AcDbCircle
 10
73.45787545292887
 20
-54.90648533531619
 30
0.0
 40
1.900295830155052
100
AcDbArc
 50
58.75931195909156
 51
65.11723953356312
  0
ARC
  5
546
330
18
100
AcDbEntity
  8
0
100
AcDbCircle
 10
75.203216723824
 20
-52.66918066663507
 30
0.0
 40
0.5273738045566227
100
AcDbArc
 50
251.8098303100472
 51
283.2132954298021
  0
LWPOLYLINE
  5
547
330
18
100
AcDbEntity
  8
0
100
AcDbPolyline
 90
        7
 70
     0
 43
0.0
 10
75.42295395556893
 20
-54.27320951472442
 42
0.3797917864699034
 10
75.55934292212772
 20
-54.19884926235489
 42
0.2440018563952929
 10
75.54694394405395
 20
-53.74029446797751
 42
0.1110452280255075
 10
75.44775191171648
 20
-53.62875408942321
 42
0.0715464277922895
 10
75.33616110905248
 20
-53.18259271805813
 42
0.3026613166777921
 10
75.10058031790347
 20
-53.08344576251613
 42
0.4598453639783235
 10
75.05098440560836
 20
-53.17019929504582
 42
-0.0037599415320837
  0
LINE
  5
550
330
18
100
AcDbEntity
  8
0
100
AcDbLine
 10
77.53078147459461
 20
-52.21590972295844
 30
0.0
 11
77.46878658422571
 21
-52.50095716657214
 31
0.0
  0
LINE
  5
551
330
18
100
AcDbEntity
  8
0
100
AcDbLine
 10
77.27040293504527
 20
-52.38941693086998
 30
0.0
 11
77.41919067193059
 21
-52.19112287693384
 31
0.0
  0
LWPOLYLINE
  5
552
330
18
100
AcDbEntity
  8
0
100
AcDbPolyline
 90
        3
 70
     0
 43
0.0
 10
77.04722112197003
 20
-52.38941693086998
 42
-0.0334548936378555
 10
77.01002418774868
 20
-51.59624100082969
 42
0.2124857642103472
 10
77.25800395697148
 20
-52.38941693086998
 42
0.4520043224486258
  0
LWPOLYLINE
  5
557
330
18
100
AcDbEntity
  8
0
100
AcDbPolyline
 90
        6
 70
     0
 43
0.0
 10
76.66285259393567
 20
-52.55053071576921
 42
-0.2693583764420289
 10
77.02242316582246
 20
-52.68685779749598
 42
-0.2863443403109481
 10
77.03482214389625
 20
-52.78600475303798
 42
0.8637163743209219
 10
77.22080702275015
 20
-52.78600475303798
 42
0.1713561596283306
 10
77.15881192463402
 20
-52.58771084195398
 10
76.92323134123224
 20
-52.60010426496628
  0
LINE
  5
55F
330
18
100
AcDbEntity
  8
0
100
AcDbLine
 10
76.79924135274723
 20
-52.86036500540753
 30
0.0
 11
76.61325668164057
 21
-52.72403792368075
 31
0.0
  0
LWPOLYLINE
  5
560
330
18
100
AcDbEntity
  8
0
100
AcDbPolyline
 90
        6
 70
     0
 43
0.0
 10
76.9480292973798
 20
-52.86036500540753
 42
0.1480603052768914
 10
76.52646362737688
 20
-53.05865905934366
 42
-0.1591214042959786
 10
76.19169101163763
 20
-53.20737942123059
 42
0.3307443007672137
 10
76.72484748430456
 20
-53.04626563633136
 42
-0.1985185932890919
 10
76.96042827545358
 20
-52.93472525777706
 10
76.86123624311612
 20
-53.26934639343996
  0
LINE
  5
568
330
18
100
AcDbEntity
  8
0
100
AcDbLine
 10
76.60085770356677
 20
-52.95951196094953
 30
0.0
 11
76.41487282471287
 21
-52.84797172524736
 31
0.0
  0
LINE
  5
569
330
18
100
AcDbEntity
  8
0
100
AcDbLine
 10
76.4024738466391
 20
-53.05865905934366
 30
0.0
 11
76.24128713167998
 21
-53.00908551014659
 31
0.0
  0
LINE
  5
56A
330
18
100
AcDbEntity
  8
0
100
AcDbLine
 10
76.48926669315554
 20
-53.3313132227972
 30
0.0
 11
76.48926669315554
 21
-53.24455954741536
 31
0.0
  0
LINE
  5
56B
330
18
100
AcDbEntity
  8
0
100
AcDbLine
 10
76.72484748430456
 20
-52.31505667850044
 30
0.0
 11
77.04722112197003
 21
-52.37702350785768
 31
0.0
  0
LINE
  5
56C
330
18
100
AcDbEntity
  8
0
100
AcDbLine
 10
77.31999884734037
 20
-52.51335058958445
 30
0.0
 11
77.44398862807816
 21
-52.74882462685322
 31
0.0
  0
LINE
  5
56D
330
18
100
AcDbEntity
  8
0
100
AcDbLine
 10
77.46878658422571
 20
-52.50095716657214
 30
0.0
 11
77.31999884734037
 21
-52.51335058958445
 31
0.0
  0
LINE
  5
56E
330
18
100
AcDbEntity
  8
0
100
AcDbLine
 10
76.67525157200945
 20
-53.3313132227972
 30
0.0
 11
76.73724646237833
 21
-53.07105233950383
 31
0.0
  0
LINE
  5
56F
330
18
100
AcDbEntity
  8
0
100
AcDbLine
 10
77.26276976292243
 20
-50.27618587693936
 30
0.0
 11
77.06984725943771
 21
-50.2235945104261
 31
0.0
  0
LINE
  5
570
330
18
100
AcDbEntity
  8
0
100
AcDbLine
 10
76.92954005172627
 20
-50.20606405492168
 30
0.0
 11
76.71907918708399
 21
-50.43396004947069
 31
0.0
  0
LINE
  5
571
330
18
100
AcDbEntity
  8
0
100
AcDbLine
 10
77.29784659138786
 20
-50.57420383948915
 30
0.0
 11
77.10492408790314
 21
-50.50408194447992
 31
0.0
  0
LINE
  5
572
330
18
100
AcDbEntity
  8
0
100
AcDbLine
 10
76.99969370865713
 20
-50.48655148897551
 30
0.0
 11
76.87692486210328
 21
-50.59173429499358
 31
0.0
  0
LINE
  5
573
330
18
100
AcDbEntity
  8
0
100
AcDbLine
 10
77.12161499041269
 20
-52.15394275074906
 30
0.0
 11
77.3075998692666
 21
-51.96804226267737
 31
0.0
  0
LINE
  5
574
330
18
100
AcDbEntity
  8
0
100
AcDbLine
 10
77.04722112197003
 20
-51.9184687134803
 30
0.0
 11
77.18360988078159
 21
-51.76974820874122
 31
0.0
  0
LINE
  5
575
330
18
100
AcDbEntity
  8
0
100
AcDbLine
 10
77.01002418774868
 20
-51.67060125319922
 30
0.0
 11
77.08441805619135
 21
-51.60863442384199
 31
0.0
  0
LINE
  5
576
330
18
100
AcDbEntity
  8
0
100
AcDbLine
 10
76.70004952815701
 20
-51.75735492858106
 30
0.0
 11
76.89843338508469
 21
-51.88128858729553
 31
0.0
  0
LINE
  5
577
330
18
100
AcDbEntity
  8
0
100
AcDbLine
 10
76.96042827545358
 20
-52.15394275074906
 30
0.0
 11
76.68765055008321
 21
-51.98043554283753
 31
0.0
  0
LINE
  5
578
330
18
100
AcDbEntity
  8
0
100
AcDbLine
 10
76.83643828696856
 20
-51.57145429765723
 30
0.0
 11
76.9480292973798
 21
-51.69538795637169
 31
0.0
  0
ARC
  5
579
330
18
100
AcDbEntity
  8
0
100
AcDbCircle
 10
76.48376743388728
 20
-51.27225107642311
 30
0.0
 40
2.401014403632589
100
AcDbArc
 50
332.9372777747224
 51
2.620563601095117
  0
LINE
  5
57A
330
18
100
AcDbEntity
  8
0
100
AcDbLine
 10
77.89035225422863
 20
-52.38941693086998
 30
0.0
 11
77.98954407881885
 21
-52.17872959677368
 31
0.0
  0
LINE
  5
57B
330
18
100
AcDbEntity
  8
0
100
AcDbLine
 10
78.06393794726152
 20
-52.37702350785768
 30
0.0
 11
78.20032670607308
 21
-52.16633617376137
 31
0.0
  0
LINE
  5
57C
330
18
100
AcDbEntity
  8
0
100
AcDbLine
 10
77.7167663534485
 20
-52.53813729275691
 30
0.0
 11
77.7787612438174
 21
-52.29026983247584
 31
0.0
  0
LINE
  5
57D
330
18
100
AcDbEntity
  8
0
100
AcDbLine
 10
77.91515021037618
 20
-52.56292413878152
 30
0.0
 11
78.11353385955664
 21
-52.62489096813875
 31
0.0
  0
LWPOLYLINE
  5
57E
330
18
100
AcDbEntity
  8
0
100
AcDbPolyline
 90
        3
 70
     0
 43
0.0
 10
77.58037759463694
 20
-52.64967767131121
 42
-0.233415798953366
 10
78.28711976033677
 20
-52.43899033721491
 42
0.2559453482524585
 10
77.66717044115338
 20
-52.74882462685322
 42
1.910083672947727
  0
LINE
  5
583
330
18
100
AcDbEntity
  8
0
100
AcDbLine
 10
77.7787612438174
 20
-52.68685779749598
 30
0.0
 11
78.01434203496642
 21
-52.79839817605028
 31
0.0
  0
LINE
  5
584
330
18
100
AcDbEntity
  8
0
100
AcDbLine
 10
79.26214792394907
 20
-51.16167807379636
 30
0.0
 11
78.83592388215053
 21
-51.16167807379636
 31
0.0
  0
LWPOLYLINE
  5
585
330
18
100
AcDbEntity
  8
0
100
AcDbPolyline
 90
        2
 70
     0
 43
0.0
 10
77.7012298533646
 20
-42.86079911104268
 42
0.3026615630804436
 10
77.28030812408
 20
-42.72055539401576
 42
0.3026615630804436
  0
LWPOLYLINE
  5
589
330
18
100
AcDbEntity
  8
0
100
AcDbPolyline
 90
        3
 70
     0
 43
0.0
 10
77.80646033876087
 20
-44.96445493943794
 42
-0.1196440948530965
 10
77.24523129561458
 20
-44.31582772081663
 42
0.1623008871198547
 10
77.73630668183002
 20
-45.05210728995159
 42
-2.915743970328522
  0
LINE
  5
58E
330
18
100
AcDbEntity
  8
0
100
AcDbLine
 10
77.63107619643374
 20
-44.99951592343833
 30
0.0
 11
77.227692934457
 21
-44.98198539494235
 31
0.0
  0
LWPOLYLINE
  5
58F
330
18
100
AcDbEntity
  8
0
100
AcDbPolyline
 90
        2
 70
     0
 43
0.0
 10
77.56092264565315
 20
-45.68320405306848
 42
-0.2234937883062391
 10
76.71907918708399
 20
-45.12222911196928
 42
0.5643282311540821
  0
ARC
  5
593
330
18
100
AcDbEntity
  8
0
100
AcDbCircle
 10
74.60709201233133
 20
-50.47927760744467
 30
0.0
 40
4.528048079436475
100
AcDbArc
 50
38.72485489834733
 51
51.30108666160253
  0
LWPOLYLINE
  5
594
330
18
100
AcDbEntity
  8
0
100
AcDbPolyline
 90
       14
 70
     0
 43
0.0
 10
77.61353783527616
 20
-45.22741191798735
 10
77.73630668183002
 20
-45.13975964046525
 42
-0.2456611413012705
 10
77.91169071800688
 20
-45.43777753002349
 42
-0.1206871260071977
 10
77.82399869991845
 20
-45.89356959211308
 42
-0.0099995872307934
 10
77.66615302489916
 20
-45.7007345085729
 42
0.2603474964523338
 10
77.57846100681073
 20
-45.24494237349176
 42
0.2691965971885177
 10
77.14000091636856
 20
-45.08716820096043
 42
-0.2199258570032009
 10
76.59631034053012
 20
-44.94692448393352
 42
0.3119882060077189
 10
76.70154082592642
 20
-45.33259472400541
 42
0.1127269432636214
 10
76.80677120517242
 20
-45.80591731459097
 42
0.1400374543294966
 10
77.12246244906072
 20
-46.05134376464441
 42
0.3975226299856578
 10
77.61353783527616
 20
-45.85850868110424
 42
-0.1926633800243885
 10
77.78892187145302
 20
-46.64737961675245
 42
0.1828122091394166
 10
78.12215158264918
 20
-47.64661609144527
 42
-2.104225752514619
  0
LINE
  5
5A4
330
18
100
AcDbEntity
  8
0
100
AcDbLine
 10
77.56092264565315
 20
-49.83792427035419
 30
0.0
 11
77.54338417834531
 21
-49.55743683630037
 31
0.0
  0
LINE
  5
5A5
330
18
100
AcDbEntity
  8
0
100
AcDbLine
 10
77.66615302489916
 20
-49.24188841824615
 30
0.0
 11
77.36800014216844
 21
-49.29447985775095
 31
0.0
  0
LWPOLYLINE
  5
5A6
330
18
100
AcDbEntity
  8
0
100
AcDbPolyline
 90
        3
 70
     0
 43
0.0
 10
77.29784659138786
 20
-49.41719311927346
 42
-0.2113977239705442
 10
77.98184437493773
 20
-49.99569844288552
 42
0.3416475383772448
 10
77.40307697063386
 20
-49.34707122426422
 42
0.0921721062796368
  0
LWPOLYLINE
  5
5AB
330
18
100
AcDbEntity
  8
0
100
AcDbPolyline
 90
        6
 70
     0
 43
0.0
 10
77.63107619643374
 20
-48.33030429406698
 42
0.2070570060865343
 10
75.94738938544567
 20
-48.85621825116579
 42
0.0237862832167728
 10
76.42092630435326
 20
-48.96140098419231
 42
-0.3971352764430145
 10
76.52615668359927
 20
-49.10164470121923
 42
0.320346816232014
 10
76.70154082592642
 20
-49.01399242369713
 42
-0.371606808994674
 10
77.64861466374158
 20
-48.33030429406698
 42
-23.15659066248932
  0
LWPOLYLINE
  5
5B3
330
18
100
AcDbEntity
  8
0
100
AcDbPolyline
 90
        9
 70
     0
 43
0.0
 10
77.14000091636856
 20
-44.85927220641142
 42
-0.2450075415202048
 10
76.52615668359927
 20
-44.59631522786201
 42
-0.385277435327869
 10
76.54369515090713
 20
-44.24570589879895
 42
0.3648877377216837
 10
76.84184803363784
 20
-43.87756611423147
 42
0.2421329086130201
 10
76.71907918708399
 20
-43.6496700466909
 42
0.4059310932493938
 10
77.14000091636856
 20
-43.45683496315072
 42
0.1097237842367619
 10
77.7012298533646
 20
-43.38671306814148
 42
0.4824458674304091
 10
77.7012298533646
 20
-42.84326865553825
 42
0.3845705786247512
 10
77.24523129561458
 20
-42.17711098141252
 42
0.1186853300671879
  0
LWPOLYLINE
  5
5BE
330
18
100
AcDbEntity
  8
0
100
AcDbPolyline
 90
        7
 70
     0
 43
0.0
 10
78.12215158264918
 20
-44.75408940039335
 10
78.13968994380676
 20
-44.63137613887085
 42
-0.1622543141626548
 10
77.85907552838388
 20
-44.4210105268347
 42
0.1462642952907919
 10
77.68369149220702
 20
-44.28076680980779
 42
0.114379385363941
 10
77.10492408790314
 20
-44.10546218177204
 42
0.0938751447064837
 10
77.12246244906072
 20
-44.84174167791545
 42
0.2805383430608318
 10
77.15753927752614
 20
-45.08716820096043
 42
-2.119125520659394
  0
LINE
  5
5C7
330
18
100
AcDbEntity
  8
0
100
AcDbLine
 10
77.03477043097229
 20
-45.43777753002349
 30
0.0
 11
76.98215524134929
 21
-45.13975964046525
 31
0.0
  0
LWPOLYLINE
  5
5C8
330
18
100
AcDbEntity
  8
0
100
AcDbPolyline
 90
        2
 70
     0
 43
0.0
 10
76.70154082592642
 20
-45.12222911196928
 42
0.3134236141041419
 10
77.54338417834531
 20
-45.788386786095
 42
0.3134236141041419
  0
LINE
  5
5CC
330
18
100
AcDbEntity
  8
0
100
AcDbLine
 10
77.40307697063386
 20
-45.63061261356367
 30
0.0
 11
77.40307697063386
 21
-45.20988146248292
 31
0.0
  0
LINE
  5
5CD
330
18
100
AcDbEntity
  8
0
100
AcDbLine
 10
77.175077744834
 20
-45.56049079154599
 30
0.0
 11
77.175077744834
 21
-45.12222911196928
 31
0.0
  0
LINE
  5
5CE
330
18
100
AcDbEntity
  8
0
100
AcDbLine
 10
75.80708207158396
 20
-49.27694940224654
 30
0.0
 11
75.49139082769565
 21
-49.22435796274172
 31
0.0
  0
LINE
  5
5CF
330
18
100
AcDbEntity
  8
0
100
AcDbLine
 10
76.05261976469169
 20
-49.18929705173288
 30
0.0
 11
75.71939005349553
 21
-49.06658379021039
 31
0.0
  0
LWPOLYLINE
  5
5D0
330
18
100
AcDbEntity
  8
0
100
AcDbPolyline
 90
        3
 70
     0
 43
0.0
 10
76.42092630435326
 20
-49.29447985775095
 42
0.1725286964149721
 10
75.52646765616109
 20
-49.61002820281362
 42
-0.3332427190853175
 10
76.36831111473026
 20
-49.18929705173288
 42
-11.08905338963003
  0
LINE
  5
5D5
330
18
100
AcDbEntity
  8
0
100
AcDbLine
 10
75.7720053492688
 20
-49.62755865831804
 30
0.0
 11
75.7720053492688
 21
-49.43472357477787
 31
0.0
  0
LINE
  5
5D6
330
18
100
AcDbEntity
  8
0
100
AcDbLine
 10
74.19354881137647
 20
-46.1740570261669
 30
0.0
 11
74.08831843213047
 21
-46.40195309370747
 31
0.0
  0
LINE
  5
5D7
330
18
100
AcDbEntity
  8
0
100
AcDbLine
 10
74.52677852257263
 20
-45.75332587508616
 30
0.0
 11
74.19354881137647
 21
-46.1740570261669
 31
0.0
  0
LINE
  5
5D8
330
18
100
AcDbEntity
  8
0
100
AcDbLine
 10
76.36831111473026
 20
-49.15423614072405
 30
0.0
 11
76.00000457506867
 21
-48.9438705286879
 31
0.0
  0
LINE
  5
5D9
330
18
100
AcDbEntity
  8
0
100
AcDbLine
 10
76.21046543971097
 20
-49.61002820281362
 30
0.0
 11
76.33323428626482
 21
-49.31201031325538
 31
0.0
  0
LINE
  5
5DA
330
18
100
AcDbEntity
  8
0
100
AcDbLine
 10
75.98246621391109
 20
-49.62755865831804
 30
0.0
 11
76.08769659315711
 21
-49.34707122426422
 31
0.0
  0
LINE
  5
5DB
330
18
100
AcDbEntity
  8
0
100
AcDbLine
 10
77.31538495254543
 20
-49.7152110088317
 30
0.0
 11
77.31538495254543
 21
-49.38213220826462
 31
0.0
  0
LINE
  5
5DC
330
18
100
AcDbEntity
  8
0
100
AcDbLine
 10
77.19261610599158
 20
-49.97816798738111
 30
0.0
 11
76.91200158441842
 21
-49.90804609237187
 31
0.0
  0
ARC
  5
5DD
330
18
100
AcDbEntity
  8
0
100
AcDbCircle
 10
77.28739185736522
 20
-46.42882716701133
 30
0.0
 40
0.5763370899053754
100
AcDbArc
 50
126.1908215970874
 51
189.5721908183493
  0
ARC
  5
5DE
330
18
100
AcDbEntity
  8
0
100
AcDbCircle
 10
77.2901405625866
 20
-46.44492180938634
 30
0.0
 40
0.6837564106212716
100
AcDbArc
 50
130.9675829294054
 51
164.4576922320695
  0
LWPOLYLINE
  5
5DF
330
18
100
AcDbEntity
  8
0
100
AcDbPolyline
 90
        6
 70
     0
 43
0.0
 10
77.01723206981471
 20
-46.01628285363557
 42
0.2704549675526322
 10
77.14000091636856
 20
-46.40195309370747
 42
-0.3718073477870162
 10
77.42061533179144
 20
-46.94539750631071
 10
77.29784659138786
 20
-46.92786705080629
 10
76.70154082592642
 20
-46.50713589972554
 10
76.59631034053012
 20
-46.27923983218497
 42
-0.5522658922107665
  0
LINE
  5
5E7
330
18
100
AcDbEntity
  8
0
100
AcDbLine
 10
77.21015457329944
 20
-45.73579541958174
 30
0.0
 11
76.87692486210328
 21
-45.73579541958174
 31
0.0
  0
LINE
  5
5E8
330
18
100
AcDbEntity
  8
0
100
AcDbLine
 10
76.98215524134929
 20
-45.52542988053715
 30
0.0
 11
76.82430956632998
 21
-45.54296033604157
 31
0.0
  0
LINE
  5
5E9
330
18
100
AcDbEntity
  8
0
100
AcDbLine
 10
77.47323062756471
 20
-45.8234477700954
 30
0.0
 11
77.06984725943771
 21
-45.91110004761749
 31
0.0
  0
LWPOLYLINE
  5
5EA
330
18
100
AcDbEntity
  8
0
100
AcDbPolyline
 90
        2
 70
     0
 43
0.0
 10
75.68431333118038
 20
-44.15805354828529
 10
75.8246205388918
 20
-44.01780983125838
  0
LWPOLYLINE
  5
5EE
330
18
100
AcDbEntity
  8
0
100
AcDbPolyline
 90
        3
 70
     0
 43
0.0
 10
75.98246621391109
 20
-43.40424359663747
 42
0.6499926507363419
 10
75.66677486387252
 20
-43.73732239720455
 42
-0.098644818543459
 10
75.73692852080339
 20
-44.08793172626761
 42
-1.000829670018596
  0
LWPOLYLINE
  5
5F3
330
18
100
AcDbEntity
  8
0
100
AcDbPolyline
 90
        4
 70
     0
 43
0.0
 10
75.92985091813782
 20
-43.29906079061939
 42
-0.0383874429576204
 10
75.54400601731867
 20
-43.28153033511497
 42
0.6043197436648927
 10
75.38616034229938
 20
-43.50942632966399
 42
-0.027318980474424
 10
75.56154448462653
 20
-43.89509656973588
 42
-1.463858568072652
  0
LWPOLYLINE
  5
5F9
330
18
100
AcDbEntity
  8
0
100
AcDbPolyline
 90
       13
 70
     0
 43
0.0
 10
77.227692934457
 20
-42.19464143691694
 10
77.24523129561458
 20
-41.98427589787235
 10
77.14000091636856
 20
-41.86156263634986
 42
-0.2401594060889833
 10
76.84184803363784
 20
-42.07192824838601
 42
0.3114721735543541
 10
76.54369515090713
 20
-41.96674544236794
 42
-0.2440345554908853
 10
76.14031178278011
 20
-41.87909309185427
 42
0.4807248665748418
 10
75.47385246653809
 20
-42.17711098141252
 42
0.3634031924407167
 10
75.75446688196095
 20
-42.66796402750251
 42
0.181411573287881
 10
75.85969736735724
 20
-43.1763475290969
 42
-0.015142494631865
 10
75.24585313458794
 20
-42.98351237256517
 42
0.565400275049429
 10
75.03539226994565
 20
-43.15881707359248
 42
0.3147469757636841
 10
75.45631399923023
 20
-43.73732239720455
 42
-0.2280587078654015
 10
75.66677486387252
 20
-44.14052309278088
 42
-1.033169338606365
  0
LWPOLYLINE
  5
608
330
18
100
AcDbEntity
  8
0
100
AcDbPolyline
 90
        3
 70
     0
 43
0.0
 10
75.7720053492688
 20
-42.68549448300691
 42
-0.1035198503426542
 10
76.56123351206471
 20
-43.31659124612381
 42
-0.359356370815403
 10
76.56123351206471
 20
-43.61460913568206
 42
-0.4712845306343877
  0
LWPOLYLINE
  5
60D
330
18
100
AcDbEntity
  8
0
100
AcDbPolyline
 90
       10
 70
     0
 43
0.0
 10
76.57877197937255
 20
-44.96445493943794
 42
-0.1231191064092126
 10
75.84215890004938
 20
-44.01780983125838
 42
-0.2361744710576757
 10
75.80708207158396
 20
-43.57954822467322
 42
-0.084266168619015
 10
76.2455422681764
 20
-43.50942632966399
 42
-0.6699780968337201
 10
76.28061909664182
 20
-43.59707868017764
 42
-0.0622857463058098
 10
76.2455422681764
 20
-44.0704012707632
 42
0.4143462094502468
 10
76.36831111473026
 20
-44.40348007133028
 42
0.2194411386434466
 10
76.42092630435326
 20
-44.40348007133028
 42
-0.0809750791729907
 10
76.63138716899556
 20
-43.86003565872704
 42
0.4088173996924357
 10
76.57877197937255
 20
-43.6496700466909
 42
0.2819016442384878
  0
LWPOLYLINE
  5
619
330
18
100
AcDbEntity
  8
0
100
AcDbPolyline
 90
        3
 70
     0
 43
0.0
 10
75.56154448462653
 20
-43.26399987961055
 42
0.585360415784645
 10
75.26339160189579
 20
-43.29906079061939
 42
0.6225166777801955
 10
75.38616034229938
 20
-43.43930450764631
 42
7.593364400506332
  0
LWPOLYLINE
  5
61E
330
18
100
AcDbEntity
  8
0
100
AcDbPolyline
 90
        6
 70
     0
 43
0.0
 10
76.00000457506867
 20
-42.47512894396233
 42
0.0515921866731093
 10
76.26308062933397
 20
-42.82573820003384
 42
0.1666333840836781
 10
76.49107996128411
 20
-42.94845146155632
 42
-0.3212386472590292
 10
76.82430956632998
 20
-43.28153033511497
 42
-0.1414061117266934
 10
76.73661754824156
 20
-43.63213959118648
 42
-0.2287823523652178
 10
77.14000091636856
 20
-43.45683496315072
 42
-50.16704749165192
  0
LWPOLYLINE
  5
626
330
18
100
AcDbEntity
  8
0
100
AcDbPolyline
 90
        3
 70
     0
 43
0.0
 10
76.75415601554941
 20
-43.66720057518688
 42
-0.0536463121376291
 10
75.94738938544567
 20
-43.36918261263707
 42
-0.0678863193501778
 10
75.84215890004938
 20
-43.15881707359248
 42
0.7158219112117673
  0
LWPOLYLINE
  5
62B
330
18
100
AcDbEntity
  8
0
100
AcDbPolyline
 90
        3
 70
     0
 43
0.0
 10
76.42092630435326
 20
-44.40348007133028
 42
-0.0502821935889841
 10
76.49107996128411
 20
-44.00027937575396
 42
0.5697031858707146
 10
76.36831111473026
 20
-43.57954822467322
 42
0.1262603383195069
  0
LWPOLYLINE
  5
630
330
18
100
AcDbEntity
  8
0
100
AcDbPolyline
 90
        3
 70
     0
 43
0.0
 10
76.36831111473026
 20
-43.57954822467322
 42
-0.0902101860504378
 10
76.33323428626482
 20
-44.01780983125838
 42
0.5117154705095929
 10
76.40338783704542
 20
-44.38594961582587
 42
-4.508495353281309
  0
LINE
  5
635
330
18
100
AcDbEntity
  8
0
100
AcDbLine
 10
77.332923313703
 20
-44.57878469936604
 30
0.0
 11
77.12246244906072
 21
-44.56125424386161
 31
0.0
  0
LINE
  5
636
330
18
100
AcDbEntity
  8
0
100
AcDbLine
 10
77.42061533179144
 20
-44.56125424386161
 30
0.0
 11
77.40307697063386
 21
-44.31582772081663
 31
0.0
  0
LINE
  5
637
330
18
100
AcDbEntity
  8
0
100
AcDbLine
 10
77.49076898872229
 20
-44.78915031140219
 30
0.0
 11
77.175077744834
 21
-44.80668076690661
 31
0.0
  0
LWPOLYLINE
  5
638
330
18
100
AcDbEntity
  8
0
100
AcDbPolyline
 90
        5
 70
     0
 43
0.0
 10
76.77169437670698
 20
-42.10698915939484
 42
0.1140643017539192
 10
76.94707841288385
 20
-42.66796402750251
 42
-0.3493106138184725
 10
76.89446322326086
 20
-43.03610381206999
 42
0.2123023960969801
 10
76.82430956632998
 20
-42.70302493851135
 42
-0.1888566721305049
 10
76.68400235861856
 20
-42.15958052590811
 42
1.128564462512196
  0
LWPOLYLINE
  5
63F
330
18
100
AcDbEntity
  8
0
100
AcDbPolyline
 90
        2
 70
     0
 43
0.0
 10
76.84184803363784
 20
-42.07192824838601
 42
0.1907275367003047
 10
76.10523495431468
 20
-42.65043357199808
 42
-0.5743406790196435
  0
ARC
  5
643
330
18
100
AcDbEntity
  8
0
100
AcDbCircle
 10
76.98370915766
 20
-43.62530507749105
 30
0.0
 40
0.6067337108098507
100
AcDbArc
 50
58.81843695075993
 51
114.0321289812638
  0
LWPOLYLINE
  5
644
330
18
100
AcDbEntity
  8
0
100
AcDbPolyline
 90
        2
 70
     0
 43
0.0
 10
77.24523129561458
 20
-42.19464143691694
 42
-0.1143356415643654
 10
77.10492408790314
 20
-43.01857335656556
 42
-0.6655382248084289
  0
LWPOLYLINE
  5
648
330
18
100
AcDbEntity
  8
0
100
AcDbPolyline
 90
        6
 70
     0
 43
0.0
 10
78.87630302312991
 20
-45.40271661901465
 42
0.6262096440054888
 10
78.22738206804546
 20
-45.92863057611348
 42
0.0000002016933547
 10
78.01692120340317
 20
-46.03381330913999
 42
-0.0187512009408847
 10
78.1572284111146
 20
-45.42024707451908
 42
-0.0000002241475479
 10
78.40276610422233
 20
-45.28000335749216
 10
78.50799648346833
 20
-45.38518609051868
  0
LWPOLYLINE
  5
650
330
18
100
AcDbEntity
  8
0
100
AcDbPolyline
 90
       11
 70
     0
 43
0.0
 10
78.35015080844904
 20
-44.91186357292468
 42
-0.2156907642176929
 10
78.71845734811062
 20
-44.50866287734835
 42
0.1886138772104146
 10
79.12184071623762
 20
-44.38594961582587
 42
-0.4425230942113447
 10
79.22707109548364
 20
-44.40348007133028
 42
-0.1007793853523658
 10
79.0867638877722
 20
-45.13975964046525
 42
-0.4760227905882886
 10
78.87630302312991
 20
-45.38518609051868
 42
0.4687361670298915
 10
79.24460956279149
 20
-45.315064268501
 42
-0.1294333353916904
 10
79.15691743855278
 20
-45.98122194262673
 42
-0.5800337402469842
 10
78.22738206804546
 20
-46.10393520414922
 42
0.0383958903524797
 10
78.03445956456075
 20
-46.2091180101673
 42
0.1449948664502861
 10
78.33261244729147
 20
-47.68167707544567
 42
-1.662513820911976
  0
LWPOLYLINE
  5
65D
330
18
100
AcDbEntity
  8
0
100
AcDbPolyline
 90
        8
 70
     0
 43
0.0
 10
78.6132269688646
 20
-47.69920753095009
 42
-0.3028892351556847
 10
78.64830369117976
 20
-47.90957306999469
 42
-0.0575204140971091
 10
78.80614936619905
 20
-48.27771285456217
 42
-0.0357034713241745
 10
78.84122619466449
 20
-48.4354870270935
 42
-0.0738278781919157
 10
78.84122619466449
 20
-48.57573074412041
 42
-0.0989759145478452
 10
78.6833805196452
 20
-48.59326127261638
 42
0.1914021956629972
 10
78.29753561882603
 20
-47.94463405399508
 42
-0.0204080899317648
 10
78.33261244729147
 20
-47.69920753095009
 42
1.201772093143377
  0
LINE
  5
667
330
18
100
AcDbEntity
  8
0
100
AcDbLine
 10
78.6132269688646
 20
-47.69920753095009
 30
0.0
 11
78.29753561882603
 21
-47.94463405399508
 31
0.0
  0
ARC
  5
668
330
18
100
AcDbEntity
  8
0
100
AcDbCircle
 10
75.94756327398981
 20
-50.72752245300034
 30
0.0
 40
3.004022209854429
100
AcDbArc
 50
21.83897410899211
 51
38.53062654263115
  0
LINE
  5
669
330
18
100
AcDbEntity
  8
0
100
AcDbLine
 10
78.33261244729147
 20
-48.85621825116579
 30
0.0
 11
78.20984360073762
 21
-48.99646196819271
 31
0.0
  0
LINE
  5
66A
330
18
100
AcDbEntity
  8
0
100
AcDbLine
 10
77.91169071800688
 20
-49.36460167976864
 30
0.0
 11
77.61353783527616
 21
-49.43472357477787
 31
0.0
  0
LINE
  5
66B
330
18
100
AcDbEntity
  8
0
100
AcDbLine
 10
77.99938273609531
 20
-49.57496729180479
 30
0.0
 11
77.82399869991845
 21
-49.5924977473092
 31
0.0
  0
LINE
  5
66C
330
18
100
AcDbEntity
  8
0
100
AcDbLine
 10
77.75384504298759
 20
-49.94310707637227
 30
0.0
 11
77.77138351029545
 21
-49.75027191984054
 31
0.0
  0
LWPOLYLINE
  5
66D
330
18
100
AcDbEntity
  8
0
100
AcDbPolyline
 90
        2
 70
     0
 43
0.0
 10
79.17445590586064
 20
-45.52542988053715
 42
-0.253677529443903
 10
78.33261244729147
 20
-46.08640474864481
 42
-0.0454912839326834
  0
LWPOLYLINE
  5
671
330
18
100
AcDbEntity
  8
0
100
AcDbPolyline
 90
        2
 70
     0
 43
0.0
 10
78.29753561882603
 20
-45.94616103161789
 42
0.1519613584022763
 10
79.17445590586064
 20
-45.50789935204117
 42
0.1519613584022763
  0
LINE
  5
675
330
18
100
AcDbEntity
  8
0
100
AcDbLine
 10
78.33261244729147
 20
-47.68167707544567
 30
0.0
 11
78.6132269688646
 21
-47.69920753095009
 31
0.0
  0
LINE
  5
676
330
18
100
AcDbEntity
  8
0
100
AcDbLine
 10
78.87630302312991
 20
-45.66567359756406
 30
0.0
 11
78.85876455582206
 21
-45.52542988053715
 31
0.0
  0
LINE
  5
677
330
18
100
AcDbEntity
  8
0
100
AcDbLine
 10
78.63076533002218
 20
-45.8234477700954
 30
0.0
 11
78.66584215848762
 21
-45.47283844103233
 31
0.0
  0
LINE
  5
678
330
18
100
AcDbEntity
  8
0
100
AcDbLine
 10
79.10430224892978
 20
-45.89356959211308
 30
0.0
 11
78.85876455582206
 21
-45.87603913660865
 31
0.0
  0
LINE
  5
679
330
18
100
AcDbEntity
  8
0
100
AcDbLine
 10
78.91137985159534
 20
-46.08640474864481
 30
0.0
 11
78.73599581541848
 21
-45.99875239813115
 31
0.0
  0
LINE
  5
67A
330
18
100
AcDbEntity
  8
0
100
AcDbLine
 10
78.47291965500289
 20
-45.91110004761749
 30
0.0
 11
78.45538129384533
 21
-45.59555170255483
 31
0.0
  0
LWPOLYLINE
  5
67B
330
18
100
AcDbEntity
  8
0
100
AcDbPolyline
 90
        5
 70
     0
 43
0.0
 10
78.66584215848762
 20
-44.28076680980779
 42
0.297349596615246
 10
78.22738206804546
 20
-43.43930450764631
 42
0.0661154320748096
 10
77.78892187145302
 20
-43.26399987961055
 42
0.8047646974528246
 10
77.73630668183002
 20
-43.36918261263707
 42
0.0175902546582519
 10
77.66615302489916
 20
-44.26323635430337
 42
-0.9577744361359982
  0
LINE
  5
682
330
18
100
AcDbEntity
  8
0
100
AcDbLine
 10
78.54307331193377
 20
-44.05287074226722
 30
0.0
 11
78.27999725766847
 21
-44.29829726531221
 31
0.0
  0
LWPOLYLINE
  5
683
330
18
100
AcDbEntity
  8
0
100
AcDbPolyline
 90
        2
 70
     0
 43
0.0
 10
79.0867638877722
 20
-44.63137613887085
 42
-0.2373318369514915
 10
78.40276610422233
 20
-45.29753381299658
 42
-0.1542790301302646
  0
LINE
  5
687
330
18
100
AcDbEntity
  8
0
100
AcDbLine
 10
78.13968994380676
 20
-43.47436541865515
 30
0.0
 11
78.08707475418374
 21
-43.6496700466909
 31
0.0
  0
LINE
  5
688
330
18
100
AcDbEntity
  8
0
100
AcDbLine
 10
77.98184437493773
 20
-43.6496700466909
 30
0.0
 11
77.80646033876087
 21
-43.59707868017764
 31
0.0
  0
LINE
  5
689
330
18
100
AcDbEntity
  8
0
100
AcDbLine
 10
78.42030446537989
 20
-43.84250520322263
 30
0.0
 11
78.20984360073762
 21
-44.0353402867628
 31
0.0
  0
LINE
  5
68A
330
18
100
AcDbEntity
  8
0
100
AcDbLine
 10
78.01692120340317
 20
-43.86003565872704
 30
0.0
 11
77.80646033876087
 21
-43.80744429221379
 31
0.0
  0
LINE
  5
68B
330
18
100
AcDbEntity
  8
0
100
AcDbLine
 10
78.1046132214916
 20
-44.0704012707632
 30
0.0
 11
77.78892187145302
 21
-44.00027937575396
 31
0.0
  0
LINE
  5
68C
330
18
100
AcDbEntity
  8
0
100
AcDbLine
 10
78.1046132214916
 20
-44.29829726531221
 30
0.0
 11
77.80646033876087
 21
-44.22817544329453
 31
0.0
  0
LINE
  5
68D
330
18
100
AcDbEntity
  8
0
100
AcDbLine
 10
78.33261244729147
 20
-43.59707868017764
 30
0.0
 11
78.13968994380676
 21
-43.80744429221379
 31
0.0
  0
LINE
  5
68E
330
18
100
AcDbEntity
  8
0
100
AcDbLine
 10
78.29753561882603
 20
-44.52619333285278
 30
0.0
 11
78.31507408613389
 21
-44.66643704987968
 31
0.0
  0
LINE
  5
68F
330
18
100
AcDbEntity
  8
0
100
AcDbLine
 10
78.40276610422233
 20
-44.56125424386161
 30
0.0
 11
78.29753561882603
 21
-44.52619333285278
 31
0.0
  0
LINE
  5
690
330
18
100
AcDbEntity
  8
0
100
AcDbLine
 10
77.56092264565315
 20
-44.66643704987968
 30
0.0
 11
77.64861466374158
 21
-44.47360196633952
 31
0.0
  0
LINE
  5
691
330
18
100
AcDbEntity
  8
0
100
AcDbLine
 10
78.19230523958004
 20
-45.26247290198774
 30
0.0
 11
78.35015080844904
 21
-45.13975964046525
 31
0.0
  0
LINE
  5
692
330
18
100
AcDbEntity
  8
0
100
AcDbLine
 10
78.33261244729147
 20
-44.92939402842909
 30
0.0
 11
78.19230523958004
 21
-44.98198539494235
 31
0.0
  0
LINE
  5
693
330
18
100
AcDbEntity
  8
0
100
AcDbLine
 10
78.35015080844904
 20
-45.13975964046525
 30
0.0
 11
78.35015080844904
 21
-44.94692448393352
 31
0.0
  0
LINE
  5
694
330
18
100
AcDbEntity
  8
0
100
AcDbLine
 10
78.19230523958004
 20
-44.98198539494235
 30
0.0
 11
78.19230523958004
 21
-45.26247290198774
 31
0.0
  0
LINE
  5
695
330
18
100
AcDbEntity
  8
0
100
AcDbLine
 10
78.03445956456075
 20
-45.20988146248292
 30
0.0
 11
78.08707475418374
 21
-45.05210728995159
 31
0.0
  0
LWPOLYLINE
  5
696
330
18
100
AcDbEntity
  8
0
100
AcDbPolyline
 90
        2
 70
     0
 43
0.0
 10
77.78892187145302
 20
-45.20988146248292
 10
77.64861466374158
 20
-45.20988146248292
  0
LINE
  5
69A
330
18
100
AcDbEntity
  8
0
100
AcDbLine
 10
78.19230523958004
 20
-44.99951592343833
 30
0.0
 11
77.98184437493773
 21
-45.08716820096043
 31
0.0
  0
LINE
  5
69B
330
18
100
AcDbEntity
  8
0
100
AcDbLine
 10
77.98184437493773
 20
-45.08716820096043
 30
0.0
 11
78.03445956456075
 21
-45.20988146248292
 31
0.0
  0
LWPOLYLINE
  5
69C
330
18
100
AcDbEntity
  8
0
100
AcDbPolyline
 90
        2
 70
     0
 43
0.0
 10
77.99938273609531
 20
-44.57878469936604
 42
-0.1401160006156626
 10
77.92922907916445
 20
-45.05210728995159
 42
-0.6446661035575796
  0
LINE
  5
6A0
330
18
100
AcDbEntity
  8
0
100
AcDbLine
 10
77.66615302489916
 20
-44.87680266191584
 30
0.0
 11
77.77138351029545
 21
-44.52619333285278
 31
0.0
  0
LWPOLYLINE
  5
6A1
330
18
100
AcDbEntity
  8
0
100
AcDbPolyline
 90
        3
 70
     0
 43
0.0
 10
78.17476677227218
 20
-44.49113242184394
 42
0.0757092454919167
 10
77.89415235684931
 20
-43.5269567851684
 42
-0.2309810798552808
 10
78.29753561882603
 20
-44.4210105268347
 42
-0.9702845115339686
  0
LINE
  5
6A6
330
18
100
AcDbEntity
  8
0
100
AcDbLine
 10
78.91137985159534
 20
-44.84174167791545
 30
0.0
 11
78.84122619466449
 21
-44.57878469936604
 31
0.0
  0
LINE
  5
6A7
330
18
100
AcDbEntity
  8
0
100
AcDbLine
 10
79.05168705930677
 20
-45.10469865646485
 30
0.0
 11
78.77107253773363
 21
-45.10469865646485
 31
0.0
  0
LINE
  5
6A8
330
18
100
AcDbEntity
  8
0
100
AcDbLine
 10
78.89384138428749
 20
-45.29753381299658
 30
0.0
 11
78.54307331193377
 21
-45.24494237349176
 31
0.0
  0
LINE
  5
6A9
330
18
100
AcDbEntity
  8
0
100
AcDbLine
 10
79.15691743855278
 20
-44.89433311742025
 30
0.0
 11
78.96399504121834
 21
-44.92939402842909
 31
0.0
  0
LINE
  5
6AA
330
18
100
AcDbEntity
  8
0
100
AcDbLine
 10
78.77107253773363
 20
-44.99951592343833
 30
0.0
 11
78.71845734811062
 21
-44.70149796088853
 31
0.0
  0
LINE
  5
6AB
330
18
100
AcDbEntity
  8
0
100
AcDbLine
 10
78.54307331193377
 20
-45.06963774545601
 30
0.0
 11
78.54307331193377
 21
-44.85927220641142
 31
0.0
  0
LWPOLYLINE
  5
6AC
330
18
100
AcDbEntity
  8
0
100
AcDbPolyline
 90
        2
 70
     0
 43
0.0
 10
78.47291965500289
 20
-45.12222911196928
 42
0.2416104523967523
 10
79.10430224892978
 20
-44.63137613887085
 42
1.568830328206643
  0
LINE
  5
6B0
330
18
100
AcDbEntity
  8
0
100
AcDbLine
 10
78.22871425402873
 20
-31.8027449150812
 30
0.0
 11
78.24625272133657
 21
-31.57484884754063
 31
0.0
  0
LINE
  5
6B1
330
18
100
AcDbEntity
  8
0
100
AcDbLine
 10
78.36902146174016
 20
-31.73262302007196
 30
0.0
 11
78.40409829020559
 21
-31.53978793653179
 31
0.0
  0
LINE
  5
6B2
330
18
100
AcDbEntity
  8
0
100
AcDbLine
 10
77.98317656092101
 20
-31.85533628159446
 30
0.0
 11
78.03579185669429
 21
-31.55731839203621
 31
0.0
  0
LINE
  5
6B3
330
18
100
AcDbEntity
  8
0
100
AcDbLine
 10
77.19394839812512
 20
-31.66250112506272
 30
0.0
 11
77.29917877737112
 21
-31.75015347557638
 31
0.0
  0
LWPOLYLINE
  5
6B4
330
18
100
AcDbEntity
  8
0
100
AcDbPolyline
 90
        3
 70
     0
 43
0.0
 10
77.50963964201341
 20
-31.73262302007196
 42
-0.1098018479809379
 10
77.08871791272883
 20
-30.82103882290124
 42
0.1197976860102981
 10
77.33425560583656
 20
-31.71509256456754
 42
0.1197976860102981
  0
LWPOLYLINE
  5
6B9
330
18
100
AcDbEntity
  8
0
100
AcDbPolyline
 90
        3
 70
     0
 43
0.0
 10
77.94809973245557
 20
-31.85533628159446
 42
0.0800984288039531
 10
78.5970207936903
 20
-31.62744021405389
 42
-0.1615051821988555
 10
77.98317656092101
 20
-32.01311045412579
 42
8.268446181402397
  0
LWPOLYLINE
  5
6BE
330
18
100
AcDbEntity
  8
0
100
AcDbPolyline
 90
       13
 70
     0
 43
0.0
 10
78.5970207936903
 20
-32.13582371564828
 42
-0.1056047289419585
 10
77.63240848856728
 20
-33.38048671338609
 42
0.1059873361914043
 10
77.73763897396356
 20
-32.41631114970211
 42
-0.229608224999216
 10
77.877946181675
 20
-32.03064090963021
 42
0.5574826067794315
 10
78.42163675751343
 20
-32.20594561065752
 42
0.4369819929459729
 10
78.70225117293632
 20
-31.96051908761253
 42
0.0808042054442319
 10
78.8074816583326
 20
-31.4170746750093
 42
-0.0399181535260876
 10
78.01825338938643
 20
-31.45213558601813
 42
0.3820732391646894
 10
77.91302301014042
 20
-31.53978793653179
 42
0.2816758016337624
 10
77.80779252474414
 20
-31.90792764810772
 10
77.64994684972485
 20
-32.01311045412579
 10
77.56225483163643
 20
-31.8027449150812
 10
77.82533099205199
 20
-31.62744021405389
  0
LWPOLYLINE
  5
6CD
330
18
100
AcDbEntity
  8
0
100
AcDbPolyline
 90
        3
 70
     0
 43
0.0
 10
76.84318021962112
 20
-31.57484884754063
 42
0.235972395034205
 10
76.26441292146751
 20
-31.73262302007196
 42
-0.5839249870526376
 10
75.84349119218294
 20
-31.8903971926033
 42
-2.746289348813184
  0
LWPOLYLINE
  5
6D2
330
18
100
AcDbEntity
  8
0
100
AcDbPolyline
 90
       10
 70
     0
 43
0.0
 10
77.89548454283258
 20
-31.55731839203621
 42
0.205343046036048
 10
77.79025416358656
 20
-31.10152625695507
 42
0.1671578723973533
 10
77.38687079545956
 20
-30.82103882290124
 42
-0.4229873277266102
 10
77.14133310235183
 20
-30.36524676081167
 42
0.3784769463692125
 10
76.7905650299981
 20
-31.04893489044181
 42
0.099063442419778
 10
76.84318021962112
 20
-31.57484884754063
 42
0.4287787682544161
 10
77.40440926276741
 20
-31.85533628159446
 10
77.43948598508255
 20
-32.11829326014387
 10
77.2641019489057
 20
-32.06570182063904
 10
77.22902522659055
 20
-31.87286673709888
  0
LWPOLYLINE
  5
6DE
330
18
100
AcDbEntity
  8
0
100
AcDbPolyline
 90
        8
 70
     0
 43
0.0
 10
78.89517367642103
 20
-30.27759441029801
 10
78.89517367642103
 20
-30.17241160427993
 10
79.24594174877475
 20
-30.17241160427993
 10
79.24594174877475
 20
-31.11905671245949
 42
-0.1652860479489222
 10
78.42163675751343
 20
-33.1701211743415
 42
-0.1029565973115712
 10
76.21179773184451
 20
-34.87057630716044
 42
-0.2775684050111868
 10
78.89517367642103
 20
-35.99252604337574
 42
-0.4327504568052787
 10
78.26379108249415
 20
-38.70974810639193
 42
3.716794353251612
  0
LWPOLYLINE
  5
6E8
330
18
100
AcDbEntity
  8
0
100
AcDbPolyline
 90
        9
 70
     0
 43
0.0
 10
75.89610638180594
 20
-32.13582371564828
 42
0.2061154774780762
 10
76.77302666884052
 20
-32.59161577773787
 42
0.3707781585625302
 10
77.24656358774812
 20
-32.24100652166636
 42
-0.2950099870597036
 10
77.54471647047885
 20
-32.59161577773787
 42
-0.1595344370219173
 10
77.43948598508255
 20
-33.15259071883707
 42
0.0085842559755546
 10
77.08871791272883
 20
-33.81874839296281
 10
76.94841070501739
 20
-33.7836874089624
 42
0.1978123665323979
 10
76.70287301190967
 20
-34.01158347650298
 42
-0.640076295855237
 10
76.59764263266366
 20
-34.01158347650298
 42
1.517863769029194
  0
LWPOLYLINE
  5
6F3
330
18
100
AcDbEntity
  8
0
100
AcDbPolyline
 90
        3
 70
     0
 43
0.0
 10
76.8957955153944
 20
-36.43078764996091
 42
-0.2158868882467308
 10
77.35179396699412
 20
-36.25548302192516
 42
-0.0000001224127574
 10
77.91302301014042
 20
-36.11523930489824
 42
-0.1230514116092108
  0
ARC
  5
6F8
330
18
100
AcDbEntity
  8
0
100
AcDbCircle
 10
76.53599052922141
 20
-38.33831913605027
 30
0.0
 40
1.469500541505336
100
AcDbArc
 50
41.7449499043089
 51
91.01534858881047
  0
LWPOLYLINE
  5
6F9
330
18
100
AcDbEntity
  8
0
100
AcDbPolyline
 90
        8
 70
     0
 43
0.0
 10
76.86071868692896
 20
-36.69374462851031
 42
-0.319971158647534
 10
77.03610272310583
 20
-36.23795256642074
 42
-0.1153007379553775
 10
77.82533099205199
 20
-35.76462997583518
 42
-0.8673509037171612
 10
77.94809973245557
 20
-35.81722141534
 42
0.0516075900921459
 10
77.89548454283258
 20
-36.0801783938894
 42
-0.6596704461173553
 10
77.877946181675
 20
-36.22042211091631
 42
-0.1944949609276194
 10
77.73763897396356
 20
-36.81645789003281
 42
-0.2047714931127663
 10
77.50963964201341
 20
-36.95670160705972
 42
13.53526833388298
  0
LWPOLYLINE
  5
703
330
18
100
AcDbEntity
  8
0
100
AcDbPolyline
 90
        3
 70
     0
 43
0.0
 10
76.86071868692896
 20
-36.5535009114834
 42
-0.2891764240045069
 10
77.35179396699412
 20
-36.32560491693439
 42
-0.0062471490162866
 10
77.89548454283258
 20
-36.23795256642074
 42
-0.073807516246879
  0
LWPOLYLINE
  5
708
330
18
100
AcDbEntity
  8
0
100
AcDbPolyline
 90
        5
 70
     0
 43
0.0
 10
78.24625272133657
 20
-39.04282697995057
 42
-0.3005420446431691
 10
77.98317656092101
 20
-39.14800978596865
 42
0.1426314728383253
 10
77.54471647047885
 20
-39.18307069697748
 42
-0.0830748831564435
 10
77.86040771436714
 20
-38.69221765088751
 42
0.1700663135366061
 10
78.05333021785187
 20
-38.23642558879793
 42
-0.9384396032605316
  0
LWPOLYLINE
  5
70F
330
18
100
AcDbEntity
  8
0
100
AcDbPolyline
 90
        3
 70
     0
 43
0.0
 10
77.877946181675
 20
-38.14877323828427
 42
-0.1297994746220581
 10
77.72010050665571
 20
-38.70974810639193
 42
0.099858363947208
 10
77.56225483163643
 20
-39.16554024147306
 42
1.144231567609045
  0
LWPOLYLINE
  5
714
330
18
100
AcDbEntity
  8
0
100
AcDbPolyline
 90
       15
 70
     0
 43
0.0
 10
77.91302301014042
 20
-36.23795256642074
 42
-0.1753589194772699
 10
78.40409829020559
 20
-36.99176259106012
 42
-0.4670780996250873
 10
78.1410222359403
 20
-37.34237184713163
 42
0.0784263289799045
 10
77.59733166010184
 20
-37.39496328663644
 42
-0.147088895138865
 10
77.05364108426341
 20
-37.51767654815894
 42
-0.3432304479135056
 10
77.17640993081727
 20
-37.79816398221277
 42
-0.5586625753249022
 10
76.82564185846354
 20
-38.02605997676177
 42
0.4804890469864789
 10
76.29948974993294
 20
-38.20136467778908
 42
-0.2883584869484705
 10
76.42225849033653
 20
-37.69298117619469
 42
0.4143998917784301
 10
76.42225849033653
 20
-37.43002419764528
 42
0.3600802114840282
 10
76.17672090337908
 20
-37.58779837017661
 42
-0.2517608581942611
 10
75.98379839989437
 20
-37.85075534872602
 42
-0.314623291359641
 10
75.87856802064836
 20
-37.8332248932216
 10
75.98379839989437
 20
-37.79816398221277
 10
76.05395205682523
 20
-37.67545072069027
  0
LWPOLYLINE
  5
725
330
18
100
AcDbEntity
  8
0
100
AcDbPolyline
 90
        4
 70
     0
 43
0.0
 10
78.22871425402873
 20
-38.4292606723381
 42
0.2345239875174416
 10
78.94778886604403
 20
-37.18459767460029
 42
0.3886402566289407
 10
77.35179396699412
 20
-35.20365510772752
 42
0.1150287062102737
 10
75.91364474296351
 20
-35.22118556323194
 42
-6.703955181316959
  0
LWPOLYLINE
  5
72B
330
18
100
AcDbEntity
  8
0
100
AcDbPolyline
 90
       12
 70
     0
 43
0.0
 10
76.31702811109052
 20
-37.02682350206896
 42
0.2802985741085332
 10
76.00133686720223
 20
-36.99176259106012
 42
0.3587214021048889
 10
76.05395205682523
 20
-37.55273745916777
 42
-0.586444166016182
 10
76.0188752283598
 20
-37.67545072069027
 42
-0.1889133025519325
 10
75.89610638180594
 20
-37.65792026518585
 42
0.0784930315851779
 10
75.84349119218294
 20
-37.4475546531497
 42
-0.1035604212769121
 10
75.63303032754063
 20
-36.97423206256415
 42
-0.519119910098652
 10
75.84349119218294
 20
-36.74633606801513
 42
0.5589431466963772
 10
76.22933609300209
 20
-36.27301347742958
 42
0.3050008090424543
 10
75.87856802064836
 20
-36.01005649888016
 42
-0.4770547681373218
 10
76.8957955153944
 20
-35.83475187084441
 42
-0.0553601771242843
 10
77.49210128085585
 20
-35.86981278185325
 42
0.0848712555214172
  0
ARC
  5
739
330
18
100
AcDbEntity
  8
0
100
AcDbCircle
 10
76.6140448778562
 20
-39.23280283817421
 30
0.0
 40
1.170714952673596
100
AcDbArc
 50
220.2655353331249
 51
311.3099090033883
  0
LINE
  5
73A
330
18
100
AcDbEntity
  8
0
100
AcDbLine
 10
74.01949706733316
 20
-38.65715673987867
 30
0.0
 11
74.35272677852932
 21
-38.53444347835617
 31
0.0
  0
LINE
  5
73B
330
18
100
AcDbEntity
  8
0
100
AcDbLine
 10
74.30011148275602
 20
-39.09541834646383
 30
0.0
 11
74.30011148275602
 21
-38.90258326292365
 31
0.0
  0
LINE
  5
73C
330
18
100
AcDbEntity
  8
0
100
AcDbLine
 10
74.26503476044088
 20
-38.74480909039232
 30
0.0
 11
74.58072600432918
 21
-38.69221765088751
 31
0.0
  0
LWPOLYLINE
  5
73D
330
18
100
AcDbEntity
  8
0
100
AcDbPolyline
 90
        2
 70
     0
 43
0.0
 10
76.24687445415966
 20
-38.60456537336541
 42
-0.2686959386052415
 10
76.05395205682523
 20
-37.81569443771718
 42
-0.7489455754527742
  0
LWPOLYLINE
  5
741
330
18
100
AcDbEntity
  8
0
100
AcDbPolyline
 90
        3
 70
     0
 43
0.0
 10
77.31671724467898
 20
-38.7272786348879
 42
-0.0960968705159082
 10
76.61518099382124
 20
-38.58703491786099
 42
-0.2506675167592873
 10
76.28195128262508
 20
-38.18383422228467
 42
-1.222369237865263
  0
ARC
  5
746
330
18
100
AcDbEntity
  8
0
100
AcDbCircle
 10
77.29989615005142
 20
-37.75076996086305
 30
0.0
 40
1.274989620930612
100
AcDbArc
 50
236.5786660104693
 51
271.544240151883
  0
LINE
  5
747
330
18
100
AcDbEntity
  8
0
100
AcDbLine
 10
76.42225849033653
 20
-39.48108858653573
 30
0.0
 11
76.6853346507521
 21
-39.37590578051765
 31
0.0
  0
LINE
  5
748
330
18
100
AcDbEntity
  8
0
100
AcDbLine
 10
76.43979695764437
 20
-39.14800978596865
 30
0.0
 11
76.65025782228667
 21
-38.97270508494134
 31
0.0
  0
LINE
  5
749
330
18
100
AcDbEntity
  8
0
100
AcDbLine
 10
76.15918243607123
 20
-39.00776606894173
 30
0.0
 11
76.36964330071352
 21
-39.0778878909594
 31
0.0
  0
LINE
  5
74A
330
18
100
AcDbEntity
  8
0
100
AcDbLine
 10
75.98379839989437
 20
-39.35837532501324
 30
0.0
 11
76.15918243607123
 21
-39.65639328756304
 31
0.0
  0
LINE
  5
74B
330
18
100
AcDbEntity
  8
0
100
AcDbLine
 10
76.12410560760579
 20
-39.18307069697748
 30
0.0
 11
76.31702811109052
 21
-39.41096676451805
 31
0.0
  0
LWPOLYLINE
  5
74C
330
18
100
AcDbEntity
  8
0
100
AcDbPolyline
 90
        3
 70
     0
 43
0.0
 10
76.10656724644822
 20
-39.69145419857188
 42
0.36294775266936
 10
76.28195128262508
 20
-38.74480909039232
 42
-0.314315089249479
 10
76.19425926453665
 20
-39.77910654908554
 42
2.132040245621408
  0
LINE
  5
751
330
18
100
AcDbEntity
  8
0
100
AcDbLine
 10
76.28195128262508
 20
-39.7089846540763
 30
0.0
 11
76.63271935497881
 21
-39.63886275906706
 31
0.0
  0
ARC
  5
752
330
18
100
AcDbEntity
  8
0
100
AcDbCircle
 10
76.53476799062776
 20
-38.47751463137042
 30
0.0
 40
1.801315165472744
100
AcDbArc
 50
56.56872133892788
 51
90.23152970425812
  0
ARC
  5
753
330
18
100
AcDbEntity
  8
0
100
AcDbCircle
 10
78.74607473996697
 20
-58.31833196161424
 30
0.0
 40
20.54332996534179
100
AcDbArc
 50
94.92194416856532
 51
95.95381665202856
  0
ARC
  5
754
330
18
100
AcDbEntity
  8
0
100
AcDbCircle
 10
76.4045007371482
 20
-37.5172109226693
 30
0.0
 40
0.4006960996397114
100
AcDbArc
 50
298.8171473139847
 51
23.11565017752601
  0
LWPOLYLINE
  5
755
330
18
100
AcDbEntity
  8
0
100
AcDbPolyline
 90
        2
 70
     0
 43
0.0
 10
76.21179773184451
 20
-36.64115326199706
 42
0.1563085961396765
 10
77.07117955157126
 20
-37.51767654815894
 42
0.2474553926200325
  0
LWPOLYLINE
  5
759
330
18
100
AcDbEntity
  8
0
100
AcDbPolyline
 90
        4
 70
     0
 43
0.0
 10
76.22933609300209
 20
-37.48261556415854
 42
-0.2972110241483108
 10
76.56256580419825
 20
-37.27225002511394
 42
-0.5445592714800938
 10
76.65025782228667
 20
-37.41249374214087
 42
-0.0909094038388028
 10
76.45733531880195
 20
-37.60532882568103
 42
3.210815665442932
  0
ARC
  5
75F
330
18
100
AcDbEntity
  8
0
100
AcDbCircle
 10
72.55649115437417
 20
-33.10616910112877
 30
0.0
 40
6.232335351324603
100
AcDbArc
 50
308.1310173104899
 51
310.4223479021429
  0
ARC
  5
760
330
18
100
AcDbEntity
  8
0
100
AcDbCircle
 10
76.98005401569415
 20
-37.7193834008374
 30
0.0
 40
0.9219461977231343
100
AcDbArc
 50
132.9306387085274
 51
165.1189551240524
  0
ARC
  5
761
330
18
100
AcDbEntity
  8
0
100
AcDbCircle
 10
76.85427845405962
 20
-37.4358778485316
 30
0.0
 40
0.7666754962584358
100
AcDbArc
 50
144.6004971737574
 51
183.4950057448129
  0
ARC
  5
762
330
18
100
AcDbEntity
  8
0
100
AcDbCircle
 10
76.07510129509138
 20
-37.55273745916777
 30
0.0
 40
0.798036958118606
100
AcDbArc
 50
336.7087223969513
 51
10.12148387577724
  0
ARC
  5
763
330
18
100
AcDbEntity
  8
0
100
AcDbCircle
 10
76.57138475311052
 20
-37.72924707371152
 30
0.0
 40
0.4296428313001215
100
AcDbArc
 50
343.5718768081609
 51
40.96844228953736
  0
LINE
  5
764
330
18
100
AcDbEntity
  8
0
100
AcDbLine
 10
75.54533830945221
 20
-35.22118556323194
 30
0.0
 11
75.87856802064836
 21
-35.64191671431268
 31
0.0
  0
LWPOLYLINE
  5
765
330
18
100
AcDbEntity
  8
0
100
AcDbPolyline
 90
        3
 70
     0
 43
0.0
 10
74.51057234739832
 20
-32.73185956775634
 42
-0.585360415784645
 10
74.80872523012904
 20
-32.76692047876518
 42
-0.6225166777801955
 10
74.68595648972547
 20
-32.90716419579209
 42
-7.593364400506332
  0
LWPOLYLINE
  5
76A
330
18
100
AcDbEntity
  8
0
100
AcDbPolyline
 90
        2
 70
     0
 43
0.0
 10
74.38780350084446
 20
-33.62591323643107
 10
74.24749629313303
 20
-33.48566951940417
  0
LWPOLYLINE
  5
76E
330
18
100
AcDbEntity
  8
0
100
AcDbPolyline
 90
        4
 70
     0
 43
0.0
 10
74.14226591388701
 20
-32.76692047876518
 42
0.0383874429576204
 10
74.52811081470618
 20
-32.74939002326076
 42
-0.6043197436648927
 10
74.68595648972547
 20
-32.97728601780977
 42
0.027318980474424
 10
74.51057234739832
 20
-33.36295625788167
 42
1.463858568072652
  0
LWPOLYLINE
  5
774
330
18
100
AcDbEntity
  8
0
100
AcDbPolyline
 90
        3
 70
     0
 43
0.0
 10
74.08965061811374
 20
-32.87210328478325
 42
-0.6499926507363419
 10
74.40534196815232
 20
-33.20518208535033
 42
0.098644818543459
 10
74.33518831122146
 20
-33.5557914144134
 42
1.000829670018596
  0
LWPOLYLINE
  5
779
330
18
100
AcDbEntity
  8
0
100
AcDbPolyline
 90
        3
 70
     0
 43
0.0
 10
76.94841070501739
 20
-33.80121793745839
 10
77.03610272310583
 20
-33.99405302099856
 10
77.10625638003668
 20
-33.80121793745839
  0
LWPOLYLINE
  5
77E
330
18
100
AcDbEntity
  8
0
100
AcDbPolyline
 90
        3
 70
     0
 43
0.0
 10
76.61518099382124
 20
-34.0291139320074
 10
76.45733531880195
 20
-34.11676628252105
 10
76.42225849033653
 20
-34.30960136606123
  0
LINE
  5
783
330
18
100
AcDbEntity
  8
0
100
AcDbLine
 10
75.87856802064836
 20
-35.64191671431268
 30
0.0
 11
75.98379839989437
 21
-35.86981278185325
 31
0.0
  0
ARC
  5
784
330
18
100
AcDbEntity
  8
0
100
AcDbCircle
 10
76.8038182035298
 20
-35.94869986811892
 30
0.0
 40
0.1510884678725753
100
AcDbArc
 50
343.137875569537
 51
60.4828651058551
  0
LINE
  5
785
330
18
100
AcDbEntity
  8
0
100
AcDbLine
 10
76.63271935497881
 20
-32.36371978318885
 30
0.0
 11
76.8957955153944
 21
-32.13582371564828
 31
0.0
  0
LINE
  5
786
330
18
100
AcDbEntity
  8
0
100
AcDbLine
 10
76.65025782228667
 20
-31.75015347557638
 30
0.0
 11
76.91333387655197
 21
-32.01311045412579
 31
0.0
  0
LWPOLYLINE
  5
787
330
18
100
AcDbEntity
  8
0
100
AcDbPolyline
 90
        3
 70
     0
 43
0.0
 10
77.07117955157126
 20
-32.04817136513463
 42
0.0530032341902107
 10
76.10656724644822
 20
-32.06570182063904
 42
0.0215786586312123
 10
77.17640993081727
 20
-32.17088462665712
  0
LINE
  5
78C
330
18
100
AcDbEntity
  8
0
100
AcDbLine
 10
76.45733531880195
 20
-31.83780582609004
 30
0.0
 11
76.50995061457523
 21
-31.96051908761253
 31
0.0
  0
LINE
  5
78D
330
18
100
AcDbEntity
  8
0
100
AcDbLine
 10
76.35210493955594
 20
-32.2760674326752
 30
0.0
 11
76.52748897573281
 21
-32.17088462665712
 31
0.0
  0
LINE
  5
78E
330
18
100
AcDbEntity
  8
0
100
AcDbLine
 10
76.22933609300209
 20
-31.92545810361213
 30
0.0
 11
76.40472012917896
 21
-31.99557999862137
 31
0.0
  0
LINE
  5
78F
330
18
100
AcDbEntity
  8
0
100
AcDbLine
 10
76.86071868692896
 20
-32.38125023869327
 30
0.0
 11
77.08871791272883
 21
-32.18841508216154
 31
0.0
  0
LINE
  5
790
330
18
100
AcDbEntity
  8
0
100
AcDbLine
 10
76.93087223770955
 20
-31.78521438658522
 30
0.0
 11
77.05364108426341
 21
-32.04817136513463
 31
0.0
  0
ARC
  5
791
330
18
100
AcDbEntity
  8
0
100
AcDbCircle
 10
78.23417667428026
 20
-39.32599918123655
 30
0.0
 40
0.1620990663003702
100
AcDbArc
 50
286.9111622917754
 51
98.15742175807619
  0
LWPOLYLINE
  5
792
330
18
100
AcDbEntity
  8
0
100
AcDbPolyline
 90
        4
 70
     0
 43
0.0
 10
77.63240848856728
 20
-39.86675882660764
 42
-0.2019986241439397
 10
77.75517733512113
 20
-39.51614957053612
 42
-0.4871454176266149
 10
78.00071502822885
 20
-39.53368002604054
 42
-0.17841836932375
 10
77.91302301014042
 20
-39.83169791559879
 42
-0.5626033210213065
  0
LINE
  5
798
330
18
100
AcDbEntity
  8
0
100
AcDbLine
 10
78.31640627211716
 20
-31.94298863210811
 30
0.0
 11
78.54440560406731
 21
-31.94298863210811
 31
0.0
  0
LINE
  5
799
330
18
100
AcDbEntity
  8
0
100
AcDbLine
 10
78.07086857900944
 20
-32.03064090963021
 30
0.0
 11
78.40409829020559
 21
-32.11829326014387
 31
0.0
  0
LINE
  5
79A
330
18
100
AcDbEntity
  8
0
100
AcDbLine
 10
78.45671347982859
 20
-31.78521438658522
 30
0.0
 11
78.64963598331332
 21
-31.78521438658522
 31
0.0
  0
LINE
  5
79B
330
18
100
AcDbEntity
  8
0
100
AcDbLine
 10
77.50963964201341
 20
-31.6800316535587
 30
0.0
 11
77.6674853170327
 21
-31.32942232449564
 31
0.0
  0
LINE
  5
79C
330
18
100
AcDbEntity
  8
0
100
AcDbLine
 10
77.36933243430198
 20
-31.52225740803581
 30
0.0
 11
77.56225483163643
 21
-31.13658724095547
 31
0.0
  0
LINE
  5
79D
330
18
100
AcDbEntity
  8
0
100
AcDbLine
 10
77.24656358774812
 20
-31.24176997398198
 30
0.0
 11
77.35179396699412
 21
-30.996343450937
 31
0.0
  0
LINE
  5
79E
330
18
100
AcDbEntity
  8
0
100
AcDbLine
 10
77.07117955157126
 20
-31.04893489044181
 30
0.0
 11
76.84318021962112
 21
-30.92622162891932
 31
0.0
  0
LINE
  5
79F
330
18
100
AcDbEntity
  8
0
100
AcDbLine
 10
77.10625638003668
 20
-31.31189186899122
 30
0.0
 11
76.87825704808654
 21
-31.17164815196431
 31
0.0
  0
LINE
  5
7A0
330
18
100
AcDbEntity
  8
0
100
AcDbLine
 10
76.94841070501739
 20
-31.43460513051372
 30
0.0
 11
77.21148675928269
 21
-31.46966604152256
 31
0.0
  0
LINE
  5
7A1
330
18
100
AcDbEntity
  8
0
100
AcDbLine
 10
77.14133310235183
 20
-30.94375208442374
 30
0.0
 11
77.21148675928269
 21
-30.78597791189241
 31
0.0
  0
LWPOLYLINE
  5
7A2
330
18
100
AcDbEntity
  8
0
100
AcDbPolyline
 90
        3
 70
     0
 43
0.0
 10
78.61455915484788
 20
-30.29512486580243
 10
79.01794252297489
 20
-30.41783812732492
 10
78.89517367642103
 20
-30.26006395479359
  0
LWPOLYLINE
  5
7A7
330
18
100
AcDbEntity
  8
0
100
AcDbPolyline
 90
        6
 70
     0
 43
0.0
 10
78.91271203757861
 20
-30.27759441029801
 10
78.61455915484788
 20
-30.27759441029801
 10
78.61455915484788
 20
-30.996343450937
 10
78.82502001949018
 20
-31.18917860746873
 10
78.89517367642103
 20
-31.17164815196431
 10
78.8074816583326
 20
-31.43460513051372
  0
LWPOLYLINE
  5
7AF
330
18
100
AcDbEntity
  8
0
100
AcDbPolyline
 90
        3
 70
     0
 43
0.0
 10
79.03548088413247
 20
-30.41783812732492
 42
0.4143462094502535
 10
78.91271203757861
 20
-30.71585601688317
 42
-0.0453813552188477
 10
78.89517367642103
 20
-31.17164815196431
 42
1.13828300019674
  0
TEXT
  5
7C1
330
18
100
AcDbEntity
  8
ADPDIM
100
AcDbText
 10
49.38480173772429
 20
-59.78723125234059
 30
0.0
 40
0.5
  1
J U L I U S  B L U M  &  C O . ,  I N C .      ( 8 0 0 )  5 2 6 - 6 2 9 3        W W W . J U L I U S B L U M . C O M        P A R T  N o .  5 6 8
 41
1.25
  7
ARIAL_WIDE
 72
     1
 11
75.1236318877925
 21
-59.28723125234059
 31
0.0
100
AcDbText
 73
     3
  0
ENDSEC
  0
SECTION
  2
OBJECTS
  0
DICTIONARY
  5
C
330
0
100
AcDbDictionary
  3
ACAD_GROUP
350
D
  3
ACAD_LAYOUT
350
7BA
  3
ACAD_MLINESTYLE
350
E
  3
ACAD_PLOTSETTINGS
350
7BB
  3
ACAD_PLOTSTYLENAME
350
7B8
  3
ACDBHEADERROUNDTRIPXREC
350
909
  3
ACDBVARIABLEDICTIONARY
350
81B
  0
DICTIONARY
  5
815
330
18
100
AcDbDictionary
280
     1
  3
ACAD_LAYOUTSELFREF
360
92A
  0
DICTIONARY
  5
813
330
15
100
AcDbDictionary
280
     1
  3
ACAD_LAYOUTSELFREF
360
929
  0
DICTIONARY
  5
D
102
{ACAD_REACTORS
330
C
102
}
330
C
100
AcDbDictionary
  0
DICTIONARY
  5
7BA
102
{ACAD_REACTORS
330
C
102
}
330
C
100
AcDbDictionary
  0
DICTIONARY
  5
E
102
{ACAD_REACTORS
330
C
102
}
330
C
100
AcDbDictionary
  3
STANDARD
350
1B
  0
DICTIONARY
  5
7BB
102
{ACAD_REACTORS
330
C
102
}
330
C
100
AcDbDictionary
  0
ACDBDICTIONARYWDFLT
  5
7B8
102
{ACAD_REACTORS
330
C
102
}
330
C
100
AcDbDictionary
281
     1
  3
Normal
350
7B9
100
AcDbDictionaryWithDefault
340
7B9
  0
DICTIONARY
  5
909
102
{ACAD_REACTORS
330
C
102
}
330
C
100
AcDbDictionary
  3
CEPSNTYPE
350
913
  3
FINGERPRINTGUID
350
914
  3
HYPERLINKBASE
350
90C
  3
INSUNITS
350
912
  3
LAYOUTDICT
350
90E
  3
LWETCUNION
350
911
  3
PLOTSETDICT
350
90F
  3
PLOTSTYLNAMDICT
350
910
  3
PSVPSCALE
350
916
  3
PUCSBASE
350
919
  3
PUCSORGBACK
350
91F
  3
PUCSORGBOTTOM
350
91B
  3
PUCSORGFRONT
350
91E
  3
PUCSORGLEFT
350
91C
  3
PUCSORGRIGHT
350
91D
  3
PUCSORGTOP
350
91A
  3
PUCSORTHOREF
350
917
  3
PUCSORTHOVIEW
350
918
  3
STYLESHEET
350
90D
  3
TSTACKALIGN
350
90A
  3
TSTACKSIZE
350
90B
  3
UCSBASE
350
922
  3
UCSORGBACK
350
928
  3
UCSORGBOTTOM
350
924
  3
UCSORGFRONT
350
927
  3
UCSORGLEFT
350
925
  3
UCSORGRIGHT
350
926
  3
UCSORGTOP
350
923
  3
UCSORTHOREF
350
920
  3
UCSORTHOVIEW
350
921
  3
VERSIONGUID
350
915
  0
DICTIONARY
  5
81B
102
{ACAD_REACTORS
330
C
102
}
330
C
100
AcDbDictionary
  3
DIMASSOC
350
81C
  0
XRECORD
  5
92A
102
{ACAD_REACTORS
330
815
102
}
330
815
100
AcDbXrecord
340
18
  0
XRECORD
  5
929
102
{ACAD_REACTORS
330
813
102
}
330
813
100
AcDbXrecord
340
15
  0
MLINESTYLE
  5
1B
102
{ACAD_REACTORS
330
E
102
}
330
E
100
AcDbMlineStyle
  2
STANDARD
 70
     0
  3

 62
     0
 51
90.0
 52
90.0
 71
     2
 49
0.5
 62
   256
  6
BYLAYER
 49
-0.5
 62
   256
  6
BYLAYER
  0
ACDBPLACEHOLDER
  5
7B9
102
{ACAD_REACTORS
330
7B8
102
}
330
7B8
100
AcDbPlaceHolder
280
     0
  0
XRECORD
  5
913
102
{ACAD_REACTORS
330
909
102
}
330
909
100
AcDbXrecord
 90
        0
  0
XRECORD
  5
914
102
{ACAD_REACTORS
330
909
102
}
330
909
100
AcDbXrecord
  1
{9783BE18-69CC-4DE0-B448-DAB3FCD30B48}
  0
XRECORD
  5
90C
102
{ACAD_REACTORS
330
909
102
}
330
909
100
AcDbXrecord
  1

  0
XRECORD
  5
912
102
{ACAD_REACTORS
330
909
102
}
330
909
100
AcDbXrecord
 90
        0
  0
XRECORD
  5
90E
102
{ACAD_REACTORS
330
909
102
}
330
909
100
AcDbXrecord
340
7BA
  0
XRECORD
  5
911
102
{ACAD_REACTORS
330
909
102
}
330
909
100
AcDbXrecord
 90
    14877
  0
XRECORD
  5
90F
102
{ACAD_REACTORS
330
909
102
}
330
909
100
AcDbXrecord
340
7BB
  0
XRECORD
  5
910
102
{ACAD_REACTORS
330
909
102
}
330
909
100
AcDbXrecord
340
7B8
  0
XRECORD
  5
916
102
{ACAD_REACTORS
330
909
102
}
330
909
100
AcDbXrecord
 40
0.0
  0
XRECORD
  5
919
102
{ACAD_REACTORS
330
909
102
}
330
909
100
AcDbXrecord
340
0
  0
XRECORD
  5
91F
102
{ACAD_REACTORS
330
909
102
}
330
909
100
AcDbXrecord
 10
0.0
 20
0.0
 30
0.0
  0
XRECORD
  5
91B
102
{ACAD_REACTORS
330
909
102
}
330
909
100
AcDbXrecord
 10
0.0
 20
0.0
 30
0.0
  0
XRECORD
  5
91E
102
{ACAD_REACTORS
330
909
102
}
330
909
100
AcDbXrecord
 10
0.0
 20
0.0
 30
0.0
  0
XRECORD
  5
91C
102
{ACAD_REACTORS
330
909
102
}
330
909
100
AcDbXrecord
 10
0.0
 20
0.0
 30
0.0
  0
XRECORD
  5
91D
102
{ACAD_REACTORS
330
909
102
}
330
909
100
AcDbXrecord
 10
0.0
 20
0.0
 30
0.0
  0
XRECORD
  5
91A
102
{ACAD_REACTORS
330
909
102
}
330
909
100
AcDbXrecord
 10
0.0
 20
0.0
 30
0.0
  0
XRECORD
  5
917
102
{ACAD_REACTORS
330
909
102
}
330
909
100
AcDbXrecord
340
0
  0
XRECORD
  5
918
102
{ACAD_REACTORS
330
909
102
}
330
909
100
AcDbXrecord
 70
     0
  0
XRECORD
  5
90D
102
{ACAD_REACTORS
330
909
102
}
330
909
100
AcDbXrecord
  1

  0
XRECORD
  5
90A
102
{ACAD_REACTORS
330
909
102
}
330
909
100
AcDbXrecord
 90
        1
  0
XRECORD
  5
90B
102
{ACAD_REACTORS
330
909
102
}
330
909
100
AcDbXrecord
 90
       70
  0
XRECORD
  5
922
102
{ACAD_REACTORS
330
909
102
}
330
909
100
AcDbXrecord
340
0
  0
XRECORD
  5
928
102
{ACAD_REACTORS
330
909
102
}
330
909
100
AcDbXrecord
 10
0.0
 20
0.0
 30
0.0
  0
XRECORD
  5
924
102
{ACAD_REACTORS
330
909
102
}
330
909
100
AcDbXrecord
 10
0.0
 20
0.0
 30
0.0
  0
XRECORD
  5
927
102
{ACAD_REACTORS
330
909
102
}
330
909
100
AcDbXrecord
 10
0.0
 20
0.0
 30
0.0
  0
XRECORD
  5
925
102
{ACAD_REACTORS
330
909
102
}
330
909
100
AcDbXrecord
 10
0.0
 20
0.0
 30
0.0
  0
XRECORD
  5
926
102
{ACAD_REACTORS
330
909
102
}
330
909
100
AcDbXrecord
 10
0.0
 20
0.0
 30
0.0
  0
XRECORD
  5
923
102
{ACAD_REACTORS
330
909
102
}
330
909
100
AcDbXrecord
 10
0.0
 20
0.0
 30
0.0
  0
XRECORD
  5
920
102
{ACAD_REACTORS
330
909
102
}
330
909
100
AcDbXrecord
340
0
  0
XRECORD
  5
921
102
{ACAD_REACTORS
330
909
102
}
330
909
100
AcDbXrecord
 70
     0
  0
XRECORD
  5
915
102
{ACAD_REACTORS
330
909
102
}
330
909
100
AcDbXrecord
  1
{9D874D0E-2861-4F9D-A521-CD0EFD292A50}
  0
DICTIONARYVAR
  5
81C
102
{ACAD_REACTORS
330
81B
102
}
330
81B
100
DictionaryVariables
280
     0
  1
1
  0
ENDSEC
  0
EOF
