  0
SECTION
  2
HEADER
  9
$ACADVER
  1
AC1014
  9
$ACADMAINTVER
 70
     9
  9
$DWGCODEPAGE
  3
ANSI_1252
  9
$INSBASE
 10
52.12081154960344
 20
-51.30232902284917
 30
0.0
  9
$EXTMIN
 10
32.82959145399298
 20
-53.61205850632909
 30
0.0
  9
$EXTMAX
 10
71.43783667909531
 20
-35.47659417349734
 30
0.0
  9
$LIMMIN
 10
0.0
 20
0.0
  9
$LIMMAX
 10
36.0
 20
36.0
  9
$ORTHOMODE
 70
     1
  9
$REGENMODE
 70
     1
  9
$FILLMODE
 70
     1
  9
$QTEXTMODE
 70
     0
  9
$MIRRTEXT
 70
     1
  9
$DRAGMODE
 70
     0
  9
$LTSCALE
 40
1.0
  9
$OSMODE
 70
    37
  9
$ATTMODE
 70
     1
  9
$TEXTSIZE
 40
0.2
  9
$TRACEWID
 40
0.05
  9
$TEXTSTYLE
  7
STANDARD
  9
$CLAYER
  8
ADPDIM
  9
$CELTYPE
  6
BYLAYER
  9
$CECOLOR
 62
   256
  9
$CELTSCALE
 40
1.0
  9
$DELOBJ
 70
     1
  9
$DISPSILH
 70
     0
  9
$DIMSCALE
 40
1.0
  9
$DIMASZ
 40
0.125
  9
$DIMEXO
 40
0.0625
  9
$DIMDLI
 40
0.38
  9
$DIMRND
 40
0.0
  9
$DIMDLE
 40
0.0
  9
$DIMEXE
 40
0.18
  9
$DIMTP
 40
0.0
  9
$DIMTM
 40
0.0
  9
$DIMTXT
 40
0.125
  9
$DIMCEN
 40
0.1875
  9
$DIMTSZ
 40
0.125
  9
$DIMTOL
 70
     0
  9
$DIMLIM
 70
     0
  9
$DIMTIH
 70
     0
  9
$DIMTOH
 70
     0
  9
$DIMSE1
 70
     0
  9
$DIMSE2
 70
     0
  9
$DIMTAD
 70
     0
  9
$DIMZIN
 70
     3
  9
$DIMBLK
  1

  9
$DIMASO
 70
     1
  9
$DIMSHO
 70
     1
  9
$DIMPOST
  1

  9
$DIMAPOST
  1

  9
$DIMALT
 70
     0
  9
$DIMALTD
 70
     1
  9
$DIMALTF
 40
25.4
  9
$DIMLFAC
 40
1.0
  9
$DIMTOFL
 70
     0
  9
$DIMTVP
 40
0.0
  9
$DIMTIX
 70
     0
  9
$DIMSOXD
 70
     0
  9
$DIMSAH
 70
     0
  9
$DIMBLK1
  1

  9
$DIMBLK2
  1

  9
$DIMSTYLE
  2
STANDARD
  9
$DIMCLRD
 70
     0
  9
$DIMCLRE
 70
     0
  9
$DIMCLRT
 70
     0
  9
$DIMTFAC
 40
1.0
  9
$DIMGAP
 40
0.125
  9
$DIMJUST
 70
     0
  9
$DIMSD1
 70
     0
  9
$DIMSD2
 70
     0
  9
$DIMTOLJ
 70
     1
  9
$DIMTZIN
 70
     0
  9
$DIMALTZ
 70
     0
  9
$DIMALTTZ
 70
     0
  9
$DIMFIT
 70
     3
  9
$DIMUPT
 70
     0
  9
$DIMUNIT
 70
     2
  9
$DIMDEC
 70
     4
  9
$DIMTDEC
 70
     4
  9
$DIMALTU
 70
     2
  9
$DIMALTTD
 70
     2
  9
$DIMTXSTY
  7
STANDARD
  9
$DIMAUNIT
 70
     0
  9
$LUNITS
 70
     5
  9
$LUPREC
 70
     4
  9
$SKETCHINC
 40
0.1
  9
$FILLETRAD
 40
0.062
  9
$AUNITS
 70
     0
  9
$AUPREC
 70
     0
  9
$MENU
  1
acad
  9
$ELEVATION
 40
0.0
  9
$PELEVATION
 40
0.0
  9
$THICKNESS
 40
0.0
  9
$LIMCHECK
 70
     0
  9
$BLIPMODE
 70
     0
  9
$CHAMFERA
 40
0.0
  9
$CHAMFERB
 40
0.0
  9
$CHAMFERC
 40
0.0
  9
$CHAMFERD
 40
0.0
  9
$SKPOLY
 70
     0
  9
$TDCREATE
 40
2450408.701814421
  9
$TDUPDATE
 40
2452297.073103657
  9
$TDINDWG
 40
0.0122498264
  9
$TDUSRTIMER
 40
0.0122498264
  9
$USRTIMER
 70
     1
  9
$ANGBASE
 50
0.0
  9
$ANGDIR
 70
     0
  9
$PDMODE
 70
     0
  9
$PDSIZE
 40
0.0
  9
$PLINEWID
 40
0.0
  9
$COORDS
 70
     2
  9
$SPLFRAME
 70
     0
  9
$SPLINETYPE
 70
     6
  9
$SPLINESEGS
 70
     8
  9
$ATTDIA
 70
     0
  9
$ATTREQ
 70
     1
  9
$HANDLING
 70
 22529
  9
$HANDSEED
  5
409
  9
$SURFTAB1
 70
     6
  9
$SURFTAB2
 70
     6
  9
$SURFTYPE
 70
     6
  9
$SURFU
 70
     6
  9
$SURFV
 70
     6
  9
$UCSNAME
  2

  9
$UCSORG
 10
0.0
 20
0.0
 30
0.0
  9
$UCSXDIR
 10
1.0
 20
0.0
 30
0.0
  9
$UCSYDIR
 10
0.0
 20
1.0
 30
0.0
  9
$PUCSNAME
  2

  9
$PUCSORG
 10
0.0
 20
0.0
 30
0.0
  9
$PUCSXDIR
 10
1.0
 20
0.0
 30
0.0
  9
$PUCSYDIR
 10
0.0
 20
1.0
 30
0.0
  9
$USERI1
 70
     0
  9
$USERI2
 70
     0
  9
$USERI3
 70
     0
  9
$USERI4
 70
     0
  9
$USERI5
 70
     0
  9
$USERR1
 40
0.0
  9
$USERR2
 40
0.0
  9
$USERR3
 40
0.0
  9
$USERR4
 40
0.0
  9
$USERR5
 40
0.0
  9
$WORLDVIEW
 70
     1
  9
$SHADEDGE
 70
     3
  9
$SHADEDIF
 70
    70
  9
$TILEMODE
 70
     1
  9
$MAXACTVP
 70
    15
  9
$PINSBASE
 10
0.0
 20
0.0
 30
0.0
  9
$PLIMCHECK
 70
     0
  9
$PEXTMIN
 10
1.000000000000000E+20
 20
1.000000000000000E+20
 30
1.000000000000000E+20
  9
$PEXTMAX
 10
-1.000000000000000E+20
 20
-1.000000000000000E+20
 30
-1.000000000000000E+20
  9
$PLIMMIN
 10
0.0
 20
0.0
  9
$PLIMMAX
 10
12.0
 20
9.0
  9
$UNITMODE
 70
     0
  9
$VISRETAIN
 70
     0
  9
$PLINEGEN
 70
     0
  9
$PSLTSCALE
 70
     1
  9
$TREEDEPTH
 70
  3020
  9
$PICKSTYLE
 70
     1
  9
$CMLSTYLE
  2
STANDARD
  9
$CMLJUST
 70
     0
  9
$CMLSCALE
 40
1.0
  9
$PROXYGRAPHICS
 70
     1
  9
$MEASUREMENT
 70
     0
  0
ENDSEC
  0
SECTION
  2
CLASSES
  0
CLASS
  1
ACDBDICTIONARYWDFLT
  2
AcDbDictionaryWithDefault
  3
AutoCAD 2000
 90
        0
280
     0
281
     0
  0
CLASS
  1
ACDBPLACEHOLDER
  2
AcDbPlaceHolder
  3
AutoCAD 2000
 90
        0
280
     0
281
     0
  0
CLASS
  1
LAYOUT
  2
AcDbLayout
  3
AutoCAD 2000
 90
        0
280
     0
281
     0
  0
CLASS
  1
DICTIONARYVAR
  2
AcDbDictionaryVar
  3
AutoCAD 2000
 90
        0
280
     0
281
     0
  0
CLASS
  1
LONG_TRANSACTION
  2
AcDbLongTransaction
  3
AutoCAD 2000
 90
        0
280
     0
281
     0
  0
CLASS
  1
LWPOLYLINE
  2
AcDbPolyline
  3
AutoCAD 2000
 90
        0
280
     0
281
     1
  0
CLASS
  1
HATCH
  2
AcDbHatch
  3
AutoCAD 2000
 90
        0
280
     0
281
     1
  0
CLASS
  1
XRECORD
  2
AcDbXrecord
  3
AutoCAD 2000
 90
        0
280
     0
281
     0
  0
CLASS
  1
LONG_TRANSACTION
  2
AcDbLongTransaction
  3
AutoCAD 2000
 90
        0
280
     0
281
     0
  0
CLASS
  1
LWPOLYLINE
  2
AcDbPolyline
  3
AutoCAD 2000
 90
        0
280
     0
281
     1
  0
CLASS
  1
HATCH
  2
AcDbHatch
  3
AutoCAD 2000
 90
        0
280
     0
281
     1
  0
CLASS
  1
XRECORD
  2
AcDbXrecord
  3
AutoCAD 2000
 90
        0
280
     0
281
     0
  0
CLASS
  1
LONG_TRANSACTION
  2
AcDbLongTransaction
  3
AutoCAD 2000
 90
        0
280
     0
281
     0
  0
CLASS
  1
LWPOLYLINE
  2
AcDbPolyline
  3
AutoCAD 2000
 90
        0
280
     0
281
     1
  0
CLASS
  1
HATCH
  2
AcDbHatch
  3
AutoCAD 2000
 90
        0
280
     0
281
     1
  0
CLASS
  1
XRECORD
  2
AcDbXrecord
  3
AutoCAD 2000
 90
        0
280
     0
281
     0
  0
CLASS
  1
LONG_TRANSACTION
  2
AcDbLongTransaction
  3
AutoCAD 2000
 90
        0
280
     0
281
     0
  0
CLASS
  1
LWPOLYLINE
  2
AcDbPolyline
  3
AutoCAD 2000
 90
        0
280
     0
281
     1
  0
CLASS
  1
HATCH
  2
AcDbHatch
  3
AutoCAD 2000
 90
        0
280
     0
281
     1
  0
CLASS
  1
XRECORD
  2
AcDbXrecord
  3
AutoCAD 2000
 90
        0
280
     0
281
     0
  0
CLASS
  1
LONG_TRANSACTION
  2
AcDbLongTransaction
  3
AutoCAD 2000
 90
        0
280
     0
281
     0
  0
CLASS
  1
LWPOLYLINE
  2
AcDbPolyline
  3
AutoCAD 2000
 90
        0
280
     0
281
     1
  0
CLASS
  1
HATCH
  2
AcDbHatch
  3
AutoCAD 2000
 90
        0
280
     0
281
     1
  0
CLASS
  1
XRECORD
  2
AcDbXrecord
  3
AutoCAD 2000
 90
        0
280
     0
281
     0
  0
CLASS
  1
LONG_TRANSACTION
  2
AcDbLongTransaction
  3
AutoCAD 2000
 90
        0
280
     0
281
     0
  0
CLASS
  1
LWPOLYLINE
  2
AcDbPolyline
  3
AutoCAD 2000
 90
        0
280
     0
281
     1
  0
CLASS
  1
HATCH
  2
AcDbHatch
  3
AutoCAD 2000
 90
        0
280
     0
281
     1
  0
CLASS
  1
XRECORD
  2
AcDbXrecord
  3
AutoCAD 2000
 90
        0
280
     0
281
     0
  0
ENDSEC
  0
SECTION
  2
TABLES
  0
TABLE
  2
VPORT
  5
8
330
0
100
AcDbSymbolTable
 70
     2
  0
VPORT
  5
3E6
330
8
100
AcDbSymbolTableRecord
100
AcDbViewportTableRecord
  2
*ACTIVE
 70
     0
 10
0.0
 20
0.0
 11
1.0
 21
1.0
 12
52.16366964544968
 22
-44.54265697271232
 13
0.0
 23
0.0
 14
0.5740882589684922
 24
0.5740882589684922
 15
0.5
 25
0.5
 16
0.0
 26
0.0
 36
1.0
 17
0.0
 27
0.0
 37
0.0
 40
24.74325532205757
 41
1.570528967254408
 42
50.0
 43
0.0
 44
0.0
 50
0.0
 51
0.0
 71
     0
 72
   100
 73
     1
 74
     0
 75
     0
 76
     0
 77
     0
 78
     0
  0
ENDTAB
  0
TABLE
  2
LTYPE
  5
5
330
0
100
AcDbSymbolTable
 70
     1
  0
LTYPE
  5
12
330
5
100
AcDbSymbolTableRecord
100
AcDbLinetypeTableRecord
  2
BYBLOCK
 70
     0
  3

 72
    65
 73
     0
 40
0.0
  0
LTYPE
  5
13
330
5
100
AcDbSymbolTableRecord
100
AcDbLinetypeTableRecord
  2
BYLAYER
 70
     0
  3

 72
    65
 73
     0
 40
0.0
  0
LTYPE
  5
14
330
5
100
AcDbSymbolTableRecord
100
AcDbLinetypeTableRecord
  2
CONTINUOUS
 70
     0
  3
Solid line
 72
    65
 73
     0
 40
0.0
  0
ENDTAB
  0
TABLE
  2
LAYER
  5
2
330
0
100
AcDbSymbolTable
 70
     4
  0
LAYER
  5
F
330
2
100
AcDbSymbolTableRecord
100
AcDbLayerTableRecord
  2
0
 70
     0
 62
     7
  6
CONTINUOUS
  0
LAYER
  5
D8
330
2
100
AcDbSymbolTableRecord
100
AcDbLayerTableRecord
  2
ADP1DETAIL
 70
     0
 62
     7
  6
CONTINUOUS
  0
LAYER
  5
DA
330
2
100
AcDbSymbolTableRecord
100
AcDbLayerTableRecord
  2
DEFPOINTS
 70
     0
 62
     7
  6
CONTINUOUS
  0
LAYER
  5
DB
330
2
100
AcDbSymbolTableRecord
100
AcDbLayerTableRecord
  2
ADPDIM
 70
     0
 62
     3
  6
CONTINUOUS
  0
ENDTAB
  0
TABLE
  2
STYLE
  5
3
330
0
100
AcDbSymbolTable
 70
     2
  0
STYLE
  5
10
330
3
100
AcDbSymbolTableRecord
100
AcDbTextStyleTableRecord
  2
STANDARD
 70
     0
 40
0.0
 41
1.0
 50
0.0
 71
     0
 42
0.2
  3
txt
  4

  0
STYLE
  5
29E
330
3
100
AcDbSymbolTableRecord
100
AcDbTextStyleTableRecord
  2
ARIAL_WIDE
 70
     0
 40
0.0
 41
1.25
 50
0.0
 71
     0
 42
0.2
  3
ARIAL.TTF
  4

1001
ACAD
1000
Arial
1071
       34
  0
ENDTAB
  0
TABLE
  2
VIEW
  5
6
330
0
100
AcDbSymbolTable
 70
     0
  0
ENDTAB
  0
TABLE
  2
UCS
  5
7
330
0
100
AcDbSymbolTable
 70
     0
  0
ENDTAB
  0
TABLE
  2
APPID
  5
9
330
0
100
AcDbSymbolTable
 70
     1
  0
APPID
  5
11
330
9
100
AcDbSymbolTableRecord
100
AcDbRegAppTableRecord
  2
ACAD
 70
     0
  0
ENDTAB
  0
TABLE
  2
DIMSTYLE
  5
A
330
0
100
AcDbSymbolTable
 70
     1
  0
DIMSTYLE
105
292
330
A
100
AcDbSymbolTableRecord
100
AcDbDimStyleTableRecord
  2
STANDARD
 70
     0
  3

  4

  5

  6

  7

 40
1.0
 41
0.18
 42
0.0625
 43
0.38
 44
0.18
 45
0.0
 46
0.0
 47
0.0
 48
0.0
140
0.18
141
0.09
142
0.0
143
25.4
144
1.0
145
0.0
146
1.0
147
0.09
 71
     0
 72
     0
 73
     1
 74
     1
 75
     0
 76
     0
 77
     0
 78
     0
170
     0
171
     2
172
     0
173
     0
174
     0
175
     0
176
     0
177
     0
178
     0
270
     2
271
     4
272
     4
273
     2
274
     2
340
10
275
     0
280
     0
281
     0
282
     0
283
     1
284
     0
285
     0
286
     0
287
     3
288
     0
  0
ENDTAB
  0
TABLE
  2
BLOCK_RECORD
  5
1
330
0
100
AcDbSymbolTable
 70
     3
  0
BLOCK_RECORD
  5
18
102
{ACAD_XDICTIONARY
360
2F3
102
}
330
1
100
AcDbSymbolTableRecord
100
AcDbBlockTableRecord
  2
*MODEL_SPACE
  0
BLOCK_RECORD
  5
15
102
{ACAD_XDICTIONARY
360
2F1
102
}
330
1
100
AcDbSymbolTableRecord
100
AcDbBlockTableRecord
  2
*PAPER_SPACE
  0
BLOCK_RECORD
  5
46
330
1
100
AcDbSymbolTableRecord
100
AcDbBlockTableRecord
  2
567
  0
BLOCK_RECORD
  5
D2
330
1
100
AcDbSymbolTableRecord
100
AcDbBlockTableRecord
  2
*D1
  0
BLOCK_RECORD
  5
D4
330
1
100
AcDbSymbolTableRecord
100
AcDbBlockTableRecord
  2
*D2
  0
ENDTAB
  0
ENDSEC
  0
SECTION
  2
BLOCKS
  0
BLOCK
  5
DE
330
18
100
AcDbEntity
  8
0
100
AcDbBlockBegin
  2
*MODEL_SPACE
 70
     0
 10
0.0
 20
0.0
 30
0.0
  3
*MODEL_SPACE
  1

  0
ENDBLK
  5
DF
330
18
100
AcDbEntity
  8
0
100
AcDbBlockEnd
  0
BLOCK
  5
DC
330
15
100
AcDbEntity
 67
     1
  8
0
100
AcDbBlockBegin
  2
*PAPER_SPACE
 70
     0
 10
0.0
 20
0.0
 30
0.0
  3
*PAPER_SPACE
  1

  0
ENDBLK
  5
DD
330
15
100
AcDbEntity
 67
     1
  8
0
100
AcDbBlockEnd
  0
BLOCK
  5
E1
330
46
100
AcDbEntity
  8
0
100
AcDbBlockBegin
  2
567
 70
     0
 10
0.0
 20
0.0
 30
0.0
  3
567
  1

  0
LWPOLYLINE
  5
E2
330
46
100
AcDbEntity
  8
0
100
AcDbPolyline
 90
        3
 70
     0
 43
0.0
 10
3.80512440393868
 20
9.933166899998672
 42
0.0464454534601359
 10
3.687232935139437
 20
9.845635824682977
 42
0.5228421810907599
 10
3.767134540934794
 20
9.205623533089038
 42
7.203396344035517
  0
LWPOLYLINE
  5
E7
330
46
100
AcDbEntity
  8
0
100
AcDbPolyline
 90
        5
 70
     0
 43
0.0
 10
3.500701561410203
 20
10.72566451231715
 10
4.061906058679813
 20
9.984389710656127
 42
-0.8313296977835074
 10
3.873899599600093
 20
9.845607126649039
 10
3.287347732002359
 20
10.59236397831261
 42
-0.9770145659352682
 10
3.500701561410203
 20
10.72566451231715
 42
-0.1212864778990521
  0
LWPOLYLINE
  5
EE
330
46
100
AcDbEntity
  8
0
100
AcDbPolyline
 90
        5
 70
     0
 43
0.0
 10
3.767134540934794
 20
9.205623533089038
 42
-0.9826100220167795
 10
3.927179635954402
 20
9.498932264640989
 42
-0.6368630238164545
 10
4.00710584006455
 20
9.018919971156174
 42
-0.4506294454528331
 10
3.367130445942823
 20
9.17901836252453
 42
-0.3555219724694961
 10
3.582156412425405
 20
10.21703416658181
 42
-0.1661292902887159
  0
LWPOLYLINE
  5
F5
330
46
100
AcDbEntity
  8
0
100
AcDbPolyline
 90
        5
 70
     0
 43
0.0
 10
3.695387458828101
 20
10.46851092445964
 42
0.1589292248512146
 10
4.034100483946797
 20
11.15224917955883
 42
0.1267942298051716
 10
3.820877845551237
 20
11.87228196880301
 10
2.594477675124927
 20
13.60580386873213
 42
-0.1234034230856091
 10
2.274588371323282
 20
14.32585305685284
 42
-0.1379489196876814
  0
LWPOLYLINE
  5
FC
330
46
100
AcDbEntity
  8
0
100
AcDbPolyline
 90
        4
 70
     0
 43
0.0
 10
1.958016984203656
 20
14.3259017263699
 42
0.1328101539916004
 10
2.354444880208152
 20
13.39250743539215
 10
3.687491217444883
 20
11.52563580482888
 42
-0.2309149241687645
 10
3.512572486248657
 20
10.70998463537752
 42
-0.2019410160110417
  0
LWPOLYLINE
  5
102
330
46
100
AcDbEntity
  8
0
100
AcDbPolyline
 90
        5
 70
     0
 43
0.0
 10
3.50028996223649
 20
5.153950069700494
 10
4.061592020373694
 20
5.895150999856527
 42
0.8313296977835074
 10
3.873603829324991
 20
6.033958327853342
 10
3.286953679538161
 20
5.287278683933692
 42
0.9770145659352682
 10
3.50028996223649
 20
5.153950069700494
 42
0.1212864778990521
  0
LWPOLYLINE
  5
109
330
46
100
AcDbEntity
  8
0
100
AcDbPolyline
 90
        5
 70
     0
 43
0.0
 10
3.695009704224688
 20
5.411078030998854
 42
-0.1589292248512146
 10
4.033632733574364
 20
4.727295200806995
 42
-0.1267942298051716
 10
3.820315327146079
 20
4.007290481915639
 10
2.593687003203076
 20
2.273930014368186
 42
0.123403423085609
 10
2.273702930134227
 20
1.553922935943074
 42
0.1379489196876814
  0
LWPOLYLINE
  5
110
330
46
100
AcDbEntity
  8
0
100
AcDbPolyline
 90
        4
 70
     0
 43
0.0
 10
1.957131539350839
 20
1.553915933184795
 42
-0.1328101539916007
 10
2.353682284194281
 20
2.487258038698378
 10
3.686974325360658
 20
4.353954199080298
 42
0.2309149241687645
 10
3.512162950739316
 20
5.169628384066973
 42
0.2019410160110417
  0
LWPOLYLINE
  5
116
330
46
100
AcDbEntity
  8
0
100
AcDbPolyline
 90
        3
 70
     0
 43
0.0
 10
3.804817109743602
 20
5.946407607373521
 42
-0.0464454534601359
 10
3.686937162703998
 20
6.033954198669269
 42
-0.5228421810907599
 10
3.766923005481892
 20
6.673955968163003
 42
-7.203396344035517
  0
LWPOLYLINE
  5
11B
330
46
100
AcDbEntity
  8
0
100
AcDbPolyline
 90
        5
 70
     0
 43
0.0
 10
3.766923005481892
 20
6.673955968163003
 42
0.9826100220167795
 10
3.926929494160575
 20
6.380626174202062
 42
0.6368630238164545
 10
4.006918876239094
 20
6.860627943734952
 42
0.4506294454528331
 10
3.366922415696315
 20
6.700613786571555
 42
0.3555219724694961
 10
3.581811757881624
 20
5.662569690037301
 42
0.1661292902887159
  0
LWPOLYLINE
  5
122
330
46
100
AcDbEntity
  8
0
100
AcDbPolyline
 90
        5
 70
     0
 43
0.0
 10
-0.4189564914155284
 20
6.674277385000664
 42
-0.9826100220167795
 10
-0.5789950982223573
 20
6.380965113222307
 42
-0.6368630238164545
 10
-0.6589319204867934
 20
6.860975638571776
 42
-0.4506294454528331
 10
-0.0189529850445283
 20
6.700891403900833
 42
-0.3555219724694982
 10
-0.2339559899120438
 20
5.662870843587889
 42
-0.1661292902887159
  0
LWPOLYLINE
  5
129
330
46
100
AcDbEntity
  8
0
100
AcDbPolyline
 90
        4
 70
     0
 43
0.0
 10
-2.298773720369787
 20
7.909583993544638
 42
0.1326626651874824
 10
-1.912307360992471
 20
6.541140603621483
 42
0.1536893775807407
 10
-1.192391603285756
 20
5.901045843601076
 42
0.1675504445198232
 10
-0.6781260931688067
 20
5.854758553719163
 42
0.5228421810907599
  0
LWPOLYLINE
  5
12F
330
46
100
AcDbEntity
  8
0
100
AcDbPolyline
 90
        5
 70
     0
 43
0.0
 10
-0.4411402861572924
 20
5.538927170667125
 42
-0.0995326559437079
 10
-0.7657810976859949
 20
5.474323023258882
 42
-0.1661292902887159
 10
-1.619075815435245
 20
5.767768668793859
 42
-0.2457569474929855
 10
-2.605458176863866
 20
7.927898514005397
 42
-0.0041735136296819
 10
-2.604674572115989
 20
7.940530327031413
 42
0.1925824035672528
  0
LWPOLYLINE
  5
136
330
46
100
AcDbEntity
  8
0
100
AcDbPolyline
 90
        4
 70
     0
 43
0.0
 10
1.260382574484477
 20
0.9672338538492564
 10
2.273715907569886
 20
0.9672562694199431
 42
0.7272727272727044
 10
2.273702930134223
 20
1.553922935943074
 10
1.260369597048814
 20
1.553900520372387
  0
LWPOLYLINE
  5
13C
330
46
100
AcDbEntity
  8
0
100
AcDbPolyline
 90
        4
 70
     0
 43
0.0
 10
2.086959048699
 20
0.9672808432078792
 10
1.073625724142914
 20
0.9674142169645136
 42
-0.7272727272727044
 10
1.073702940528335
 20
1.554080878549614
 10
2.087036265084417
 20
1.553947504792979
  0
LWPOLYLINE
  5
142
330
46
100
AcDbEntity
  8
0
100
AcDbPolyline
 90
        8
 70
     0
 43
0.0
 10
1.068464296095964
 20
0.9691370375494379
 42
-0.0300252879393523
 10
1.02026782242164
 20
0.78075457158611
 42
-0.1379489196876814
 10
0.6735485112222009
 20
0.3808002029149211
 42
-0.501759320936745
 10
0.0869029086513038
 20
0.5408774179144693
 42
0.4806248474865479
 10
-0.0464620120484369
 20
0.3008949691717948
 42
0.2112815610138223
 10
0.4601625322011956
 20
-0.0191717149347604
 42
0.3711075105251131
 10
1.366948525428362
 20
0.8873756094647387
 42
0.0104782967939564
 10
1.382049459034515
 20
0.9673736225903223
  0
LWPOLYLINE
  5
14C
330
46
100
AcDbEntity
  8
0
100
AcDbPolyline
 90
        8
 70
     0
 43
0.0
 10
2.278877524231663
 20
0.9689785248274077
 42
0.0300252879393528
 10
2.327053370074242
 20
0.7805907825658221
 42
0.1379489196876814
 10
2.673728884907678
 20
0.3805984511483906
 42
0.501759320936745
 10
3.260392012130179
 20
0.5406114285449153
 42
-0.4806248474865479
 10
3.39373065438184
 20
0.3006143780208265
 42
-0.2112815610138223
 10
2.887071066440405
 20
-0.0193968296862242
 42
-0.3711075105251131
 10
1.980384343958636
 20
0.8872497807216799
 42
-0.0104844835420788
 10
1.965284251452356
 20
0.9672968579035408
  0
LWPOLYLINE
  5
156
330
46
100
AcDbEntity
  8
0
100
AcDbPolyline
 90
        6
 70
     0
 43
0.0
 10
0.8074960646482942
 20
5.047449279981544
 42
0.099019513592756
 10
0.700846948084056
 20
5.180796651502779
 42
0.7207592200561282
 10
0.4607943026273596
 20
4.780828243488793
 42
0.6451838639634411
 10
1.100818865933742
 20
4.967410672481776
 42
0.5311683542514226
 10
0.2209206587914139
 20
5.740859823694812
 42
0.0855077907823306
 10
-0.1595745654099154
 20
5.568177923569104
 42
0.1267942298051716
  0
LWPOLYLINE
  5
15E
330
46
100
AcDbEntity
  8
0
100
AcDbPolyline
 90
        5
 70
     0
 43
0.0
 10
-0.3461966618230718
 20
5.412395643047016
 42
0.1592221730405498
 10
-0.6858793737785547
 20
4.727645833552557
 42
0.1267942298051716
 10
-0.4726408078569868
 20
4.007617761103418
 10
0.753797708864024
 20
2.274122990341558
 42
-0.1234034230856092
 10
1.073702940528335
 20
1.554080878549614
 42
-0.1379489196876814
  0
LWPOLYLINE
  5
165
330
46
100
AcDbEntity
  8
0
100
AcDbPolyline
 90
        4
 70
     0
 43
0.0
 10
1.390293127994258
 20
1.55390339436261
 42
0.1328281109171448
 10
0.9938257854708112
 20
2.487424733305745
 10
-0.3392618478144413
 20
4.354266875588841
 42
-0.2309392196417105
 10
-0.1643069904859082
 20
5.169990972549145
 42
-0.2019410160110417
  0
LWPOLYLINE
  5
16B
330
46
100
AcDbEntity
  8
0
100
AcDbPolyline
 90
        5
 70
     0
 43
0.0
 10
-0.1524898876936085
 20
5.154242299809524
 10
-0.7194858128674504
 20
5.909878721630454
 42
-0.6700450103349556
 10
-0.5257073932150896
 20
6.034291429886993
 10
0.0608609929703796
 20
5.287547553302349
 42
-0.9770145659352682
 10
-0.1524898876936085
 20
5.154242299809524
 42
-0.1212864778990521
  0
LWPOLYLINE
  5
172
330
46
100
AcDbEntity
  8
0
100
AcDbPolyline
 90
        3
 70
     0
 43
0.0
 10
-0.4569302606932482
 20
5.946733177909367
 42
0.0464454534601369
 10
-0.3390407281652834
 20
6.034266861037085
 42
0.5228421810907599
 10
-0.4189564914155284
 20
6.674277385000664
 42
7.203396344035517
  0
LWPOLYLINE
  5
177
330
46
100
AcDbEntity
  8
0
100
AcDbPolyline
 90
        3
 70
     0
 43
0.0
 10
-0.6325355114000786
 20
4.807638813188214
 42
0.1585612924488092
 10
-1.352535505163611
 20
4.807733578752138
 42
0.1813345817725094
 10
-1.192430211478466
 20
5.607712512808529
  0
LWPOLYLINE
  5
17C
330
46
100
AcDbEntity
  8
0
100
AcDbPolyline
 90
        2
 70
     0
 43
0.0
 10
-1.192454780328372
 20
5.421045847758724
 10
-0.7658688435785166
 20
4.807656362366717
  0
LWPOLYLINE
  5
180
330
46
100
AcDbEntity
  8
0
100
AcDbPolyline
 90
        2
 70
     0
 43
0.0
 10
-1.352535505163611
 20
4.807733578752138
 10
-0.7924793526429888
 20
5.234326535173405
  0
LWPOLYLINE
  5
184
330
46
100
AcDbEntity
  8
0
100
AcDbPolyline
 90
        4
 70
     0
 43
0.0
 10
0.0154224559394223
 20
5.345394089337965
 42
-0.0228984793655056
 10
0.087541698748872
 20
5.394210709209389
 42
-0.2019410160110417
 10
0.6208750274626027
 20
5.39414051249537
 42
-0.369924076215478
 10
0.7541732612840235
 20
5.127456298960003
 42
-1.497021707007042
  0
LWPOLYLINE
  5
18A
330
46
100
AcDbEntity
  8
0
100
AcDbPolyline
 90
        2
 70
     0
 43
0.0
 10
0.7810048899976536
 20
6.38078611160156
 10
0.2209522473127237
 20
5.980859821615991
  0
LWPOLYLINE
  5
18E
330
46
100
AcDbEntity
  8
0
100
AcDbPolyline
 90
        3
 70
     0
 43
0.0
 10
0.0704033464687441
 20
6.40648216211561
 42
0.0379008275067435
 10
0.7810048899976536
 20
6.38078611160156
 42
0.1400549446402597
 10
0.6742469685266848
 20
5.687466823616523
 42
0.5465814736335496
  0
LWPOLYLINE
  5
193
330
46
100
AcDbEntity
  8
0
100
AcDbPolyline
 90
        2
 70
     0
 43
0.0
 10
0.1943417382482551
 20
6.407529994422672
 10
0.6742574980337892
 20
5.76746682292358
  0
LWPOLYLINE
  5
197
330
46
100
AcDbEntity
  8
0
100
AcDbPolyline
 90
        6
 70
     0
 43
0.0
 10
2.540292322005122
 20
5.047262167256114
 42
-0.099019513592756
 10
2.646956039228495
 20
5.180597860090582
 42
-0.7207592200561282
 10
2.886964887421367
 20
4.7806031691394
 42
-0.6451838639634411
 10
2.246960758393875
 20
4.967255678557858
 42
-0.5311683542514226
 10
3.126943651558843
 20
5.740608477855479
 42
-0.08550779078233
 10
3.50741996512017
 20
5.567884915219034
 42
-0.1267942298051716
  0
LWPOLYLINE
  5
19F
330
46
100
AcDbEntity
  8
0
100
AcDbPolyline
 90
        4
 70
     0
 43
0.0
 10
3.332398550388866
 20
5.345120244184055
 42
0.0228984793655048
 10
3.260284653344264
 20
5.393944760690819
 42
0.2019410160110417
 10
2.726951320141413
 20
5.393932963022034
 42
0.369924076215478
 10
2.593623885675089
 20
5.127263347003417
 42
1.497021707007042
  0
LWPOLYLINE
  5
1A5
330
46
100
AcDbEntity
  8
0
100
AcDbPolyline
 90
        2
 70
     0
 43
0.0
 10
2.566929494493312
 20
6.380596090146667
 10
3.126938342607893
 20
5.98060847779676
  0
LWPOLYLINE
  5
1A9
330
46
100
AcDbEntity
  8
0
100
AcDbPolyline
 90
        3
 70
     0
 43
0.0
 10
3.286928904433718
 20
6.407278683659669
 42
-0.0384048104053034
 10
2.566929494493312
 20
6.380596090146667
 42
-0.1400549446402597
 10
2.673611498103294
 20
5.687265116516726
 42
-0.5465814736335496
  0
LWPOLYLINE
  5
1AE
330
46
100
AcDbEntity
  8
0
100
AcDbPolyline
 90
        2
 70
     0
 43
0.0
 10
3.153595571133003
 20
6.407275734242473
 10
2.67360972845298
 20
5.767265116497153
  0
LWPOLYLINE
  5
1B2
330
46
100
AcDbEntity
  8
0
100
AcDbPolyline
 90
        4
 70
     0
 43
0.0
 10
-2.298747270139024
 20
7.909583993544638
 42
-0.1383776825891891
 10
-1.912078295343388
 20
9.339186390186169
 42
-0.1536893775807407
 10
-1.192078295343385
 20
9.979186390186177
 42
-0.1675504445198232
 10
-0.677806697401536
 20
10.02540599263789
 42
-0.5228421810907599
  0
LWPOLYLINE
  5
1B8
330
46
100
AcDbEntity
  8
0
100
AcDbPolyline
 90
        5
 70
     0
 43
0.0
 10
-0.4407793230828468
 20
10.34120618115754
 42
0.0995326559437079
 10
-0.7654116286767234
 20
10.40585305685284
 42
0.1661292902887159
 10
-1.618744962010055
 20
10.11251972351951
 42
0.2457569474929855
 10
-2.605411628676719
 20
7.952519723519507
 42
0.0039611181544645
 10
-2.604674572115989
 20
7.940530327031413
 42
-0.1925824035672528
  0
LWPOLYLINE
  5
1BF
330
46
100
AcDbEntity
  8
0
100
AcDbPolyline
 90
        4
 70
     0
 43
0.0
 10
1.391178579407235
 20
14.32598887180546
 42
-0.1328281109171447
 10
0.9945883713232817
 20
13.3925197235195
 10
-0.3387449620100504
 20
11.52585305685283
 42
0.2309392196417105
 10
-0.1638974708553427
 20
10.71010593960297
 42
0.2019410160110417
  0
LWPOLYLINE
  5
1C5
330
46
100
AcDbEntity
  8
0
100
AcDbPolyline
 90
        5
 70
     0
 43
0.0
 10
-0.3458190456382688
 20
10.46772521131208
 42
-0.1592221730405498
 10
-0.685411628676718
 20
11.1525197235195
 42
-0.1267942298051716
 10
-0.4720782953433833
 20
11.8725197235195
 10
0.7545883713232798
 20
13.60585305685284
 42
0.123403423085609
 10
1.074588371323276
 20
14.32585305685284
 42
0.1379489196876814
  0
LWPOLYLINE
  5
1CC
330
46
100
AcDbEntity
  8
0
100
AcDbPolyline
 90
        6
 70
     0
 43
0.0
 10
0.8079217046566142
 20
10.8325197235195
 42
-0.099019513592756
 10
0.7012550379899487
 20
10.69918639018617
 42
-0.7207592200561282
 10
0.4612550379899468
 20
11.09918639018617
 42
-0.6451838639634411
 10
1.101255037989947
 20
10.9125197235195
 42
-0.5311683542514226
 10
0.2212550379899447
 20
10.13918639018617
 42
-0.0855077907823306
 10
-0.1592174547244554
 20
10.31191836915572
 42
-0.1267942298051716
  0
LWPOLYLINE
  5
1D4
330
46
100
AcDbEntity
  8
0
100
AcDbPolyline
 90
        2
 70
     0
 43
0.0
 10
0.781255037989947
 20
9.49918639018618
 10
0.2212550379899447
 20
9.899186390186171
  0
LWPOLYLINE
  5
1D8
330
46
100
AcDbEntity
  8
0
100
AcDbPolyline
 90
        3
 70
     0
 43
0.0
 10
0.0706501185317663
 20
9.473583868444702
 42
-0.0379008275067435
 10
0.781255037989947
 20
9.49918639018618
 42
-0.1400549446402597
 10
0.6745883713232815
 20
10.1925197235195
 42
-0.5465814736335496
  0
LWPOLYLINE
  5
1DD
330
46
100
AcDbEntity
  8
0
100
AcDbPolyline
 90
        2
 70
     0
 43
0.0
 10
0.194588371323281
 20
9.472519723519509
 10
0.6745883713232815
 20
10.11251972351951
  0
LWPOLYLINE
  5
1E1
330
46
100
AcDbEntity
  8
0
100
AcDbPolyline
 90
        3
 70
     0
 43
0.0
 10
-0.4566229724351559
 20
9.933402255705736
 42
-0.0464454534601369
 10
-0.3387449620100504
 20
9.845853056852837
 42
-0.5228421810907599
 10
-0.4187449620100559
 20
9.205853056852836
 42
-7.203396344035517
  0
LWPOLYLINE
  5
1E6
330
46
100
AcDbEntity
  8
0
100
AcDbPolyline
 90
        5
 70
     0
 43
0.0
 10
-0.4187449620100559
 20
9.205853056852836
 42
0.9826100220167795
 10
-0.578744962010056
 20
9.49918639018618
 42
0.6368630238164545
 10
-0.6587449620100508
 20
9.019186390186169
 42
0.4506294454528331
 10
-0.0187449620100537
 20
9.179186390186172
 42
0.3555219724694982
 10
-0.2336113419544823
 20
10.21723523995387
 42
0.1661292902887159
  0
LWPOLYLINE
  5
1ED
330
46
100
AcDbEntity
  8
0
100
AcDbPolyline
 90
        5
 70
     0
 43
0.0
 10
-0.152078295343383
 20
10.72585305685284
 10
-0.719173671594426
 20
9.970291268922318
 42
0.6700450103349556
 10
-0.5254116286767179
 20
9.845853056852837
 10
0.0612550379899446
 20
10.5925197235195
 42
0.9770145659352682
 10
-0.152078295343383
 20
10.72585305685284
 42
0.1212864778990521
  0
LWPOLYLINE
  5
1F4
330
46
100
AcDbEntity
  8
0
100
AcDbPolyline
 90
        3
 70
     0
 43
0.0
 10
-0.6685983403178036
 20
11.06129917324174
 42
-0.1501580253342254
 10
-1.352078295343385
 20
11.07251972351951
 42
-0.1659978197457387
 10
-1.183001420300431
 20
10.34109424529331
  0
LWPOLYLINE
  5
1F9
330
46
100
AcDbEntity
  8
0
100
AcDbPolyline
 90
        2
 70
     0
 43
0.0
 10
-1.352078295343385
 20
11.07251972351951
 10
-0.7920782953433907
 20
10.64585305685284
  0
LWPOLYLINE
  5
1FD
330
46
100
AcDbEntity
  8
0
100
AcDbPolyline
 90
        2
 70
     0
 43
0.0
 10
-1.192078295343385
 20
10.45918639018617
 10
-0.7932132549012679
 20
11.03255488582172
  0
LWPOLYLINE
  5
201
330
46
100
AcDbEntity
  8
0
100
AcDbPolyline
 90
        4
 70
     0
 43
0.0
 10
0.0158088876586646
 20
10.53467916855242
 42
0.0228984793655056
 10
0.0879217046566119
 20
10.48585305685284
 42
0.2019410160110417
 10
0.6212550379899469
 20
10.48585305685284
 42
0.369924076215478
 10
0.7545883713232798
 20
10.75251972351951
 42
1.497021707007042
  0
LWPOLYLINE
  5
207
330
46
100
AcDbEntity
  8
0
100
AcDbPolyline
 90
        2
 70
     0
 43
0.0
 10
2.567179652026759
 20
9.499141350316827
 10
3.127241141195742
 20
9.899055251487839
  0
LWPOLYLINE
  5
20B
330
46
100
AcDbEntity
  8
0
100
AcDbPolyline
 90
        3
 70
     0
 43
0.0
 10
3.287175543798731
 20
9.472363991548681
 42
0.0384048104053034
 10
2.567179652026759
 20
9.499141350316827
 42
0.1400549446402597
 10
2.673952910130331
 20
10.19245827657986
 42
0.5465814736335496
  0
LWPOLYLINE
  5
210
330
46
100
AcDbEntity
  8
0
100
AcDbPolyline
 90
        2
 70
     0
 43
0.0
 10
3.153842212041116
 20
9.472384490144351
 10
2.67394061097293
 20
10.1124582775253
  0
LWPOLYLINE
  5
214
330
46
100
AcDbEntity
  8
0
100
AcDbPolyline
 90
        6
 70
     0
 43
0.0
 10
2.540717971631938
 20
10.83247876761207
 42
0.099019513592756
 10
2.647364138442355
 20
10.69912903697792
 42
0.7207592200561282
 10
2.887425631393071
 20
11.09909213477855
 42
0.6451838639634411
 10
2.247396940922595
 20
10.91252386357711
 42
0.5311683542514226
 10
3.127278038667949
 20
10.13905524865154
 42
0.08550779078233
 10
3.507777082608427
 20
10.31172873194132
 42
0.1267942298051716
  0
LWPOLYLINE
  5
21C
330
46
100
AcDbEntity
  8
0
100
AcDbPolyline
 90
        4
 70
     0
 43
0.0
 10
3.332784989420439
 20
10.53451643716213
 42
-0.0228984793655048
 10
3.260664666774303
 20
10.48570141262566
 42
-0.2019410160110417
 10
2.727331339743852
 20
10.48578340700834
 42
-0.369924076215478
 10
2.594039005177581
 20
10.75247056911924
 42
-1.497021707007042
  0
LWPOLYLINE
  5
222
330
46
100
AcDbEntity
  8
0
100
AcDbPolyline
 90
        8
 70
     0
 43
0.0
 10
1.069426716565391
 20
14.91079758229067
 42
0.0300252879393524
 10
1.021255037989948
 20
15.09918639018617
 42
0.1379489196876814
 10
0.6745883713232815
 20
15.49918639018618
 42
0.501759320936745
 10
0.0879217046566119
 20
15.33918639018617
 42
-0.4806248474865479
 10
-0.045411628676721
 20
15.57918639018617
 42
-0.2112815610138223
 10
0.4612550379899468
 20
15.89918639018617
 42
-0.3711075105251131
 10
1.367921704656613
 20
14.99251972351951
 42
-0.0104782967939563
 10
1.383012108886372
 20
14.9125197235195
  0
LWPOLYLINE
  5
22C
330
46
100
AcDbEntity
  8
0
100
AcDbPolyline
 90
        4
 70
     0
 43
0.0
 10
2.087921704656611
 20
14.9125197235195
 10
1.074588371323276
 20
14.9125197235195
 42
0.7272727272727044
 10
1.074588371323276
 20
14.32585305685284
 10
2.087921704656611
 20
14.32585305685284
  0
LWPOLYLINE
  5
232
330
46
100
AcDbEntity
  8
0
100
AcDbPolyline
 90
        8
 70
     0
 43
0.0
 10
2.279839955080042
 20
14.91079678182779
 42
-0.0300252879393523
 10
2.328040595881208
 20
15.09917818160872
 42
-0.1379489196876814
 10
2.674768754238009
 20
15.49912488053282
 42
-0.501759320936745
 10
3.261410815656699
 20
15.33903468860272
 42
0.4806248474865479
 10
3.394781044886517
 20
15.57901418717075
 42
0.2112815610138223
 10
2.888163580837201
 20
15.89909207805257
 42
0.3711075105251131
 10
1.981357534434884
 20
14.99256481255137
 42
0.0104844835420789
 10
1.966246906356051
 20
14.9125197235195
  0
LWPOLYLINE
  5
23C
330
46
100
AcDbEntity
  8
0
100
AcDbPolyline
 90
        4
 70
     0
 43
0.0
 10
1.261345243786379
 20
14.91267550591342
 10
2.274678565144231
 20
14.91251971658633
 42
-0.7272727272727044
 10
2.274588371323279
 20
14.32585305685284
 10
1.261255049965431
 20
14.32600884617993
  0
LWPOLYLINE
  5
242
330
46
100
AcDbEntity
  8
0
100
AcDbPolyline
 90
        4
 70
     0
 43
0.0
 10
5.646881536425542
 20
7.909583993544638
 42
-0.1327118595956964
 10
5.260259287867057
 20
6.540655668334881
 42
-0.1536893775807407
 10
4.540273445245748
 20
5.900639741638601
 42
-0.166215931941959
 10
4.029998687090323
 20
5.853431915315699
 42
-0.5228421810907599
  0
LWPOLYLINE
  5
248
330
46
100
AcDbEntity
  8
0
100
AcDbPolyline
 90
        5
 70
     0
 43
0.0
 10
3.790960735114872
 20
5.537781634369308
 42
0.0988885679451194
 10
4.113616216818503
 20
5.473963636941302
 42
0.1661292902887159
 10
4.966943061225226
 20
5.767315846472914
 42
0.2457569474929855
 10
5.953561947091923
 20
7.927337671631698
 42
0.0039603519108635
 10
5.952824786312078
 20
7.939324733774598
 42
-0.1925824035672528
  0
LWPOLYLINE
  5
24F
330
46
100
AcDbEntity
  8
0
100
AcDbPolyline
 90
        2
 70
     0
 43
0.0
 10
4.540284063147652
 20
5.420639741756042
 10
4.141431706074872
 20
4.8472624231152
  0
LWPOLYLINE
  5
253
330
46
100
AcDbEntity
  8
0
100
AcDbPolyline
 90
        3
 70
     0
 43
0.0
 10
4.016817427363616
 20
4.818515379141926
 42
-0.1501580253342254
 10
4.700297630427609
 20
4.807309947873397
 42
-0.1659978197457387
 10
4.531204575834401
 20
5.53873168583382
  0
LWPOLYLINE
  5
258
330
46
100
AcDbEntity
  8
0
100
AcDbPolyline
 90
        2
 70
     0
 43
0.0
 10
4.700297630427609
 20
4.807309947873397
 10
4.140288192429597
 20
5.233964226883458
  0
LWPOLYLINE
  5
25C
330
46
100
AcDbEntity
  8
0
100
AcDbPolyline
 90
        5
 70
     0
 43
0.0
 10
3.791321812306033
 20
10.3417946932234
 42
-0.0988885679451194
 10
4.113985690865618
 20
10.4055702225588
 42
-0.1661292902887159
 10
4.967273917203854
 20
10.11210570167977
 42
-0.2457569474929855
 10
5.95360849496032
 20
7.9519540375985
 42
0.0687563979864304
 10
5.952824786312078
 20
7.939324733774598
 42
0.1925824035672528
  0
LWPOLYLINE
  5
263
330
46
100
AcDbEntity
  8
0
100
AcDbPolyline
 90
        4
 70
     0
 43
0.0
 10
5.646943199126425
 20
7.909583993544638
 42
0.1383292292337823
 10
5.260488355215713
 20
9.338727280575142
 42
0.1536893775807407
 10
4.540586756983824
 20
9.978837965428306
 42
0.166215931941959
 10
4.030318216687557
 20
10.02611295311343
 42
0.5228421810907599
  0
LWPOLYLINE
  5
269
330
46
100
AcDbEntity
  8
0
100
AcDbPolyline
 90
        3
 70
     0
 43
0.0
 10
4.017273171587753
 20
11.06103121522511
 42
0.1501580253342254
 10
4.700754843577456
 20
11.07214668752591
 42
0.1659978197457387
 10
4.531565521569081
 20
10.34074721173238
  0
LWPOLYLINE
  5
26E
330
46
100
AcDbEntity
  8
0
100
AcDbPolyline
 90
        2
 70
     0
 43
0.0
 10
4.540660551928237
 20
10.4588379597557
 10
4.141883665567085
 20
11.03226776991417
  0
LWPOLYLINE
  5
272
330
46
100
AcDbEntity
  8
0
100
AcDbPolyline
 90
        2
 70
     0
 43
0.0
 10
4.700754843577456
 20
11.07214668752591
 10
4.140689254689345
 20
10.64556612000337
  0
ENDBLK
  5
276
330
46
100
AcDbEntity
  8
0
100
AcDbBlockEnd
  0
BLOCK
  5
277
330
D2
100
AcDbEntity
  8
0
100
AcDbBlockBegin
  2
*D1
 70
     1
 10
0.0
 20
0.0
 30
0.0
  3
*D1
  1

  0
LINE
  5
278
330
D2
100
AcDbEntity
  8
0
  6
BYBLOCK
 62
     0
100
AcDbLine
 10
53.30333337501667
 20
-52.28897091417
 30
0.0
 11
56.99375806422061
 21
-52.28897091417
 31
0.0
  0
LINE
  5
279
330
D2
100
AcDbEntity
  8
0
  6
BYBLOCK
 62
     0
100
AcDbLine
 10
53.30333337501667
 20
-36.28897091416999
 30
0.0
 11
56.99375806422061
 21
-36.28897091416999
 31
0.0
  0
LINE
  5
27A
330
D2
100
AcDbEntity
  8
0
  6
BYBLOCK
 62
     0
100
AcDbLine
 10
56.8137580642206
 20
-52.28897091417
 30
0.0
 11
56.8137580642206
 21
-44.49730424750333
 31
0.0
  0
LINE
  5
27B
330
D2
100
AcDbEntity
  8
0
  6
BYBLOCK
 62
     0
100
AcDbLine
 10
56.8137580642206
 20
-36.28897091416999
 30
0.0
 11
56.8137580642206
 21
-44.08063758083666
 31
0.0
  0
LINE
  5
27C
330
D2
100
AcDbEntity
  8
0
  6
BYBLOCK
 62
     0
100
AcDbLine
 10
56.9387580642206
 20
-52.41397091416999
 30
0.0
 11
56.68875806422061
 21
-52.16397091416999
 31
0.0
  0
LINE
  5
27D
330
D2
100
AcDbEntity
  8
0
  6
BYBLOCK
 62
     0
100
AcDbLine
 10
56.9387580642206
 20
-36.41397091416999
 30
0.0
 11
56.68875806422061
 21
-36.16397091416999
 31
0.0
  0
TEXT
  5
27E
330
D2
100
AcDbEntity
  8
0
  6
BYBLOCK
 62
     0
100
AcDbText
 10
56.87625806422061
 20
-44.37230424750333
 30
0.0
 40
0.125
  1
16
 50
90.0
 72
     1
 11
56.8137580642206
 21
-44.28897091416999
 31
0.0
100
AcDbText
 73
     2
  0
POINT
  5
27F
330
D2
100
AcDbEntity
  8
DEFPOINTS
  6
BYBLOCK
 62
     0
100
AcDbPoint
 10
53.24083337501667
 20
-52.28897091417
 30
0.0
  0
POINT
  5
280
330
D2
100
AcDbEntity
  8
DEFPOINTS
  6
BYBLOCK
 62
     0
100
AcDbPoint
 10
53.24083337501667
 20
-36.28897091416999
 30
0.0
  0
POINT
  5
281
330
D2
100
AcDbEntity
  8
DEFPOINTS
  6
BYBLOCK
 62
     0
100
AcDbPoint
 10
56.8137580642206
 20
-36.28897091416999
 30
0.0
  0
ENDBLK
  5
282
330
D2
100
AcDbEntity
  8
0
100
AcDbBlockEnd
  0
BLOCK
  5
283
330
D4
100
AcDbEntity
  8
0
100
AcDbBlockBegin
  2
*D2
 70
     1
 10
0.0
 20
0.0
 30
0.0
  3
*D2
  1

  0
LINE
  5
284
330
D4
100
AcDbEntity
  8
0
  6
BYBLOCK
 62
     0
100
AcDbLine
 10
47.87177421304156
 20
-42.83983353770213
 30
0.0
 11
47.87177421304156
 21
-35.47659417349734
 31
0.0
  0
LINE
  5
285
330
D4
100
AcDbEntity
  8
0
  6
BYBLOCK
 62
     0
100
AcDbLine
 10
56.37177421304157
 20
-43.13437569910518
 30
0.0
 11
56.37177421304157
 21
-35.47659417349734
 31
0.0
  0
LINE
  5
286
330
D4
100
AcDbEntity
  8
0
  6
BYBLOCK
 62
     0
100
AcDbLine
 10
47.87177421304156
 20
-35.65659417349734
 30
0.0
 11
51.72594087970823
 21
-35.65659417349734
 31
0.0
  0
LINE
  5
287
330
D4
100
AcDbEntity
  8
0
  6
BYBLOCK
 62
     0
100
AcDbLine
 10
56.37177421304157
 20
-35.65659417349734
 30
0.0
 11
52.51760754637491
 21
-35.65659417349734
 31
0.0
  0
LINE
  5
288
330
D4
100
AcDbEntity
  8
0
  6
BYBLOCK
 62
     0
100
AcDbLine
 10
47.74677421304157
 20
-35.78159417349734
 30
0.0
 11
47.99677421304156
 21
-35.53159417349734
 31
0.0
  0
LINE
  5
289
330
D4
100
AcDbEntity
  8
0
  6
BYBLOCK
 62
     0
100
AcDbLine
 10
56.24677421304157
 20
-35.78159417349734
 30
0.0
 11
56.49677421304157
 21
-35.53159417349734
 31
0.0
  0
TEXT
  5
28A
330
D4
100
AcDbEntity
  8
0
  6
BYBLOCK
 62
     0
100
AcDbText
 10
51.85094087970823
 20
-35.71909417349734
 30
0.0
 40
0.125
  1
8 1/2
 72
     1
 11
52.12177421304157
 21
-35.65659417349734
 31
0.0
100
AcDbText
 73
     2
  0
POINT
  5
28B
330
D4
100
AcDbEntity
  8
DEFPOINTS
  6
BYBLOCK
 62
     0
100
AcDbPoint
 10
47.87177421304156
 20
-42.90233353770213
 30
0.0
  0
POINT
  5
28C
330
D4
100
AcDbEntity
  8
DEFPOINTS
  6
BYBLOCK
 62
     0
100
AcDbPoint
 10
56.37177421304157
 20
-43.19687569910517
 30
0.0
  0
POINT
  5
28D
330
D4
100
AcDbEntity
  8
DEFPOINTS
  6
BYBLOCK
 62
     0
100
AcDbPoint
 10
56.37177421304157
 20
-35.65659417349734
 30
0.0
  0
ENDBLK
  5
28E
330
D4
100
AcDbEntity
  8
0
100
AcDbBlockEnd
  0
ENDSEC
  0
SECTION
  2
ENTITIES
  0
INSERT
  5
28F
330
18
100
AcDbEntity
  8
ADP1DETAIL
100
AcDbBlockReference
  2
567
 10
50.35376230857626
 20
-52.26957408448377
 30
0.0
  0
DIMENSION
  5
290
330
18
100
AcDbEntity
  8
ADPDIM
100
AcDbDimension
  2
*D1
 10
56.8137580642206
 20
-36.28897091416999
 30
0.0
 11
56.8137580642206
 21
-44.28897091416999
 31
0.0
100
AcDbAlignedDimension
 13
53.24083337501667
 23
-52.28897091417
 33
0.0
 14
53.24083337501667
 24
-36.28897091416999
 34
0.0
 50
90.0
100
AcDbRotatedDimension
  0
DIMENSION
  5
291
330
18
100
AcDbEntity
  8
ADPDIM
100
AcDbDimension
  2
*D2
 10
56.37177421304157
 20
-35.65659417349734
 30
0.0
 11
52.12177421304157
 21
-35.65659417349734
 31
0.0
100
AcDbAlignedDimension
 13
47.87177421304156
 23
-42.90233353770213
 33
0.0
 14
56.37177421304157
 24
-43.19687569910517
 34
0.0
100
AcDbRotatedDimension
  0
TEXT
  5
29F
330
18
100
AcDbEntity
  8
ADPDIM
100
AcDbText
 10
32.82959145399298
 20
-53.50104213525133
 30
0.0
 40
0.375
  1
J U L I U S  B L U M  &  C O . ,  I N C .      ( 8 0 0 )  5 2 6 - 6 2 9 3        W W W . J U L I U S B L U M . C O M        P A R T  N o .  5 6 7
 41
1.25
  7
ARIAL_WIDE
 72
     1
 11
52.13371406654414
 21
-53.12604213525133
 31
0.0
100
AcDbText
 73
     3
  0
ENDSEC
  0
SECTION
  2
OBJECTS
  0
DICTIONARY
  5
C
330
0
100
AcDbDictionary
  3
ACAD_GROUP
350
D
  3
ACAD_LAYOUT
350
298
  3
ACAD_MLINESTYLE
350
E
  3
ACAD_PLOTSETTINGS
350
299
  3
ACAD_PLOTSTYLENAME
350
296
  3
ACDBHEADERROUNDTRIPXREC
350
3E7
  3
ACDBVARIABLEDICTIONARY
350
2F9
  0
DICTIONARY
  5
2F3
330
18
100
AcDbDictionary
280
     1
  3
ACAD_LAYOUTSELFREF
360
408
  0
DICTIONARY
  5
2F1
330
15
100
AcDbDictionary
280
     1
  3
ACAD_LAYOUTSELFREF
360
407
  0
DICTIONARY
  5
D
102
{ACAD_REACTORS
330
C
102
}
330
C
100
AcDbDictionary
  0
DICTIONARY
  5
298
102
{ACAD_REACTORS
330
C
102
}
330
C
100
AcDbDictionary
  0
DICTIONARY
  5
E
102
{ACAD_REACTORS
330
C
102
}
330
C
100
AcDbDictionary
  3
STANDARD
350
1B
  0
DICTIONARY
  5
299
102
{ACAD_REACTORS
330
C
102
}
330
C
100
AcDbDictionary
  0
ACDBDICTIONARYWDFLT
  5
296
102
{ACAD_REACTORS
330
C
102
}
330
C
100
AcDbDictionary
281
     1
  3
Normal
350
297
100
AcDbDictionaryWithDefault
340
297
  0
DICTIONARY
  5
3E7
102
{ACAD_REACTORS
330
C
102
}
330
C
100
AcDbDictionary
  3
CEPSNTYPE
350
3F1
  3
FINGERPRINTGUID
350
3F2
  3
HYPERLINKBASE
350
3EA
  3
INSUNITS
350
3F0
  3
LAYOUTDICT
350
3EC
  3
LWETCUNION
350
3EF
  3
PLOTSETDICT
350
3ED
  3
PLOTSTYLNAMDICT
350
3EE
  3
PSVPSCALE
350
3F4
  3
PUCSBASE
350
3F7
  3
PUCSORGBACK
350
3FD
  3
PUCSORGBOTTOM
350
3F9
  3
PUCSORGFRONT
350
3FC
  3
PUCSORGLEFT
350
3FA
  3
PUCSORGRIGHT
350
3FB
  3
PUCSORGTOP
350
3F8
  3
PUCSORTHOREF
350
3F5
  3
PUCSORTHOVIEW
350
3F6
  3
STYLESHEET
350
3EB
  3
TSTACKALIGN
350
3E8
  3
TSTACKSIZE
350
3E9
  3
UCSBASE
350
400
  3
UCSORGBACK
350
406
  3
UCSORGBOTTOM
350
402
  3
UCSORGFRONT
350
405
  3
UCSORGLEFT
350
403
  3
UCSORGRIGHT
350
404
  3
UCSORGTOP
350
401
  3
UCSORTHOREF
350
3FE
  3
UCSORTHOVIEW
350
3FF
  3
VERSIONGUID
350
3F3
  0
DICTIONARY
  5
2F9
102
{ACAD_REACTORS
330
C
102
}
330
C
100
AcDbDictionary
  3
DIMASSOC
350
2FA
  0
XRECORD
  5
408
102
{ACAD_REACTORS
330
2F3
102
}
330
2F3
100
AcDbXrecord
340
18
  0
XRECORD
  5
407
102
{ACAD_REACTORS
330
2F1
102
}
330
2F1
100
AcDbXrecord
340
15
  0
MLINESTYLE
  5
1B
102
{ACAD_REACTORS
330
E
102
}
330
E
100
AcDbMlineStyle
  2
STANDARD
 70
     0
  3

 62
     0
 51
90.0
 52
90.0
 71
     2
 49
0.5
 62
   256
  6
BYLAYER
 49
-0.5
 62
   256
  6
BYLAYER
  0
ACDBPLACEHOLDER
  5
297
102
{ACAD_REACTORS
330
296
102
}
330
296
100
AcDbPlaceHolder
280
     0
  0
XRECORD
  5
3F1
102
{ACAD_REACTORS
330
3E7
102
}
330
3E7
100
AcDbXrecord
 90
        0
  0
XRECORD
  5
3F2
102
{ACAD_REACTORS
330
3E7
102
}
330
3E7
100
AcDbXrecord
  1
{76B1083E-ABB4-44C4-B0FA-7FFA0FE7432D}
  0
XRECORD
  5
3EA
102
{ACAD_REACTORS
330
3E7
102
}
330
3E7
100
AcDbXrecord
  1

  0
XRECORD
  5
3F0
102
{ACAD_REACTORS
330
3E7
102
}
330
3E7
100
AcDbXrecord
 90
        0
  0
XRECORD
  5
3EC
102
{ACAD_REACTORS
330
3E7
102
}
330
3E7
100
AcDbXrecord
340
298
  0
XRECORD
  5
3EF
102
{ACAD_REACTORS
330
3E7
102
}
330
3E7
100
AcDbXrecord
 90
    14877
  0
XRECORD
  5
3ED
102
{ACAD_REACTORS
330
3E7
102
}
330
3E7
100
AcDbXrecord
340
299
  0
XRECORD
  5
3EE
102
{ACAD_REACTORS
330
3E7
102
}
330
3E7
100
AcDbXrecord
340
296
  0
XRECORD
  5
3F4
102
{ACAD_REACTORS
330
3E7
102
}
330
3E7
100
AcDbXrecord
 40
0.0
  0
XRECORD
  5
3F7
102
{ACAD_REACTORS
330
3E7
102
}
330
3E7
100
AcDbXrecord
340
0
  0
XRECORD
  5
3FD
102
{ACAD_REACTORS
330
3E7
102
}
330
3E7
100
AcDbXrecord
 10
0.0
 20
0.0
 30
0.0
  0
XRECORD
  5
3F9
102
{ACAD_REACTORS
330
3E7
102
}
330
3E7
100
AcDbXrecord
 10
0.0
 20
0.0
 30
0.0
  0
XRECORD
  5
3FC
102
{ACAD_REACTORS
330
3E7
102
}
330
3E7
100
AcDbXrecord
 10
0.0
 20
0.0
 30
0.0
  0
XRECORD
  5
3FA
102
{ACAD_REACTORS
330
3E7
102
}
330
3E7
100
AcDbXrecord
 10
0.0
 20
0.0
 30
0.0
  0
XRECORD
  5
3FB
102
{ACAD_REACTORS
330
3E7
102
}
330
3E7
100
AcDbXrecord
 10
0.0
 20
0.0
 30
0.0
  0
XRECORD
  5
3F8
102
{ACAD_REACTORS
330
3E7
102
}
330
3E7
100
AcDbXrecord
 10
0.0
 20
0.0
 30
0.0
  0
XRECORD
  5
3F5
102
{ACAD_REACTORS
330
3E7
102
}
330
3E7
100
AcDbXrecord
340
0
  0
XRECORD
  5
3F6
102
{ACAD_REACTORS
330
3E7
102
}
330
3E7
100
AcDbXrecord
 70
     0
  0
XRECORD
  5
3EB
102
{ACAD_REACTORS
330
3E7
102
}
330
3E7
100
AcDbXrecord
  1

  0
XRECORD
  5
3E8
102
{ACAD_REACTORS
330
3E7
102
}
330
3E7
100
AcDbXrecord
 90
        1
  0
XRECORD
  5
3E9
102
{ACAD_REACTORS
330
3E7
102
}
330
3E7
100
AcDbXrecord
 90
       70
  0
XRECORD
  5
400
102
{ACAD_REACTORS
330
3E7
102
}
330
3E7
100
AcDbXrecord
340
0
  0
XRECORD
  5
406
102
{ACAD_REACTORS
330
3E7
102
}
330
3E7
100
AcDbXrecord
 10
0.0
 20
0.0
 30
0.0
  0
XRECORD
  5
402
102
{ACAD_REACTORS
330
3E7
102
}
330
3E7
100
AcDbXrecord
 10
0.0
 20
0.0
 30
0.0
  0
XRECORD
  5
405
102
{ACAD_REACTORS
330
3E7
102
}
330
3E7
100
AcDbXrecord
 10
0.0
 20
0.0
 30
0.0
  0
XRECORD
  5
403
102
{ACAD_REACTORS
330
3E7
102
}
330
3E7
100
AcDbXrecord
 10
0.0
 20
0.0
 30
0.0
  0
XRECORD
  5
404
102
{ACAD_REACTORS
330
3E7
102
}
330
3E7
100
AcDbXrecord
 10
0.0
 20
0.0
 30
0.0
  0
XRECORD
  5
401
102
{ACAD_REACTORS
330
3E7
102
}
330
3E7
100
AcDbXrecord
 10
0.0
 20
0.0
 30
0.0
  0
XRECORD
  5
3FE
102
{ACAD_REACTORS
330
3E7
102
}
330
3E7
100
AcDbXrecord
340
0
  0
XRECORD
  5
3FF
102
{ACAD_REACTORS
330
3E7
102
}
330
3E7
100
AcDbXrecord
 70
     0
  0
XRECORD
  5
3F3
102
{ACAD_REACTORS
330
3E7
102
}
330
3E7
100
AcDbXrecord
  1
{7B79CCFC-5C3D-4FEB-A580-C32437560857}
  0
DICTIONARYVAR
  5
2FA
102
{ACAD_REACTORS
330
2F9
102
}
330
2F9
100
DictionaryVariables
280
     0
  1
1
  0
ENDSEC
  0
EOF
