  0
SECTION
  2
HEADER
  9
$ACADVER
  1
AC1014
  9
$ACADMAINTVER
 70
     9
  9
$DWGCODEPAGE
  3
ANSI_1252
  9
$INSBASE
 10
33.14852291537855
 20
-50.26616749084386
 30
0.0
  9
$EXTMIN
 10
13.86275333735674
 20
-53.86346955278001
 30
0.0
  9
$EXTMAX
 10
52.47099856245906
 20
-35.82336194803983
 30
0.0
  9
$LIMMIN
 10
0.0
 20
0.0
  9
$LIMMAX
 10
36.0
 20
36.0
  9
$ORTHOMODE
 70
     1
  9
$REGENMODE
 70
     1
  9
$FILLMODE
 70
     1
  9
$QTEXTMODE
 70
     0
  9
$MIRRTEXT
 70
     1
  9
$DRAGMODE
 70
     0
  9
$LTSCALE
 40
1.0
  9
$OSMODE
 70
    37
  9
$ATTMODE
 70
     1
  9
$TEXTSIZE
 40
0.2
  9
$TRACEWID
 40
0.05
  9
$TEXTSTYLE
  7
STANDARD
  9
$CLAYER
  8
ADPDIM
  9
$CELTYPE
  6
BYLAYER
  9
$CECOLOR
 62
   256
  9
$CELTSCALE
 40
1.0
  9
$DELOBJ
 70
     1
  9
$DISPSILH
 70
     0
  9
$DIMSCALE
 40
1.0
  9
$DIMASZ
 40
0.125
  9
$DIMEXO
 40
0.0625
  9
$DIMDLI
 40
0.38
  9
$DIMRND
 40
0.0
  9
$DIMDLE
 40
0.0
  9
$DIMEXE
 40
0.18
  9
$DIMTP
 40
0.0
  9
$DIMTM
 40
0.0
  9
$DIMTXT
 40
0.125
  9
$DIMCEN
 40
0.1875
  9
$DIMTSZ
 40
0.125
  9
$DIMTOL
 70
     0
  9
$DIMLIM
 70
     0
  9
$DIMTIH
 70
     0
  9
$DIMTOH
 70
     0
  9
$DIMSE1
 70
     0
  9
$DIMSE2
 70
     0
  9
$DIMTAD
 70
     0
  9
$DIMZIN
 70
     3
  9
$DIMBLK
  1

  9
$DIMASO
 70
     1
  9
$DIMSHO
 70
     1
  9
$DIMPOST
  1

  9
$DIMAPOST
  1

  9
$DIMALT
 70
     0
  9
$DIMALTD
 70
     1
  9
$DIMALTF
 40
25.4
  9
$DIMLFAC
 40
1.0
  9
$DIMTOFL
 70
     0
  9
$DIMTVP
 40
0.0
  9
$DIMTIX
 70
     0
  9
$DIMSOXD
 70
     0
  9
$DIMSAH
 70
     0
  9
$DIMBLK1
  1

  9
$DIMBLK2
  1

  9
$DIMSTYLE
  2
STANDARD
  9
$DIMCLRD
 70
     0
  9
$DIMCLRE
 70
     0
  9
$DIMCLRT
 70
     0
  9
$DIMTFAC
 40
1.0
  9
$DIMGAP
 40
0.125
  9
$DIMJUST
 70
     0
  9
$DIMSD1
 70
     0
  9
$DIMSD2
 70
     0
  9
$DIMTOLJ
 70
     1
  9
$DIMTZIN
 70
     0
  9
$DIMALTZ
 70
     0
  9
$DIMALTTZ
 70
     0
  9
$DIMFIT
 70
     3
  9
$DIMUPT
 70
     0
  9
$DIMUNIT
 70
     2
  9
$DIMDEC
 70
     4
  9
$DIMTDEC
 70
     4
  9
$DIMALTU
 70
     2
  9
$DIMALTTD
 70
     2
  9
$DIMTXSTY
  7
STANDARD
  9
$DIMAUNIT
 70
     0
  9
$LUNITS
 70
     5
  9
$LUPREC
 70
     4
  9
$SKETCHINC
 40
0.1
  9
$FILLETRAD
 40
0.062
  9
$AUNITS
 70
     0
  9
$AUPREC
 70
     0
  9
$MENU
  1
acad
  9
$ELEVATION
 40
0.0
  9
$PELEVATION
 40
0.0
  9
$THICKNESS
 40
0.0
  9
$LIMCHECK
 70
     0
  9
$BLIPMODE
 70
     0
  9
$CHAMFERA
 40
0.0
  9
$CHAMFERB
 40
0.0
  9
$CHAMFERC
 40
0.0
  9
$CHAMFERD
 40
0.0
  9
$SKPOLY
 70
     0
  9
$TDCREATE
 40
2450408.699691354
  9
$TDUPDATE
 40
2452297.073074363
  9
$TDINDWG
 40
0.0130067130
  9
$TDUSRTIMER
 40
0.0130067130
  9
$USRTIMER
 70
     1
  9
$ANGBASE
 50
0.0
  9
$ANGDIR
 70
     0
  9
$PDMODE
 70
     0
  9
$PDSIZE
 40
0.0
  9
$PLINEWID
 40
0.0
  9
$COORDS
 70
     2
  9
$SPLFRAME
 70
     0
  9
$SPLINETYPE
 70
     6
  9
$SPLINESEGS
 70
     8
  9
$ATTDIA
 70
     0
  9
$ATTREQ
 70
     1
  9
$HANDLING
 70
 22529
  9
$HANDSEED
  5
320
  9
$SURFTAB1
 70
     6
  9
$SURFTAB2
 70
     6
  9
$SURFTYPE
 70
     6
  9
$SURFU
 70
     6
  9
$SURFV
 70
     6
  9
$UCSNAME
  2

  9
$UCSORG
 10
0.0
 20
0.0
 30
0.0
  9
$UCSXDIR
 10
1.0
 20
0.0
 30
0.0
  9
$UCSYDIR
 10
0.0
 20
1.0
 30
0.0
  9
$PUCSNAME
  2

  9
$PUCSORG
 10
0.0
 20
0.0
 30
0.0
  9
$PUCSXDIR
 10
1.0
 20
0.0
 30
0.0
  9
$PUCSYDIR
 10
0.0
 20
1.0
 30
0.0
  9
$USERI1
 70
     0
  9
$USERI2
 70
     0
  9
$USERI3
 70
     0
  9
$USERI4
 70
     0
  9
$USERI5
 70
     0
  9
$USERR1
 40
0.0
  9
$USERR2
 40
0.0
  9
$USERR3
 40
0.0
  9
$USERR4
 40
0.0
  9
$USERR5
 40
0.0
  9
$WORLDVIEW
 70
     1
  9
$SHADEDGE
 70
     3
  9
$SHADEDIF
 70
    70
  9
$TILEMODE
 70
     1
  9
$MAXACTVP
 70
    15
  9
$PINSBASE
 10
0.0
 20
0.0
 30
0.0
  9
$PLIMCHECK
 70
     0
  9
$PEXTMIN
 10
1.000000000000000E+20
 20
1.000000000000000E+20
 30
1.000000000000000E+20
  9
$PEXTMAX
 10
-1.000000000000000E+20
 20
-1.000000000000000E+20
 30
-1.000000000000000E+20
  9
$PLIMMIN
 10
0.0
 20
0.0
  9
$PLIMMAX
 10
12.0
 20
9.0
  9
$UNITMODE
 70
     0
  9
$VISRETAIN
 70
     0
  9
$PLINEGEN
 70
     0
  9
$PSLTSCALE
 70
     1
  9
$TREEDEPTH
 70
  3020
  9
$PICKSTYLE
 70
     1
  9
$CMLSTYLE
  2
STANDARD
  9
$CMLJUST
 70
     0
  9
$CMLSCALE
 40
1.0
  9
$PROXYGRAPHICS
 70
     1
  9
$MEASUREMENT
 70
     0
  0
ENDSEC
  0
SECTION
  2
CLASSES
  0
CLASS
  1
ACDBDICTIONARYWDFLT
  2
AcDbDictionaryWithDefault
  3
AutoCAD 2000
 90
        0
280
     0
281
     0
  0
CLASS
  1
ACDBPLACEHOLDER
  2
AcDbPlaceHolder
  3
AutoCAD 2000
 90
        0
280
     0
281
     0
  0
CLASS
  1
LAYOUT
  2
AcDbLayout
  3
AutoCAD 2000
 90
        0
280
     0
281
     0
  0
CLASS
  1
DICTIONARYVAR
  2
AcDbDictionaryVar
  3
AutoCAD 2000
 90
        0
280
     0
281
     0
  0
CLASS
  1
LONG_TRANSACTION
  2
AcDbLongTransaction
  3
AutoCAD 2000
 90
        0
280
     0
281
     0
  0
CLASS
  1
LWPOLYLINE
  2
AcDbPolyline
  3
AutoCAD 2000
 90
        0
280
     0
281
     1
  0
CLASS
  1
HATCH
  2
AcDbHatch
  3
AutoCAD 2000
 90
        0
280
     0
281
     1
  0
CLASS
  1
XRECORD
  2
AcDbXrecord
  3
AutoCAD 2000
 90
        0
280
     0
281
     0
  0
CLASS
  1
LONG_TRANSACTION
  2
AcDbLongTransaction
  3
AutoCAD 2000
 90
        0
280
     0
281
     0
  0
CLASS
  1
LWPOLYLINE
  2
AcDbPolyline
  3
AutoCAD 2000
 90
        0
280
     0
281
     1
  0
CLASS
  1
HATCH
  2
AcDbHatch
  3
AutoCAD 2000
 90
        0
280
     0
281
     1
  0
CLASS
  1
XRECORD
  2
AcDbXrecord
  3
AutoCAD 2000
 90
        0
280
     0
281
     0
  0
CLASS
  1
LONG_TRANSACTION
  2
AcDbLongTransaction
  3
AutoCAD 2000
 90
        0
280
     0
281
     0
  0
CLASS
  1
LWPOLYLINE
  2
AcDbPolyline
  3
AutoCAD 2000
 90
        0
280
     0
281
     1
  0
CLASS
  1
HATCH
  2
AcDbHatch
  3
AutoCAD 2000
 90
        0
280
     0
281
     1
  0
CLASS
  1
XRECORD
  2
AcDbXrecord
  3
AutoCAD 2000
 90
        0
280
     0
281
     0
  0
CLASS
  1
LONG_TRANSACTION
  2
AcDbLongTransaction
  3
AutoCAD 2000
 90
        0
280
     0
281
     0
  0
CLASS
  1
LWPOLYLINE
  2
AcDbPolyline
  3
AutoCAD 2000
 90
        0
280
     0
281
     1
  0
CLASS
  1
HATCH
  2
AcDbHatch
  3
AutoCAD 2000
 90
        0
280
     0
281
     1
  0
CLASS
  1
XRECORD
  2
AcDbXrecord
  3
AutoCAD 2000
 90
        0
280
     0
281
     0
  0
CLASS
  1
LONG_TRANSACTION
  2
AcDbLongTransaction
  3
AutoCAD 2000
 90
        0
280
     0
281
     0
  0
CLASS
  1
LWPOLYLINE
  2
AcDbPolyline
  3
AutoCAD 2000
 90
        0
280
     0
281
     1
  0
CLASS
  1
HATCH
  2
AcDbHatch
  3
AutoCAD 2000
 90
        0
280
     0
281
     1
  0
CLASS
  1
XRECORD
  2
AcDbXrecord
  3
AutoCAD 2000
 90
        0
280
     0
281
     0
  0
CLASS
  1
LONG_TRANSACTION
  2
AcDbLongTransaction
  3
AutoCAD 2000
 90
        0
280
     0
281
     0
  0
CLASS
  1
LWPOLYLINE
  2
AcDbPolyline
  3
AutoCAD 2000
 90
        0
280
     0
281
     1
  0
CLASS
  1
HATCH
  2
AcDbHatch
  3
AutoCAD 2000
 90
        0
280
     0
281
     1
  0
CLASS
  1
XRECORD
  2
AcDbXrecord
  3
AutoCAD 2000
 90
        0
280
     0
281
     0
  0
ENDSEC
  0
SECTION
  2
TABLES
  0
TABLE
  2
VPORT
  5
8
330
0
100
AcDbSymbolTable
 70
     2
  0
VPORT
  5
2FD
330
8
100
AcDbSymbolTableRecord
100
AcDbViewportTableRecord
  2
*ACTIVE
 70
     0
 10
0.0
 20
0.0
 11
1.0
 21
1.0
 12
33.1992204856279
 22
-44.84378098450491
 13
0.0
 23
0.0
 14
0.5740882589684922
 24
0.5740882589684922
 15
0.5
 25
0.5
 16
0.0
 26
0.0
 36
1.0
 17
0.0
 27
0.0
 37
0.0
 40
24.74349257961225
 41
1.570528967254408
 42
50.0
 43
0.0
 44
0.0
 50
0.0
 51
0.0
 71
     0
 72
   100
 73
     1
 74
     0
 75
     0
 76
     0
 77
     0
 78
     0
  0
ENDTAB
  0
TABLE
  2
LTYPE
  5
5
330
0
100
AcDbSymbolTable
 70
     1
  0
LTYPE
  5
12
330
5
100
AcDbSymbolTableRecord
100
AcDbLinetypeTableRecord
  2
BYBLOCK
 70
     0
  3

 72
    65
 73
     0
 40
0.0
  0
LTYPE
  5
13
330
5
100
AcDbSymbolTableRecord
100
AcDbLinetypeTableRecord
  2
BYLAYER
 70
     0
  3

 72
    65
 73
     0
 40
0.0
  0
LTYPE
  5
14
330
5
100
AcDbSymbolTableRecord
100
AcDbLinetypeTableRecord
  2
CONTINUOUS
 70
     0
  3
Solid line
 72
    65
 73
     0
 40
0.0
  0
ENDTAB
  0
TABLE
  2
LAYER
  5
2
330
0
100
AcDbSymbolTable
 70
     4
  0
LAYER
  5
F
330
2
100
AcDbSymbolTableRecord
100
AcDbLayerTableRecord
  2
0
 70
     0
 62
     7
  6
CONTINUOUS
  0
LAYER
  5
D2
330
2
100
AcDbSymbolTableRecord
100
AcDbLayerTableRecord
  2
ADP1DETAIL
 70
     0
 62
     7
  6
CONTINUOUS
  0
LAYER
  5
D4
330
2
100
AcDbSymbolTableRecord
100
AcDbLayerTableRecord
  2
DEFPOINTS
 70
     0
 62
     7
  6
CONTINUOUS
  0
LAYER
  5
D5
330
2
100
AcDbSymbolTableRecord
100
AcDbLayerTableRecord
  2
ADPDIM
 70
     0
 62
     3
  6
CONTINUOUS
  0
ENDTAB
  0
TABLE
  2
STYLE
  5
3
330
0
100
AcDbSymbolTable
 70
     2
  0
STYLE
  5
10
330
3
100
AcDbSymbolTableRecord
100
AcDbTextStyleTableRecord
  2
STANDARD
 70
     0
 40
0.0
 41
1.0
 50
0.0
 71
     0
 42
0.2
  3
txt
  4

  0
STYLE
  5
1B5
330
3
100
AcDbSymbolTableRecord
100
AcDbTextStyleTableRecord
  2
ARIAL_WIDE
 70
     0
 40
0.0
 41
1.25
 50
0.0
 71
     0
 42
0.2
  3
ARIAL.TTF
  4

1001
ACAD
1000
Arial
1071
       34
  0
ENDTAB
  0
TABLE
  2
VIEW
  5
6
330
0
100
AcDbSymbolTable
 70
     0
  0
ENDTAB
  0
TABLE
  2
UCS
  5
7
330
0
100
AcDbSymbolTable
 70
     0
  0
ENDTAB
  0
TABLE
  2
APPID
  5
9
330
0
100
AcDbSymbolTable
 70
     1
  0
APPID
  5
11
330
9
100
AcDbSymbolTableRecord
100
AcDbRegAppTableRecord
  2
ACAD
 70
     0
  0
ENDTAB
  0
TABLE
  2
DIMSTYLE
  5
A
330
0
100
AcDbSymbolTable
 70
     1
  0
DIMSTYLE
105
1A9
330
A
100
AcDbSymbolTableRecord
100
AcDbDimStyleTableRecord
  2
STANDARD
 70
     0
  3

  4

  5

  6

  7

 40
1.0
 41
0.18
 42
0.0625
 43
0.38
 44
0.18
 45
0.0
 46
0.0
 47
0.0
 48
0.0
140
0.18
141
0.09
142
0.0
143
25.4
144
1.0
145
0.0
146
1.0
147
0.09
 71
     0
 72
     0
 73
     1
 74
     1
 75
     0
 76
     0
 77
     0
 78
     0
170
     0
171
     2
172
     0
173
     0
174
     0
175
     0
176
     0
177
     0
178
     0
270
     2
271
     4
272
     4
273
     2
274
     2
340
10
275
     0
280
     0
281
     0
282
     0
283
     1
284
     0
285
     0
286
     0
287
     3
288
     0
  0
ENDTAB
  0
TABLE
  2
BLOCK_RECORD
  5
1
330
0
100
AcDbSymbolTable
 70
     3
  0
BLOCK_RECORD
  5
18
102
{ACAD_XDICTIONARY
360
20A
102
}
330
1
100
AcDbSymbolTableRecord
100
AcDbBlockTableRecord
  2
*MODEL_SPACE
  0
BLOCK_RECORD
  5
15
102
{ACAD_XDICTIONARY
360
208
102
}
330
1
100
AcDbSymbolTableRecord
100
AcDbBlockTableRecord
  2
*PAPER_SPACE
  0
BLOCK_RECORD
  5
42
330
1
100
AcDbSymbolTableRecord
100
AcDbBlockTableRecord
  2
566
  0
BLOCK_RECORD
  5
CD
330
1
100
AcDbSymbolTableRecord
100
AcDbBlockTableRecord
  2
*D1
  0
BLOCK_RECORD
  5
CE
330
1
100
AcDbSymbolTableRecord
100
AcDbBlockTableRecord
  2
*D2
  0
ENDTAB
  0
ENDSEC
  0
SECTION
  2
BLOCKS
  0
BLOCK
  5
D8
330
18
100
AcDbEntity
  8
0
100
AcDbBlockBegin
  2
*MODEL_SPACE
 70
     0
 10
0.0
 20
0.0
 30
0.0
  3
*MODEL_SPACE
  1

  0
ENDBLK
  5
D9
330
18
100
AcDbEntity
  8
0
100
AcDbBlockEnd
  0
BLOCK
  5
D6
330
15
100
AcDbEntity
 67
     1
  8
0
100
AcDbBlockBegin
  2
*PAPER_SPACE
 70
     0
 10
0.0
 20
0.0
 30
0.0
  3
*PAPER_SPACE
  1

  0
ENDBLK
  5
D7
330
15
100
AcDbEntity
 67
     1
  8
0
100
AcDbBlockEnd
  0
BLOCK
  5
DB
330
42
100
AcDbEntity
  8
0
100
AcDbBlockBegin
  2
566
 70
     0
 10
0.0
 20
0.0
 30
0.0
  3
566
  1

  0
LINE
  5
DC
330
42
100
AcDbEntity
  8
0
100
AcDbLine
 10
-0.1455171107901858
 20
10.99341123145328
 30
0.0
 11
0.2213841974870725
 21
4.604803489187977
 31
0.0
  0
LINE
  5
DD
330
42
100
AcDbEntity
  8
0
100
AcDbLine
 10
4.305114501807247
 20
10.95008693141655
 30
0.0
 11
3.938431405376764
 21
4.561404157114556
 31
0.0
  0
LINE
  5
DE
330
42
100
AcDbEntity
  8
0
100
AcDbLine
 10
3.987321398358966
 20
10.87063865555448
 30
0.0
 11
3.643045536290005
 21
4.594224862451032
 31
0.0
  0
LINE
  5
DF
330
42
100
AcDbEntity
  8
0
100
AcDbLine
 10
0.1722759926580935
 20
10.91396295559121
 30
0.0
 11
0.5165518547270552
 21
4.637549162487769
 31
0.0
  0
LWPOLYLINE
  5
E0
330
42
100
AcDbEntity
  8
0
100
AcDbPolyline
 90
       13
 70
     0
 43
0.0
 10
2.33073384875273
 20
2.333549162487782
 42
0.0397367519014601
 10
2.398355881117593
 20
1.892983483140698
 42
0.2765699645674269
 10
3.675257937804405
 20
0.1344753825068405
 42
0.2993157215836116
 10
5.046631743186557
 20
0.1980869314165581
 42
0.1986313412023937
 10
5.57628691560035
 20
1.019052448657932
 42
0.165098495465225
 10
5.523321398358971
 20
1.62815589693379
 42
0.0433963806152183
 10
5.311459329393452
 20
1.919466241761377
 42
0.150543659459823
 10
4.781804156979662
 20
2.157811069347591
 42
1.094733341550729
 10
4.569942088014142
 20
1.257397276244134
 10
4.6758731224969
 20
1.310362793485516
 42
0.2360679774997886
 10
4.781804156979662
 20
1.46925934520966
 42
0.1622776601683964
 10
4.755321398358971
 20
1.62815589693379
 42
0.5884033489985777
 10
4.516976570772763
 20
1.62815589693379
  0
LWPOLYLINE
  5
EF
330
42
100
AcDbEntity
  8
0
100
AcDbPolyline
 90
        7
 70
     0
 43
0.0
 10
4.516976570772763
 20
1.62815589693379
 42
0.0990195135927761
 10
4.622907605255521
 20
1.760569690037245
 42
-0.4738791275956244
 10
5.205528294910697
 20
1.46925934520966
 42
-0.0954525911004362
 10
5.205528294910697
 20
0.9131214141751815
 42
-0.3070480078507666
 10
4.384562777669318
 20
0.3305007245200002
 42
-0.2743436890755335
 10
3.00745932939345
 20
1.124983483140693
 42
-0.1034396575894778
 10
2.669030326043907
 20
2.333549162487782
 42
-0.2258243669491827
  0
LWPOLYLINE
  5
F8
330
42
100
AcDbEntity
  8
0
100
AcDbPolyline
 90
        7
 70
     0
 43
0.0
 10
-0.3573791797557018
 20
1.671480196970528
 42
-0.0990195135927761
 10
-0.4633102142384616
 20
1.803893990073982
 42
0.4738791275956244
 10
-1.045930903893633
 20
1.512583645246397
 42
0.0954525911004362
 10
-1.045930903893633
 20
0.9564457142119186
 42
0.3070480078507666
 10
-0.2249653866522543
 20
0.3738250245567367
 42
0.2743436890755335
 10
1.15213806162361
 20
1.168307783177431
 42
0.0998604147113553
 10
1.487356452281622
 20
2.333549162487782
 42
0.2258243669491827
  0
LWPOLYLINE
  5
101
330
42
100
AcDbEntity
  8
0
100
AcDbPolyline
 90
       13
 70
     0
 43
0.0
 10
1.825363733687844
 20
2.333549162487782
 42
-0.0358623113292602
 10
1.761241509899468
 20
1.936307783177435
 42
-0.2765699645674269
 10
0.4843394532126588
 20
0.177799682543577
 42
-0.2993157215836116
 10
-0.8870343521694952
 20
0.2414112314532959
 42
-0.1986313412023937
 10
-1.416689524583288
 20
1.062376748694668
 42
-0.165098495465225
 10
-1.363724007341909
 20
1.671480196970528
 42
-0.0433963806152183
 10
-1.15186193837639
 20
1.962790541798113
 42
-0.150543659459823
 10
-0.6222067659625985
 20
2.201135369384329
 42
-1.094733341550729
 10
-0.4103446969970808
 20
1.300721576280872
 10
-0.5162757314798388
 20
1.353687093522253
 42
-0.2360679774997886
 10
-0.6222067659625985
 20
1.512583645246397
 42
-0.1622776601683964
 10
-0.595724007341909
 20
1.671480196970528
 42
-0.5884033489985777
 10
-0.3573791797557018
 20
1.671480196970528
  0
LWPOLYLINE
  5
110
330
42
100
AcDbEntity
  8
0
100
AcDbPolyline
 90
        4
 70
     0
 43
0.0
 10
0.5158888128679795
 20
4.649636925610925
 42
-0.1610609250916919
 10
1.007039726572042
 20
4.471310406443029
 42
0.0111966996530643
 10
1.268751516319881
 20
4.27430425363625
 42
-0.1302187660354206
 10
1.812982227167855
 20
2.942652610763642
 42
-0.2765699645674269
  0
LWPOLYLINE
  5
116
330
42
100
AcDbEntity
  8
0
100
AcDbPolyline
 90
        5
 70
     0
 43
0.0
 10
2.688138061623607
 20
2.942652610763642
 10
1.416965647830503
 20
2.942652610763642
 42
0.4354747622324242
 10
1.416965647830503
 20
2.333549162487782
 10
2.688138061623607
 20
2.333549162487782
 42
0.4354747622324373
 10
2.688138061623607
 20
2.942652610763642
 42
-1.969171202318836
  0
LWPOLYLINE
  5
11D
330
42
100
AcDbEntity
  8
0
100
AcDbPolyline
 90
       10
 70
     0
 43
0.0
 10
1.476108512804747
 20
2.942652610763642
 42
0.0174858950987635
 10
1.443448406451194
 20
3.154514679729155
 42
0.2258243669491827
 10
0.8203534330099557
 20
4.233987897318673
 42
0.309363758957147
 10
0.2256196659590834
 20
4.255590696469256
 42
0.3130474975929145
 10
0.0398621995546424
 20
3.816583645246397
 42
-0.6770329614268863
 10
0.2443674766296358
 20
3.960098594010876
 42
-0.6891526216306558
 10
0.3090731135706957
 20
3.501380651456262
 42
-0.3742220707524617
 10
-0.2443812165014165
 20
3.620540573100807
 42
-0.2100314306204849
 10
-0.3259770097977448
 20
3.971381533916768
 42
-0.2698304342536298
 10
0.2213841974870725
 20
4.604803489187977
 42
0.0111966996530643
  0
LWPOLYLINE
  5
129
330
42
100
AcDbEntity
  8
0
100
AcDbPolyline
 90
        4
 70
     0
 43
0.0
 10
3.643708578149082
 20
4.606312625574187
 42
0.1610609250916916
 10
3.152557664445021
 20
4.427986106406292
 42
-0.0111966996530643
 10
2.890845874697179
 20
4.230979953599513
 42
0.1262620406736044
 10
2.352578255906465
 20
2.942652610763642
 42
0.2765699645674269
  0
LWPOLYLINE
  5
12F
330
42
100
AcDbEntity
  8
0
100
AcDbPolyline
 90
       10
 70
     0
 43
0.0
 10
2.688849339655721
 20
2.941989259920911
 42
-0.0139788163470912
 10
2.716148984565867
 20
3.111190379692418
 42
-0.2258243669491827
 10
3.339243958007104
 20
4.190663597281936
 42
-0.309363758957147
 10
3.93397772505798
 20
4.212266396432518
 42
-0.3130474975929145
 10
4.119735191462419
 20
3.773259345209661
 42
0.6770329614268863
 10
3.915229914387426
 20
3.916774293974139
 42
0.6891526216306558
 10
3.850524277446366
 20
3.458056351419525
 42
0.3742220707524617
 10
4.403978607518476
 20
3.57721627306407
 42
0.2100314306204849
 10
4.485574400814806
 20
3.92805723388003
 42
0.2697560601800678
 10
3.938431405376764
 20
4.561404157114556
 42
-0.0111966996530643
  0
LWPOLYLINE
  5
13B
330
42
100
AcDbEntity
  8
0
100
AcDbPolyline
 90
        5
 70
     0
 43
0.0
 10
4.305114501807247
 20
10.95008693141655
 42
0.3044047605175334
 10
5.549804156979659
 20
12.77739727624414
 42
0.1622776601683789
 10
5.179045536290002
 20
15.02843175900276
 42
0.2331695272360753
 10
3.748976570772763
 20
15.98181106934759
 42
0.3921140810086353
 10
2.403836802386763
 20
15.12472157628088
 42
0.0937040177625012
  0
LWPOLYLINE
  5
142
330
42
100
AcDbEntity
  8
0
100
AcDbPolyline
 90
       12
 70
     0
 43
0.0
 10
2.716148984565867
 20
15.05491451762345
 42
-0.5094572160290238
 10
4.305114501807247
 20
15.50512141417517
 42
-0.2013921399330494
 10
5.205528294910697
 20
14.07505244865793
 42
-0.1832840762310576
 10
4.914217950083108
 20
11.74456969003724
 42
-0.1871703721167118
 10
3.9078731224969
 20
11.16194900038207
 42
-0.309363758957147
 10
3.351735191462418
 20
11.37381106934759
 42
-0.3130474975929145
 10
3.351735191462418
 20
11.85050072451999
 42
0.6770329614268863
 10
3.484148984565868
 20
11.63863865555448
 42
0.6891526216306558
 10
3.722493812152075
 20
12.03588003486483
 42
0.3742220707524617
 10
3.16635588111759
 20
12.14181106934759
 42
0.2100314306204849
 10
2.954493812152074
 20
11.85050072451999
 42
0.5636067339487724
 10
3.987321398358966
 20
10.87063865555448
 42
-0.0111966996530643
  0
LWPOLYLINE
  5
150
330
42
100
AcDbEntity
  8
0
100
AcDbPolyline
 90
        5
 70
     0
 43
0.0
 10
-0.1455171107901858
 20
10.99341123145328
 42
-0.3044047605175334
 10
-1.390206765962597
 20
12.82072157628088
 42
-0.1622776601683789
 10
-1.019448145272942
 20
15.0717560590395
 42
-0.2331695272360753
 10
0.410620820244299
 20
16.02513536938432
 42
-0.4031134989716573
 10
1.766230372144324
 20
15.12472157628088
 42
-0.0937040177625012
  0
LWPOLYLINE
  5
157
330
42
100
AcDbEntity
  8
0
100
AcDbPolyline
 90
       12
 70
     0
 43
0.0
 10
1.443448406451194
 20
15.09823881766019
 42
0.5094572160290238
 10
-0.1455171107901858
 20
15.5484457142119
 42
0.2013921399330494
 10
-1.045930903893633
 20
14.11837674869467
 42
0.1832840762310576
 10
-0.754620559066046
 20
11.78789399007398
 42
0.1871703721167118
 10
0.2517242685201619
 20
11.20527330041881
 42
0.309363758957147
 10
0.8078621995546431
 20
11.41713536938432
 42
0.3130474975929145
 10
0.8078621995546431
 20
11.89382502455673
 42
-0.6770329614268863
 10
0.6754484064511939
 20
11.68196295559122
 42
-0.6891526216306558
 10
0.4371035788649867
 20
12.07920433490156
 42
-0.3742220707524617
 10
0.9932415098994713
 20
12.18513536938433
 42
-0.2100314306204849
 10
1.205103578864987
 20
11.89382502455673
 42
-0.5636067339487711
 10
0.1722759926580935
 20
10.91396295559121
 42
0.0111966996530643
  0
LWPOLYLINE
  5
165
330
42
100
AcDbEntity
  8
0
100
AcDbPolyline
 90
        9
 70
     0
 43
0.0
 10
1.770713773642501
 20
14.51561812800502
 42
-0.0237403261699376
 10
1.734758751278782
 20
14.35672157628087
 42
-0.3027756377319798
 10
1.364000130589124
 20
13.88003192110845
 42
-0.2787406574267223
 10
0.5165518547270552
 20
13.93299743834984
 42
-0.3569633781724317
 10
0.2782070271408497
 20
14.59506640386708
 42
-0.5077878606234485
 10
0.8078621995546431
 20
14.8069284728326
 42
-0.3473150835253774
 10
0.9402759926580905
 20
14.43616985214295
 42
-0.4119967323983806
 10
0.7813794409339519
 20
14.35672157628087
 42
0.1603347223975304
 10
0.6489656478305062
 20
14.35672157628087
 42
0.7285374698987214
  0
LWPOLYLINE
  5
170
330
42
100
AcDbEntity
  8
0
100
AcDbPolyline
 90
        5
 70
     0
 43
0.0
 10
2.688138061623607
 20
15.12472157628088
 10
1.416965647830503
 20
15.12472157628088
 42
0.4354747622324242
 10
1.416965647830503
 20
14.51561812800502
 10
2.688138061623607
 20
14.51561812800502
 42
0.4354747622324373
 10
2.688138061623607
 20
15.12472157628088
 42
-1.969171202318836
  0
LWPOLYLINE
  5
177
330
42
100
AcDbEntity
  8
0
100
AcDbPolyline
 90
        3
 70
     0
 43
0.0
 10
0.6489656478305062
 20
14.35672157628087
 42
0.3027756377320113
 10
0.7019311650718834
 20
14.17134226593605
 42
0.5985906750894932
 10
1.416965647830503
 20
14.51561812800502
 42
-0.0010577363267605
  0
LWPOLYLINE
  5
17C
330
42
100
AcDbEntity
  8
0
100
AcDbPolyline
 90
        9
 70
     0
 43
0.0
 10
2.381790922373133
 20
14.51561812800502
 42
0.0301389640414973
 10
2.424838639738279
 20
14.31339727624414
 42
0.3027756377319798
 10
2.795597260427937
 20
13.83670762107172
 42
0.2787406574267223
 10
3.643045536290005
 20
13.8896731383131
 42
0.3569633781724317
 10
3.881390363876212
 20
14.55174210383034
 42
0.5077878606234485
 10
3.351735191462418
 20
14.76360417279587
 42
0.3473150835253774
 10
3.219321398358973
 20
14.39284555210621
 42
0.4119967323983806
 10
3.37821795008311
 20
14.31339727624414
 42
-0.1603347223975304
 10
3.510631743186555
 20
14.31339727624414
 42
-0.7285374698987214
  0
LWPOLYLINE
  5
187
330
42
100
AcDbEntity
  8
0
100
AcDbPolyline
 90
        4
 70
     0
 43
0.0
 10
3.510631743186555
 20
14.31339727624414
 42
-0.3027756377320113
 10
3.457666225945176
 20
14.12801796589931
 42
-0.5985906750894926
 10
2.742631743186558
 20
14.47229382796828
 42
0.0001801869657166
 10
2.738294561790151
 20
14.57155200696483
 42
-0.5094572160290238
  0
ENDBLK
  5
18D
330
42
100
AcDbEntity
  8
0
100
AcDbBlockEnd
  0
BLOCK
  5
18E
330
CD
100
AcDbEntity
  8
0
100
AcDbBlockBegin
  2
*D1
 70
     1
 10
0.0
 20
0.0
 30
0.0
  3
*D1
  1

  0
LINE
  5
18F
330
CD
100
AcDbEntity
  8
0
  6
BYBLOCK
 62
     0
100
AcDbLine
 10
35.52893586947845
 20
-52.63867236642936
 30
0.0
 11
37.4473004457995
 21
-52.63867236642936
 31
0.0
  0
LINE
  5
190
330
CD
100
AcDbEntity
  8
0
  6
BYBLOCK
 62
     0
100
AcDbLine
 10
34.51831075114328
 20
-36.63867236642936
 30
0.0
 11
37.4473004457995
 21
-36.63867236642936
 31
0.0
  0
LINE
  5
191
330
CD
100
AcDbEntity
  8
0
  6
BYBLOCK
 62
     0
100
AcDbLine
 10
37.2673004457995
 20
-52.63867236642936
 30
0.0
 11
37.2673004457995
 21
-44.84700569976269
 31
0.0
  0
LINE
  5
192
330
CD
100
AcDbEntity
  8
0
  6
BYBLOCK
 62
     0
100
AcDbLine
 10
37.2673004457995
 20
-36.63867236642936
 30
0.0
 11
37.2673004457995
 21
-44.43033903309602
 31
0.0
  0
LINE
  5
193
330
CD
100
AcDbEntity
  8
0
  6
BYBLOCK
 62
     0
100
AcDbLine
 10
37.3923004457995
 20
-52.76367236642936
 30
0.0
 11
37.1423004457995
 21
-52.51367236642936
 31
0.0
  0
LINE
  5
194
330
CD
100
AcDbEntity
  8
0
  6
BYBLOCK
 62
     0
100
AcDbLine
 10
37.3923004457995
 20
-36.76367236642936
 30
0.0
 11
37.1423004457995
 21
-36.51367236642936
 31
0.0
  0
TEXT
  5
195
330
CD
100
AcDbEntity
  8
0
  6
BYBLOCK
 62
     0
100
AcDbText
 10
37.32980044579949
 20
-44.72200569976269
 30
0.0
 40
0.125
  1
16
 50
90.0
 72
     1
 11
37.2673004457995
 21
-44.63867236642935
 31
0.0
100
AcDbText
 73
     2
  0
POINT
  5
196
330
CD
100
AcDbEntity
  8
DEFPOINTS
  6
BYBLOCK
 62
     0
100
AcDbPoint
 10
35.46643586947846
 20
-52.63867236642936
 30
0.0
  0
POINT
  5
197
330
CD
100
AcDbEntity
  8
DEFPOINTS
  6
BYBLOCK
 62
     0
100
AcDbPoint
 10
34.45581075114328
 20
-36.63867236642936
 30
0.0
  0
POINT
  5
198
330
CD
100
AcDbEntity
  8
DEFPOINTS
  6
BYBLOCK
 62
     0
100
AcDbPoint
 10
37.2673004457995
 20
-36.63867236642936
 30
0.0
  0
ENDBLK
  5
199
330
CD
100
AcDbEntity
  8
0
100
AcDbBlockEnd
  0
BLOCK
  5
19A
330
CE
100
AcDbEntity
  8
0
100
AcDbBlockBegin
  2
*D2
 70
     1
 10
0.0
 20
0.0
 30
0.0
  3
*D2
  1

  0
LINE
  5
19B
330
CE
100
AcDbEntity
  8
0
  6
BYBLOCK
 62
     0
100
AcDbLine
 10
29.64852291537855
 20
-38.00079962614752
 30
0.0
 11
29.64852291537855
 21
-35.82336194803983
 31
0.0
  0
LINE
  5
19C
330
CE
100
AcDbEntity
  8
0
  6
BYBLOCK
 62
     0
100
AcDbLine
 10
36.64852291537854
 20
-38.00079962614752
 30
0.0
 11
36.64852291537854
 21
-35.82336194803983
 31
0.0
  0
LINE
  5
19D
330
CE
100
AcDbEntity
  8
0
  6
BYBLOCK
 62
     0
100
AcDbLine
 10
29.64852291537855
 20
-36.00336194803983
 30
0.0
 11
32.98185624871188
 21
-36.00336194803983
 31
0.0
  0
LINE
  5
19E
330
CE
100
AcDbEntity
  8
0
  6
BYBLOCK
 62
     0
100
AcDbLine
 10
36.64852291537854
 20
-36.00336194803983
 30
0.0
 11
33.31518958204521
 21
-36.00336194803983
 31
0.0
  0
LINE
  5
19F
330
CE
100
AcDbEntity
  8
0
  6
BYBLOCK
 62
     0
100
AcDbLine
 10
29.52352291537854
 20
-36.12836194803983
 30
0.0
 11
29.77352291537854
 21
-35.87836194803983
 31
0.0
  0
LINE
  5
1A0
330
CE
100
AcDbEntity
  8
0
  6
BYBLOCK
 62
     0
100
AcDbLine
 10
36.52352291537855
 20
-36.12836194803983
 30
0.0
 11
36.77352291537855
 21
-35.87836194803983
 31
0.0
  0
TEXT
  5
1A1
330
CE
100
AcDbEntity
  8
0
  6
BYBLOCK
 62
     0
100
AcDbText
 10
33.10685624871188
 20
-36.06586194803983
 30
0.0
 40
0.125
  1
7
 72
     1
 11
33.14852291537855
 21
-36.00336194803983
 31
0.0
100
AcDbText
 73
     2
  0
POINT
  5
1A2
330
CE
100
AcDbEntity
  8
DEFPOINTS
  6
BYBLOCK
 62
     0
100
AcDbPoint
 10
29.64852291537855
 20
-38.06329962614752
 30
0.0
  0
POINT
  5
1A3
330
CE
100
AcDbEntity
  8
DEFPOINTS
  6
BYBLOCK
 62
     0
100
AcDbPoint
 10
36.64852291537854
 20
-38.06329962614752
 30
0.0
  0
POINT
  5
1A4
330
CE
100
AcDbEntity
  8
DEFPOINTS
  6
BYBLOCK
 62
     0
100
AcDbPoint
 10
36.64852291537854
 20
-36.00336194803983
 30
0.0
  0
ENDBLK
  5
1A5
330
CE
100
AcDbEntity
  8
0
100
AcDbBlockEnd
  0
ENDSEC
  0
SECTION
  2
ENTITIES
  0
DIMENSION
  5
1A6
330
18
100
AcDbEntity
  8
ADPDIM
100
AcDbDimension
  2
*D2
 10
36.64852291537854
 20
-36.00336194803983
 30
0.0
 11
33.14852291537855
 21
-36.00336194803983
 31
0.0
100
AcDbAlignedDimension
 13
29.64852291537855
 23
-38.06329962614752
 33
0.0
 14
36.64852291537854
 24
-38.06329962614752
 34
0.0
100
AcDbRotatedDimension
  0
INSERT
  5
1A7
330
18
100
AcDbEntity
  8
ADP1DETAIL
100
AcDbBlockReference
  2
566
 10
31.09597106065149
 20
-52.59971665333164
 30
0.0
  0
DIMENSION
  5
1A8
330
18
100
AcDbEntity
  8
ADPDIM
100
AcDbDimension
  2
*D1
 10
37.2673004457995
 20
-36.63867236642936
 30
0.0
 11
37.2673004457995
 21
-44.63867236642935
 31
0.0
100
AcDbAlignedDimension
 13
35.46643586947846
 23
-52.63867236642936
 33
0.0
 14
34.45581075114328
 24
-36.63867236642936
 34
0.0
 50
90.0
100
AcDbRotatedDimension
  0
TEXT
  5
1B6
330
18
100
AcDbEntity
  8
ADPDIM
100
AcDbText
 10
13.86275333735674
 20
-53.75245318170225
 30
0.0
 40
0.375
  1
J U L I U S  B L U M  &  C O . ,  I N C .      ( 8 0 0 )  5 2 6 - 6 2 9 3        W W W . J U L I U S B L U M . C O M        P A R T  N o .  5 6 6
 41
1.25
  7
ARIAL_WIDE
 72
     1
 11
33.1668759499079
 21
-53.37745318170225
 31
0.0
100
AcDbText
 73
     3
  0
ENDSEC
  0
SECTION
  2
OBJECTS
  0
DICTIONARY
  5
C
330
0
100
AcDbDictionary
  3
ACAD_GROUP
350
D
  3
ACAD_LAYOUT
350
1AF
  3
ACAD_MLINESTYLE
350
E
  3
ACAD_PLOTSETTINGS
350
1B0
  3
ACAD_PLOTSTYLENAME
350
1AD
  3
ACDBHEADERROUNDTRIPXREC
350
2FE
  3
ACDBVARIABLEDICTIONARY
350
210
  0
DICTIONARY
  5
20A
330
18
100
AcDbDictionary
280
     1
  3
ACAD_LAYOUTSELFREF
360
31F
  0
DICTIONARY
  5
208
330
15
100
AcDbDictionary
280
     1
  3
ACAD_LAYOUTSELFREF
360
31E
  0
DICTIONARY
  5
D
102
{ACAD_REACTORS
330
C
102
}
330
C
100
AcDbDictionary
  0
DICTIONARY
  5
1AF
102
{ACAD_REACTORS
330
C
102
}
330
C
100
AcDbDictionary
  0
DICTIONARY
  5
E
102
{ACAD_REACTORS
330
C
102
}
330
C
100
AcDbDictionary
  3
STANDARD
350
1B
  0
DICTIONARY
  5
1B0
102
{ACAD_REACTORS
330
C
102
}
330
C
100
AcDbDictionary
  0
ACDBDICTIONARYWDFLT
  5
1AD
102
{ACAD_REACTORS
330
C
102
}
330
C
100
AcDbDictionary
281
     1
  3
Normal
350
1AE
100
AcDbDictionaryWithDefault
340
1AE
  0
DICTIONARY
  5
2FE
102
{ACAD_REACTORS
330
C
102
}
330
C
100
AcDbDictionary
  3
CEPSNTYPE
350
308
  3
FINGERPRINTGUID
350
309
  3
HYPERLINKBASE
350
301
  3
INSUNITS
350
307
  3
LAYOUTDICT
350
303
  3
LWETCUNION
350
306
  3
PLOTSETDICT
350
304
  3
PLOTSTYLNAMDICT
350
305
  3
PSVPSCALE
350
30B
  3
PUCSBASE
350
30E
  3
PUCSORGBACK
350
314
  3
PUCSORGBOTTOM
350
310
  3
PUCSORGFRONT
350
313
  3
PUCSORGLEFT
350
311
  3
PUCSORGRIGHT
350
312
  3
PUCSORGTOP
350
30F
  3
PUCSORTHOREF
350
30C
  3
PUCSORTHOVIEW
350
30D
  3
STYLESHEET
350
302
  3
TSTACKALIGN
350
2FF
  3
TSTACKSIZE
350
300
  3
UCSBASE
350
317
  3
UCSORGBACK
350
31D
  3
UCSORGBOTTOM
350
319
  3
UCSORGFRONT
350
31C
  3
UCSORGLEFT
350
31A
  3
UCSORGRIGHT
350
31B
  3
UCSORGTOP
350
318
  3
UCSORTHOREF
350
315
  3
UCSORTHOVIEW
350
316
  3
VERSIONGUID
350
30A
  0
DICTIONARY
  5
210
102
{ACAD_REACTORS
330
C
102
}
330
C
100
AcDbDictionary
  3
DIMASSOC
350
211
  0
XRECORD
  5
31F
102
{ACAD_REACTORS
330
20A
102
}
330
20A
100
AcDbXrecord
340
18
  0
XRECORD
  5
31E
102
{ACAD_REACTORS
330
208
102
}
330
208
100
AcDbXrecord
340
15
  0
MLINESTYLE
  5
1B
102
{ACAD_REACTORS
330
E
102
}
330
E
100
AcDbMlineStyle
  2
STANDARD
 70
     0
  3

 62
     0
 51
90.0
 52
90.0
 71
     2
 49
0.5
 62
   256
  6
BYLAYER
 49
-0.5
 62
   256
  6
BYLAYER
  0
ACDBPLACEHOLDER
  5
1AE
102
{ACAD_REACTORS
330
1AD
102
}
330
1AD
100
AcDbPlaceHolder
280
     0
  0
XRECORD
  5
308
102
{ACAD_REACTORS
330
2FE
102
}
330
2FE
100
AcDbXrecord
 90
        0
  0
XRECORD
  5
309
102
{ACAD_REACTORS
330
2FE
102
}
330
2FE
100
AcDbXrecord
  1
{703A9290-FB28-4B8A-B12D-E53789801B04}
  0
XRECORD
  5
301
102
{ACAD_REACTORS
330
2FE
102
}
330
2FE
100
AcDbXrecord
  1

  0
XRECORD
  5
307
102
{ACAD_REACTORS
330
2FE
102
}
330
2FE
100
AcDbXrecord
 90
        0
  0
XRECORD
  5
303
102
{ACAD_REACTORS
330
2FE
102
}
330
2FE
100
AcDbXrecord
340
1AF
  0
XRECORD
  5
306
102
{ACAD_REACTORS
330
2FE
102
}
330
2FE
100
AcDbXrecord
 90
    14877
  0
XRECORD
  5
304
102
{ACAD_REACTORS
330
2FE
102
}
330
2FE
100
AcDbXrecord
340
1B0
  0
XRECORD
  5
305
102
{ACAD_REACTORS
330
2FE
102
}
330
2FE
100
AcDbXrecord
340
1AD
  0
XRECORD
  5
30B
102
{ACAD_REACTORS
330
2FE
102
}
330
2FE
100
AcDbXrecord
 40
0.0
  0
XRECORD
  5
30E
102
{ACAD_REACTORS
330
2FE
102
}
330
2FE
100
AcDbXrecord
340
0
  0
XRECORD
  5
314
102
{ACAD_REACTORS
330
2FE
102
}
330
2FE
100
AcDbXrecord
 10
0.0
 20
0.0
 30
0.0
  0
XRECORD
  5
310
102
{ACAD_REACTORS
330
2FE
102
}
330
2FE
100
AcDbXrecord
 10
0.0
 20
0.0
 30
0.0
  0
XRECORD
  5
313
102
{ACAD_REACTORS
330
2FE
102
}
330
2FE
100
AcDbXrecord
 10
0.0
 20
0.0
 30
0.0
  0
XRECORD
  5
311
102
{ACAD_REACTORS
330
2FE
102
}
330
2FE
100
AcDbXrecord
 10
0.0
 20
0.0
 30
0.0
  0
XRECORD
  5
312
102
{ACAD_REACTORS
330
2FE
102
}
330
2FE
100
AcDbXrecord
 10
0.0
 20
0.0
 30
0.0
  0
XRECORD
  5
30F
102
{ACAD_REACTORS
330
2FE
102
}
330
2FE
100
AcDbXrecord
 10
0.0
 20
0.0
 30
0.0
  0
XRECORD
  5
30C
102
{ACAD_REACTORS
330
2FE
102
}
330
2FE
100
AcDbXrecord
340
0
  0
XRECORD
  5
30D
102
{ACAD_REACTORS
330
2FE
102
}
330
2FE
100
AcDbXrecord
 70
     0
  0
XRECORD
  5
302
102
{ACAD_REACTORS
330
2FE
102
}
330
2FE
100
AcDbXrecord
  1

  0
XRECORD
  5
2FF
102
{ACAD_REACTORS
330
2FE
102
}
330
2FE
100
AcDbXrecord
 90
        1
  0
XRECORD
  5
300
102
{ACAD_REACTORS
330
2FE
102
}
330
2FE
100
AcDbXrecord
 90
       70
  0
XRECORD
  5
317
102
{ACAD_REACTORS
330
2FE
102
}
330
2FE
100
AcDbXrecord
340
0
  0
XRECORD
  5
31D
102
{ACAD_REACTORS
330
2FE
102
}
330
2FE
100
AcDbXrecord
 10
0.0
 20
0.0
 30
0.0
  0
XRECORD
  5
319
102
{ACAD_REACTORS
330
2FE
102
}
330
2FE
100
AcDbXrecord
 10
0.0
 20
0.0
 30
0.0
  0
XRECORD
  5
31C
102
{ACAD_REACTORS
330
2FE
102
}
330
2FE
100
AcDbXrecord
 10
0.0
 20
0.0
 30
0.0
  0
XRECORD
  5
31A
102
{ACAD_REACTORS
330
2FE
102
}
330
2FE
100
AcDbXrecord
 10
0.0
 20
0.0
 30
0.0
  0
XRECORD
  5
31B
102
{ACAD_REACTORS
330
2FE
102
}
330
2FE
100
AcDbXrecord
 10
0.0
 20
0.0
 30
0.0
  0
XRECORD
  5
318
102
{ACAD_REACTORS
330
2FE
102
}
330
2FE
100
AcDbXrecord
 10
0.0
 20
0.0
 30
0.0
  0
XRECORD
  5
315
102
{ACAD_REACTORS
330
2FE
102
}
330
2FE
100
AcDbXrecord
340
0
  0
XRECORD
  5
316
102
{ACAD_REACTORS
330
2FE
102
}
330
2FE
100
AcDbXrecord
 70
     0
  0
XRECORD
  5
30A
102
{ACAD_REACTORS
330
2FE
102
}
330
2FE
100
AcDbXrecord
  1
{B0CCB607-460E-4080-8518-CB4A4F8108E6}
  0
DICTIONARYVAR
  5
211
102
{ACAD_REACTORS
330
210
102
}
330
210
100
DictionaryVariables
280
     0
  1
1
  0
ENDSEC
  0
EOF
