  0
SECTION
  2
HEADER
  9
$ACADVER
  1
AC1014
  9
$ACADMAINTVER
 70
     9
  9
$DWGCODEPAGE
  3
ANSI_1252
  9
$INSBASE
 10
14.06236906523742
 20
-51.61291334544365
 30
0.0
  9
$EXTMIN
 10
-5.18793848513112
 20
-54.1201220076779
 30
0.0
  9
$EXTMAX
 10
33.4203067399712
 20
-36.59585471843319
 30
0.0
  9
$LIMMIN
 10
0.0
 20
0.0
  9
$LIMMAX
 10
36.0
 20
36.0
  9
$ORTHOMODE
 70
     1
  9
$REGENMODE
 70
     1
  9
$FILLMODE
 70
     1
  9
$QTEXTMODE
 70
     0
  9
$MIRRTEXT
 70
     1
  9
$DRAGMODE
 70
     0
  9
$LTSCALE
 40
1.0
  9
$OSMODE
 70
    37
  9
$ATTMODE
 70
     1
  9
$TEXTSIZE
 40
0.2
  9
$TRACEWID
 40
0.05
  9
$TEXTSTYLE
  7
STANDARD
  9
$CLAYER
  8
ADPDIM
  9
$CELTYPE
  6
BYLAYER
  9
$CECOLOR
 62
   256
  9
$CELTSCALE
 40
1.0
  9
$DELOBJ
 70
     1
  9
$DISPSILH
 70
     0
  9
$DIMSCALE
 40
1.0
  9
$DIMASZ
 40
0.125
  9
$DIMEXO
 40
0.0625
  9
$DIMDLI
 40
0.38
  9
$DIMRND
 40
0.0
  9
$DIMDLE
 40
0.0
  9
$DIMEXE
 40
0.18
  9
$DIMTP
 40
0.0
  9
$DIMTM
 40
0.0
  9
$DIMTXT
 40
0.125
  9
$DIMCEN
 40
0.1875
  9
$DIMTSZ
 40
0.125
  9
$DIMTOL
 70
     0
  9
$DIMLIM
 70
     0
  9
$DIMTIH
 70
     0
  9
$DIMTOH
 70
     0
  9
$DIMSE1
 70
     0
  9
$DIMSE2
 70
     0
  9
$DIMTAD
 70
     0
  9
$DIMZIN
 70
     3
  9
$DIMBLK
  1

  9
$DIMASO
 70
     1
  9
$DIMSHO
 70
     1
  9
$DIMPOST
  1

  9
$DIMAPOST
  1

  9
$DIMALT
 70
     0
  9
$DIMALTD
 70
     1
  9
$DIMALTF
 40
25.4
  9
$DIMLFAC
 40
1.0
  9
$DIMTOFL
 70
     0
  9
$DIMTVP
 40
0.0
  9
$DIMTIX
 70
     0
  9
$DIMSOXD
 70
     0
  9
$DIMSAH
 70
     0
  9
$DIMBLK1
  1

  9
$DIMBLK2
  1

  9
$DIMSTYLE
  2
STANDARD
  9
$DIMCLRD
 70
     0
  9
$DIMCLRE
 70
     0
  9
$DIMCLRT
 70
     0
  9
$DIMTFAC
 40
1.0
  9
$DIMGAP
 40
0.125
  9
$DIMJUST
 70
     0
  9
$DIMSD1
 70
     0
  9
$DIMSD2
 70
     0
  9
$DIMTOLJ
 70
     1
  9
$DIMTZIN
 70
     0
  9
$DIMALTZ
 70
     0
  9
$DIMALTTZ
 70
     0
  9
$DIMFIT
 70
     3
  9
$DIMUPT
 70
     0
  9
$DIMUNIT
 70
     2
  9
$DIMDEC
 70
     4
  9
$DIMTDEC
 70
     4
  9
$DIMALTU
 70
     2
  9
$DIMALTTD
 70
     2
  9
$DIMTXSTY
  7
STANDARD
  9
$DIMAUNIT
 70
     0
  9
$LUNITS
 70
     5
  9
$LUPREC
 70
     4
  9
$SKETCHINC
 40
0.1
  9
$FILLETRAD
 40
0.062
  9
$AUNITS
 70
     0
  9
$AUPREC
 70
     0
  9
$MENU
  1
acad
  9
$ELEVATION
 40
0.0
  9
$PELEVATION
 40
0.0
  9
$THICKNESS
 40
0.0
  9
$LIMCHECK
 70
     0
  9
$BLIPMODE
 70
     0
  9
$CHAMFERA
 40
0.0
  9
$CHAMFERB
 40
0.0
  9
$CHAMFERC
 40
0.0
  9
$CHAMFERD
 40
0.0
  9
$SKPOLY
 70
     0
  9
$TDCREATE
 40
2450408.701625764
  9
$TDUPDATE
 40
2452297.073047951
  9
$TDINDWG
 40
0.0135886806
  9
$TDUSRTIMER
 40
0.0135886806
  9
$USRTIMER
 70
     1
  9
$ANGBASE
 50
0.0
  9
$ANGDIR
 70
     0
  9
$PDMODE
 70
     0
  9
$PDSIZE
 40
0.0
  9
$PLINEWID
 40
0.0
  9
$COORDS
 70
     2
  9
$SPLFRAME
 70
     0
  9
$SPLINETYPE
 70
     6
  9
$SPLINESEGS
 70
     8
  9
$ATTDIA
 70
     0
  9
$ATTREQ
 70
     1
  9
$HANDLING
 70
 22529
  9
$HANDSEED
  5
32B
  9
$SURFTAB1
 70
     6
  9
$SURFTAB2
 70
     6
  9
$SURFTYPE
 70
     6
  9
$SURFU
 70
     6
  9
$SURFV
 70
     6
  9
$UCSNAME
  2

  9
$UCSORG
 10
0.0
 20
0.0
 30
0.0
  9
$UCSXDIR
 10
1.0
 20
0.0
 30
0.0
  9
$UCSYDIR
 10
0.0
 20
1.0
 30
0.0
  9
$PUCSNAME
  2

  9
$PUCSORG
 10
0.0
 20
0.0
 30
0.0
  9
$PUCSXDIR
 10
1.0
 20
0.0
 30
0.0
  9
$PUCSYDIR
 10
0.0
 20
1.0
 30
0.0
  9
$USERI1
 70
     0
  9
$USERI2
 70
     0
  9
$USERI3
 70
     0
  9
$USERI4
 70
     0
  9
$USERI5
 70
     0
  9
$USERR1
 40
0.0
  9
$USERR2
 40
0.0
  9
$USERR3
 40
0.0
  9
$USERR4
 40
0.0
  9
$USERR5
 40
0.0
  9
$WORLDVIEW
 70
     1
  9
$SHADEDGE
 70
     3
  9
$SHADEDIF
 70
    70
  9
$TILEMODE
 70
     1
  9
$MAXACTVP
 70
    15
  9
$PINSBASE
 10
0.0
 20
0.0
 30
0.0
  9
$PLIMCHECK
 70
     0
  9
$PEXTMIN
 10
1.000000000000000E+20
 20
1.000000000000000E+20
 30
1.000000000000000E+20
  9
$PEXTMAX
 10
-1.000000000000000E+20
 20
-1.000000000000000E+20
 30
-1.000000000000000E+20
  9
$PLIMMIN
 10
0.0
 20
0.0
  9
$PLIMMAX
 10
12.0
 20
9.0
  9
$UNITMODE
 70
     0
  9
$VISRETAIN
 70
     0
  9
$PLINEGEN
 70
     0
  9
$PSLTSCALE
 70
     1
  9
$TREEDEPTH
 70
  3020
  9
$PICKSTYLE
 70
     1
  9
$CMLSTYLE
  2
STANDARD
  9
$CMLJUST
 70
     0
  9
$CMLSCALE
 40
1.0
  9
$PROXYGRAPHICS
 70
     1
  9
$MEASUREMENT
 70
     0
  0
ENDSEC
  0
SECTION
  2
CLASSES
  0
CLASS
  1
ACDBDICTIONARYWDFLT
  2
AcDbDictionaryWithDefault
  3
AutoCAD 2000
 90
        0
280
     0
281
     0
  0
CLASS
  1
ACDBPLACEHOLDER
  2
AcDbPlaceHolder
  3
AutoCAD 2000
 90
        0
280
     0
281
     0
  0
CLASS
  1
LAYOUT
  2
AcDbLayout
  3
AutoCAD 2000
 90
        0
280
     0
281
     0
  0
CLASS
  1
DICTIONARYVAR
  2
AcDbDictionaryVar
  3
AutoCAD 2000
 90
        0
280
     0
281
     0
  0
CLASS
  1
LONG_TRANSACTION
  2
AcDbLongTransaction
  3
AutoCAD 2000
 90
        0
280
     0
281
     0
  0
CLASS
  1
LWPOLYLINE
  2
AcDbPolyline
  3
AutoCAD 2000
 90
        0
280
     0
281
     1
  0
CLASS
  1
HATCH
  2
AcDbHatch
  3
AutoCAD 2000
 90
        0
280
     0
281
     1
  0
CLASS
  1
XRECORD
  2
AcDbXrecord
  3
AutoCAD 2000
 90
        0
280
     0
281
     0
  0
CLASS
  1
LONG_TRANSACTION
  2
AcDbLongTransaction
  3
AutoCAD 2000
 90
        0
280
     0
281
     0
  0
CLASS
  1
LWPOLYLINE
  2
AcDbPolyline
  3
AutoCAD 2000
 90
        0
280
     0
281
     1
  0
CLASS
  1
HATCH
  2
AcDbHatch
  3
AutoCAD 2000
 90
        0
280
     0
281
     1
  0
CLASS
  1
XRECORD
  2
AcDbXrecord
  3
AutoCAD 2000
 90
        0
280
     0
281
     0
  0
CLASS
  1
LONG_TRANSACTION
  2
AcDbLongTransaction
  3
AutoCAD 2000
 90
        0
280
     0
281
     0
  0
CLASS
  1
LWPOLYLINE
  2
AcDbPolyline
  3
AutoCAD 2000
 90
        0
280
     0
281
     1
  0
CLASS
  1
HATCH
  2
AcDbHatch
  3
AutoCAD 2000
 90
        0
280
     0
281
     1
  0
CLASS
  1
XRECORD
  2
AcDbXrecord
  3
AutoCAD 2000
 90
        0
280
     0
281
     0
  0
CLASS
  1
LONG_TRANSACTION
  2
AcDbLongTransaction
  3
AutoCAD 2000
 90
        0
280
     0
281
     0
  0
CLASS
  1
LWPOLYLINE
  2
AcDbPolyline
  3
AutoCAD 2000
 90
        0
280
     0
281
     1
  0
CLASS
  1
HATCH
  2
AcDbHatch
  3
AutoCAD 2000
 90
        0
280
     0
281
     1
  0
CLASS
  1
XRECORD
  2
AcDbXrecord
  3
AutoCAD 2000
 90
        0
280
     0
281
     0
  0
CLASS
  1
LONG_TRANSACTION
  2
AcDbLongTransaction
  3
AutoCAD 2000
 90
        0
280
     0
281
     0
  0
CLASS
  1
LWPOLYLINE
  2
AcDbPolyline
  3
AutoCAD 2000
 90
        0
280
     0
281
     1
  0
CLASS
  1
HATCH
  2
AcDbHatch
  3
AutoCAD 2000
 90
        0
280
     0
281
     1
  0
CLASS
  1
XRECORD
  2
AcDbXrecord
  3
AutoCAD 2000
 90
        0
280
     0
281
     0
  0
CLASS
  1
LONG_TRANSACTION
  2
AcDbLongTransaction
  3
AutoCAD 2000
 90
        0
280
     0
281
     0
  0
CLASS
  1
LWPOLYLINE
  2
AcDbPolyline
  3
AutoCAD 2000
 90
        0
280
     0
281
     1
  0
CLASS
  1
HATCH
  2
AcDbHatch
  3
AutoCAD 2000
 90
        0
280
     0
281
     1
  0
CLASS
  1
XRECORD
  2
AcDbXrecord
  3
AutoCAD 2000
 90
        0
280
     0
281
     0
  0
ENDSEC
  0
SECTION
  2
TABLES
  0
TABLE
  2
VPORT
  5
8
330
0
100
AcDbSymbolTable
 70
     2
  0
VPORT
  5
308
330
8
100
AcDbSymbolTableRecord
100
AcDbViewportTableRecord
  2
*ACTIVE
 70
     0
 10
0.0
 20
0.0
 11
1.0
 21
1.0
 12
14.14656117028735
 22
-45.35793950085869
 13
0.0
 23
0.0
 14
0.5740882589684922
 24
0.5740882589684922
 15
0.5
 25
0.5
 16
0.0
 26
0.0
 36
1.0
 17
0.0
 27
0.0
 37
0.0
 40
24.74320735678052
 41
1.570528967254407
 42
50.0
 43
0.0
 44
0.0
 50
0.0
 51
0.0
 71
     0
 72
   100
 73
     1
 74
     0
 75
     0
 76
     0
 77
     0
 78
     0
  0
ENDTAB
  0
TABLE
  2
LTYPE
  5
5
330
0
100
AcDbSymbolTable
 70
     1
  0
LTYPE
  5
12
330
5
100
AcDbSymbolTableRecord
100
AcDbLinetypeTableRecord
  2
BYBLOCK
 70
     0
  3

 72
    65
 73
     0
 40
0.0
  0
LTYPE
  5
13
330
5
100
AcDbSymbolTableRecord
100
AcDbLinetypeTableRecord
  2
BYLAYER
 70
     0
  3

 72
    65
 73
     0
 40
0.0
  0
LTYPE
  5
14
330
5
100
AcDbSymbolTableRecord
100
AcDbLinetypeTableRecord
  2
CONTINUOUS
 70
     0
  3
Solid line
 72
    65
 73
     0
 40
0.0
  0
ENDTAB
  0
TABLE
  2
LAYER
  5
2
330
0
100
AcDbSymbolTable
 70
     4
  0
LAYER
  5
F
330
2
100
AcDbSymbolTableRecord
100
AcDbLayerTableRecord
  2
0
 70
     0
 62
     7
  6
CONTINUOUS
  0
LAYER
  5
DA
330
2
100
AcDbSymbolTableRecord
100
AcDbLayerTableRecord
  2
ADP1DETAIL
 70
     0
 62
     7
  6
CONTINUOUS
  0
LAYER
  5
DC
330
2
100
AcDbSymbolTableRecord
100
AcDbLayerTableRecord
  2
DEFPOINTS
 70
     0
 62
     7
  6
CONTINUOUS
  0
LAYER
  5
DD
330
2
100
AcDbSymbolTableRecord
100
AcDbLayerTableRecord
  2
ADPDIM
 70
     0
 62
     3
  6
CONTINUOUS
  0
ENDTAB
  0
TABLE
  2
STYLE
  5
3
330
0
100
AcDbSymbolTable
 70
     2
  0
STYLE
  5
10
330
3
100
AcDbSymbolTableRecord
100
AcDbTextStyleTableRecord
  2
STANDARD
 70
     0
 40
0.0
 41
1.0
 50
0.0
 71
     0
 42
0.2
  3
txt
  4

  0
STYLE
  5
1C0
330
3
100
AcDbSymbolTableRecord
100
AcDbTextStyleTableRecord
  2
ARIAL_WIDE
 70
     0
 40
0.0
 41
1.25
 50
0.0
 71
     0
 42
0.2
  3
ARIAL.TTF
  4

1001
ACAD
1000
Arial
1071
       34
  0
ENDTAB
  0
TABLE
  2
VIEW
  5
6
330
0
100
AcDbSymbolTable
 70
     0
  0
ENDTAB
  0
TABLE
  2
UCS
  5
7
330
0
100
AcDbSymbolTable
 70
     0
  0
ENDTAB
  0
TABLE
  2
APPID
  5
9
330
0
100
AcDbSymbolTable
 70
     1
  0
APPID
  5
11
330
9
100
AcDbSymbolTableRecord
100
AcDbRegAppTableRecord
  2
ACAD
 70
     0
  0
ENDTAB
  0
TABLE
  2
DIMSTYLE
  5
A
330
0
100
AcDbSymbolTable
 70
     1
  0
DIMSTYLE
105
1B4
330
A
100
AcDbSymbolTableRecord
100
AcDbDimStyleTableRecord
  2
STANDARD
 70
     0
  3

  4

  5

  6

  7

 40
1.0
 41
0.18
 42
0.0625
 43
0.38
 44
0.18
 45
0.0
 46
0.0
 47
0.0
 48
0.0
140
0.18
141
0.09
142
0.0
143
25.4
144
1.0
145
0.0
146
1.0
147
0.09
 71
     0
 72
     0
 73
     1
 74
     1
 75
     0
 76
     0
 77
     0
 78
     0
170
     0
171
     2
172
     0
173
     0
174
     0
175
     0
176
     0
177
     0
178
     0
270
     2
271
     4
272
     4
273
     2
274
     2
340
10
275
     0
280
     0
281
     0
282
     0
283
     1
284
     0
285
     0
286
     0
287
     3
288
     0
  0
ENDTAB
  0
TABLE
  2
BLOCK_RECORD
  5
1
330
0
100
AcDbSymbolTable
 70
     3
  0
BLOCK_RECORD
  5
18
102
{ACAD_XDICTIONARY
360
215
102
}
330
1
100
AcDbSymbolTableRecord
100
AcDbBlockTableRecord
  2
*MODEL_SPACE
  0
BLOCK_RECORD
  5
15
102
{ACAD_XDICTIONARY
360
213
102
}
330
1
100
AcDbSymbolTableRecord
100
AcDbBlockTableRecord
  2
*PAPER_SPACE
  0
BLOCK_RECORD
  5
3E
330
1
100
AcDbSymbolTableRecord
100
AcDbBlockTableRecord
  2
565
  0
BLOCK_RECORD
  5
CF
330
1
100
AcDbSymbolTableRecord
100
AcDbBlockTableRecord
  2
*D1
  0
BLOCK_RECORD
  5
D6
330
1
100
AcDbSymbolTableRecord
100
AcDbBlockTableRecord
  2
*D2
  0
ENDTAB
  0
ENDSEC
  0
SECTION
  2
BLOCKS
  0
BLOCK
  5
E0
330
18
100
AcDbEntity
  8
0
100
AcDbBlockBegin
  2
*MODEL_SPACE
 70
     0
 10
0.0
 20
0.0
 30
0.0
  3
*MODEL_SPACE
  1

  0
ENDBLK
  5
E1
330
18
100
AcDbEntity
  8
0
100
AcDbBlockEnd
  0
BLOCK
  5
DE
330
15
100
AcDbEntity
 67
     1
  8
0
100
AcDbBlockBegin
  2
*PAPER_SPACE
 70
     0
 10
0.0
 20
0.0
 30
0.0
  3
*PAPER_SPACE
  1

  0
ENDBLK
  5
DF
330
15
100
AcDbEntity
 67
     1
  8
0
100
AcDbBlockEnd
  0
BLOCK
  5
E3
330
3E
100
AcDbEntity
  8
0
100
AcDbBlockBegin
  2
565
 70
     0
 10
0.0
 20
0.0
 30
0.0
  3
565
  1

  0
LWPOLYLINE
  5
E4
330
3E
100
AcDbEntity
  8
0
100
AcDbPolyline
 90
       18
 70
     0
 43
0.0
 10
2.042592327623805
 20
1.755527929352493
 42
-0.1448928370313869
 10
2.449060018419871
 20
2.356952561619339
 42
0.168738930127183
 10
2.905776436330317
 20
3.485310770574566
 42
0.0952550349149043
 10
2.502791361703451
 20
5.043519725798449
 42
0.1793213247744209
 10
3.416224197524347
 20
4.371877934753672
 42
0.4104873917419588
 10
4.652045093046737
 20
4.774863009380541
 42
0.525936655259342
 10
4.249060018419868
 20
5.527101815350685
 42
0.5615637239284757
 10
3.872940615434796
 20
5.043519725798449
 42
0.7707992434152987
 10
4.383388376628825
 20
5.097251069082029
 42
-0.3757351161049512
 10
4.195328675136288
 20
4.721131666096954
 42
-0.2134381100495689
 10
3.362492854240767
 20
4.747997337738747
 42
-0.2573076306446047
 10
1.884880913942258
 20
7.407698830276056
 42
0.3060800639217662
 10
3.926671958718376
 20
6.064415248186509
 42
0.3842387418320562
 10
5.269955540807933
 20
7.246504800425316
 42
0.444602487960688
 10
4.302791361703455
 20
8.428594352664122
 42
0.5932972316783772
 10
3.496821212449721
 20
7.54202718848501
 42
0.5782566852155453
 10
4.114731660210914
 20
7.461430173559643
 42
0.986070451571366
 10
3.738612257225839
 20
7.756952561619345
 42
-1.16940402540263
  0
LWPOLYLINE
  5
F8
330
3E
100
AcDbEntity
  8
0
100
AcDbPolyline
 90
        7
 70
     0
 43
0.0
 10
3.550552555733304
 20
13.13008688997755
 42
-0.3312616604071785
 10
3.013239122897481
 20
13.21068390490293
 42
-0.4059292881479049
 10
3.040104794539275
 20
14.20471375564919
 42
-0.4334335745882047
 10
4.813239122897485
 20
14.12411674072382
 42
-0.3692207215876039
 10
4.813239122897485
 20
11.4912809198283
 42
-0.2902020627803457
 10
1.643089869166141
 20
10.22859435266411
 10
1.63829265601434
 20
9.580970577171074
 42
0.0702792995148469
  0
LWPOLYLINE
  5
101
330
3E
100
AcDbEntity
  8
0
100
AcDbPolyline
 90
        5
 70
     0
 43
0.0
 10
3.738612257225839
 20
7.756952561619345
 42
-0.8021716063658811
 10
4.920701809464645
 20
7.54202718848501
 42
-0.5215558095799766
 10
3.846074943793006
 20
6.41366897952979
 42
-0.394163180620229
 10
2.019209272151215
 20
8.186803307887993
 10
2.009281611074728
 20
8.812245955706575
 42
0.196628252483755
  0
LWPOLYLINE
  5
108
330
3E
100
AcDbEntity
  8
0
100
AcDbPolyline
 90
       10
 70
     0
 43
0.0
 10
1.997079632956243
 20
9.580970577171072
 10
1.992343600509422
 20
9.87934062132083
 42
0.196628252483755
 10
4.625179421404947
 20
10.76590778549994
 42
0.2491919059408416
 10
5.646074943793008
 20
12.96889286012681
 42
0.391920902257025
 10
3.846074943793006
 20
14.87635554669397
 42
0.4531840985580516
 10
2.449060018419871
 20
13.53307196460441
 42
0.449977182646668
 10
3.416224197524347
 20
12.72710181535068
 42
0.5467933150667149
 10
3.872940615434796
 20
13.37187793475367
 42
0.5601393023165234
 10
3.38935852588256
 20
13.45247494967904
 42
0.6684004355095016
 10
3.550552555733304
 20
13.13008688997755
 42
12.5989922672808
  0
LWPOLYLINE
  5
114
330
3E
100
AcDbEntity
  8
0
100
AcDbPolyline
 90
       18
 70
     0
 43
0.0
 10
0.6790578055771195
 20
1.755527929352493
 42
0.1448928370313868
 10
0.2725901147810545
 20
2.356952561619339
 42
-0.168738930127183
 10
-0.1841263031293914
 20
3.485310770574566
 42
-0.0952550349149043
 10
0.2188587714974743
 20
5.043519725798449
 42
-0.1793213247744209
 10
-0.6945740643234211
 20
4.371877934753672
 42
-0.4104873917419588
 10
-1.930394959845811
 20
4.774863009380541
 42
-0.525936655259342
 10
-1.527409885218942
 20
5.527101815350685
 42
-0.5615637239284757
 10
-1.15129048223387
 20
5.043519725798449
 42
-0.7707992434152987
 10
-1.6617382434279
 20
5.097251069082029
 42
0.3757351161049512
 10
-1.473678541935362
 20
4.721131666096954
 42
0.2134381100495689
 10
-0.6408427210398409
 20
4.747997337738747
 42
0.2573076306446047
 10
0.836769219258668
 20
7.407698830276056
 42
-0.3060800639217662
 10
-1.20502182551745
 20
6.064415248186509
 42
-0.3842387418320562
 10
-2.548305407607005
 20
7.246504800425316
 42
-0.444602487960688
 10
-1.581141228502529
 20
8.428594352664122
 42
-0.5932972316783772
 10
-0.775171079248795
 20
7.54202718848501
 42
-0.5782566852155453
 10
-1.393081527009988
 20
7.461430173559643
 42
-0.986070451571366
 10
-1.016962124024912
 20
7.756952561619345
 42
1.16940402540263
  0
LWPOLYLINE
  5
128
330
3E
100
AcDbEntity
  8
0
100
AcDbPolyline
 90
        2
 70
     0
 43
0.0
 10
1.632598399559049
 20
8.812245955706577
 10
1.61622419752435
 20
6.601728681022332
 42
0.0702792995148469
  0
LWPOLYLINE
  5
12C
330
3E
100
AcDbEntity
  8
0
100
AcDbPolyline
 90
        2
 70
     0
 43
0.0
 10
1.089051733641878
 20
8.812245955706575
 10
1.105425935676576
 20
6.601728681022332
 42
-0.0702792995148469
  0
LWPOLYLINE
  5
130
330
3E
100
AcDbEntity
  8
0
100
AcDbPolyline
 90
        5
 70
     0
 43
0.0
 10
-1.016962124024912
 20
7.756952561619345
 42
0.8021716063658811
 10
-2.19905167626372
 20
7.54202718848501
 42
0.5215558095799766
 10
-1.12442481059208
 20
6.41366897952979
 42
0.394163180620229
 10
0.7024408610497104
 20
8.186803307887993
 10
0.7123685221261971
 20
8.812245955706577
 42
-0.196628252483755
  0
LWPOLYLINE
  5
137
330
3E
100
AcDbEntity
  8
0
100
AcDbPolyline
 90
        5
 70
     0
 43
0.0
 10
1.091070286461981
 20
0.9868033078879985
 42
-0.2127719481220001
 10
0.5949781744825465
 20
0.1002361437089003
 42
-0.3788308658878162
 10
0.0307990700049365
 20
0.0733704720671066
 42
-1.115102297145894
 10
0.0845304132885168
 20
0.1271018153506868
 42
0.3860989647685537
 10
0.6960621208621705
 20
0.9868033078879985
 42
-0.0085767920770898
  0
LWPOLYLINE
  5
13E
330
3E
100
AcDbEntity
  8
0
100
AcDbPolyline
 90
        5
 70
     0
 43
0.0
 10
1.630579846738944
 20
0.9868033078879985
 42
0.2127719481220001
 10
2.126671958718379
 20
0.1002361437089003
 42
0.3788308658878162
 10
2.690851063195989
 20
0.0733704720671066
 42
1.115102297145894
 10
2.637119719912409
 20
0.1271018153506868
 42
-0.3860989647685539
 10
2.025588012338755
 20
0.9868033078879985
 42
0.0085767920770898
  0
LWPOLYLINE
  5
145
330
3E
100
AcDbEntity
  8
0
100
AcDbPolyline
 90
        6
 70
     0
 43
0.0
 10
1.105425935676576
 20
6.601728681022332
 42
-0.1268671223776316
 10
1.024828920751202
 20
6.279340621320836
 10
0.2994557864228447
 20
4.371877934753672
 42
0.0996114615010417
 10
0.1382617565721005
 20
3.404713755649192
 42
0.2538624149241231
 10
0.7024408610497104
 20
2.383818233261133
 42
-0.1161720348663794
 10
1.031356029697751
 20
1.755527929352493
 42
-0.0394089729259588
  0
ARC
  5
14D
330
3E
100
AcDbEntity
  8
0
100
AcDbCircle
 10
-0.4679491245063599
 20
5.795325214484038
 30
0.0
 40
1.018291008911986
100
AcDbArc
 50
312.4130945205734
 51
344.7277742497497
  0
LWPOLYLINE
  5
14E
330
3E
100
AcDbEntity
  8
0
100
AcDbPolyline
 90
        6
 70
     0
 43
0.0
 10
1.61622419752435
 20
6.601728681022332
 42
0.1268671223776316
 10
1.696821212449724
 20
6.279340621320836
 10
2.422194346778081
 20
4.371877934753672
 42
-0.0996114615010417
 10
2.583388376628825
 20
3.404713755649192
 42
-0.2538624149241231
 10
2.019209272151215
 20
2.383818233261133
 42
0.1161720348663794
 10
1.690294103503174
 20
1.755527929352493
 42
0.2815775994874499
  0
LWPOLYLINE
  5
156
330
3E
100
AcDbEntity
  8
0
100
AcDbPolyline
 90
        4
 70
     0
 43
0.0
 10
0.6618001860287697
 20
1.114513749707333
 10
0.6618001860287697
 20
0.9868033078879985
 10
2.06536803570579
 20
0.9868033078879985
 10
2.06536803570579
 20
1.114664012029215
  0
LWPOLYLINE
  5
15C
330
3E
100
AcDbEntity
  8
0
100
AcDbPolyline
 90
        3
 70
     0
 43
0.0
 10
2.06536803570579
 20
1.62298268124396
 10
2.06536803570579
 20
1.755527929352493
 10
0.6618001860287697
 20
1.755527929352493
  0
LWPOLYLINE
  5
161
330
3E
100
AcDbEntity
  8
0
100
AcDbPolyline
 90
        5
 70
     0
 43
0.0
 10
2.061318621621235
 20
1.624047227233602
 10
0.6668442604162803
 20
1.624047227233602
 42
0.8434713961158511
 10
0.6668442604162803
 20
1.113599466039572
 10
2.061318621621235
 20
1.113599466039572
 42
0.7774466868704037
 10
2.061318621621235
 20
1.624047227233602
  0
LWPOLYLINE
  5
168
330
3E
100
AcDbEntity
  8
0
100
AcDbPolyline
 90
        2
 70
     0
 43
0.0
 10
0.6618001860287697
 20
1.755527929352493
 10
0.6618001860287697
 20
1.623132943565841
  0
ARC
  5
16C
330
3E
100
AcDbEntity
  8
0
100
AcDbCircle
 10
3.189599257707286
 20
5.795325214484038
 30
0.0
 40
1.018291008911986
100
AcDbArc
 50
195.2722257502502
 51
227.5869054794266
  0
LWPOLYLINE
  5
16D
330
3E
100
AcDbEntity
  8
0
100
AcDbPolyline
 90
        7
 70
     0
 43
0.0
 10
-0.8289024225323785
 20
13.13008688997755
 42
0.3312616604071785
 10
-0.2915889896965553
 20
13.21068390490293
 42
0.4059292881479049
 10
-0.318454661338349
 20
14.20471375564919
 42
0.4334335745882047
 10
-2.091588989696559
 20
14.12411674072382
 42
0.3692207215876039
 10
-2.091588989696559
 20
11.4912809198283
 42
0.2902020627803457
 10
1.078560264034785
 20
10.22859435266411
 10
1.083357477186586
 20
9.580970577171072
 42
-0.0702792995148469
  0
LWPOLYLINE
  5
176
330
3E
100
AcDbEntity
  8
0
100
AcDbPolyline
 90
       10
 70
     0
 43
0.0
 10
0.7245705002446821
 20
9.580970577171072
 10
0.7293065326915041
 20
9.87934062132083
 42
-0.196628252483755
 10
-1.903529288204021
 20
10.76590778549994
 42
-0.2491919059408416
 10
-2.924424810592081
 20
12.96889286012681
 42
-0.391920902257025
 10
-1.12442481059208
 20
14.87635554669397
 42
-0.4531840985580516
 10
0.2725901147810545
 20
13.53307196460441
 42
-0.449977182646668
 10
-0.6945740643234211
 20
12.72710181535068
 42
-0.5467933150667149
 10
-1.15129048223387
 20
13.37187793475367
 42
-0.5601393023165234
 10
-0.6677083926816345
 20
13.45247494967904
 42
-0.6684004355095016
 10
-0.8289024225323785
 20
13.13008688997755
 42
-12.5989922672808
  0
LWPOLYLINE
  5
182
330
3E
100
AcDbEntity
  8
0
100
AcDbPolyline
 90
        3
 70
     0
 43
0.0
 10
2.027589700489111
 20
9.444911546597852
 10
2.027589700489111
 20
9.580970577171072
 10
0.6705311150204097
 20
9.580970577171072
  0
LWPOLYLINE
  5
187
330
3E
100
AcDbEntity
  8
0
100
AcDbPolyline
 90
        4
 70
     0
 43
0.0
 10
0.6705311150204097
 20
8.939956397525913
 10
0.6705311150204097
 20
8.812245955706577
 10
2.027589700489111
 20
8.812245955706577
 10
2.027589700489111
 20
8.940635367685617
  0
LWPOLYLINE
  5
18D
330
3E
100
AcDbEntity
  8
0
100
AcDbPolyline
 90
        5
 70
     0
 43
0.0
 10
1.991993099855681
 20
9.449489875052181
 10
0.6755751894079203
 20
9.449489875052181
 42
0.8434713961158511
 10
0.6755751894079203
 20
8.939042113858151
 10
2.018858771497471
 20
8.939042113858151
 42
0.8950427931263893
 10
1.991993099855681
 20
9.449489875052181
 42
0.0290452434254127
  0
LWPOLYLINE
  5
194
330
3E
100
AcDbEntity
  8
0
100
AcDbPolyline
 90
        2
 70
     0
 43
0.0
 10
0.6705311150204097
 20
9.580970577171072
 10
0.6705311150204097
 20
9.44857559138442
  0
ENDBLK
  5
198
330
3E
100
AcDbEntity
  8
0
100
AcDbBlockEnd
  0
BLOCK
  5
199
330
CF
100
AcDbEntity
  8
0
100
AcDbBlockBegin
  2
*D1
 70
     1
 10
0.0
 20
0.0
 30
0.0
  3
*D1
  1

  0
LINE
  5
19A
330
CF
100
AcDbEntity
  8
0
  6
BYBLOCK
 62
     0
100
AcDbLine
 10
21.4598644701438
 20
-37.59698145772254
 30
0.0
 11
21.4598644701438
 21
-35.65331949584719
 31
0.0
  0
LINE
  5
19B
330
CF
100
AcDbEntity
  8
0
  6
BYBLOCK
 62
     0
100
AcDbLine
 10
29.9598644701438
 20
-37.59698145772254
 30
0.0
 11
29.9598644701438
 21
-35.65331949584719
 31
0.0
  0
LINE
  5
19C
330
CF
100
AcDbEntity
  8
0
  6
BYBLOCK
 62
     0
100
AcDbLine
 10
21.4598644701438
 20
-35.83331949584719
 30
0.0
 11
25.31403113681047
 21
-35.83331949584719
 31
0.0
  0
LINE
  5
19D
330
CF
100
AcDbEntity
  8
0
  6
BYBLOCK
 62
     0
100
AcDbLine
 10
29.9598644701438
 20
-35.83331949584719
 30
0.0
 11
26.10569780347713
 21
-35.83331949584719
 31
0.0
  0
LINE
  5
19E
330
CF
100
AcDbEntity
  8
0
  6
BYBLOCK
 62
     0
100
AcDbLine
 10
21.3348644701438
 20
-35.95831949584719
 30
0.0
 11
21.5848644701438
 21
-35.70831949584719
 31
0.0
  0
LINE
  5
19F
330
CF
100
AcDbEntity
  8
0
  6
BYBLOCK
 62
     0
100
AcDbLine
 10
29.8348644701438
 20
-35.95831949584719
 30
0.0
 11
30.0848644701438
 21
-35.70831949584719
 31
0.0
  0
TEXT
  5
1A0
330
CF
100
AcDbEntity
  8
0
  6
BYBLOCK
 62
     0
100
AcDbText
 10
25.43903113681047
 20
-35.89581949584719
 30
0.0
 40
0.125
  1
8 1/2
 72
     1
 11
25.7098644701438
 21
-35.83331949584719
 31
0.0
100
AcDbText
 73
     2
  0
POINT
  5
1A1
330
CF
100
AcDbEntity
  8
DEFPOINTS
  6
BYBLOCK
 62
     0
100
AcDbPoint
 10
21.4598644701438
 20
-37.65948145772255
 30
0.0
  0
POINT
  5
1A2
330
CF
100
AcDbEntity
  8
DEFPOINTS
  6
BYBLOCK
 62
     0
100
AcDbPoint
 10
29.9598644701438
 20
-37.65948145772255
 30
0.0
  0
POINT
  5
1A3
330
CF
100
AcDbEntity
  8
DEFPOINTS
  6
BYBLOCK
 62
     0
100
AcDbPoint
 10
29.9598644701438
 20
-35.83331949584719
 30
0.0
  0
ENDBLK
  5
1A4
330
CF
100
AcDbEntity
  8
0
100
AcDbBlockEnd
  0
BLOCK
  5
1A5
330
D6
100
AcDbEntity
  8
0
100
AcDbBlockBegin
  2
*D2
 70
     1
 10
0.0
 20
0.0
 30
0.0
  3
*D2
  1

  0
LINE
  5
1A6
330
D6
100
AcDbEntity
  8
0
  6
BYBLOCK
 62
     0
100
AcDbLine
 10
15.16495769250196
 20
-52.61977757477618
 30
0.0
 11
19.22401506432015
 21
-52.61977757477618
 31
0.0
  0
LINE
  5
1A7
330
D6
100
AcDbEntity
  8
0
  6
BYBLOCK
 62
     0
100
AcDbLine
 10
16.51389615984091
 20
-37.61977757477618
 30
0.0
 11
19.22401506432015
 21
-37.61977757477618
 31
0.0
  0
LINE
  5
1A8
330
D6
100
AcDbEntity
  8
0
  6
BYBLOCK
 62
     0
100
AcDbLine
 10
19.04401506432015
 20
-52.61977757477618
 30
0.0
 11
19.04401506432015
 21
-45.32811090810951
 31
0.0
  0
LINE
  5
1A9
330
D6
100
AcDbEntity
  8
0
  6
BYBLOCK
 62
     0
100
AcDbLine
 10
19.04401506432015
 20
-37.61977757477618
 30
0.0
 11
19.04401506432015
 21
-44.91144424144284
 31
0.0
  0
LINE
  5
1AA
330
D6
100
AcDbEntity
  8
0
  6
BYBLOCK
 62
     0
100
AcDbLine
 10
19.16901506432015
 20
-52.74477757477618
 30
0.0
 11
18.91901506432015
 21
-52.49477757477618
 31
0.0
  0
LINE
  5
1AB
330
D6
100
AcDbEntity
  8
0
  6
BYBLOCK
 62
     0
100
AcDbLine
 10
19.16901506432015
 20
-37.74477757477618
 30
0.0
 11
18.91901506432015
 21
-37.49477757477618
 31
0.0
  0
TEXT
  5
1AC
330
D6
100
AcDbEntity
  8
0
  6
BYBLOCK
 62
     0
100
AcDbText
 10
19.10651506432015
 20
-45.20311090810952
 30
0.0
 40
0.125
  1
15
 50
90.0
 72
     1
 11
19.04401506432015
 21
-45.11977757477618
 31
0.0
100
AcDbText
 73
     2
  0
POINT
  5
1AD
330
D6
100
AcDbEntity
  8
DEFPOINTS
  6
BYBLOCK
 62
     0
100
AcDbPoint
 10
15.10245769250196
 20
-52.61977757477618
 30
0.0
  0
POINT
  5
1AE
330
D6
100
AcDbEntity
  8
DEFPOINTS
  6
BYBLOCK
 62
     0
100
AcDbPoint
 10
16.45139615984091
 20
-37.61977757477618
 30
0.0
  0
POINT
  5
1AF
330
D6
100
AcDbEntity
  8
DEFPOINTS
  6
BYBLOCK
 62
     0
100
AcDbPoint
 10
19.04401506432015
 20
-37.61977757477618
 30
0.0
  0
ENDBLK
  5
1B0
330
D6
100
AcDbEntity
  8
0
100
AcDbBlockEnd
  0
ENDSEC
  0
SECTION
  2
ENTITIES
  0
DIMENSION
  5
1B1
330
18
100
AcDbEntity
  8
ADPDIM
100
AcDbDimension
  2
*D1
 10
18.29784536212489
 20
-36.77585471843319
 30
0.0
 11
14.04784536212489
 21
-36.77585471843319
 31
0.0
 12
-11.6620191080189
 22
-0.9425352225860024
 32
0.0
100
AcDbAlignedDimension
 13
9.797845362124895
 23
-38.60201668030855
 33
0.0
 14
18.29784536212489
 24
-38.60201668030855
 34
0.0
100
AcDbRotatedDimension
  0
INSERT
  5
1B2
330
18
100
AcDbEntity
  8
ADP1DETAIL
100
AcDbBlockReference
  2
565
 10
12.69878495437014
 20
-52.59971665333164
 30
0.0
  0
DIMENSION
  5
1B3
330
18
100
AcDbEntity
  8
ADPDIM
100
AcDbDimension
  2
*D2
 10
19.04401506432015
 20
-37.61977757477618
 30
0.0
 11
19.04401506432015
 21
-45.11977757477618
 31
0.0
100
AcDbAlignedDimension
 13
15.10245769250196
 23
-52.61977757477618
 33
0.0
 14
16.45139615984091
 24
-37.61977757477618
 34
0.0
 50
90.0
100
AcDbRotatedDimension
  0
TEXT
  5
1C1
330
18
100
AcDbEntity
  8
ADPDIM
100
AcDbText
 10
-5.18793848513112
 20
-54.00910563660015
 30
0.0
 40
0.375
  1
J U L I U S  B L U M  &  C O . ,  I N C .      ( 8 0 0 )  5 2 6 - 6 2 9 3        W W W . J U L I U S B L U M . C O M        P A R T  N o .  5 6 5
 41
1.25
  7
ARIAL_WIDE
 72
     1
 11
14.11618412742004
 21
-53.63410563660014
 31
0.0
100
AcDbText
 73
     3
  0
ENDSEC
  0
SECTION
  2
OBJECTS
  0
DICTIONARY
  5
C
330
0
100
AcDbDictionary
  3
ACAD_GROUP
350
D
  3
ACAD_LAYOUT
350
1BA
  3
ACAD_MLINESTYLE
350
E
  3
ACAD_PLOTSETTINGS
350
1BB
  3
ACAD_PLOTSTYLENAME
350
1B8
  3
ACDBHEADERROUNDTRIPXREC
350
309
  3
ACDBVARIABLEDICTIONARY
350
21B
  0
DICTIONARY
  5
215
330
18
100
AcDbDictionary
280
     1
  3
ACAD_LAYOUTSELFREF
360
32A
  0
DICTIONARY
  5
213
330
15
100
AcDbDictionary
280
     1
  3
ACAD_LAYOUTSELFREF
360
329
  0
DICTIONARY
  5
D
102
{ACAD_REACTORS
330
C
102
}
330
C
100
AcDbDictionary
  0
DICTIONARY
  5
1BA
102
{ACAD_REACTORS
330
C
102
}
330
C
100
AcDbDictionary
  0
DICTIONARY
  5
E
102
{ACAD_REACTORS
330
C
102
}
330
C
100
AcDbDictionary
  3
STANDARD
350
1B
  0
DICTIONARY
  5
1BB
102
{ACAD_REACTORS
330
C
102
}
330
C
100
AcDbDictionary
  0
ACDBDICTIONARYWDFLT
  5
1B8
102
{ACAD_REACTORS
330
C
102
}
330
C
100
AcDbDictionary
281
     1
  3
Normal
350
1B9
100
AcDbDictionaryWithDefault
340
1B9
  0
DICTIONARY
  5
309
102
{ACAD_REACTORS
330
C
102
}
330
C
100
AcDbDictionary
  3
CEPSNTYPE
350
313
  3
FINGERPRINTGUID
350
314
  3
HYPERLINKBASE
350
30C
  3
INSUNITS
350
312
  3
LAYOUTDICT
350
30E
  3
LWETCUNION
350
311
  3
PLOTSETDICT
350
30F
  3
PLOTSTYLNAMDICT
350
310
  3
PSVPSCALE
350
316
  3
PUCSBASE
350
319
  3
PUCSORGBACK
350
31F
  3
PUCSORGBOTTOM
350
31B
  3
PUCSORGFRONT
350
31E
  3
PUCSORGLEFT
350
31C
  3
PUCSORGRIGHT
350
31D
  3
PUCSORGTOP
350
31A
  3
PUCSORTHOREF
350
317
  3
PUCSORTHOVIEW
350
318
  3
STYLESHEET
350
30D
  3
TSTACKALIGN
350
30A
  3
TSTACKSIZE
350
30B
  3
UCSBASE
350
322
  3
UCSORGBACK
350
328
  3
UCSORGBOTTOM
350
324
  3
UCSORGFRONT
350
327
  3
UCSORGLEFT
350
325
  3
UCSORGRIGHT
350
326
  3
UCSORGTOP
350
323
  3
UCSORTHOREF
350
320
  3
UCSORTHOVIEW
350
321
  3
VERSIONGUID
350
315
  0
DICTIONARY
  5
21B
102
{ACAD_REACTORS
330
C
102
}
330
C
100
AcDbDictionary
  3
DIMASSOC
350
21C
  0
XRECORD
  5
32A
102
{ACAD_REACTORS
330
215
102
}
330
215
100
AcDbXrecord
340
18
  0
XRECORD
  5
329
102
{ACAD_REACTORS
330
213
102
}
330
213
100
AcDbXrecord
340
15
  0
MLINESTYLE
  5
1B
102
{ACAD_REACTORS
330
E
102
}
330
E
100
AcDbMlineStyle
  2
STANDARD
 70
     0
  3

 62
     0
 51
90.0
 52
90.0
 71
     2
 49
0.5
 62
   256
  6
BYLAYER
 49
-0.5
 62
   256
  6
BYLAYER
  0
ACDBPLACEHOLDER
  5
1B9
102
{ACAD_REACTORS
330
1B8
102
}
330
1B8
100
AcDbPlaceHolder
280
     0
  0
XRECORD
  5
313
102
{ACAD_REACTORS
330
309
102
}
330
309
100
AcDbXrecord
 90
        0
  0
XRECORD
  5
314
102
{ACAD_REACTORS
330
309
102
}
330
309
100
AcDbXrecord
  1
{72C68685-C1E4-4B1A-8C5F-0DD697A3382E}
  0
XRECORD
  5
30C
102
{ACAD_REACTORS
330
309
102
}
330
309
100
AcDbXrecord
  1

  0
XRECORD
  5
312
102
{ACAD_REACTORS
330
309
102
}
330
309
100
AcDbXrecord
 90
        0
  0
XRECORD
  5
30E
102
{ACAD_REACTORS
330
309
102
}
330
309
100
AcDbXrecord
340
1BA
  0
XRECORD
  5
311
102
{ACAD_REACTORS
330
309
102
}
330
309
100
AcDbXrecord
 90
    14877
  0
XRECORD
  5
30F
102
{ACAD_REACTORS
330
309
102
}
330
309
100
AcDbXrecord
340
1BB
  0
XRECORD
  5
310
102
{ACAD_REACTORS
330
309
102
}
330
309
100
AcDbXrecord
340
1B8
  0
XRECORD
  5
316
102
{ACAD_REACTORS
330
309
102
}
330
309
100
AcDbXrecord
 40
0.0
  0
XRECORD
  5
319
102
{ACAD_REACTORS
330
309
102
}
330
309
100
AcDbXrecord
340
0
  0
XRECORD
  5
31F
102
{ACAD_REACTORS
330
309
102
}
330
309
100
AcDbXrecord
 10
0.0
 20
0.0
 30
0.0
  0
XRECORD
  5
31B
102
{ACAD_REACTORS
330
309
102
}
330
309
100
AcDbXrecord
 10
0.0
 20
0.0
 30
0.0
  0
XRECORD
  5
31E
102
{ACAD_REACTORS
330
309
102
}
330
309
100
AcDbXrecord
 10
0.0
 20
0.0
 30
0.0
  0
XRECORD
  5
31C
102
{ACAD_REACTORS
330
309
102
}
330
309
100
AcDbXrecord
 10
0.0
 20
0.0
 30
0.0
  0
XRECORD
  5
31D
102
{ACAD_REACTORS
330
309
102
}
330
309
100
AcDbXrecord
 10
0.0
 20
0.0
 30
0.0
  0
XRECORD
  5
31A
102
{ACAD_REACTORS
330
309
102
}
330
309
100
AcDbXrecord
 10
0.0
 20
0.0
 30
0.0
  0
XRECORD
  5
317
102
{ACAD_REACTORS
330
309
102
}
330
309
100
AcDbXrecord
340
0
  0
XRECORD
  5
318
102
{ACAD_REACTORS
330
309
102
}
330
309
100
AcDbXrecord
 70
     0
  0
XRECORD
  5
30D
102
{ACAD_REACTORS
330
309
102
}
330
309
100
AcDbXrecord
  1

  0
XRECORD
  5
30A
102
{ACAD_REACTORS
330
309
102
}
330
309
100
AcDbXrecord
 90
        1
  0
XRECORD
  5
30B
102
{ACAD_REACTORS
330
309
102
}
330
309
100
AcDbXrecord
 90
       70
  0
XRECORD
  5
322
102
{ACAD_REACTORS
330
309
102
}
330
309
100
AcDbXrecord
340
0
  0
XRECORD
  5
328
102
{ACAD_REACTORS
330
309
102
}
330
309
100
AcDbXrecord
 10
0.0
 20
0.0
 30
0.0
  0
XRECORD
  5
324
102
{ACAD_REACTORS
330
309
102
}
330
309
100
AcDbXrecord
 10
0.0
 20
0.0
 30
0.0
  0
XRECORD
  5
327
102
{ACAD_REACTORS
330
309
102
}
330
309
100
AcDbXrecord
 10
0.0
 20
0.0
 30
0.0
  0
XRECORD
  5
325
102
{ACAD_REACTORS
330
309
102
}
330
309
100
AcDbXrecord
 10
0.0
 20
0.0
 30
0.0
  0
XRECORD
  5
326
102
{ACAD_REACTORS
330
309
102
}
330
309
100
AcDbXrecord
 10
0.0
 20
0.0
 30
0.0
  0
XRECORD
  5
323
102
{ACAD_REACTORS
330
309
102
}
330
309
100
AcDbXrecord
 10
0.0
 20
0.0
 30
0.0
  0
XRECORD
  5
320
102
{ACAD_REACTORS
330
309
102
}
330
309
100
AcDbXrecord
340
0
  0
XRECORD
  5
321
102
{ACAD_REACTORS
330
309
102
}
330
309
100
AcDbXrecord
 70
     0
  0
XRECORD
  5
315
102
{ACAD_REACTORS
330
309
102
}
330
309
100
AcDbXrecord
  1
{C8065233-E8DF-4B9A-87B4-7CAC7BD81CD2}
  0
DICTIONARYVAR
  5
21C
102
{ACAD_REACTORS
330
21B
102
}
330
21B
100
DictionaryVariables
280
     0
  1
1
  0
ENDSEC
  0
EOF
